osu file format v14

[General]
AudioFilename: audio.mp3
AudioLeadIn: 0
PreviewTime: 55863
Countdown: 0
SampleSet: Soft
StackLeniency: 0.5
Mode: 0
LetterboxInBreaks: 0
WidescreenStoryboard: 0

[Editor]
Bookmarks: 104922,150098
DistanceSpacing: 2.2
BeatDivisor: 4
GridSize: 4
TimelineZoom: 1

[Metadata]
Title:POP/STARS (feat. Madison Beer, (G)I-DLE, Jaira Burns)
TitleUnicode:POP/STARS (feat. Madison Beer, (G)I-DLE, Jaira Burns)
Artist:K/DA
ArtistUnicode:K/DA
Creator:Lilyanna
Version:POPSTARS
Source:League of Legends
Tags:kpop k-pop popstar popstars kda kaisa riot games worlds 2018 miyeon soyeon (여자)아이들 gidle g_idle Mitsuna- Aro
BeatmapID:1828249
BeatmapSetID:873639

[Difficulty]
HPDrainRate:7
CircleSize:4.5
OverallDifficulty:8
ApproachRate:9
SliderMultiplier:3
SliderTickRate:1

[Events]
//Background and Video events
Video,0,"kda.mp4"
0,0,"KDA_Marquee_Selfie.jpg",0,0
//Break Periods
2,139004,149498
2,161416,162557
//Storyboard Layer 0 (Background)
//Storyboard Layer 1 (Fail)
//Storyboard Layer 2 (Pass)
//Storyboard Layer 3 (Foreground)
//Storyboard Sound Samples

[TimingPoints]
6099,705.882352941176,4,2,1,50,1,0
11393,-1000,4,2,1,50,0,0
11569,-1000,4,2,1,5,0,0
11746,-100,4,2,1,50,0,0
16334,-66.6666666666667,4,2,1,50,0,0
16687,-50,4,2,1,50,0,0
17040,-40,4,2,1,50,0,0
17393,-100,4,2,1,50,0,0
21981,-66.6666666666667,4,2,1,50,0,0
22334,-50,4,2,1,50,0,0
22687,-40,4,2,1,50,0,0
23040,-100,4,2,1,50,0,0
27981,-125,4,2,1,50,0,0
28510,-125,4,2,1,5,0,0
28687,-100,4,2,1,50,0,0
33275,-66.6666666666667,4,2,1,50,0,0
33628,-50,4,2,1,50,0,0
33981,-40,4,2,1,50,0,0
34334,-133.333333333333,4,2,1,50,0,0
36451,-133.333333333333,4,2,0,50,0,0
36981,-133.333333333333,4,2,1,5,0,0
37157,-117.647058823529,4,2,1,50,0,0
39275,-133.333333333333,4,2,0,50,0,0
39804,-133.333333333333,4,2,1,5,0,0
39981,-105.263157894737,4,2,1,50,0,0
42098,-133.333333333333,4,2,0,50,0,0
42628,-133.333333333333,4,2,1,5,0,0
42804,-95.2380952380952,4,2,1,50,0,0
44922,-133.333333333333,4,2,0,50,0,0
45628,-100,4,2,1,50,0,0
55863,-100,4,2,1,50,0,0
55951,-100,4,2,1,50,0,0
56040,-100,4,2,1,50,0,0
56128,-100,4,2,1,50,0,0
56216,-100,4,2,1,50,0,0
56304,-100,4,2,1,50,0,0
56393,-100,4,2,1,50,0,0
56481,-100,4,2,1,50,0,0
56569,-100,4,2,1,50,0,0
56657,-100,4,2,1,50,0,0
56746,-100,4,2,1,50,0,0
56834,-100,4,2,1,50,0,0
56922,-35.7142857142857,4,2,1,75,0,1
57275,-55.5555555555556,4,2,1,75,0,1
59746,-100,4,2,1,75,0,1
62569,-35.7142857142857,4,2,1,75,0,1
62922,-55.5555555555556,4,2,1,75,0,1
65393,-100,4,2,1,75,0,1
73598,-100,4,2,1,5,0,1
73863,-100,4,2,1,75,0,1
78098,-40,4,2,1,75,0,1
78451,-166.666666666667,4,2,1,75,0,1
79510,-100,4,2,1,75,0,0
82334,-166.666666666667,4,2,1,60,0,0
105628,-133.333333333333,4,2,1,60,0,0
107040,-133.333333333333,4,2,0,50,0,0
107569,-133.333333333333,4,2,1,5,0,0
107746,-117.647058823529,4,2,1,60,0,0
109863,-133.333333333333,4,2,0,50,0,0
110569,-100,4,2,1,60,0,0
116216,-40,4,2,1,75,0,1
116569,-55.5555555555556,4,2,1,75,0,1
119040,-100,4,2,1,75,0,1
121863,-40,4,2,1,75,0,1
122216,-55.5555555555556,4,2,1,75,0,1
124687,-100,4,2,1,75,0,1
132893,-100,4,2,1,5,0,1
133157,-100,4,2,1,75,0,1
137392,-40,4,2,1,75,0,1
137745,-166.666666666667,4,2,1,75,0,1
138804,-100,4,2,1,50,0,0
163157,-55.5555555555556,4,2,1,50,0,0
163246,-100,4,2,1,50,0,0
163334,-55.5555555555556,4,2,1,50,0,0
163422,-100,4,2,1,50,0,0
163510,-55.5555555555556,4,2,1,50,0,0
163598,-100,4,2,1,50,0,0
163687,-55.5555555555556,4,2,1,50,0,0
163775,-100,4,2,1,50,0,0
163863,-55.5555555555556,4,2,1,50,0,0
163951,-100,4,2,1,50,0,0
164040,-55.5555555555556,4,2,1,50,0,0
164128,-100,4,2,1,50,0,0
164216,-40,4,2,1,75,0,1
164569,-55.5555555555556,4,2,1,75,0,1
167040,-100,4,2,1,75,0,1
169863,-40,4,2,1,75,0,1
170216,-55.5555555555556,4,2,1,75,0,1
172687,-100,4,2,1,75,0,1
180893,-100,4,2,1,5,0,1
181157,-100,4,2,1,75,0,1
185392,-40,4,2,1,75,0,1
185745,-166.666666666667,4,2,1,75,0,1
186804,-100,4,2,1,75,0,0

[Colours]
Combo1 : 255,4,130
Combo2 : 205,155,255
Combo3 : 255,173,91
Combo4 : 255,136,255
Combo5 : 255,255,40
Combo6 : 51,189,255

[HitObjects]
391,78,6099,6,0,P|379:129|388:165,1,75,4|0,0:0|0:0,0:0:0:0:
437,289,6451,2,0,P|449:238|440:202,1,75,0|0,0:0|0:0,0:0:0:0:
295,210,6804,1,0,0:0:0:0:
258,220,6981,1,0,0:0:0:0:
222,232,7157,1,0,0:0:0:0:
185,241,7334,1,0,0:0:0:0:
121,78,7510,6,0,P|133:129|124:165,1,75,0|0,0:0|0:0,0:0:0:0:
75,289,7863,2,0,P|63:238|72:202,1,75,0|0,0:0|0:0,0:0:0:0:
217,210,8215,1,0,0:0:0:0:
254,220,8392,1,0,0:0:0:0:
290,232,8568,1,0,0:0:0:0:
327,241,8745,1,0,0:0:0:0:
389,71,8922,6,0,P|376:112|383:156,1,75,0|0,0:0|0:0,0:0:0:0:
458,119,9275,1,0,0:0:0:0:
300,130,9451,1,0,0:0:0:0:
405,294,9628,2,0,P|418:253|411:209,1,75,0|0,0:0|0:0,0:0:0:0:
389,71,9981,2,0,P|376:112|383:156,1,75,0|0,0:0|0:0,0:0:0:0:
458,119,10334,5,2,0:0:0:0:
338,250,10510,1,2,0:0:0:0:
475,104,10687,1,2,0:0:0:0:
325,267,10863,1,2,0:0:0:0:
244,66,11040,1,0,0:0:0:0:
244,66,11393,6,0,L|232:69,1,7.5,0|0,0:0|0:0,0:0:0:0:
145,143,11746,6,0,P|123:85|131:52,1,75,4|0,3:0|0:0,0:0:0:0:
244,66,12098,1,0,0:0:0:0:
36,136,12275,1,0,0:0:0:0:
160,231,12451,2,0,P|100:213|78:187,1,75,8|0,0:0|0:0,0:0:0:0:
352,153,12804,2,0,P|411:170|433:196,1,75,0|0,3:0|0:0,0:0:0:0:
346,256,13157,5,0,0:0:0:0:
331,43,13334,1,0,3:0:0:0:
331,43,13510,2,0,P|271:58|239:47,1,75,0|0,3:0|0:0,0:0:0:0:
147,38,13863,1,8,0:0:0:0:
280,178,14040,1,0,0:0:0:0:
259,56,14216,1,0,0:0:0:0:
150,230,14393,1,0,0:0:0:0:
67,142,14569,6,0,L|169:129,1,75,0|0,3:0|0:0,0:0:0:0:
150,230,14922,1,0,0:0:0:0:
150,230,15098,1,0,0:0:0:0:
147,38,15275,1,8,0:0:0:0:
147,38,15451,1,0,0:0:0:0:
315,157,15628,2,0,L|240:166,1,75,0|0,3:0|0:0,0:0:0:0:
404,35,15981,2,0,P|390:75|398:125,1,75,0|0,0:0|3:0,0:0:0:0:
251,271,16334,6,0,L|371:255,1,112.500004291535,0|0,3:0|0:0,0:0:0:0:
404,35,16687,6,0,P|390:75|437:189,1,150,8|0,0:0|0:0,0:0:0:0:
176,279,17040,6,0,L|381:253,1,187.5,0|0,0:0|0:0,0:0:0:0:
488,295,17393,5,4,3:0:0:0:
320,132,17569,1,2,0:0:0:0:
244,137,17746,1,2,0:0:0:0:
169,139,17922,1,2,0:0:0:0:
71,79,18098,2,0,P|73:25|85:0,1,75,8|0,0:0|0:0,0:0:0:0:
166,253,18451,2,0,P|164:307|152:332,1,75,0|0,3:0|0:0,0:0:0:0:
71,264,18804,5,0,0:0:0:0:
266,223,18981,1,0,3:0:0:0:
266,223,19157,2,0,P|268:169|280:144,1,75,0|0,3:0|0:0,0:0:0:0:
420,29,19510,2,0,P|418:83|406:108,1,75,8|0,0:0|0:0,0:0:0:0:
330,46,19863,1,0,0:0:0:0:
358,200,20040,1,0,0:0:0:0:
186,101,20216,5,0,3:0:0:0:
258,311,20393,1,2,0:0:0:0:
257,290,20481,1,2,0:0:0:0:
256,271,20569,1,2,0:0:0:0:
358,200,20746,1,0,0:0:0:0:
168,317,20922,2,0,L|165:234,1,75,8|0,0:0|0:0,0:0:0:0:
31,57,21275,2,0,L|33:131,1,75,0|0,3:0|0:0,0:0:0:0:
193,163,21628,6,0,P|132:163|104:191,1,75,0|0,0:0|3:0,0:0:0:0:
272,138,21981,6,0,P|232:92|173:79,1,112.500004291535,0|0,3:0|0:0,0:0:0:0:
348,180,22334,6,0,P|357:120|309:45,1,150,8|0,0:0|0:0,0:0:0:0:
364,265,22687,6,0,P|415:234|430:81,1,187.5,0|0,3:0|0:0,0:0:0:0:
312,47,23040,5,4,3:0:0:0:
278,234,23216,1,2,0:0:0:0:
202,239,23393,1,2,0:0:0:0:
127,241,23569,1,2,0:0:0:0:
72,75,23746,2,0,P|77:126|69:168,1,75,8|0,0:0|0:0,0:0:0:0:
22,238,24098,1,0,3:0:0:0:
161,127,24275,1,0,0:0:0:0:
73,342,24451,5,0,0:0:0:0:
234,211,24628,1,0,3:0:0:0:
234,211,24804,2,0,P|275:217|328:200,1,75,0|0,3:0|0:0,0:0:0:0:
261,355,25157,2,0,P|285:321|335:296,1,75,8|0,0:0|0:0,0:0:0:0:
401,308,25510,2,0,P|400:266|423:216,1,75,0|0,0:0|0:0,0:0:0:0:
470,59,25863,5,4,3:0:0:0:
307,210,26040,1,2,0:0:0:0:
231,215,26217,1,2,2:0:0:0:
156,217,26393,1,2,2:0:0:0:
66,35,26569,2,0,L|61:125,1,75,8|0,0:0|2:0,0:0:0:0:
143,297,26922,2,0,L|138:222,1,75,0|0,3:0|0:0,0:0:0:0:
50,215,27275,5,0,2:0:0:0:
167,96,27451,1,0,3:0:0:0:
167,96,27628,2,0,L|251:101,1,75,0|0,3:0|2:0,0:0:0:0:
368,37,27981,6,0,L|331:43,2,30,8|0|0,0:0|0:0|0:0,0:0:0:0:
406,135,28334,2,0,L|465:125,1,60,0|0,0:0|0:0,0:0:0:0:
435,327,28687,5,4,3:0:0:0:
310,171,28863,1,2,0:0:0:0:
234,166,29040,1,2,0:0:0:0:
159,164,29216,1,2,0:0:0:0:
53,315,29393,2,0,L|63:222,1,75,8|0,0:0|0:0,0:0:0:0:
145,56,29746,2,0,L|136:130,1,75,0|0,3:0|0:0,0:0:0:0:
35,144,30098,5,0,0:0:0:0:
172,311,30275,1,0,3:0:0:0:
172,311,30451,2,0,L|182:218,1,75,0|0,3:0|0:0,0:0:0:0:
281,241,30804,1,8,0:0:0:0:
144,140,30981,1,0,0:0:0:0:
180,236,31157,1,0,0:0:0:0:
321,145,31334,1,0,0:0:0:0:
234,24,31510,5,2,0:0:0:0:
233,45,31598,1,2,0:0:0:0:
232,64,31686,1,2,0:0:0:0:
144,140,31863,1,0,0:0:0:0:
321,145,32040,1,0,0:0:0:0:
192,318,32216,2,0,L|197:229,1,75,8|0,0:0|0:0,0:0:0:0:
144,140,32569,1,0,3:0:0:0:
321,145,32746,1,0,0:0:0:0:
63,102,32922,6,0,P|116:113|139:140,1,75,0|0,0:0|3:0,0:0:0:0:
437,79,33275,6,0,P|384:90|337:135,1,112.500004291535,0|0,3:0|0:0,0:0:0:0:
64,303,33628,6,0,P|128:294|191:235,1,150,8|0,0:0|0:0,0:0:0:0:
455,326,33981,6,0,P|386:313|304:226,1,187.5,0|0,3:0|0:0,0:0:0:0:
323,54,34334,6,0,B|287:85|258:82|258:82|243:123|259:157|259:157|165:136|152:57|152:57|148:142|92:212|92:212|88:136|43:84|43:84|111:79,1,675.000025749207,6|8,0:0|0:2,0:0:0:0:
427,313,37157,6,0,B|375:250|327:264|327:264|377:261|420:216|420:216|386:158|293:178|293:178|317:110|255:75|255:75|347:85|446:31|446:31|409:55|397:118,1,765.000014591217,6|8,0:0|0:0,0:0:0:0:
197,299,39981,6,0,B|145:283|97:283|57:328|57:328|75:296|97:178|51:134|51:134|94:176|195:206|195:206|220:112|199:36|199:36|212:97|311:190,1,854.999977169037,6|8,0:0|0:0,0:0:0:0:
290,170,42804,6,0,P|266:232|359:192,1,236.249992790222,6|0,0:0|0:0,0:0:0:0:
433,53,43687,1,0,0:0:0:0:
401,68,43863,1,0,0:0:0:0:
318,27,44040,1,0,0:0:0:0:
251,90,44216,5,0,0:0:0:0:
140,50,44393,1,0,0:0:0:0:
183,168,44569,1,0,0:0:0:0:
32,166,44746,1,0,0:0:0:0:
146,317,44922,2,0,P|118:272|98:263,1,56.2500021457673,8|0,0:0|0:0,0:0:0:0:
59,344,45275,1,0,0:0:0:0:
183,168,45451,1,0,0:0:0:0:
183,168,45628,6,0,L|340:151,1,150,0|0,1:0|0:0,0:0:0:0:
410,139,46157,1,0,1:0:0:0:
256,247,46334,2,0,L|354:237,1,75,0|0,3:0|0:0,0:0:0:0:
260,71,46687,2,0,L|185:78,1,75,0|0,1:0|0:0,0:0:0:0:
271,260,47040,6,0,L|369:250,1,75,0|0,1:0|0:0,0:0:0:0:
429,238,47393,1,0,0:0:0:0:
327,349,47569,1,0,1:0:0:0:
393,136,47746,1,0,3:0:0:0:
372,135,47834,1,0,0:0:0:0:
351,134,47922,1,0,0:0:0:0:
271,260,48098,2,0,L|369:250,1,75,0|0,1:0|0:0,0:0:0:0:
107,62,48451,6,0,L|124:219,1,150,0|0,1:0|0:0,0:0:0:0:
136,289,48980,1,0,1:0:0:0:
28,135,49157,2,0,L|38:233,1,75,0|0,3:0|0:0,0:0:0:0:
204,139,49510,2,0,L|196:64,1,75,0|0,1:0|0:0,0:0:0:0:
393,69,49863,6,0,L|385:143,1,75,0|0,1:0|0:0,0:0:0:0:
213,56,50216,1,0,0:0:0:0:
383,164,50393,1,0,1:0:0:0:
281,323,50569,2,0,L|287:234,1,75,0|0,3:0|0:0,0:0:0:0:
206,165,50922,1,0,1:0:0:0:
383,164,51098,1,0,1:0:0:0:
286,60,51275,5,0,1:0:0:0:
440,315,51628,1,0,1:0:0:0:
133,118,51981,1,0,1:0:0:0:
440,315,52334,1,0,1:0:0:0:
53,235,52687,1,0,1:0:0:0:
440,315,53040,1,0,1:0:0:0:
57,366,53393,1,0,1:0:0:0:
440,315,53746,1,0,1:0:0:0:
412,79,54098,5,0,3:0:0:0:
300,197,54275,1,0,3:0:0:0:
452,294,54451,1,0,1:0:0:0:
383,57,54628,1,0,1:0:0:0:
329,317,54805,5,0,3:0:0:0:
143,155,54981,1,0,3:0:0:0:
358,31,55157,1,0,1:0:0:0:
357,302,55334,1,0,1:0:0:0:
210,212,55863,6,0,L|256:233,1,37.5,2|0,3:0|0:0,0:0:0:0:
245,137,56040,2,0,L|285:107,1,37.5,2|0,3:0|0:0,0:0:0:0:
198,68,56216,2,0,L|191:21,1,37.5,2|0,3:0|0:0,0:0:0:0:
110,72,56393,2,0,L|70:58,1,37.5,2|0,3:0|0:0,0:0:0:0:
69,148,56569,2,0,L|37:191,1,37.5,2|0,3:0|0:0,0:0:0:0:
120,223,56746,2,0,L|144:274,1,37.5,2|0,3:0|0:0,0:0:0:0:
337,305,56922,6,0,B|374:189|374:189|431:267,1,209.999993591309,4|0,0:0|0:0,0:0:0:0:
481,201,57275,6,0,L|401:82,1,134.999995880127,2|0,0:0|0:0,0:0:0:0:
287,34,57628,2,0,L|260:171,1,134.999995880127,8|0,0:0|0:0,0:0:0:0:
499,192,57981,2,0,L|419:77,1,134.999995880127,0|0,3:0|0:0,0:0:0:0:
272,32,58334,2,0,L|243:174,1,134.999995880127,2|0,0:0|0:0,0:0:0:0:
512,171,58687,2,0,L|424:59,1,134.999995880127,0|0,3:0|0:0,0:0:0:0:
256,33,59040,2,0,L|222:185,1,134.999995880127,8|0,0:0|0:0,0:0:0:0:
113,52,59393,1,0,0:0:0:0:
342,46,59569,1,0,0:0:0:0:
114,289,59746,6,0,L|139:215,1,75,0|0,3:0|0:0,0:0:0:0:
342,46,60098,1,0,0:0:0:0:
113,52,60274,1,0,0:0:0:0:
159,225,60451,1,8,0:0:0:0:
228,63,60628,1,0,0:0:0:0:
76,46,60804,1,0,3:0:0:0:
178,229,60981,1,0,0:0:0:0:
429,28,61157,6,0,L|355:53,1,75,0|0,0:0|0:0,0:0:0:0:
264,280,61510,1,0,3:0:0:0:
146,89,61687,1,0,0:0:0:0:
343,172,61863,1,8,0:0:0:0:
102,233,62040,1,0,0:0:0:0:
253,36,62216,1,0,3:0:0:0:
275,298,62393,1,0,0:0:0:0:
67,35,62569,6,0,B|87:81|146:90|146:90|67:110|54:188,1,209.999993591309,4|0,0:0|0:0,0:0:0:0:
188,282,62922,6,0,P|198:212|248:169,1,134.999995880127,2|0,0:0|0:0,0:0:0:0:
394,73,63275,2,0,P|389:126|336:193,1,134.999995880127,8|0,0:0|0:0,0:0:0:0:
141,137,63628,2,0,P|183:103|272:98,1,134.999995880127,0|0,3:0|0:0,0:0:0:0:
473,216,63981,2,0,P|429:248|335:264,1,134.999995880127,2|0,0:0|0:0,0:0:0:0:
219,2,64334,2,0,P|271:10|343:77,1,134.999995880127,0|0,3:0|0:0,0:0:0:0:
416,378,64687,2,0,P|362:367|291:312,1,134.999995880127,8|0,0:0|0:0,0:0:0:0:
230,96,65040,1,0,0:0:0:0:
288,287,65216,1,0,0:0:0:0:
373,31,65393,5,0,3:0:0:0:
373,31,65746,1,0,0:0:0:0:
298,260,65923,1,0,0:0:0:0:
230,96,66099,1,8,0:0:0:0:
171,228,66275,1,0,0:0:0:0:
403,178,66451,1,0,3:0:0:0:
200,74,66628,1,0,0:0:0:0:
295,292,66804,5,0,0:0:0:0:
39,221,66981,1,0,3:0:0:0:
39,221,67157,2,0,P|81:200|118:202,1,75,0|0,3:0|0:0,0:0:0:0:
388,284,67510,2,0,P|346:305|309:303,1,75,8|0,0:0|0:0,0:0:0:0:
379,23,67863,1,2,0:0:0:0:
374,41,67951,1,2,0:0:0:0:
374,59,68040,1,2,0:0:0:0:
377,77,68128,1,2,0:0:0:0:
381,95,68216,6,0,P|341:91|319:237,1,225,4|0,0:0|0:0,0:0:0:0:
355,168,68922,1,8,0:0:0:0:
355,168,69275,1,0,3:0:0:0:
219,276,69451,1,0,0:0:0:0:
92,164,69628,5,0,0:0:0:0:
92,164,69804,2,0,P|86:114|95:87,1,75,0|0,3:0|3:0,0:0:0:0:
248,30,70157,1,0,0:0:0:0:
248,30,70334,2,0,P|254:80|245:107,1,75,8|0,0:0|0:0,0:0:0:0:
357,46,70687,1,0,0:0:0:0:
236,123,70863,1,0,0:0:0:0:
34,44,71040,6,0,P|74:40|96:186,1,225,0|0,3:0|0:0,0:0:0:0:
60,117,71746,1,8,0:0:0:0:
60,117,72098,1,0,3:0:0:0:
166,261,72274,1,0,0:0:0:0:
322,156,72451,5,0,0:0:0:0:
322,156,72628,2,0,P|328:106|319:79,1,75,0|0,3:0|3:0,0:0:0:0:
148,52,72980,1,0,0:0:0:0:
148,52,73157,2,0,P|142:102|151:129,1,75,8|0,0:0|0:0,0:0:0:0:
447,34,73510,2,0,L|410:41,1,37.5,2|0,0:0|0:0,0:0:0:0:
98,187,73863,5,0,3:0:0:0:
379,248,74040,1,2,0:0:0:0:
361,242,74128,1,2,0:0:0:0:
343,236,74216,1,2,0:0:0:0:
324,231,74304,1,2,0:0:0:0:
305,226,74393,1,2,0:0:0:0:
190,341,74569,1,8,0:0:0:0:
190,341,74922,1,0,3:0:0:0:
94,165,75098,1,0,0:0:0:0:
205,52,75275,6,0,L|292:44,2,75,0|0|0,0:0|3:0|3:0,0:0:0:0:
85,142,75804,1,0,0:0:0:0:
203,231,75981,2,0,L|290:239,1,75,8|0,0:0|0:0,0:0:0:0:
389,130,76334,2,0,L|299:135,1,75,0|0,0:0|0:0,0:0:0:0:
290,363,76687,5,2,0:0:0:0:
307,357,76775,1,2,0:0:0:0:
325,353,76863,1,2,0:0:0:0:
314,145,77040,1,0,0:0:0:0:
399,318,77216,1,0,0:0:0:0:
223,283,77393,1,8,0:0:0:0:
394,99,77569,1,0,0:0:0:0:
136,231,77746,1,0,3:0:0:0:
313,322,77922,1,0,0:0:0:0:
244,13,78098,6,0,L|233:211,1,187.5,2|0,0:0|0:0,0:0:0:0:
429,231,78451,5,0,3:0:0:0:
409,242,78804,5,0,0:0:0:0:
386,242,79157,5,0,0:0:0:0:
364,248,79510,5,0,3:0:0:0:
202,315,79863,1,2,3:0:0:0:
143,185,80040,1,2,3:0:0:0:
143,185,80393,1,2,3:0:0:0:
202,315,80570,1,2,3:0:0:0:
128,61,80922,5,8,3:0:0:0:
128,61,81098,1,8,3:0:0:0:
268,266,81275,5,8,3:0:0:0:
268,266,81451,1,8,3:0:0:0:
292,39,81628,5,8,3:0:0:0:
292,39,81804,1,8,3:0:0:0:
82,294,81981,1,2,0:0:0:0:
82,275,82069,1,2,0:0:0:0:
81,256,82157,1,2,0:0:0:0:
81,237,82246,1,2,0:0:0:0:
81,225,82334,5,8,3:0:0:0:
463,44,82687,2,0,L|412:58,1,44.999998626709,2|2,0:0|0:0,0:0:0:0:
283,192,83216,1,0,0:0:0:0:
282,269,83393,1,0,3:0:0:0:
282,346,83569,1,0,0:0:0:0:
259,198,83746,5,0,0:0:0:0:
258,275,83923,1,0,3:0:0:0:
258,352,84098,2,0,L|196:354,1,44.999998626709,0|0,3:0|0:0,0:0:0:0:
68,272,84451,2,0,L|130:274,1,44.999998626709,2|0,3:0|0:0,0:0:0:0:
223,138,84804,2,0,L|161:140,1,44.999998626709,0|0,0:0|0:0,0:0:0:0:
102,16,85157,6,0,L|94:53,1,22.4999993133545,0|0,3:0|0:0,0:0:0:0:
95,133,85334,2,0,L|103:112,1,22.4999993133545
265,215,85687,1,0,0:0:0:0:
253,215,85775,1,0,0:0:0:0:
242,216,85863,2,0,L|180:218,1,44.999998626709,2|0,3:0|0:0,0:0:0:0:
335,311,86216,2,0,L|397:313,1,44.999998626709,0|0,3:0|0:0,0:0:0:0:
472,216,86569,6,0,L|464:253,1,22.4999993133545,0|0,3:0|0:0,0:0:0:0:
465,333,86746,2,0,L|472:311,1,22.4999993133545,0|0,3:0|0:0,0:0:0:0:
404,292,86922,1,0,3:0:0:0:
392,62,87098,1,0,0:0:0:0:
392,62,87275,2,0,L|396:124,1,44.999998626709,2|0,3:0|0:0,0:0:0:0:
287,190,87628,2,0,L|291:128,1,44.999998626709,2|2,0:0|0:0,0:0:0:0:
233,40,87981,5,0,3:0:0:0:
181,312,88157,2,0,L|176:335,1,22.4999993133545,2|2,0:0|0:0,0:0:0:0:
154,216,88334,2,0,L|158:194,1,22.4999993133545,2|2,0:0|0:0,0:0:0:0:
162,177,88510,1,2,0:0:0:0:
163,165,88598,1,2,0:0:0:0:
165,153,88687,1,2,3:0:0:0:
233,40,88863,1,0,0:0:0:0:
66,234,89040,6,0,L|79:136,1,89.9999972534181,0|0,3:0|0:0,0:0:0:0:
233,40,89569,1,0,3:0:0:0:
233,52,89658,1,0,0:0:0:0:
232,64,89746,1,0,3:0:0:0:
121,62,89922,1,0,0:0:0:0:
317,106,90098,1,2,3:0:0:0:
190,182,90275,1,0,0:0:0:0:
289,297,90451,2,0,L|303:247,1,44.999998626709,0|0,0:0|0:0,0:0:0:0:
317,106,90804,5,0,3:0:0:0:
433,172,90981,1,0,0:0:0:0:
433,184,91070,1,0,0:0:0:0:
434,196,91158,1,0,0:0:0:0:
488,282,91334,1,0,0:0:0:0:
289,191,91510,2,0,L|281:228,1,22.4999993133545,2|0,3:0|0:0,0:0:0:0:
394,104,91687,2,0,L|401:82,1,22.4999993133545
415,65,91863,1,0,3:0:0:0:
379,338,92040,1,0,0:0:0:0:
289,174,92216,5,2,3:0:0:0:
121,192,92393,1,2,3:0:0:0:
216,54,92569,1,2,3:0:0:0:
49,146,92746,5,2,3:0:0:0:
216,135,92922,1,2,3:0:0:0:
113,280,93099,1,2,3:0:0:0:
123,95,93275,5,2,3:0:0:0:
291,81,93451,1,2,3:0:0:0:
302,79,93540,1,2,3:0:0:0:
313,79,93628,6,0,L|366:81,1,44.999998626709,2|0,3:0|0:0,0:0:0:0:
458,183,93981,2,0,L|413:181,1,44.999998626709,0|0,0:0|0:0,0:0:0:0:
325,174,94334,1,2,3:0:0:0:
325,174,94687,1,0,3:0:0:0:
241,290,94863,1,0,0:0:0:0:
230,292,94952,1,0,0:0:0:0:
219,292,95040,6,0,L|166:292,2,44.999998626709,0|0|0,0:0|3:0|3:0,0:0:0:0:
80,184,95569,1,0,0:0:0:0:
91,186,95658,1,0,0:0:0:0:
102,186,95746,2,0,L|154:186,1,44.999998626709,2|0,3:0|0:0,0:0:0:0:
268,91,96098,2,0,L|223:89,1,44.999998626709,0|0,0:0|0:0,0:0:0:0:
135,82,96451,5,0,3:0:0:0:
294,178,96628,1,0,0:0:0:0:
294,178,96804,2,0,L|338:176,1,44.999998626709,0|0,0:0|0:0,0:0:0:0:
427,172,97157,1,2,3:0:0:0:
427,172,97510,1,0,3:0:0:0:
343,288,97686,1,0,0:0:0:0:
332,290,97775,1,0,0:0:0:0:
321,290,97863,6,0,L|268:288,2,44.999998626709,0|0|0,0:0|3:0|3:0,0:0:0:0:
130,340,98393,1,0,0:0:0:0:
141,342,98482,1,0,0:0:0:0:
152,342,98570,2,0,L|205:340,1,44.999998626709,2|0,3:0|0:0,0:0:0:0:
69,226,98922,2,0,L|60:275,1,44.999998626709,2|2,0:0|0:0,0:0:0:0:
163,170,99275,5,0,3:0:0:0:
157,128,99451,1,0,0:0:0:0:
255,165,99628,1,0,0:0:0:0:
232,83,99804,1,0,0:0:0:0:
340,159,99981,1,2,3:0:0:0:
308,35,100157,1,0,0:0:0:0:
430,156,100334,1,0,3:0:0:0:
388,0,100510,1,0,0:0:0:0:
392,16,100687,6,0,L|388:66,1,44.999998626709,0|0,0:0|3:0,0:0:0:0:
398,280,101040,1,0,3:0:0:0:
404,238,101216,1,0,0:0:0:0:
306,275,101393,1,2,3:0:0:0:
329,193,101569,1,0,0:0:0:0:
221,269,101746,1,0,0:0:0:0:
253,145,101922,1,0,0:0:0:0:
158,190,102098,6,0,L|162:140,1,44.999998626709,0|0,3:0|0:0,0:0:0:0:
253,145,102451,1,0,0:0:0:0:
221,269,102627,1,0,0:0:0:0:
71,95,102804,1,2,3:0:0:0:
91,234,102980,1,0,0:0:0:0:
275,37,103157,1,0,3:0:0:0:
168,154,103333,1,0,0:0:0:0:
143,7,103510,5,2,3:0:0:0:
366,155,103687,1,2,0:0:0:0:
356,160,103775,1,2,0:0:0:0:
346,166,103863,1,2,0:0:0:0:
177,159,104040,1,0,0:0:0:0:
388,282,104216,1,2,3:0:0:0:
401,41,104393,1,0,0:0:0:0:
183,168,104569,2,0,L|167:220,1,44.999998626709,0|0,3:0|0:0,0:0:0:0:
238,47,104922,5,4,3:0:0:0:
238,47,105628,2,0,B|253:47|263:113|263:113|305:42|403:40|403:40|419:127|362:181|362:181|411:187|415:202,1,450.000017166138,0|8,0:0|0:0,0:0:0:0:
150,209,107746,6,0,P|126:271|232:225,1,255.000004863739,6|0,0:0|0:0,0:0:0:0:
352,154,108629,1,0,0:0:0:0:
320,169,108805,1,0,0:0:0:0:
318,27,108982,1,0,0:0:0:0:
241,97,109158,5,0,0:0:0:0:
288,15,109335,1,0,0:0:0:0:
214,109,109511,1,0,0:0:0:0:
242,6,109688,1,0,0:0:0:0:
135,144,109864,2,0,P|107:99|81:92,1,56.2500021457673,8|0,0:0|0:0,0:0:0:0:
37,209,110217,1,0,0:0:0:0:
193,262,110393,1,0,0:0:0:0:
226,60,110569,5,0,1:0:0:0:
72,315,110922,1,0,1:0:0:0:
379,118,111275,1,0,1:0:0:0:
72,315,111628,1,0,1:0:0:0:
459,235,111981,1,0,1:0:0:0:
72,315,112334,1,0,1:0:0:0:
455,366,112687,1,0,1:0:0:0:
72,315,113040,1,0,1:0:0:0:
321,83,113392,5,0,3:0:0:0:
205,208,113569,1,0,3:0:0:0:
333,303,113745,1,0,1:0:0:0:
337,49,113922,1,0,1:0:0:0:
54,283,114099,5,0,3:0:0:0:
42,247,114187,1,0,3:0:0:0:
47,209,114275,1,0,3:0:0:0:
71,180,114363,1,0,3:0:0:0:
94,151,114451,1,0,3:0:0:0:
103,114,114540,1,0,3:0:0:0:
87,79,114628,1,0,3:0:0:0:
58,54,114716,1,0,3:0:0:0:
58,54,115157,5,2,3:0:0:0:
140,53,115334,1,2,3:0:0:0:
222,54,115510,1,2,3:0:0:0:
304,53,115687,1,2,3:0:0:0:
386,53,115863,1,2,3:0:0:0:
468,51,116040,1,2,3:0:0:0:
238,287,116216,6,0,B|263:247|275:171|275:171|291:227|332:249,1,187.5,4|0,0:0|0:0,0:0:0:0:
61,330,116569,6,0,P|55:254|12:204,1,134.999995880127,2|0,0:0|0:0,0:0:0:0:
145,45,116922,2,0,L|118:182,1,134.999995880127,8|0,0:0|0:0,0:0:0:0:
341,327,117275,2,0,P|347:251|390:201,1,134.999995880127,0|0,3:0|0:0,0:0:0:0:
257,42,117628,2,0,L|284:179,1,134.999995880127,2|0,0:0|0:0,0:0:0:0:
127,40,117981,2,0,L|100:177,1,134.999995880127,0|0,3:0|0:0,0:0:0:0:
273,38,118334,2,0,L|300:175,1,134.999995880127,8|0,0:0|0:0,0:0:0:0:
52,45,118687,1,0,0:0:0:0:
363,47,118863,1,0,0:0:0:0:
173,297,119040,6,0,L|198:223,1,75,0|0,3:0|0:0,0:0:0:0:
363,47,119392,1,0,0:0:0:0:
52,45,119568,1,0,0:0:0:0:
159,225,119745,1,8,0:0:0:0:
228,63,119922,1,0,0:0:0:0:
47,27,120098,1,0,3:0:0:0:
178,229,120275,1,0,0:0:0:0:
392,201,120451,6,0,L|318:176,1,75
231,80,120804,1,0,3:0:0:0:
89,283,120981,1,0,0:0:0:0:
306,185,121157,1,8,0:0:0:0:
91,114,121334,1,0,0:0:0:0:
224,318,121510,1,0,3:0:0:0:
335,100,121687,1,0,0:0:0:0:
14,148,121863,6,0,B|34:194|93:203|93:203|17:207|1:301,1,187.5,4|0,0:0|0:0,0:0:0:0:
357,326,122216,6,0,P|348:256|384:201,1,134.999995880127,2|0,0:0|0:0,0:0:0:0:
376,3,122569,2,0,P|426:47|435:113,1,134.999995880127,8|0,0:0|0:0,0:0:0:0:
233,174,122922,2,0,P|270:118|334:99,1,134.999995880127,0|0,3:0|0:0,0:0:0:0:
511,242,123275,2,0,P|440:246|388:206,1,134.999995880127,2|0,0:0|0:0,0:0:0:0:
247,252,123628,2,0,P|266:184|320:147,1,134.999995880127,0|0,3:0|0:0,0:0:0:0:
419,4,123981,2,0,P|444:69|423:131,1,134.999995880127,8|0,0:0|0:0,0:0:0:0:
285,64,124334,1,0,0:0:0:0:
354,239,124510,1,0,0:0:0:0:
424,128,124687,5,0,3:0:0:0:
424,128,125040,1,0,0:0:0:0:
283,280,125217,1,0,0:0:0:0:
259,70,125393,1,8,0:0:0:0:
164,252,125569,1,0,0:0:0:0:
424,128,125746,1,0,3:0:0:0:
153,105,125922,1,0,0:0:0:0:
346,320,126098,5,0,0:0:0:0:
39,221,126275,1,0,3:0:0:0:
39,221,126451,2,0,P|81:200|118:202,1,75,0|0,3:0|0:0,0:0:0:0:
339,329,126804,2,0,P|297:350|260:348,1,75,8|0,0:0|0:0,0:0:0:0:
389,75,127157,1,2,0:0:0:0:
389,93,127245,1,2,0:0:0:0:
389,111,127334,1,2,0:0:0:0:
389,129,127422,1,2,0:0:0:0:
389,147,127510,6,0,B|358:211|358:211|260:95,1,225,4|0,0:0|0:0,0:0:0:0:
206,33,128216,1,8,0:0:0:0:
206,33,128569,1,0,3:0:0:0:
111,170,128745,1,0,0:0:0:0:
296,243,128922,5,0,0:0:0:0:
296,243,129098,2,0,P|290:193|299:166,1,75,0|0,3:0|3:0,0:0:0:0:
454,29,129451,1,0,0:0:0:0:
454,29,129628,2,0,P|460:79|451:106,1,75,8|0,0:0|0:0,0:0:0:0:
283,69,129981,1,0,0:0:0:0:
414,220,130157,1,0,0:0:0:0:
200,133,130334,6,0,B|169:68|169:68|71:185,1,225,0|0,3:0|0:0,0:0:0:0:
16,247,131040,1,8,0:0:0:0:
16,247,131392,1,0,3:0:0:0:
171,324,131568,1,0,0:0:0:0:
314,238,131745,5,0,0:0:0:0:
314,238,131921,2,0,P|320:188|311:161,1,75,0|0,3:0|3:0,0:0:0:0:
148,52,132274,1,0,0:0:0:0:
148,52,132451,2,0,P|142:102|151:129,1,75,8|0,0:0|0:0,0:0:0:0:
357,58,132804,2,0,L|306:79,1,37.5,2|0,0:0|0:0,0:0:0:0:
106,268,133157,5,0,3:0:0:0:
400,214,133334,1,2,0:0:0:0:
325,212,133510,1,2,0:0:0:0:
249,207,133687,1,2,0:0:0:0:
127,242,133863,1,8,0:0:0:0:
65,43,134216,1,0,3:0:0:0:
108,219,134392,1,0,0:0:0:0:
266,111,134569,6,0,L|191:117,2,75,0|0|0,0:0|3:0|3:0,0:0:0:0:
366,80,135098,1,0,0:0:0:0:
409,173,135275,2,0,L|496:181,1,75,8|0,0:0|0:0,0:0:0:0:
321,244,135628,2,0,L|231:249,1,75,0|0,0:0|0:0,0:0:0:0:
87,346,135981,5,2,0:0:0:0:
104,340,136069,1,2,0:0:0:0:
122,336,136157,1,2,0:0:0:0:
221,113,136334,1,0,0:0:0:0:
311,352,136510,1,0,0:0:0:0:
53,222,136687,1,8,0:0:0:0:
356,172,136863,1,0,0:0:0:0:
92,88,137040,1,0,3:0:0:0:
286,338,137216,1,0,0:0:0:0:
237,26,137392,6,0,L|226:228,1,187.5,2|0,0:0|0:0,0:0:0:0:
423,274,137745,5,0,3:0:0:0:
412,254,138098,5,8,0:0:0:0:
412,231,138451,5,0,3:0:0:0:
406,209,138804,5,4,0:0:0:0:
363,54,150098,6,0,P|343:106|357:205,1,150,0|0,3:0|0:0,0:0:0:0:
410,287,150628,1,2,3:0:0:0:
305,277,150804,2,0,L|203:294,1,75,0|0,3:0|0:0,0:0:0:0:
118,194,151157,2,0,L|220:211,1,75,0|0,1:0|0:0,0:0:0:0:
65,255,151510,6,0,P|85:186|46:109,1,150,0|0,3:0|0:0,0:0:0:0:
120,33,152040,1,2,3:0:0:0:
205,93,152216,2,0,L|307:76,1,75,0|0,3:0|0:0,0:0:0:0:
392,176,152569,2,0,L|290:159,1,75,0|0,1:0|0:0,0:0:0:0:
445,113,152922,6,0,L|419:277,1,150,0|0,3:0|0:0,0:0:0:0:
334,320,153451,1,2,3:0:0:0:
235,282,153628,2,0,P|188:274|143:287,1,75,0|0,3:0|0:0,0:0:0:0:
45,192,153981,2,0,P|92:200|137:187,1,75,0|0,1:0|0:0,0:0:0:0:
202,47,154334,6,0,P|179:106|221:177,1,150,0|0,3:0|0:0,0:0:0:0:
305,237,154863,1,2,3:0:0:0:
376,159,155040,2,0,L|481:167,1,75,0|0,3:0|0:0,0:0:0:0:
487,66,155393,1,2,0:0:0:0:
449,257,155569,1,2,0:0:0:0:
341,55,155746,6,0,L|236:63,1,75,0|0,1:0|0:0,0:0:0:0:
163,38,156098,2,0,L|82:106,1,75,0|0,1:0|0:0,0:0:0:0:
28,157,156451,2,0,L|43:261,1,75,0|0,1:0|0:0,0:0:0:0:
83,326,156804,2,0,L|186:343,1,75,0|0,1:0|0:0,0:0:0:0:
259,361,157157,2,0,L|341:295,1,75,0|0,1:0|0:0,0:0:0:0:
284,137,157510,2,0,L|366:202,1,75,0|0,1:0|0:0,0:0:0:0:
448,181,157863,2,0,L|429:284,1,75,0|0,1:0|0:0,0:0:0:0:
497,339,158216,2,0,L|392:353,1,75,0|0,1:0|0:0,0:0:0:0:
342,280,158569,5,2,3:0:0:0:
436,233,158746,1,2,3:0:0:0:
302,184,158922,1,2,3:0:0:0:
430,69,159098,1,2,3:0:0:0:
198,120,159275,1,2,3:0:0:0:
418,218,159451,1,2,3:0:0:0:
226,267,159628,1,2,3:0:0:0:
287,31,159804,1,2,3:0:0:0:
20,96,159981,5,2,3:0:0:0:
228,296,160158,1,2,3:0:0:0:
24,247,160334,1,2,3:0:0:0:
288,106,160510,1,2,3:0:0:0:
34,123,160687,1,2,3:0:0:0:
302,229,160863,1,2,3:0:0:0:
109,322,161040,1,2,3:0:0:0:
141,30,161216,1,2,3:0:0:0:
315,31,163157,6,0,L|294:115,1,67.4999979400635,2|0,3:0|0:0,0:0:0:0:
203,87,163334,2,0,L|244:162,1,67.4999979400635,2|0,3:0|0:0,0:0:0:0:
173,216,163510,2,0,L|259:220,1,67.4999979400635,2|0,3:0|0:0,0:0:0:0:
263,322,163687,2,0,L|313:251,1,67.4999979400635,2|0,3:0|0:0,0:0:0:0:
199,59,163864,6,0,L|240:134,1,67.4999979400635,2|0,3:0|0:0,0:0:0:0:
135,230,164040,2,0,L|221:234,1,67.4999979400635,2|0,3:0|0:0,0:0:0:0:
464,211,164216,6,0,P|437:146|423:215,1,187.5,4|0,0:0|0:0,0:0:0:0:
223,321,164569,6,0,L|68:316,1,134.999995880127,2|0,0:0|0:0,0:0:0:0:
53,85,164922,2,0,L|187:89,1,134.999995880127,8|0,0:0|0:0,0:0:0:0:
176,337,165275,2,0,L|28:289,1,134.999995880127,0|0,3:0|0:0,0:0:0:0:
77,63,165628,2,0,L|205:104,1,134.999995880127,2|0,0:0|0:0,0:0:0:0:
146,328,165981,2,0,L|12:248,1,134.999995880127,0|0,3:0|0:0,0:0:0:0:
111,38,166334,2,0,L|226:107,1,134.999995880127,8|0,0:0|0:0,0:0:0:0:
108,177,166687,1,0,0:0:0:0:
326,58,166863,1,0,0:0:0:0:
390,307,167040,6,0,L|365:233,1,75,0|0,3:0|0:0,0:0:0:0:
123,180,167392,1,0,0:0:0:0:
342,64,167568,1,0,0:0:0:0:
288,205,167745,1,8,0:0:0:0:
219,43,167922,1,0,0:0:0:0:
368,75,168098,1,0,3:0:0:0:
147,179,168275,1,0,0:0:0:0:
45,104,168451,6,0,L|119:79,1,75,0|0,0:0|0:0,0:0:0:0:
261,285,168804,1,0,3:0:0:0:
366,89,168981,1,0,0:0:0:0:
169,172,169157,1,8,0:0:0:0:
360,228,169334,1,0,0:0:0:0:
259,36,169510,1,0,3:0:0:0:
186,302,169687,1,0,0:0:0:0:
478,105,169863,6,0,B|444:141|399:160|399:160|450:143|503:153,1,187.5,4|0,0:0|0:0,0:0:0:0:
169,172,170216,6,0,P|202:229|191:294,1,134.999995880127,2|0,0:0|0:0,0:0:0:0:
237,70,170569,2,0,P|287:87|370:68,1,134.999995880127,8|0,0:0|0:0,0:0:0:0:
192,207,170922,2,0,P|208:271|180:330,1,134.999995880127,0|0,3:0|0:0,0:0:0:0:
273,85,171275,2,0,P|326:81|394:31,1,134.999995880127,2|0,0:0|0:0,0:0:0:0:
202,248,171628,2,0,P|192:313|142:357,1,134.999995880127,0|0,3:0|0:0,0:0:0:0:
311,88,171981,2,0,P|359:66|405:-6,1,134.999995880127,8|0,0:0|0:0,0:0:0:0:
167,85,172334,1,0,0:0:0:0:
301,218,172510,1,0,0:0:0:0:
53,133,172687,5,0,3:0:0:0:
53,133,173040,1,0,0:0:0:0:
271,71,173217,1,0,0:0:0:0:
180,241,173393,1,8,0:0:0:0:
343,154,173569,1,0,0:0:0:0:
183,261,173745,1,0,3:0:0:0:
354,272,173922,1,0,0:0:0:0:
183,261,174098,5,0,0:0:0:0:
473,221,174275,1,0,3:0:0:0:
473,221,174451,2,0,P|431:200|394:202,1,75,0|0,3:0|0:0,0:0:0:0:
131,320,174804,2,0,P|173:341|210:339,1,75,8|0,0:0|0:0,0:0:0:0:
207,4,175157,1,2,0:0:0:0:
212,22,175245,1,2,0:0:0:0:
212,40,175334,1,2,0:0:0:0:
209,58,175422,1,2,0:0:0:0:
205,76,175510,6,0,P|245:72|267:218,1,225,4|0,0:0|0:0,0:0:0:0:
231,149,176216,1,8,0:0:0:0:
231,149,176569,1,0,3:0:0:0:
301,298,176745,1,0,0:0:0:0:
455,172,176922,5,0,0:0:0:0:
455,172,177098,2,0,P|461:122|452:95,1,75,0|0,3:0|3:0,0:0:0:0:
264,30,177451,1,0,0:0:0:0:
264,30,177628,2,0,P|258:80|267:107,1,75,8|0,0:0|0:0,0:0:0:0:
157,183,177981,1,0,0:0:0:0:
303,225,178157,1,0,0:0:0:0:
478,44,178334,6,0,P|438:40|416:186,1,225,0|0,3:0|0:0,0:0:0:0:
452,117,179040,1,8,0:0:0:0:
452,117,179392,1,0,3:0:0:0:
346,261,179568,1,0,0:0:0:0:
155,85,179745,5,0,0:0:0:0:
155,85,179921,2,0,P|149:135|158:162,1,75,0|0,3:0|3:0,0:0:0:0:
71,319,180274,1,0,0:0:0:0:
71,319,180451,2,0,P|77:269|68:242,1,75,8|0,0:0|0:0,0:0:0:0:
43,34,180804,2,0,L|80:41,1,37.5,2|0,0:0|0:0,0:0:0:0:
414,187,181157,5,0,3:0:0:0:
161,252,181334,1,2,0:0:0:0:
179,246,181422,1,2,0:0:0:0:
197,240,181510,1,2,0:0:0:0:
216,235,181598,1,2,0:0:0:0:
235,230,181687,1,2,0:0:0:0:
322,341,181863,1,8,0:0:0:0:
322,341,182216,1,0,3:0:0:0:
418,165,182392,1,0,0:0:0:0:
307,52,182569,6,0,L|220:44,2,75,0|0|0,0:0|3:0|3:0,0:0:0:0:
427,142,183098,1,0,0:0:0:0:
309,231,183275,2,0,L|222:239,1,75,8|0,0:0|0:0,0:0:0:0:
123,130,183628,2,0,L|213:135,1,75,0|0,0:0|0:0,0:0:0:0:
222,363,183981,5,2,0:0:0:0:
205,357,184069,1,2,0:0:0:0:
187,353,184157,1,2,0:0:0:0:
197,134,184334,1,0,0:0:0:0:
103,359,184510,1,0,0:0:0:0:
289,283,184687,1,8,0:0:0:0:
118,99,184863,1,0,0:0:0:0:
376,231,185040,1,0,3:0:0:0:
199,322,185216,1,0,0:0:0:0:
268,13,185392,6,0,L|279:211,1,187.5,2|0,0:0|0:0,0:0:0:0:
83,231,185745,5,0,0:0:0:0:
103,242,186098,5,0,0:0:0:0:
126,242,186451,5,0,0:0:0:0:
148,248,186804,5,0,0:0:0:0:
