osu file format v14

[General]
AudioFilename: audio.mp3
AudioLeadIn: 0
PreviewTime: 55863
Countdown: 0
SampleSet: Soft
StackLeniency: 0.5
Mode: 0
LetterboxInBreaks: 0
WidescreenStoryboard: 0

[Editor]
Bookmarks: 104922,150098
DistanceSpacing: 1.6
BeatDivisor: 4
GridSize: 4
TimelineZoom: 1

[Metadata]
Title:POP/STARS (feat. Madison Beer, (G)I-DLE, Jaira Burns)
TitleUnicode:POP/STARS (feat. Madison Beer, (G)I-DLE, Jaira Burns)
Artist:K/DA
ArtistUnicode:K/DA
Creator:Lilyanna
Version:Another/Ahri
Source:League of Legends
Tags:kpop k-pop popstar popstars kda kaisa riot games worlds 2018 miyeon soyeon (여자)아이들 gidle g_idle Mitsuna- Aro
BeatmapID:1826084
BeatmapSetID:873639

[Difficulty]
HPDrainRate:7
CircleSize:4
OverallDifficulty:7
ApproachRate:9
SliderMultiplier:2.3
SliderTickRate:1

[Events]
//Background and Video events
Video,0,"kda.mp4"
0,0,"KDA_Ahri.jpg",0,0
//Break Periods
2,139004,149498
2,161416,162557
//Storyboard Layer 0 (Background)
//Storyboard Layer 1 (Fail)
//Storyboard Layer 2 (Pass)
//Storyboard Layer 3 (Foreground)
//Storyboard Sound Samples

[TimingPoints]
6099,705.882352941176,4,2,1,50,1,0
11393,-200,4,2,1,50,0,0
11746,-100,4,2,1,50,0,0
16334,-66.6666666666667,4,2,1,50,0,0
16687,-50,4,2,1,50,0,0
17040,-40,4,2,1,50,0,0
17393,-100,4,2,1,50,0,0
21981,-66.6666666666667,4,2,1,50,0,0
22334,-50,4,2,1,50,0,0
22687,-40,4,2,1,50,0,0
23040,-100,4,2,1,50,0,0
27981,-125,4,2,1,50,0,0
28510,-125,4,2,1,5,0,0
28687,-100,4,2,1,50,0,0
33275,-66.6666666666667,4,2,1,50,0,0
33628,-50,4,2,1,50,0,0
33981,-40,4,2,1,50,0,0
34334,-133.333333333333,4,2,1,50,0,0
36981,-133.333333333333,4,2,1,5,0,0
37157,-117.647058823529,4,2,1,50,0,0
39804,-133.333333333333,4,2,1,5,0,0
39981,-105.263157894737,4,2,1,50,0,0
42628,-133.333333333333,4,2,1,5,0,0
42804,-95.2380952380952,4,2,1,50,0,0
45451,-133.333333333333,4,2,1,5,0,0
45628,-100,4,2,1,50,0,0
56922,-40,4,2,1,75,0,1
57275,-100,4,2,1,75,0,1
62569,-40,4,2,1,75,0,1
62922,-100,4,2,1,75,0,1
73510,-33.3333333333333,4,2,1,75,0,1
73863,-100,4,2,1,75,0,1
78098,-40,4,2,1,75,0,1
78451,-166.666666666667,4,2,1,75,0,1
79510,-100,4,2,1,75,0,0
82334,-166.666666666667,4,2,1,60,0,0
99275,-100,4,2,1,60,0,0
105628,-133.333333333333,4,2,1,60,0,0
107569,-133.333333333333,4,2,1,5,0,0
107746,-117.647058823529,4,2,1,60,0,0
110569,-100,4,2,1,60,0,0
116216,-40,4,2,1,75,0,1
116569,-100,4,2,1,75,0,1
121863,-40,4,2,1,75,0,1
122216,-100,4,2,1,75,0,1
132804,-33.3333333333333,4,2,1,75,0,1
133157,-100,4,2,1,75,0,1
137392,-40,4,2,1,75,0,1
137745,-166.666666666667,4,2,1,75,0,1
138804,-100,4,2,1,50,0,0
164216,-40,4,2,1,75,0,1
164569,-100,4,2,1,75,0,1
169863,-40,4,2,1,75,0,1
170216,-100,4,2,1,75,0,1
180804,-33.3333333333333,4,2,1,75,0,1
181157,-100,4,2,1,75,0,1
185392,-40,4,2,1,75,0,1
185745,-166.666666666667,4,2,1,75,0,1
186804,-100,4,2,1,75,0,0
186981,-100,4,2,1,5,0,0

[Colours]
Combo1 : 255,4,130
Combo2 : 205,155,255
Combo3 : 255,173,91
Combo4 : 255,136,255
Combo5 : 255,255,40
Combo6 : 51,189,255

[HitObjects]
403,71,6099,6,0,P|400:108|403:136,1,57.5,4|0,0:0|0:0,0:0:0:0:
309,129,6451,2,0,P|317:165|329:190,1,57.5
246,231,6804,2,0,P|190:197|128:208,1,115
42,46,7510,2,0,P|45:83|42:111,1,57.5
40,244,7863,2,0,P|48:207|60:182,1,57.5
142,201,8216,2,0,P|198:167|260:178,1,115
348,60,8746,1,0,0:0:0:0:
348,60,8922,6,0,P|350:93|339:129,1,57.5
204,308,9275,2,0,P|202:275|213:239,1,57.5
415,136,9628,2,0,P|399:165|371:190,1,57.5
132,235,9981,2,0,P|147:205|175:180,1,57.5
423,253,10334,2,0,P|390:259|353:253,1,57.5
307,186,10687,5,0,0:0:0:0:
237,260,10863,1,0,0:0:0:0:
164,188,11040,1,0,0:0:0:0:
164,188,11393,2,0,L|160:138,1,28.75
352,45,11746,6,0,L|283:61,1,57.5,4|0,3:0|0:0,0:0:0:0:
204,48,12098,1,0,0:0:0:0:
161,159,12275,1,0,0:0:0:0:
367,125,12451,2,0,L|298:141,1,57.5,8|0,0:0|0:0,0:0:0:0:
163,174,12804,2,0,L|232:190,1,57.5,0|0,3:0|0:0,0:0:0:0:
395,241,13157,6,0,L|326:257,1,57.5,0|0,0:0|3:0,0:0:0:0:
223,200,13510,1,0,3:0:0:0:
326,265,13687,1,0,0:0:0:0:
162,322,13863,2,0,L|231:338,1,57.5,8|0,0:0|0:0,0:0:0:0:
56,232,14216,2,0,L|-13:248,1,57.5
165,171,14569,6,0,L|234:187,1,57.5,0|0,3:0|0:0,0:0:0:0:
305,147,14922,1,0,0:0:0:0:
311,301,15098,1,0,0:0:0:0:
369,220,15275,1,8,0:0:0:0:
222,271,15451,1,0,0:0:0:0:
388,216,15628,2,0,L|399:149,1,57.5,0|0,3:0|0:0,0:0:0:0:
237,45,15981,6,0,P|197:78|187:93,1,57.5,0|0,0:0|3:0,0:0:0:0:
97,30,16334,6,0,P|94:81|127:135,1,86.2500032901765,0|0,3:0|0:0,0:0:0:0:
9,237,16687,6,0,P|60:241|121:209,1,115,8|0,0:0|0:0,0:0:0:0:
317,256,17040,6,0,P|290:211|200:182,1,143.75
394,76,17393,6,0,P|386:126|389:157,1,57.5,4|0,3:0|0:0,0:0:0:0:
417,219,17746,1,0,0:0:0:0:
292,103,17922,1,0,0:0:0:0:
309,312,18098,2,0,P|317:262|314:231,1,57.5,8|0,0:0|0:0,0:0:0:0:
281,43,18451,2,0,P|273:93|276:124,1,57.5,0|0,3:0|0:0,0:0:0:0:
326,313,18804,6,0,P|334:263|331:232,1,57.5,0|0,0:0|3:0,0:0:0:0:
286,117,19157,1,0,3:0:0:0:
336,236,19334,1,0,0:0:0:0:
399,131,19510,1,8,0:0:0:0:
226,208,19687,1,0,0:0:0:0:
409,130,19863,1,0,0:0:0:0:
218,211,20040,1,0,0:0:0:0:
326,313,20216,6,0,P|334:263|331:232,1,57.5,0|0,3:0|0:0,0:0:0:0:
218,211,20569,1,0,0:0:0:0:
409,130,20746,1,0,0:0:0:0:
213,65,20922,2,0,P|274:79|293:76,1,57.5,8|0,0:0|0:0,0:0:0:0:
92,139,21275,2,0,P|153:125|172:128,1,57.5,0|0,3:0|0:0,0:0:0:0:
289,75,21628,6,0,P|260:71|234:61,1,57.5
132,146,21981,6,0,P|103:150|51:180,1,86.2500032901765,0|0,3:0|0:0,0:0:0:0:
253,60,22334,6,0,P|280:71|376:69,1,115,8|0,0:0|0:0,0:0:0:0:
141,162,22687,6,0,P|101:169|23:234,1,143.75,0|0,3:0|0:0,0:0:0:0:
217,260,23040,6,0,L|217:188,1,57.5,4|0,3:0|0:0,0:0:0:0:
132,147,23393,1,0,0:0:0:0:
325,212,23569,1,0,0:0:0:0:
201,270,23746,2,0,L|201:198,1,57.5,8|0,0:0|0:0,0:0:0:0:
325,212,24098,1,0,3:0:0:0:
132,147,24274,1,0,0:0:0:0:
283,48,24451,6,0,L|285:108,1,57.5,0|0,0:0|3:0,0:0:0:0:
341,275,24804,2,0,L|339:217,1,57.5,0|0,3:0|0:0,0:0:0:0:
417,129,25157,2,0,L|340:141,1,57.5,8|0,0:0|0:0,0:0:0:0:
216,190,25510,2,0,L|293:178,1,57.5
431,134,25863,6,0,L|354:146,1,57.5,4|0,3:0|0:0,0:0:0:0:
346,260,26216,1,0,2:0:0:0:
257,77,26393,1,0,2:0:0:0:
214,207,26569,2,0,L|285:198,1,57.5,8|0,0:0|2:0,2:0:0:0:
257,77,26921,1,0,3:0:0:0:
346,260,27097,1,0,2:0:0:0:
128,145,27275,2,0,L|56:136,1,57.5,0|0,2:0|3:0,2:0:0:0:
217,222,27628,2,0,L|288:213,1,57.5,0|0,3:0|2:0,2:0:0:0:
337,350,27981,6,0,B|346:309|357:293|357:293|346:278|344:254|344:254|354:217,1,138,8|0,0:0|0:0,0:0:0:0:
407,53,28687,6,0,L|405:114,1,57.5,4|0,3:0|0:0,0:0:0:0:
448,191,29040,1,0,0:0:0:0:
292,77,29216,1,0,0:0:0:0:
341,281,29393,2,0,L|343:220,1,57.5,8|0,0:0|0:0,0:0:0:0:
421,48,29746,2,0,L|419:109,1,57.5,0|0,3:0|0:0,0:0:0:0:
322,281,30098,6,0,L|324:220,1,57.5,0|0,0:0|3:0,0:0:0:0:
415,213,30451,1,0,3:0:0:0:
402,108,30627,1,0,0:0:0:0:
308,219,30804,1,8,0:0:0:0:
285,98,30981,1,0,0:0:0:0:
426,221,31157,1,0,0:0:0:0:
274,87,31334,1,0,0:0:0:0:
314,289,31510,6,0,P|322:239|319:208,1,57.5,0|0,3:0|0:0,0:0:0:0:
218,211,31863,1,0,0:0:0:0:
409,130,32040,1,0,0:0:0:0:
213,65,32216,2,0,P|274:79|293:76,1,57.5,8|0,0:0|0:0,0:0:0:0:
117,149,32569,2,0,P|88:152|61:163,1,57.5,0|0,3:0|0:0,0:0:0:0:
231,52,32922,6,0,B|256:63|256:63|286:66,1,57.5
279,251,33275,6,0,B|303:210|303:210|297:153,1,86.2500032901765,0|0,3:0|0:0,0:0:0:0:
416,29,33628,6,0,B|392:70|392:70|402:143,1,115,8|0,0:0|0:0,0:0:0:0:
477,354,33981,6,0,B|501:313|501:313|487:205,1,143.75,0|0,3:0|0:0,0:0:0:0:
304,184,34334,70,0,B|340:160|356:128|356:128|324:120|288:136|288:136|304:96|300:48|300:48|268:80|256:124|256:124|244:80|212:48|212:48|208:96|224:136|224:136|188:120|156:128|156:128|172:160|224:192,1,646.875024676324,6|0,0:0|0:0,0:0:0:0:
208,200,37157,70,0,B|168:228|144:260|144:260|184:264|224:244|224:244|208:292|208:344|208:344|236:312|256:256|256:256|272:312|308:344|308:344|308:292|288:244|288:244|328:264|368:260|368:260|352:232|320:208,1,733.12501398325,2|0,0:0|0:0,0:0:0:0:
308,184,39981,70,0,B|352:152|380:120|380:120|328:120|288:140|288:140|308:92|312:32|312:32|272:72|256:128|256:128|236:72|204:32|204:32|208:92|224:140|224:140|184:120|136:116|136:116|168:160|224:196,1,819.374978120328,2|0,0:0|0:0,0:0:0:0:
212,195,42804,70,0,B|168:224|128:276|128:276|184:264|224:244|224:244|208:292|200:360|200:360|236:312|256:256|256:256|272:312|316:360|316:360|308:292|288:244|288:244|328:264|388:268|388:268|352:232|308:200,1,905.624972362519,2|0,0:0|0:0,0:0:0:0:
68,64,45628,6,0,P|136:92|192:72,1,115,0|0,1:0|0:0,0:0:0:0:
320,104,46157,2,0,L|244:100,1,57.5,0|0,1:0|3:0,0:0:0:0:
403,195,46510,2,0,L|327:199,2,57.5,0|0|0,0:0|1:0|0:0,0:0:0:0:
269,85,47040,2,0,L|326:90,1,57.5,0|0,1:0|0:0,0:0:0:0:
196,168,47393,1,0,0:0:0:0:
196,168,47569,1,0,1:0:0:0:
196,168,47746,2,0,L|120:172,1,57.5,0|0,3:0|0:0,0:0:0:0:
107,257,48098,2,0,L|164:253,1,57.5,0|0,1:0|0:0,0:0:0:0:
347,310,48451,6,0,P|279:282|223:302,1,115,0|0,1:0|0:0,0:0:0:0:
95,270,48980,2,0,L|171:274,1,57.5,0|0,1:0|3:0,0:0:0:0:
12,185,49334,2,0,L|88:189,2,57.5,0|0|0,0:0|1:0|0:0,0:0:0:0:
202,86,49863,2,0,L|126:90,1,57.5,0|0,1:0|0:0,0:0:0:0:
270,199,50216,2,0,L|194:195,1,57.5,0|0,0:0|1:0,0:0:0:0:
338,44,50569,2,0,P|325:117|372:172,1,115,0|0,3:0|1:0,0:0:0:0:
411,88,51098,1,0,0:0:0:0:
283,213,51275,6,0,L|207:209,1,57.5,0|0,1:0|0:0,0:0:0:0:
71,289,51628,2,0,L|147:285,1,57.5,0|0,1:0|0:0,0:0:0:0:
296,223,51981,2,0,L|220:219,1,57.5,0|0,1:0|0:0,0:0:0:0:
80,274,52334,2,0,L|156:270,1,57.5,0|0,1:0|0:0,0:0:0:0:
220,352,52687,6,0,L|224:276,1,57.5,0|0,1:0|0:0,0:0:0:0:
131,101,53040,2,0,L|135:177,1,57.5,0|0,1:0|0:0,0:0:0:0:
210,365,53393,2,0,L|214:289,1,57.5,0|0,1:0|0:0,0:0:0:0:
146,110,53746,2,0,L|150:185,1,57.5,0|0,1:0|0:0,0:0:0:0:
233,208,54098,5,0,3:0:0:0:
136,283,54275,1,0,3:0:0:0:
136,176,54451,5,0,1:0:0:0:
223,296,54628,1,0,1:0:0:0:
113,176,54804,5,0,3:0:0:0:
252,309,54981,1,0,3:0:0:0:
33,173,55157,5,0,1:0:0:0:
329,306,55334,1,0,1:0:0:0:
239,218,55863,5,2,3:0:0:0:
142,293,56040,1,2,3:0:0:0:
142,186,56216,5,2,3:0:0:0:
229,306,56393,1,2,3:0:0:0:
119,186,56569,5,2,3:0:0:0:
258,319,56746,1,2,3:0:0:0:
236,16,56922,6,0,P|265:62|240:12,1,143.75,4|0,0:0|0:0,0:0:0:0:
371,103,57275,6,0,P|323:121|314:131,1,57.5,2|0,0:0|0:0,0:0:0:0:
133,110,57628,2,0,P|182:119|193:128,1,57.5,8|0,0:0|0:0,0:0:0:0:
414,215,57981,2,0,P|370:188|357:187,1,57.5,0|0,3:0|0:0,0:0:0:0:
98,216,58334,2,0,P|141:189|154:188,1,57.5,2|0,0:0|0:0,0:0:0:0:
364,319,58687,2,0,P|355:269|346:258,1,57.5,0|0,3:0|0:0,0:0:0:0:
149,321,59040,2,0,P|157:271|166:260,1,57.5,8|0,0:0|0:0,0:0:0:0:
332,261,59393,1,0,0:0:0:0:
183,258,59569,1,0,0:0:0:0:
340,120,59746,6,0,P|324:151|321:176,1,57.5,0|0,3:0|0:0,0:0:0:0:
176,120,60098,2,0,P|192:151|195:176,1,57.5
262,47,60451,2,0,L|262:116,1,57.5,8|0,0:0|0:0,0:0:0:0:
260,302,60804,2,0,L|260:244,1,57.5,0|0,3:0|0:0,0:0:0:0:
261,27,61157,6,0,L|261:96,1,57.5
354,122,61510,1,0,3:0:0:0:
158,122,61687,1,0,0:0:0:0:
257,258,61863,1,8,0:0:0:0:
260,63,62040,1,0,0:0:0:0:
259,278,62216,1,0,3:0:0:0:
260,44,62393,1,0,0:0:0:0:
258,306,62569,6,0,B|263:241|263:241|252:212|252:212|257:170|258:170|258:139,1,143.75,4|0,0:0|0:0,0:0:0:0:
404,90,62922,6,0,L|337:105,1,57.5,2|0,0:0|0:0,0:0:0:0:
108,90,63275,2,0,L|175:105,1,57.5,8|0,0:0|0:0,0:0:0:0:
430,164,63628,2,0,L|363:179,1,57.5,0|0,3:0|0:0,0:0:0:0:
82,164,63981,2,0,L|149:179,1,57.5,2|0,0:0|0:0,0:0:0:0:
437,244,64334,2,0,L|370:259,1,57.5,0|0,3:0|0:0,0:0:0:0:
75,244,64687,2,0,L|142:259,1,57.5,8|0,0:0|0:0,0:0:0:0:
330,320,65040,1,0,0:0:0:0:
181,317,65216,1,0,0:0:0:0:
259,144,65393,5,0,3:0:0:0:
259,144,65746,1,0,0:0:0:0:
181,317,65923,1,0,0:0:0:0:
330,320,66099,1,8,0:0:0:0:
259,175,66275,1,0,0:0:0:0:
208,314,66451,1,0,3:0:0:0:
314,314,66628,1,0,0:0:0:0:
259,110,66804,6,0,L|259:250,1,115,0|0,0:0|3:0,0:0:0:0:
314,314,67334,1,0,0:0:0:0:
461,248,67510,2,0,L|385:252,1,57.5,8|0,0:0|0:0,0:0:0:0:
243,320,67863,2,0,L|319:324,1,57.5,0|0,3:0|0:0,0:0:0:0:
505,229,68216,6,0,L|321:240,1,172.5,4|0,0:0|0:0,0:0:0:0:
281,162,68922,1,8,0:0:0:0:
281,162,69275,2,0,L|276:84,1,57.5,0|0,3:0|0:0,0:0:0:0:
146,36,69628,5,0,0:0:0:0:
146,36,69804,2,0,L|149:93,1,57.5,0|0,3:0|3:0,0:0:0:0:
74,236,70157,1,0,0:0:0:0:
74,236,70333,2,0,L|70:178,1,57.5,8|0,0:0|0:0,0:0:0:0:
162,32,70687,2,0,L|166:90,1,57.5,0|0,3:0|0:0,0:0:0:0:
253,294,71040,6,0,L|242:110,1,172.5,0|0,3:0|0:0,0:0:0:0:
320,70,71746,1,8,0:0:0:0:
320,70,72099,2,0,L|398:65,1,57.5,0|0,3:0|0:0,0:0:0:0:
470,184,72451,5,0,0:0:0:0:
470,184,72628,2,0,L|412:180,1,57.5,0|0,3:0|3:0,0:0:0:0:
270,256,72981,1,0,0:0:0:0:
270,256,73157,2,0,L|327:259,1,57.5,8|0,0:0|0:0,0:0:0:0:
139,126,73510,6,0,P|148:88|145:134,1,172.500006580353,2|0,0:0|0:0,0:0:0:0:
124,14,73863,6,0,P|224:17|272:96,1,172.5,0|0,3:0|0:0,0:0:0:0:
286,158,74569,1,8,0:0:0:0:
286,158,74922,2,0,L|357:150,1,57.5,0|0,3:0|0:0,0:0:0:0:
425,249,75275,6,0,L|367:255,2,57.5,0|0|0,0:0|3:0|3:0,0:0:0:0:
357,161,75804,1,0,0:0:0:0:
426,265,75981,2,0,L|369:272,1,57.5,8|0,0:0|0:0,0:0:0:0:
233,319,76334,2,0,L|290:325,1,57.5
434,284,76687,6,0,L|376:290,1,57.5,0|0,3:0|0:0,0:0:0:0:
218,302,77040,1,0,0:0:0:0:
363,269,77216,1,0,0:0:0:0:
303,363,77393,5,8,0:0:0:0:
264,170,77569,1,0,0:0:0:0:
314,374,77746,5,0,3:0:0:0:
272,155,77922,1,0,0:0:0:0:
402,350,78098,6,0,B|394:324|355:298|355:298|397:309|455:292,1,143.75
383,188,78451,6,0,L|374:228,1,34.4999989471436,0|0,3:0|0:0,0:0:0:0:
167,187,78804,2,0,L|176:227,1,34.4999989471436
275,322,79157,2,0,L|274:267,1,34.4999989471436
270,42,79510,5,0,3:0:0:0:
394,172,79863,5,2,3:0:0:0:
151,168,80040,1,2,3:0:0:0:
151,168,80393,5,2,3:0:0:0:
394,172,80570,1,2,3:0:0:0:
394,172,80922,5,8,3:0:0:0:
357,286,81098,1,8,3:0:0:0:
328,92,81275,5,8,3:0:0:0:
262,275,81451,1,8,3:0:0:0:
251,37,81628,5,8,3:0:0:0:
159,259,81804,1,8,3:0:0:0:
114,62,81981,2,0,L|114:132,1,57.5
25,271,82334,6,0,L|39:152,1,103.499996841431,8|2,3:0|0:0,0:0:0:0:
37,168,83216,1,0,0:0:0:0:
176,229,83393,2,0,L|178:178,1,34.4999989471436,0|0,3:0|0:0,0:0:0:0:
236,93,83746,6,0,L|234:144,1,34.4999989471436,0|0,0:0|3:0,0:0:0:0:
155,242,84098,2,0,L|166:192,1,34.4999989471436,0|0,3:0|0:0,0:0:0:0:
259,87,84451,2,0,L|247:136,1,34.4999989471436,2|0,3:0|0:0,0:0:0:0:
159,263,84804,1,0,0:0:0:0:
276,77,84981,1,0,0:0:0:0:
310,265,85157,6,0,L|289:219,2,34.4999989471436,0|0|0,3:0|0:0|0:0,0:0:0:0:
388,86,85687,1,0,0:0:0:0:
386,94,85775,1,0,0:0:0:0:
384,103,85863,6,0,L|376:136,1,34.4999989471436,2|0,3:0|0:0,0:0:0:0:
301,272,86216,2,0,L|280:226,1,34.4999989471436,0|0,3:0|0:0,0:0:0:0:
372,97,86569,2,0,L|351:143,2,34.4999989471436,0|0|0,0:0|3:0|3:0,0:0:0:0:
278,223,87098,1,0,0:0:0:0:
293,64,87275,2,0,L|272:110,1,34.4999989471436,2|0,3:0|0:0,0:0:0:0:
285,283,87628,2,0,L|264:237,1,34.4999989471436,2|2,0:0|0:0,0:0:0:0:
282,119,87981,5,0,3:0:0:0:
182,233,88157,1,0,0:0:0:0:
49,194,88334,1,0,0:0:0:0:
168,76,88510,1,0,0:0:0:0:
170,84,88598,1,0,0:0:0:0:
172,93,88686,6,0,L|180:126,1,34.4999989471436,2|0,3:0|0:0,0:0:0:0:
153,312,89040,2,0,L|177:226,1,68.9999978942872,0|0,3:0|0:0,0:0:0:0:
168,76,89569,1,0,3:0:0:0:
170,84,89657,1,0,0:0:0:0:
172,93,89745,2,0,L|180:126,1,34.4999989471436,0|0,3:0|0:0,0:0:0:0:
161,279,90098,2,0,L|172:247,1,34.4999989471436,2|0,3:0|0:0,0:0:0:0:
250,80,90451,6,0,L|275:155,1,68.9999978942872,0|0,0:0|3:0,0:0:0:0:
262,301,90981,1,0,0:0:0:0:
264,293,91069,1,0,0:0:0:0:
266,284,91157,2,0,L|274:251,1,34.4999989471436
347,118,91510,2,0,L|355:151,1,34.4999989471436,2|0,3:0|0:0,0:0:0:0:
451,274,91863,2,0,L|443:241,1,34.4999989471436,0|0,3:0|0:0,0:0:0:0:
364,170,92216,5,2,3:0:0:0:
441,220,92393,1,2,3:0:0:0:
261,203,92569,1,2,3:0:0:0:
456,188,92746,1,2,3:0:0:0:
213,284,92922,1,2,3:0:0:0:
473,163,93099,1,2,3:0:0:0:
436,34,93275,2,0,L|410:85,1,34.4999989471436,2|2,3:0|3:0,0:0:0:0:
271,34,93628,6,0,L|297:85,1,34.4999989471436,0|0,3:0|0:0,0:0:0:0:
160,147,93981,2,0,L|233:136,1,68.9999978942872,0|2,0:0|3:0,0:0:0:0:
228,136,94687,1,0,3:0:0:0:
284,287,94863,1,0,0:0:0:0:
286,279,94951,1,0,0:0:0:0:
288,270,95040,6,0,L|296:237,2,34.4999989471436,0|0|0,0:0|3:0|3:0,0:0:0:0:
369,160,95569,1,0,0:0:0:0:
228,136,95746,2,0,L|160:147,1,68.9999978942872,2|0,3:0|0:0,0:0:0:0:
88,56,96275,1,0,0:0:0:0:
46,218,96451,6,0,L|60:177,1,34.4999989471436,0|0,3:0|0:0,0:0:0:0:
160,147,96804,2,0,L|228:136,1,68.9999978942872,0|2,0:0|3:0,0:0:0:0:
228,137,97510,1,0,3:0:0:0:
329,35,97687,1,0,0:0:0:0:
331,43,97775,1,0,0:0:0:0:
333,52,97863,6,0,L|341:85,2,34.4999989471436,0|0|0,0:0|3:0|3:0,0:0:0:0:
423,126,98393,1,0,0:0:0:0:
425,134,98481,1,0,0:0:0:0:
427,143,98569,2,0,L|435:176,1,34.4999989471436,2|0,3:0|0:0,0:0:0:0:
367,269,98922,2,0,L|359:236,1,34.4999989471436,2|2,0:0|0:0,0:0:0:0:
237,141,99275,6,0,L|253:205,1,57.5,0|0,3:0|0:0,0:0:0:0:
246,311,99628,1,0,0:0:0:0:
59,346,99804,1,0,0:0:0:0:
237,211,99981,1,2,3:0:0:0:
155,361,100157,1,0,0:0:0:0:
149,160,100334,1,0,3:0:0:0:
246,311,100510,1,0,0:0:0:0:
246,311,100687,6,0,L|306:307,1,57.5,0|0,0:0|3:0,0:0:0:0:
442,264,101040,2,0,L|375:253,1,57.5,0|0,3:0|0:0,0:0:0:0:
292,179,101393,1,2,3:0:0:0:
373,355,101569,1,0,0:0:0:0:
386,146,101746,1,0,0:0:0:0:
280,309,101922,1,0,0:0:0:0:
280,309,102098,6,0,L|214:315,1,57.5,0|0,3:0|0:0,0:0:0:0:
203,214,102451,1,0,0:0:0:0:
386,146,102628,1,0,0:0:0:0:
110,247,102804,1,2,3:0:0:0:
293,179,102981,1,0,0:0:0:0:
203,214,103157,1,0,3:0:0:0:
386,146,103334,1,0,0:0:0:0:
256,192,103510,12,0,104922,3:0:0:0:
120,248,105628,6,0,B|152:152|4:168|36:116|40:80|56:64|84:56|120:72|120:72|156:56|184:64|200:80|204:116|236:168|88:152|120:204,1,474.375018095971
320,200,107746,22,0,B|279:208|256:248|264:284|280:300|312:304|344:288|344:288|376:304|408:300|424:284|432:248|461:194|316:219|379:161|315:128|332:88|340:68|372:48|412:72|412:72|452:48|484:68|492:88|507:128|464:176|404:188,1,733.12501398325,2|0,0:0|0:0,0:0:0:0:
121,158,110569,6,0,L|197:154,1,57.5,0|0,1:0|0:0,0:0:0:0:
357,262,110922,2,0,L|281:258,1,57.5,0|0,1:0|0:0,0:0:0:0:
108,168,111275,2,0,L|184:164,1,57.5,0|0,1:0|0:0,0:0:0:0:
348,247,111628,2,0,L|272:243,1,57.5,0|0,1:0|0:0,0:0:0:0:
220,336,111981,6,0,L|216:260,1,57.5,0|0,1:0|0:0,0:0:0:0:
298,52,112334,2,0,L|294:128,1,57.5,0|0,1:0|0:0,0:0:0:0:
230,349,112687,2,0,L|226:273,1,57.5,0|0,1:0|0:0,0:0:0:0:
283,61,113040,2,0,L|279:136,1,57.5,0|0,1:0|0:0,0:0:0:0:
209,218,113392,5,0,3:0:0:0:
87,232,113569,1,0,3:0:0:0:
142,140,113745,5,0,1:0:0:0:
155,288,113922,1,0,1:0:0:0:
60,152,114098,5,0,3:0:0:0:
238,298,114275,1,0,3:0:0:0:
232,118,114451,5,0,1:0:0:0:
55,332,114628,1,0,1:0:0:0:
352,259,115157,5,2,3:0:0:0:
255,334,115334,1,2,3:0:0:0:
152,224,115510,5,2,3:0:0:0:
239,344,115687,1,2,3:0:0:0:
411,195,115863,5,2,3:0:0:0:
272,328,116040,1,2,3:0:0:0:
148,79,116216,6,0,P|177:125|152:75,1,143.75,4|0,0:0|0:0,0:0:0:0:
157,201,116569,6,0,P|109:183|100:173,1,57.5,2|0,0:0|0:0,0:0:0:0:
298,297,116922,2,0,P|260:329|255:343,1,57.5,8|0,0:0|0:0,0:0:0:0:
214,188,117275,2,0,P|170:215|157:216,1,57.5,0|0,3:0|0:0,0:0:0:0:
366,279,117628,2,0,P|315:278|303:283,1,57.5,2|0,0:0|0:0,0:0:0:0:
248,138,117981,2,0,P|239:188|230:199,1,57.5,0|0,3:0|0:0,0:0:0:0:
430,295,118334,2,0,P|409:275|382:266,1,57.5,8|0,0:0|0:0,0:0:0:0:
243,111,118687,1,0,0:0:0:0:
362,170,118863,1,0,0:0:0:0:
183,53,119040,6,0,P|167:84|164:109,1,57.5,0|0,3:0|0:0,0:0:0:0:
52,222,119392,2,0,P|68:191|71:166,1,57.5
241,205,119745,2,0,P|208:211|172:205,1,57.5,8|0,0:0|0:0,0:0:0:0:
24,68,120098,2,0,P|59:62|85:63,1,57.5,0|0,3:0|0:0,0:0:0:0:
253,221,120451,6,0,P|218:227|192:226,1,57.5
145,322,120804,1,0,3:0:0:0:
145,126,120981,1,0,0:0:0:0:
281,225,121157,1,8,0:0:0:0:
86,228,121334,1,0,0:0:0:0:
301,227,121510,1,0,3:0:0:0:
67,228,121687,1,0,0:0:0:0:
331,225,121863,6,0,B|334:175|334:175|325:133|325:133|333:115|333:115|329:93|329:93|331:58,1,143.75,4|0,0:0|0:0,0:0:0:0:
460,23,122216,6,0,L|393:38,1,57.5,2|0,0:0|0:0,0:0:0:0:
187,71,122569,2,0,L|254:86,1,57.5,8|0,0:0|0:0,0:0:0:0:
476,104,122922,2,0,L|409:119,1,57.5,0|0,3:0|0:0,0:0:0:0:
156,150,123275,2,0,L|223:165,1,57.5,2|0,0:0|0:0,0:0:0:0:
495,185,123628,2,0,L|428:200,1,57.5,0|0,3:0|0:0,0:0:0:0:
131,225,123981,2,0,L|198:240,1,57.5,8|0,0:0|0:0,0:0:0:0:
301,162,124334,1,0,0:0:0:0:
299,311,124510,1,0,0:0:0:0:
483,200,124687,5,0,3:0:0:0:
483,200,125040,1,0,0:0:0:0:
299,311,125217,1,0,0:0:0:0:
301,162,125393,1,8,0:0:0:0:
441,215,125569,1,0,0:0:0:0:
303,284,125745,1,0,3:0:0:0:
307,178,125922,1,0,0:0:0:0:
296,27,126098,6,0,L|297:167,1,115,0|0,0:0|3:0,0:0:0:0:
303,284,126628,1,0,0:0:0:0:
137,233,126804,2,0,L|213:237,1,57.5,8|0,0:0|0:0,0:0:0:0:
219,47,127157,2,0,L|227:123,1,57.5,0|0,3:0|0:0,0:0:0:0:
457,150,127510,6,0,P|371:119|273:161,1,172.5,4|0,0:0|0:0,0:0:0:0:
211,104,128216,1,8,0:0:0:0:
211,104,128569,2,0,L|206:26,1,57.5,0|0,3:0|0:0,0:0:0:0:
110,212,128922,5,0,0:0:0:0:
110,212,129098,2,0,L|113:269,1,57.5,0|0,3:0|3:0,0:0:0:0:
253,294,129451,1,0,0:0:0:0:
253,294,129627,2,0,L|249:236,1,57.5,8|0,0:0|0:0,0:0:0:0:
166,51,129981,2,0,L|170:109,1,57.5,0|0,3:0|0:0,0:0:0:0:
275,327,130334,6,0,L|264:143,1,172.5,0|0,3:0|0:0,0:0:0:0:
328,88,131040,1,8,0:0:0:0:
328,88,131393,2,0,L|384:102,1,57.5,0|0,3:0|0:0,0:0:0:0:
454,222,131745,5,0,0:0:0:0:
454,222,131922,2,0,L|398:235,1,57.5,0|0,3:0|0:0,0:0:0:0:
248,309,132275,1,0,0:0:0:0:
248,309,132451,2,0,L|306:323,1,57.5,8|0,0:0|0:0,0:0:0:0:
78,226,132804,6,0,P|87:188|84:234,1,172.500006580353,2|0,0:0|0:0,0:0:0:0:
163,118,133157,6,0,P|263:115|311:36,1,172.5,0|0,3:0|0:0,0:0:0:0:
397,63,133863,1,8,0:0:0:0:
397,63,134216,2,0,L|405:134,1,57.5,0|0,3:0|0:0,0:0:0:0:
285,230,134569,6,0,L|227:236,2,57.5,0|0|0,0:0|3:0|3:0,0:0:0:0:
398,218,135098,1,0,0:0:0:0:
280,203,135275,2,0,L|223:210,1,57.5,8|0,0:0|0:0,0:0:0:0:
95,127,135628,2,0,L|152:133,1,57.5
291,216,135981,6,0,L|233:222,1,57.5,0|0,3:0|0:0,0:0:0:0:
81,213,136334,1,0,0:0:0:0:
226,246,136510,1,0,0:0:0:0:
141,307,136687,5,8,0:0:0:0:
180,114,136863,1,0,0:0:0:0:
130,318,137040,5,0,3:0:0:0:
172,99,137216,1,0,0:0:0:0:
311,128,137393,2,0,B|352:120|352:120|396:71|396:71|466:56,1,143.75,2|0,0:0|0:0,0:0:0:0:
439,169,137746,6,0,L|430:209,1,34.4999989471436,0|0,3:0|0:0,0:0:0:0:
328,237,138099,2,0,L|319:277,1,34.4999989471436,8|0,0:0|0:0,0:0:0:0:
179,238,138451,2,0,L|188:278,1,34.4999989471436,0|0,3:0|0:0,0:0:0:0:
141,115,138804,5,4,0:0:0:0:
399,115,150098,6,0,P|376:173|401:238,1,115,0|0,3:0|0:0,0:0:0:0:
471,179,150628,1,2,3:0:0:0:
306,260,150804,1,0,3:0:0:0:
306,260,151157,2,0,L|298:320,1,57.5,0|0,1:0|0:0,0:0:0:0:
101,292,151510,6,0,P|164:267|225:308,1,115,0|0,3:0|0:0,0:0:0:0:
156,362,152040,1,2,3:0:0:0:
250,195,152216,1,0,3:0:0:0:
250,195,152569,2,0,L|258:135,1,57.5,0|0,1:0|0:0,0:0:0:0:
441,74,152922,6,0,L|326:100,1,115,0|0,3:0|0:0,0:0:0:0:
269,28,153451,1,2,3:0:0:0:
360,188,153628,1,0,3:0:0:0:
360,188,153981,2,0,L|360:251,1,57.5,0|0,1:0|0:0,0:0:0:0:
175,319,154334,6,0,L|311:300,1,115,0|0,3:0|0:0,0:0:0:0:
369,347,154863,1,2,3:0:0:0:
278,187,155040,1,0,3:0:0:0:
278,187,155393,1,2,0:0:0:0:
280,95,155569,1,2,0:0:0:0:
280,95,155746,6,0,L|187:111,1,57.5,0|0,1:0|0:0,0:0:0:0:
278,187,156098,2,0,L|371:203,1,57.5,0|0,1:0|0:0,0:0:0:0:
299,75,156451,2,0,L|205:70,1,57.5,0|0,1:0|0:0,0:0:0:0:
276,218,156804,2,0,L|363:254,1,57.5,0|0,1:0|0:0,0:0:0:0:
351,82,157157,6,0,L|272:28,1,57.5,0|0,1:0|0:0,0:0:0:0:
231,212,157510,2,0,L|286:288,1,57.5,0|0,1:0|0:0,0:0:0:0:
391,119,157863,2,0,L|337:41,1,57.5,0|0,1:0|0:0,0:0:0:0:
202,176,158216,2,0,L|226:267,1,57.5,0|0,1:0|0:0,0:0:0:0:
327,224,158569,5,2,3:0:0:0:
197,150,158746,1,2,3:0:0:0:
342,186,158922,5,2,3:0:0:0:
183,174,159099,1,2,3:0:0:0:
348,152,159275,5,2,3:0:0:0:
181,208,159452,1,2,3:0:0:0:
351,114,159628,5,2,3:0:0:0:
185,241,159805,1,2,3:0:0:0:
334,69,159981,5,2,3:0:0:0:
204,270,160158,1,2,3:0:0:0:
301,48,160334,5,2,3:0:0:0:
236,293,160511,1,2,3:0:0:0:
269,27,160687,5,2,3:0:0:0:
277,307,160863,1,2,3:0:0:0:
235,21,161040,5,2,3:0:0:0:
316,315,161216,1,2,3:0:0:0:
227,202,163157,5,2,3:0:0:0:
142,293,163334,1,2,3:0:0:0:
376,183,163510,5,2,3:0:0:0:
264,306,163687,1,2,3:0:0:0:
505,176,163863,5,2,3:0:0:0:
382,320,164040,1,2,3:0:0:0:
236,16,164216,6,0,P|265:62|240:12,1,143.75,4|0,0:0|0:0,0:0:0:0:
371,103,164569,6,0,P|323:121|314:131,1,57.5,2|0,0:0|0:0,0:0:0:0:
249,309,164922,2,0,P|202:300|189:291,1,57.5,8|0,0:0|0:0,0:0:0:0:
417,216,165275,2,0,P|373:189|360:188,1,57.5,0|0,3:0|0:0,0:0:0:0:
184,199,165628,2,0,P|205:218|232:226,1,57.5,2|0,0:0|0:0,0:0:0:0:
367,321,165981,2,0,P|358:271|349:260,1,57.5,0|0,3:0|0:0,0:0:0:0:
258,93,166334,2,0,P|246:118|246:147,1,57.5,8|0,0:0|0:0,0:0:0:0:
334,257,166687,1,0,0:0:0:0:
161,280,166863,1,0,0:0:0:0:
274,313,167040,6,0,P|258:282|255:257,1,57.5,0|0,3:0|0:0,0:0:0:0:
222,87,167392,2,0,P|238:118|241:143,1,57.5
73,191,167745,2,0,L|130:191,1,57.5,8|0,0:0|0:0,0:0:0:0:
332,265,168098,2,0,L|274:264,1,57.5,0|0,3:0|0:0,0:0:0:0:
175,358,168451,6,0,L|175:300,1,57.5
282,247,168804,1,0,3:0:0:0:
86,247,168981,1,0,0:0:0:0:
257,258,169157,1,8,0:0:0:0:
183,104,169334,1,0,0:0:0:0:
259,278,169510,1,0,3:0:0:0:
183,85,169687,1,0,0:0:0:0:
94,272,169863,6,0,B|80:238|80:238|82:206|82:206|77:174|77:174|48:142,1,143.75,4|0,0:0|0:0,0:0:0:0:
241,50,170216,6,0,L|174:65,1,57.5,2|0,0:0|0:0,0:0:0:0:
367,129,170569,2,0,L|434:144,1,57.5,8|0,0:0|0:0,0:0:0:0:
215,138,170922,2,0,L|147:152,1,57.5,0|0,3:0|0:0,0:0:0:0:
377,214,171275,2,0,L|444:229,1,57.5,2|0,0:0|0:0,0:0:0:0:
214,220,171628,2,0,L|147:235,1,57.5,0|0,3:0|0:0,0:0:0:0:
394,299,171981,2,0,L|461:314,1,57.5,8|0,0:0|0:0,0:0:0:0:
319,343,172334,1,0,0:0:0:0:
236,232,172510,1,0,0:0:0:0:
357,224,172687,5,0,3:0:0:0:
357,224,173040,1,0,0:0:0:0:
181,317,173217,1,0,0:0:0:0:
304,344,173393,1,8,0:0:0:0:
289,159,173569,1,0,0:0:0:0:
169,281,173745,1,0,3:0:0:0:
323,333,173922,1,0,0:0:0:0:
232,105,174098,6,0,P|211:158|233:217,1,115,0|0,0:0|3:0,0:0:0:0:
314,314,174628,1,0,0:0:0:0:
152,272,174804,2,0,L|76:276,1,57.5,8|0,0:0|0:0,0:0:0:0:
248,320,175157,2,0,L|324:324,1,57.5,0|0,3:0|0:0,0:0:0:0:
379,105,175510,6,0,L|389:277,1,172.5,4|0,0:0|0:0,0:0:0:0:
305,323,176216,1,8,0:0:0:0:
305,323,176569,2,0,L|248:320,1,57.5,0|0,3:0|0:0,0:0:0:0:
183,147,176922,2,0,L|186:204,2,57.5,0|0|0,0:0|3:0|3:0,0:0:0:0:
75,298,177451,2,0,L|71:240,1,57.5,0|8,0:0|0:0,0:0:0:0:
102,66,177804,1,0,0:0:0:0:
102,66,177981,2,0,L|106:124,1,57.5,0|0,3:0|0:0,0:0:0:0:
214,265,178334,6,0,L|203:81,1,172.5,0|0,3:0|0:0,0:0:0:0:
274,34,179040,1,8,0:0:0:0:
274,34,179393,2,0,L|352:29,1,57.5,0|0,3:0|0:0,0:0:0:0:
439,150,179746,2,0,L|381:146,2,57.5,0|0|0,0:0|3:0|3:0,0:0:0:0:
327,259,180275,2,0,L|270:256,1,57.5,0|8,0:0|0:0,0:0:0:0:
143,191,180627,1,0,0:0:0:0:
143,191,180804,6,0,P|152:153|149:199,1,172.500006580353,2|0,0:0|0:0,0:0:0:0:
115,79,181157,6,0,B|211:34|211:114|305:68,1,172.5,0|0,3:0|0:0,0:0:0:0:
343,146,181863,1,8,0:0:0:0:
343,146,182216,2,0,L|414:138,1,57.5,0|0,3:0|0:0,0:0:0:0:
425,249,182569,6,0,L|367:255,2,57.5,0|0|0,0:0|3:0|3:0,0:0:0:0:
336,161,183098,1,0,0:0:0:0:
426,265,183275,2,0,L|369:272,1,57.5,8|0,0:0|0:0,0:0:0:0:
233,319,183628,2,0,L|290:325,1,57.5
141,202,183981,6,0,L|147:260,1,57.5,0|0,3:0|0:0,0:0:0:0:
225,306,184334,1,0,0:0:0:0:
60,296,184510,1,0,0:0:0:0:
251,297,184687,5,8,0:0:0:0:
82,146,184863,1,0,0:0:0:0:
287,306,185040,5,0,3:0:0:0:
223,108,185216,1,0,0:0:0:0:
410,317,185392,6,0,B|385:309|359:270|359:270|378:320|364:341,1,143.75,2|0,0:0|0:0,0:0:0:0:
223,108,185745,6,0,L|214:148,1,34.4999989471436,0|0,3:0|0:0,0:0:0:0:
127,210,186098,2,0,L|136:250,1,34.4999989471436
252,293,186451,2,0,L|251:238,1,34.4999989471436
341,112,186804,5,0,0:0:0:0:
