osu file format v14

[General]
AudioFilename: audio.mp3
AudioLeadIn: 0
PreviewTime: 55498
Countdown: 1
SampleSet: Normal
StackLeniency: 0.7
Mode: 0
LetterboxInBreaks: 0
WidescreenStoryboard: 0

[Editor]
Bookmarks: 55851,56910,79498,138792
DistanceSpacing: 0.3
BeatDivisor: 4
GridSize: 4
TimelineZoom: 1

[Metadata]
Title:POP/STARS (feat. Madison Beer, (G)I-DLE, Jaira Burns)
TitleUnicode:POP/STARS (feat. Madison Beer, (G)I-DLE, Jaira Burns)
Artist:K/DA
ArtistUnicode:K/DA
Creator:H i k a r i
Version:POPSTARS
Source:
Tags:
BeatmapID:1826791
BeatmapSetID:873982

[Difficulty]
HPDrainRate:8
CircleSize:4.5
OverallDifficulty:7
ApproachRate:9.3
SliderMultiplier:1.9
SliderTickRate:1

[Events]
//Background and Video events
Video,0,"video.mp4"
0,0,"image.jpg",0,0
//Break Periods
2,34522,45062
//Storyboard Layer 0 (Background)
//Storyboard Layer 1 (Fail)
//Storyboard Layer 2 (Pass)
//Storyboard Layer 3 (Foreground)
//Storyboard Sound Samples

[TimingPoints]
440,352.941176470588,4,2,0,50,1,0
440,-200,4,2,0,50,0,0
2028,-200,4,2,0,45,0,0
2381,-250,4,2,0,40,0,0
3263,-200,4,2,0,50,0,0
3616,-133.333333333333,4,2,0,50,0,0
3792,-100,4,2,0,50,0,0
3969,-200,4,2,0,50,0,0
4498,-250,4,2,0,40,0,0
5028,-400,4,2,0,30,0,0
6087,-133.333333333333,4,2,0,60,0,0
8910,-133.333333333333,4,2,0,40,0,0
9263,-125,4,2,0,50,0,0
9616,-117.647058823529,4,2,0,50,0,0
11028,-200,4,2,0,50,0,0
11381,-100,4,2,0,50,0,0
11734,-100,4,2,0,70,0,0
13851,-200,4,2,0,40,0,0
14028,-166.666666666667,4,2,0,50,0,0
14204,-142.857142857143,4,2,0,60,0,0
14381,-125,4,2,0,70,0,0
14557,-100,4,2,0,70,0,0
16675,-200,4,2,0,70,0,0
16851,-166.666666666667,4,2,0,70,0,0
17028,-200,4,2,0,70,0,0
17557,-200,4,2,0,70,0,0
17734,-166.666666666667,4,2,0,70,0,0
17910,-142.857142857143,4,2,0,70,0,0
18087,-100,4,2,0,70,0,0
20381,-100,4,2,0,60,0,0
20910,-100,4,2,0,70,0,0
25145,-200,4,2,0,70,0,0
25322,-166.666666666667,4,2,0,70,0,0
25498,-200,4,2,0,70,0,0
25851,-100,4,2,0,70,0,0
28851,-200,4,2,0,40,0,0
29028,-166.666666666667,4,2,0,50,0,0
29204,-142.857142857143,4,2,0,60,0,0
29381,-100,4,2,0,70,0,0
30792,-200,4,2,0,70,0,0
30969,-166.666666666667,4,2,0,70,0,0
31145,-142.857142857143,4,2,0,70,0,0
31322,-125,4,2,0,70,0,0
31498,-100,4,2,0,70,0,0
34322,-133.333333333333,4,2,0,50,0,0
55851,-133.333333333333,4,1,0,80,0,0
56910,-100,4,1,0,80,0,1
59734,-80,4,1,0,80,0,1
60439,-100,4,1,0,80,0,1
62734,-200,4,1,0,80,0,1
63263,-80,4,1,0,80,0,1
63616,-100,4,1,0,80,0,1
67498,-66.6666666666667,4,1,0,80,0,1
67851,-100,4,1,0,80,0,1
78439,-200,4,1,0,80,0,1
79498,-100,4,1,0,80,0,0
82322,-80,4,1,0,80,0,0
84616,-133.333333333333,4,1,0,80,0,0
85145,-80,4,1,0,80,0,0
86734,-200,4,1,0,80,0,0
87263,-66.6666666666667,4,1,0,80,0,0
87969,-100,4,1,0,80,0,0
92910,-66.6666666666667,4,1,0,80,0,0
93087,-71.4285714285714,4,1,0,80,0,0
93263,-76.9230769230769,4,1,0,80,0,0
93439,-83.3333333333333,4,1,0,80,0,0
93616,-66.6666666666667,4,1,0,80,0,1
99439,-133.333333333333,4,1,0,80,0,1
99969,-66.6666666666667,4,1,0,80,0,1
100675,-133.333333333333,4,1,0,80,0,1
101028,-66.6666666666667,4,1,0,80,0,1
102439,-133.333333333333,4,1,0,80,0,1
102792,-66.6666666666667,4,1,0,80,0,1
104910,-133.333333333333,4,2,0,60,0,0
110557,-100,4,1,0,60,0,0
113381,-200,4,1,0,60,0,0
113734,-133.333333333333,4,1,0,60,0,0
114087,-100,4,1,0,60,0,0
114439,-66.6666666666667,4,1,0,60,0,0
116204,-66.6666666666667,4,1,0,80,0,1
122028,-133.333333333333,4,1,0,80,0,1
122557,-66.6666666666667,4,1,0,80,0,1

[Colours]
Combo1 : 176,176,0
Combo2 : 189,123,255
Combo3 : 128,0,255
Combo4 : 145,255,255
Combo5 : 0,53,53
Combo6 : 255,255,128

[HitObjects]
108,76,440,5,0,1:0:0:0:
88,84,792,2,0,P|88:140|100:184,1,95,2|0,0:0|0:0,0:0:0:0:
176,260,1322,2,0,L|232:252,1,47.5,2|0,0:0|0:0,0:0:0:0:
372,176,1675,1,0,0:0:0:0:
372,176,1851,6,0,P|332:160|276:176,1,95,2|0,0:0|0:0,0:0:0:0:
312,136,2381,2,0,P|278:150|254:193,1,76,2|0,0:0|0:0,0:0:0:0:
320,304,2910,2,0,L|328:256,1,38,0|2,0:0|0:0,0:0:0:0:
376,80,3263,69,0,1:0:0:0:
304,36,3439,2,0,L|300:72,1,23.75,2|0,0:0|0:0,0:0:0:0:
220,0,3616,2,0,L|224:36,1,35.625001358986,2|0,0:0|0:0,0:0:0:0:
144,28,3792,2,0,L|138:74,1,47.5,2|0,0:0|0:0,0:0:0:0:
64,204,3969,6,0,P|52:156|72:112,1,95,2|0,0:0|0:0,0:0:0:0:
128,244,4498,70,8,P|99:271|60:275,1,76,2|0,0:0|0:0,0:0:0:0:
148,168,5028,6,0,L|176:172,1,23.75,2|0,0:0|0:0,0:0:0:0:
256,192,5381,12,4,6087,1:0:0:0:
280,128,6263,5,2,0:0:0:0:
376,24,6439,2,0,L|368:112,1,71.2500027179719
396,200,6792,2,0,B|312:184|340:236|256:224,1,142.500005435944
108,72,7498,5,0,1:0:0:0:
260,116,7675,2,0,L|184:128,1,71.2500027179719,2|0,0:0|0:0,0:0:0:0:
24,208,8028,1,0,0:0:0:0:
24,208,8204,2,0,L|172:224,1,142.500005435944,2|0,0:0|0:0,0:0:0:0:
296,236,8734,1,0,0:0:0:0:
412,160,8910,70,0,P|416:148|412:116,3,35.625001358986,2|0|0|0,0:0|0:0|0:0|0:0,0:0:0:0:
316,32,9263,6,0,P|315:50|320:69,3,38,2|0|0|0,0:0|0:0|0:0|0:0,0:0:0:0:
424,112,9616,70,0,L|428:47,3,40.375000770092,2|0|0|0,0:0|0:0|0:0|0:0,0:0:0:0:
340,24,9969,1,0,0:0:0:0:
272,12,10057,1,0,0:0:0:0:
236,68,10145,1,0,0:0:0:0:
284,120,10234,1,0,0:0:0:0:
348,96,10322,5,0,1:0:0:0:
329,343,10498,1,2,0:1:0:0:
456,232,10675,1,2,0:1:0:0:
209,213,10851,1,2,0:1:0:0:
328,252,11028,70,0,P|299:268|330:266,1,71.25,2|0,0:1|2:0,2:0:0:0:
232,96,11381,2,0,L|240:164,1,47.5,2|0,0:1|0:0,0:0:0:0:
320,336,11557,2,0,L|325:288,1,47.5,0|0,0:1|0:0,0:0:0:0:
372,212,11734,22,0,B|332:204|332:204|284:224|284:224|224:216,1,142.5,4|0,1:0|0:0,0:0:0:0:
220,216,12087,1,2,0:1:0:0:
324,120,12263,1,2,1:2:0:0:
136,260,12439,2,0,B|120:212|120:212|148:156,1,95,8|0,0:0|0:0,0:0:0:0:
164,92,12792,2,0,B|180:140|180:140|152:196,1,95,2|0,0:0|0:0,0:0:0:0:
80,72,13145,1,2,0:0:0:0:
80,72,13498,6,0,L|184:64,1,95,2|0,0:0|1:0,0:0:0:0:
276,16,13851,70,0,B|280:36|280:36|272:56,1,23.75,8|0,0:0|0:0,0:0:0:0:
340,72,14028,6,0,B|326:92|326:92|302:102,1,28.4999991302491,2|0,1:2|0:0,0:0:0:0:
356,160,14204,70,0,B|328:165|328:165|300:154,1,33.2499989852906,8|0,0:0|0:0,0:0:0:0:
296,236,14381,6,0,B|266:216|266:216|251:182,1,38,8|0,1:2|1:0,0:0:0:0:
208,132,14557,70,0,B|200:180|200:180|216:220|216:220|208:280,1,142.5,4|0,1:3|0:0,0:0:0:0:
204,292,14910,1,2,0:1:0:0:
224,112,15087,1,6,0:0:0:0:
184,200,15263,2,0,L|76:208,1,95,8|4,0:0|0:3,0:0:0:0:
209,270,15616,2,0,L|61:280,1,142.5,4|0,1:0|0:0,0:0:0:0:
56,280,15969,6,0,B|40:228|40:228|68:164,1,95,2|0,1:0|0:0,0:0:0:0:
132,28,16322,70,0,B|148:65|148:65|132:117,1,95,2|0,1:2|0:0,0:0:0:0:
56,190,16675,2,0,L|96:192,1,23.75,8|0,0:0|0:0,0:0:0:0:
220,296,16851,2,0,L|171:298,1,28.4999991302491,0|0,1:0|0:0,0:0:0:0:
40,200,17028,2,0,L|116:204,1,71.25,4|0,1:3|0:0,0:0:0:0:
188,208,17381,21,4,1:0:0:0:
228,100,17557,6,0,P|232:128|228:136,1,23.75,2|0,0:0|0:0,0:0:0:0:
312,44,17734,70,0,P|291:70|281:74,1,28.4999991302491,2|0,0:0|0:0,0:0:0:0:
408,84,17910,6,0,P|368:89|356:84,1,33.2499989852906,0|0,1:0|0:0,0:0:0:0:
380,264,18087,70,0,P|372:208|376:160,1,95,12|0,1:0|0:0,0:0:0:0:
464,336,18439,2,0,L|404:344,1,47.5,2|0,0:0|0:0,0:0:0:0:
312,264,18616,2,0,L|372:272,1,47.5
460,192,18792,1,0,1:0:0:0:
440,200,19145,6,0,P|432:152|436:96,1,95,2|0,0:0|0:0,0:0:0:0:
512,32,19498,1,8,0:0:0:0:
328,68,19675,1,0,1:0:0:0:
328,68,19763,1,0,0:0:0:0:
328,68,19851,2,0,L|268:64,1,47.5,2|0,0:0|0:0,0:0:0:0:
208,8,20028,1,0,0:0:0:0:
116,76,20204,70,0,B|104:120|104:120|120:196,1,95,4|0,0:1|3:0,0:0:0:0:
212,272,20469,1,0,3:0:0:0:
224,264,20557,2,0,L|228:208,2,47.5,0|0|0,3:0|3:0|3:0,3:0:0:0:
244,128,20910,6,0,L|364:136,1,95,8|0,0:0|0:0,0:0:0:0:
508,220,21263,2,0,L|388:228,1,95,2|0,0:0|0:0,0:0:0:0:
316,320,21616,2,0,B|300:280|300:280|316:208,1,95,2|0,0:0|1:0,0:0:0:0:
436,32,21969,2,0,B|452:72|452:72|436:144,1,95,0|0,1:0|0:0,0:0:0:0:
296,240,22322,1,8,0:0:0:0:
460,132,22498,1,0,1:0:0:0:
396,324,22675,1,0,1:0:0:0:
339,104,22851,1,0,1:0:0:0:
412,312,23028,6,0,P|357:308|249:336,1,142.5,4|0,1:0|0:0,0:0:0:0:
249,340,23381,1,2,3:0:0:0:
128,200,23557,1,2,1:0:0:0:
112,308,23734,2,0,P|100:260|112:216,1,95,8|0,0:0|0:0,0:0:0:0:
320,236,24087,2,0,B|240:224|264:272|184:260,1,142.5,2|0,1:0|0:0,0:0:0:0:
172,260,24439,1,2,1:0:0:0:
208,44,24616,2,0,L|216:148,1,95,2|4,0:0|0:3,0:0:0:0:
192,260,24969,1,0,0:0:0:0:
352,122,25145,6,0,L|376:128,1,23.75,8|0,0:0|0:0,0:0:0:0:
376,236,25322,70,0,L|334:225,1,28.4999991302491,0|0,1:0|0:0,0:0:0:0:
336,116,25498,2,0,L|412:112,1,71.25
472,68,25851,6,0,B|412:24|412:24|332:40,1,142.5,4|0,1:0|0:0,0:0:0:0:
324,44,26204,1,2,0:0:0:0:
224,100,26381,2,0,L|236:196,1,95,2|8,0:0|1:0,0:0:0:0:
332,224,26734,1,0,0:0:0:0:
136,20,26910,2,0,L|158:199,1,142.5,2|0,0:0|0:0,0:0:0:0:
160,184,27263,2,0,B|120:176|120:176|96:188|96:188|32:176,1,95,2|0,0:0|1:0,0:0:0:0:
296,288,27616,2,0,B|336:280|336:280|360:292|360:292|424:280,1,95,4|0,3:0|1:0,0:0:0:0:
140,304,27969,70,0,L|136:280,5,23.75,8|0|0|0|0|2,0:0|0:0|0:0|0:0|0:0|0:3,0:0:0:0:
248,208,28322,2,0,L|252:184,5,23.75,0|0|0|0|0|2,0:0|0:0|0:0|0:0|0:0|0:3,0:0:0:0:
124,72,28675,5,0,1:0:0:0:
268,168,28851,70,0,B|252:172|252:172|224:168,1,23.75,0|0,1:0|0:0,0:0:0:0:
336,132,29028,6,0,B|323:124|323:124|307:103,1,28.4999991302491,0|0,1:0|0:0,0:0:0:0:
408,164,29204,70,4,B|402:143|402:143|408:108,1,33.2499989852906,4|4,3:0|3:0,3:0:0:0:
408,20,29381,22,0,B|428:84|428:84|400:152,1,95,12|0,1:2|0:0,0:0:0:0:
360,336,29734,2,0,L|368:232,1,95,2|0,0:0|0:0,0:0:0:0:
432,100,30087,1,2,1:0:0:0:
384,224,30439,2,0,B|340:240|340:240|264:232,1,95,2|0,0:0|1:0,0:0:0:0:
128,120,30792,6,0,L|144:152,1,23.75,8|0,0:0|0:0,0:0:0:0:
264,104,30969,2,0,L|243:145,1,28.4999991302491,0|0,1:0|0:0,0:0:0:0:
120,68,31145,70,0,L|138:105,1,33.2499989852906,8|0,1:2|0:0,0:0:0:0:
256,56,31322,2,4,L|230:106,1,38,4|4,3:0|3:0,3:0:0:0:
184,300,31498,2,0,B|172:188|172:188|208:232,1,142.5,4|0,1:0|0:0,0:0:0:0:
256,240,31851,1,2,1:2:0:0:
104,248,32028,1,2,1:2:0:0:
272,248,32204,2,0,L|372:240,1,95,8|0,1:2|0:0,0:0:0:0:
104,248,32557,2,0,L|4:256,1,95,2|0,1:2|0:0,0:0:0:0:
64,64,32910,5,2,0:0:0:0:
212,108,33087,1,4,1:3:0:0:
244,28,33263,69,4,1:3:0:0:
40,144,33439,1,0,3:0:0:0:
224,120,33616,6,0,L|280:124,3,47.5,8|0|0|0,0:0|0:0|0:0|0:0,0:0:0:0:
332,208,33969,2,0,L|388:212,3,47.5,8|0|0|0,0:0|0:0|1:0|1:0,0:0:0:0:
464,296,34322,69,4,1:0:0:0:
180,80,45616,6,0,B|144:72|144:72|88:92,1,71.2500027179719,8|0,0:0|0:0,0:0:0:0:
260,56,45969,1,8,0:0:0:0:
228,204,46145,2,0,L|236:132,1,71.2500027179719,8|0,0:0|0:0,0:0:0:0:
168,256,46498,1,8,0:0:0:0:
244,288,46675,2,8,L|316:304,1,71.2500027179719,8|0,0:0|0:0,0:0:0:0:
452,216,47028,70,0,B|396:212|396:212|356:244,1,106.875004076958,8|0,0:0|0:0,0:0:0:0:
356,243,47381,2,0,L|368:168,1,71.2500027179719,0|8,0:0|0:0,0:0:0:0:
268,8,47734,2,0,L|278:78,1,71.2500027179719,0|8,0:0|0:0,0:0:0:0:
364,256,48087,1,12,0:0:0:0:
224,180,48263,1,0,0:0:0:0:
224,180,48351,1,0,0:0:0:0:
224,180,48439,6,0,P|144:172|96:184,1,106.875004076958,8|0,0:0|0:0,0:0:0:0:
60,232,48792,2,0,L|72:312,1,71.2500027179719,0|8,0:0|0:0,0:0:0:0:
124,360,49145,1,0,0:0:0:0:
204,352,49322,2,0,L|280:340,1,71.2500027179719,8|8,0:0|0:0,0:0:0:0:
356,320,49675,1,0,0:0:0:0:
432,224,49851,70,0,B|400:216|400:216|344:228,1,71.2500027179719,8|0,0:0|0:0,0:0:0:0:
384,140,50204,1,0,0:0:0:0:
420,68,50381,6,0,B|391:84|391:84|360:133,1,71.2500027179719,8|0,0:0|0:0,0:0:0:0:
360,244,50734,1,8,0:0:0:0:
260,184,50910,2,0,L|176:180,1,71.2500027179719,12|0,0:0|0:0,0:0:0:0:
88,176,51263,69,0,1:0:0:0:
360,124,51616,1,8,0:1:0:0:
108,92,51969,5,0,1:0:0:0:
380,144,52322,1,8,0:1:0:0:
320,224,52498,1,0,0:0:0:0:
424,312,52675,70,0,B|432:280|432:280|424:212,1,71.2500027179719,0|0,1:0|0:0,0:0:0:0:
304,140,53028,2,0,B|296:172|296:172|304:240,1,71.2500027179719,8|0,1:0|0:0,0:0:0:0:
432,328,53381,1,0,1:0:0:0:
312,312,53557,1,8,0:1:0:0:
200,344,53734,1,12,1:0:0:0:
80,328,53910,1,4,0:0:0:0:
64,144,54087,6,0,L|56:96,3,35.625001358986,0|0|0|0,1:0|0:0|1:0|0:0,0:0:0:0:
152,152,54439,2,0,L|180:112,3,35.625001358986,0|0|0|0,1:0|0:0|1:0|0:0,0:0:0:0:
204,224,54792,70,0,L|252:216,1,35.625001358986,0|0,1:0|0:0,0:0:0:0:
188,304,54969,2,0,L|227:332,1,35.625001358986,0|0,1:0|0:0,0:0:0:0:
308,340,55145,1,0,1:0:0:0:
272,343,55233,1,0,1:0:0:0:
237,347,55321,1,0,1:0:0:0:
201,350,55409,1,0,1:0:0:0:
164,356,55498,2,0,L|172:248,1,106.875004076958,0|0,0:0|0:0,2:0:0:0:
80,172,55851,5,0,0:0:0:0:
80,172,56028,1,2,0:0:0:0:
64,280,56204,2,0,L|52:184,1,71.2500027179719,2|0,0:0|0:0,0:0:0:0:
216,148,56557,2,0,L|228:52,1,71.2500027179719,2|0,0:0|0:0,0:0:0:0:
152,236,56910,38,0,B|200:228|200:228|244:248|244:248|304:236,1,142.5,4|0,0:0|2:0,0:0:0:0:
304,232,57263,2,0,L|292:288,1,47.5,4|0,0:2|2:0,0:0:0:0:
400,208,57439,2,0,L|388:264,1,47.5,4|0,0:3|2:0,0:0:0:0:
360,332,57616,5,8,0:0:0:0:
328,144,57792,1,0,0:2:0:0:
374,348,57969,2,0,L|390:252,1,95,0|0,0:0|0:2,0:0:0:0:
464,84,58322,70,0,B|476:120|476:120|460:188,1,95,0|4,0:0|0:3,0:0:0:0:
264,78,58675,2,0,B|297:94|297:94|334:154,1,95,4|0,0:3|0:0,0:0:0:0:
294,278,59028,2,0,L|186:270,1,95,8|0,0:0|0:0,0:0:0:0:
32,140,59381,2,0,L|44:196,1,47.5,2|0,0:0|2:0,0:0:0:0:
168,116,59557,2,0,L|156:172,1,47.5,2|0,0:0|0:0,0:0:0:0:
108,48,59734,6,0,B|204:32|176:108|284:92,1,178.125,4|0,0:0|0:0,0:0:0:0:
300,84,60087,1,2,0:1:0:0:
272,240,60263,1,2,0:0:0:0:
456,168,60439,2,0,L|352:164,1,95,8|4,0:0|3:0,0:0:0:0:
112,256,60792,2,0,L|277:249,1,142.5,4|0,0:0|2:0,0:0:0:0:
272,240,61145,69,0,0:0:0:0:
228,348,61322,1,2,0:0:0:0:
336,116,61498,5,0,0:0:0:0:
419,315,61675,1,2,0:0:0:0:
476,200,61851,2,0,B|424:188|424:188|360:208,1,95,8|2,0:0|0:0,0:0:0:0:
272,240,62204,2,0,L|220:236,1,47.5,2|0,0:0|2:0,0:0:0:0:
148,252,62381,2,0,L|200:256,1,47.5,2|2,0:0|0:0,0:0:0:0:
296,228,62557,5,0,0:0:0:0:
244,92,62734,2,0,L|252:148,1,47.5,2|2,0:3|3:0,0:0:0:0:
312,240,63087,1,4,0:3:0:0:
408,148,63263,6,0,B|336:144|336:144|296:160|296:160|212:152,1,178.125,12|0,0:0|0:0,0:0:0:0:
208,152,63616,1,2,0:0:0:0:
328,36,63792,1,2,0:0:0:0:
312,240,63969,2,0,B|330:290|330:290|316:344,1,95,0|2,0:0|0:0,0:0:0:0:
188,172,64322,2,0,B|156:112|156:112|182:27,1,142.5,2|0,0:0|2:0,0:0:0:0:
188,56,64675,2,0,L|76:44,1,95,8|0,0:0|0:0,0:0:0:0:
12,36,65028,1,0,0:0:0:0:
296,140,65204,1,0,0:0:0:0:
296,140,65292,1,0,0:0:0:0:
296,140,65381,70,0,B|392:124|392:124|344:192,1,142.5,4|0,0:0|2:0,0:0:0:0:
288,304,65734,2,0,L|280:236,1,47.5,2|0,0:0|2:0,0:0:0:0:
268,76,65910,2,0,L|273:123,1,47.5,2|0,0:0|2:0,0:0:0:0:
296,244,66087,1,8,0:0:0:0:
196,192,66263,1,0,0:0:0:0:
116,268,66439,2,0,L|8:276,1,95
184,328,66792,1,0,0:0:0:0:
208,176,66969,2,0,L|200:128,2,47.5,0|0|0,3:0|3:0|3:0,3:0:0:0:
176,344,67322,1,0,0:0:0:0:
288,88,67498,6,0,B|320:72|320:72|388:88,1,71.2500027179719,8|0,0:0|2:0,0:0:0:0:
368,204,67675,2,0,B|336:220|336:220|268:204,1,71.2500027179719,0|0,0:0|2:0,0:0:0:0:
192,48,67851,2,0,L|340:64,1,142.5,2|0,0:0|2:0,0:0:0:0:
354,80,68204,6,0,B|296:88|296:88|272:104|272:104|192:108,1,142.5,4|0,0:0|2:0,0:0:0:0:
104,44,68557,2,0,B|124:92|124:92|108:140,1,95,2|0,0:0|0:0,0:0:0:0:
40,176,68910,1,8,0:0:0:0:
124,316,69087,1,0,0:0:0:0:
120,296,69175,1,0,0:0:0:0:
116,276,69263,1,0,0:0:0:0:
180,192,69439,1,0,0:0:0:0:
260,248,69616,6,0,L|360:256,1,95,2|0,0:0|0:0,0:0:0:0:
436,260,69969,1,0,0:0:0:0:
308,172,70145,2,2,L|408:180,1,95,2|10,0:0|0:0,0:0:0:0:
484,184,70498,1,0,0:0:0:0:
224,72,70675,2,0,B|212:120|212:120|220:168,1,95,2|0,0:0|0:0,0:0:0:0:
172,260,71028,70,0,B|128:244|128:244|84:272|84:272|80:332,1,142.5,4|0,0:0|2:0,0:0:0:0:
88,336,71381,1,2,0:0:0:0:
188,276,71557,1,2,0:0:0:0:
108,132,71734,2,0,B|88:180|88:180|108:236,1,95,8|0,0:0|0:0,0:0:0:0:
28,108,72087,2,0,B|0:175|0:175|28:254,1,142.5,0|0,0:0|2:0,0:0:0:0:
40,256,72439,6,0,L|24:372,1,95,2|0,0:0|0:0,0:0:0:0:
200,288,72792,1,0,0:0:0:0:
196,88,72969,2,0,L|212:204,1,95,2|8,0:0|0:0,0:0:0:0:
36,120,73322,1,0,0:0:0:0:
324,72,73498,2,0,B|264:80|264:80|240:96|240:96|148:104,1,142.5,2|0,0:0|0:0,0:0:0:0:
164,104,73851,1,0,0:0:0:0:
301,234,74028,5,2,3:0:0:0:
304,220,74116,1,0,3:0:0:0:
307,206,74204,2,0,L|325:125,2,47.5,0|0|4,3:0|3:0|1:0,3:0:0:0:
378,302,74557,6,0,P|318:290|230:318,1,142.5,8|0,0:0|0:0,0:0:0:0:
156,344,74910,2,0,L|168:232,1,95,2|0,0:0|0:0,0:0:0:0:
87,68,75263,2,0,B|67:114|67:114|79:185,1,95,2|0,0:0|0:0,0:0:0:0:
184,260,75616,1,0,0:0:0:0:
252,128,75792,2,0,B|206:108|206:108|135:120,1,95,2|8,0:0|0:0,0:0:0:0:
288,204,76145,1,0,0:0:0:0:
288,204,76322,2,0,L|312:64,1,142.5,2|0,0:0|0:0,0:0:0:0:
332,64,76675,6,0,L|280:72,2,47.5,4|0|0,0:0|0:0|0:0,0:0:0:0:
460,120,77028,1,2,0:0:0:0:
460,120,77204,1,2,0:0:0:0:
384,184,77381,2,0,P|376:244|388:280,1,95,8|2,0:0|0:0,0:0:0:0:
470,342,77734,1,2,0:0:0:0:
302,312,77910,1,0,0:0:0:0:
156,360,78087,5,2,2:1:0:0:
180,232,78263,1,0,2:0:0:0:
172,340,78439,2,2,L|160:240,2,95,2|2|2,2:1|2:1|2:1,2:1:0:0:
216,144,79498,5,0,0:0:0:0:
256,192,79851,12,0,81969,0:0:0:0:
188,80,82322,5,4,0:0:0:0:
128,276,82675,2,0,P|124:220|108:148,1,118.75,2|0,0:0|2:0,0:0:0:0:
96,148,83204,1,0,0:0:0:0:
200,216,83381,2,0,B|248:212|248:212|272:220|272:220|340:208,1,118.75,2|0,0:0|2:0,0:0:0:0:
408,212,83910,1,0,0:0:0:0:
180,296,84087,2,0,B|228:292|228:292|252:300|252:300|320:288,1,118.75,2|0,0:0|2:0,0:0:0:0:
424,224,84439,2,0,B|436:196|436:196|412:140,1,59.375,2|0,0:3|2:0,0:0:0:0:
352,112,84616,2,0,L|324:116,4,17.812500679493,0|0|0|0|0,2:0|2:0|2:0|2:0|2:0,2:0:0:0:
256,180,84969,1,0,2:0:0:0:
464,112,85145,69,0,0:0:0:0:
408,320,85322,1,2,0:0:0:0:
404,184,85675,1,0,0:0:0:0:
388,180,85763,1,0,0:0:0:0:
372,176,85851,1,0,0:0:0:0:
240,240,86028,1,2,0:0:0:0:
392,44,86204,1,0,0:0:0:0:
472,272,86381,1,0,2:0:0:0:
372,176,86557,1,0,0:0:0:0:
240,240,86734,6,0,L|344:236,1,95,2|0,0:0|2:0,0:0:0:0:
140,264,87263,2,0,B|136:248|136:248|152:212,6,35.625001358986,2|0|0|0|8|0|0,0:0|2:0|2:0|2:0|0:3|2:0|2:0,2:0:0:0:
180,80,87616,2,0,L|184:120,6,35.625001358986,4|0|0|0|4|0|4,0:3|2:0|2:0|2:0|3:0|2:0|3:0,2:0:0:0:
88,152,87969,1,0,3:0:0:0:
264,236,88145,1,0,3:0:0:0:
283,206,88233,1,0,3:0:0:0:
303,176,88321,1,0,3:0:0:0:
286,145,88409,1,0,3:0:0:0:
269,114,88497,1,4,0:0:0:0:
0,184,88675,70,0,L|124:176,1,95
260,336,89028,2,0,B|212:328|212:328|172:352|172:352|92:340,1,142.5,0|0,0:0|2:0,0:0:0:0:
0,192,89381,1,0,0:0:0:0:
124,52,89557,2,0,L|136:104,1,47.5,0|0,0:0|2:0,0:0:0:0:
236,196,89734,2,0,L|184:180,1,47.5,0|0,0:3|1:0,0:3:0:0:
94,177,89910,1,0,0:0:0:0:
328,104,90087,2,0,B|284:84|284:84|224:108,1,95
404,216,90439,2,0,B|412:164|412:164|408:140|408:140|420:72,1,142.5,0|0,0:0|2:0,0:0:0:0:
332,288,90792,5,0,0:0:0:0:
440,344,90969,1,0,0:0:0:0:
451,342,91057,1,0,3:0:0:0:
463,340,91145,1,0,3:0:0:0:
475,338,91233,1,0,3:0:0:0:
486,336,91321,1,4,0:0:0:0:
296,228,91498,2,0,L|304:280,2,47.5
208,336,91851,1,0,0:0:0:0:
360,108,92028,1,0,0:0:0:0:
360,108,92116,1,0,0:0:0:0:
360,108,92204,70,0,P|288:120|248:152,1,95,2|0,0:0|0:0,0:0:0:0:
68,32,92557,2,0,P|121:81|137:129,1,95,2|0,0:0|0:0,0:0:0:0:
44,216,92910,2,0,B|32:180|32:180|68:128,1,71.2500027179719,10|0,0:0|2:0,0:0:0:0:
112,320,93087,2,0,L|96:384,1,66.4999979705811,0|0,0:0|2:0,0:0:0:0:
256,308,93263,2,0,B|237:341|237:341|174:349,1,71.2500027179719,0|0,0:0|2:0,0:0:0:0:
112,320,93440,2,0,L|48:304,1,66.4999979705811,0|0,0:0|2:0,0:0:0:0:
272,196,93616,1,4,0:0:0:0:
272,196,93792,6,2,P|360:136|260:148,1,285.000010871888,0|0,0:0|0:0,0:0:0:0:
47,303,94322,2,0,P|119:327|175:287,1,142.500005435944,8|0,0:0|0:0,0:0:0:0:
116,112,94587,2,0,B|88:160|88:160|108:256,1,142.500005435944
256,304,94851,2,0,L|344:316,1,71.2500027179719
452,292,95028,1,2,0:0:0:0:
252,48,95204,1,0,0:0:0:0:
252,48,95292,2,2,P|228:120|260:180,1,142.500005435944,0|0,0:0|0:0,0:0:0:0:
416,176,95557,2,0,L|328:164,1,71.2500027179719
105,245,95734,2,2,B|205:241|205:241|229:253|229:253|329:245,2,213.750008153916,10|0|0,0:0|0:0|0:0,0:0:0:0:
4,188,96439,70,0,L|36:340,1,142.500005435944,2|0,0:0|0:0,0:0:0:0:
248,144,96792,2,0,B|224:308|224:308|184:240,1,213.750008153916,2|0,0:0|0:0,0:0:0:0:
152,68,97145,2,2,B|280:48|224:136|396:88,2,213.750008153916,8|0|0,0:0|0:0|0:0,0:0:0:0:
80,144,97851,2,0,P|44:80|64:16,1,142.500005435944,2|0,0:0|0:0,0:0:0:0:
148,216,98116,2,0,B|60:200|-4:224,1,142.500005435944,2|0,0:0|0:0,0:0:0:0:
84,292,98381,2,0,P|56:328|48:368,1,71.2500027179719,2|0,0:0|0:0,0:0:0:0:
168,228,98557,1,8,0:0:0:0:
288,320,98734,2,0,L|360:328,1,71.2500027179719
468,184,98910,2,0,B|436:164|392:176|392:176|348:204|336:276,1,142.500005435944
428,272,99263,53,0,0:0:0:0:
424,96,99439,2,0,L|436:172,2,71.2500027179719,2|0|0,0:0|0:0|0:0,0:0:0:0:
456,20,99969,6,0,B|424:4|372:4|328:64|344:72|344:72|376:64|352:32|272:24,1,213.750008153916,12|0,0:0|2:0,0:0:0:0:
232,0,100322,2,0,P|220:40|240:88,1,71.2500027179719,2|0,0:0|2:0,0:0:0:0:
228,240,100498,2,0,P|234:205|222:172,1,71.2500027179719,0|0,0:0|2:0,0:0:0:0:
132,164,100675,2,0,L|264:180,1,106.875004076958,0|0,0:0|2:0,0:0:0:0:
324,248,101028,70,0,B|232:256|232:256|192:316,1,142.500005435944,2|0,0:0|0:0,0:0:0:0:
408,296,101381,2,0,B|420:264|420:264|392:184,1,71.2500027179719,8|0,0:0|2:0,0:0:0:0:
344,85,101557,2,0,B|332:120|332:120|344:152,1,71.2500027179719,0|0,0:0|2:0,0:0:0:0:
448,292,101734,2,0,B|448:257|448:257|394:192,1,71.2500027179719,0|0,0:0|2:0,0:0:0:0:
315,115,101910,2,0,B|315:152|315:152|337:178,1,71.2500027179719,0|0,0:0|2:0,0:0:0:0:
444,224,102087,1,0,0:0:0:0:
264,260,102263,1,0,0:0:0:0:
348,356,102439,2,0,L|360:272,1,71.2500027179719
232,104,102792,6,0,P|204:188|248:252,1,142.500005435944,12|0,0:0|0:0,0:0:0:0:
284,44,103145,2,0,P|216:28|180:44,1,71.2500027179719,0|0,0:0|2:0,0:0:0:0:
280,172,103322,2,0,P|348:188|384:172,1,71.2500027179719,0|0,0:0|2:0,0:0:0:0:
296,52,103498,2,0,B|204:60|204:60|180:72|180:72|60:80,2,213.750008153916,0|2|2,0:0|0:0|0:0,0:0:0:0:
60,284,104204,37,8,0:0:0:0:
68,231,104292,1,0,0:0:0:0:
106,196,104380,1,0,0:0:0:0:
158,199,104468,1,0,0:0:0:0:
197,234,104556,5,0,0:0:0:0:
236,270,104645,1,0,0:0:0:0:
288,269,104733,1,0,0:0:0:0:
326,234,104821,1,0,0:0:0:0:
335,182,104909,5,4,1:0:0:0:
400,64,105792,1,0,0:0:0:0:
400,64,105969,2,0,L|384:156,1,71.2500027179719,2|0,0:0|0:0,0:0:0:0:
324,216,106322,2,0,B|412:208|412:208|472:236,1,142.500005435944,2|0,0:0|0:0,0:0:0:0:
208,304,107028,2,0,P|180:240|196:164,1,142.500005435944,8|0,0:0|0:0,0:0:0:0:
272,72,107734,1,0,0:0:0:0:
360,184,108616,1,0,0:0:0:0:
360,184,108792,2,0,L|264:176,1,71.2500027179719
204,224,109145,5,0,0:0:0:0:
252,92,109322,1,0,0:0:0:0:
188,240,109498,2,0,L|284:248,1,71.2500027179719
408,304,109851,2,0,B|348:312|348:312|324:328|324:328|268:336,1,142.500005435944,8|0,0:0|0:0,0:0:0:0:
188,348,110381,1,0,0:0:0:0:
272,100,110557,69,0,0:0:0:0:
272,100,111263,1,8,2:1:0:0:
188,224,111616,1,0,0:0:0:0:
288,240,111792,1,0,2:0:0:0:
384,260,111969,2,0,L|364:360,1,95,0|0,0:0|2:0,0:0:0:0:
160,152,112322,2,0,L|178:245,1,95,0|0,0:1|2:0,0:0:0:0:
460,120,112675,2,0,B|336:104|392:168|244:148,1,190,8|8,0:0|0:0,0:0:0:0:
188,64,113204,1,0,0:0:0:0:
32,228,113381,6,0,L|40:252,1,23.75,0|0,0:0|2:0,0:0:0:0:
344,292,113557,2,0,L|336:268,1,23.75,0|0,0:0|2:0,0:0:0:0:
104,172,113734,70,0,L|100:228,1,35.625001358986,0|0,0:0|2:0,0:0:0:0:
272,348,113910,2,0,L|276:292,1,35.625001358986,0|0,0:0|2:0,0:0:0:0:
196,148,114087,6,0,L|160:220,1,47.5
180,372,114263,2,0,L|216:300,1,47.5
312,176,114439,70,0,L|236:212,1,71.2500027179719
64,344,114615,2,0,L|140:308,1,71.2500027179719
380,324,115146,53,0,0:0:0:0:
380,324,115322,1,2,0:0:0:0:
380,324,115498,2,0,B|372:256|372:256|376:240|376:240|368:144,1,142.500005435944,2|0,0:0|0:0,0:0:0:0:
132,216,115851,2,0,B|140:148|140:148|136:132|136:132|144:36,1,142.500005435944,2|2,0:0|0:0,0:0:0:0:
216,280,116204,6,0,B|60:252|60:252|116:316,1,213.750008153916,4|0,0:0|2:0,0:0:0:0:
288,248,116557,70,0,B|304:212|304:212|292:156,1,71.2500027179719,4|0,0:2|2:0,0:0:0:0:
84,280,116734,2,0,B|68:316|68:316|80:372,1,71.2500027179719,4|0,0:3|2:0,0:0:0:0:
144,224,116910,2,0,B|76:200|76:200|-32:252,1,142.500005435944,8|0,0:0|0:0,0:0:0:0:
60,68,117263,2,0,L|104:148,1,71.2500027179719,0|0,0:0|2:0,0:0:0:0:
236,8,117439,2,0,L|210:95,1,71.2500027179719
154,247,117616,2,0,L|-10:227,1,142.500005435944,0|4,0:0|0:3,0:0:0:0:
356,192,117969,2,0,L|520:172,1,142.500005435944,4|0,0:3|0:0,0:0:0:0:
216,76,118322,2,0,B|156:68|156:68|128:84|128:84|52:72,1,142.500005435944,8|4,0:0|0:3,0:0:0:0:
388,88,118675,6,0,L|404:0,1,71.2500027179719,2|0,0:0|2:0,0:0:0:0:
272,252,118851,2,0,L|284:322,1,71.2500027179719,2|0,0:0|2:0,0:0:0:0:
308,172,119028,2,0,B|160:136|220:264|76:208,1,213.750008153916,4|0,0:0|2:0,0:0:0:0:
72,216,119381,1,2,0:0:0:0:
340,184,119557,1,2,0:0:0:0:
24,280,119734,2,0,P|-8:208|28:144,1,142.500005435944,8|4,0:0|0:3,0:0:0:0:
239,131,120087,2,0,P|191:203|55:207,1,213.750008153916,4|0,0:0|2:0,0:0:0:0:
64,200,120439,69,0,0:0:0:0:
152,20,120616,1,2,0:0:0:0:
212,248,120792,1,0,0:0:0:0:
131,4,120969,1,2,0:0:0:0:
448,128,121145,2,0,L|276:120,1,142.500005435944,8|2,0:0|0:0,0:0:0:0:
72,60,121498,2,0,B|52:92|52:92|76:140,1,71.2500027179719,2|0,0:0|0:0,0:0:0:0:
72,348,121675,2,0,B|92:316|92:316|68:268,1,71.2500027179719,2|0,0:0|0:0,0:0:0:0:
56,136,121851,5,0,0:0:0:0:
56,280,122028,2,0,L|48:204,1,71.2500027179719,2|2,0:3|0:3,0:0:0:0:
76,108,122381,1,4,0:3:0:0:
368,212,122557,70,0,B|240:196|276:260|156:244,1,213.750008153916,12|0,0:0|2:0,0:0:0:0:
148,256,122910,2,0,L|156:180,1,71.2500027179719,2|0,0:0|2:0,0:0:0:0:
288,128,123087,2,0,L|280:52,1,71.2500027179719,2|0,0:0|2:0,0:0:0:0:
356,220,123263,2,0,B|424:236|424:236|516:192,1,142.500005435944,0|2,0:0|0:0,0:0:0:0:
512,40,123616,2,0,B|444:24|444:24|352:68,1,142.500005435944,2|0,0:0|0:0,0:0:0:0:
352,356,123969,2,0,L|376:204,1,142.500005435944,8|0,0:0|0:0,0:0:0:0:
232,104,124322,2,0,L|252:208,1,71.2500027179719,2|0,0:0|2:0,0:0:0:0:
104,56,124498,2,0,L|124:160,1,71.2500027179719,2|0,0:0|2:0,0:0:0:0:
296,284,124675,6,0,B|220:280|220:280|156:308|156:308|60:296,1,213.750008153916,4|0,0:0|2:0,0:0:0:0:
117,125,125028,2,0,B|131:145|131:145|119:244,1,71.2500027179719,2|0,0:0|2:0,0:0:0:0:
84,356,125204,2,0,B|70:336|70:336|82:237,1,71.2500027179719,2|0,0:0|2:0,0:0:0:0:
164,72,125381,2,0,B|208:120|208:120|192:232,1,142.500005435944,8|0,0:0|0:0,0:0:0:0:
28,200,125734,2,0,L|116:184,1,71.2500027179719,2|0,0:0|2:0,0:0:0:0:
256,344,125910,2,0,L|185:331,1,71.2500027179719,2|0,0:0|2:0,0:0:0:0:
75,289,126087,69,0,0:0:0:0:
308,68,126263,1,0,0:0:0:0:
312,88,126351,1,0,0:0:0:0:
316,108,126439,1,0,0:0:0:0:
64,304,126616,1,0,0:0:0:0:
360,232,126792,2,0,L|448:244,3,71.2500027179719,8|0|0|0,0:0|0:0|0:0|0:0,0:0:0:0:
208,56,127145,2,0,L|120:68,3,71.2500027179719,2|0|0|0,0:0|0:0|0:0|0:0,0:0:0:0:
396,112,127498,6,0,B|312:132|312:132|272:168|272:168|152:192,1,213.750008153916,4|0,0:0|2:0,0:0:0:0:
353,365,127851,2,0,B|381:309|381:309|357:221,1,142.500005435944,2|0,0:0|0:0,0:0:0:0:
304,48,128204,1,8,0:0:0:0:
184,316,128381,1,0,0:0:0:0:
204,320,128469,1,0,0:0:0:0:
224,324,128557,1,0,0:0:0:0:
28,280,128734,1,0,0:0:0:0:
120,44,128910,70,0,B|88:88|88:88|96:180,1,142.500005435944,2|0,0:0|0:0,0:0:0:0:
184,316,129263,1,0,0:0:0:0:
304,48,129439,2,0,B|250:56|250:56|190:127,1,142.500005435944,2|8,0:0|0:0,0:0:0:0:
296,224,129792,1,0,0:0:0:0:
450,246,129969,2,0,L|308:236,1,142.500005435944
