osu file format v14

[General]
AudioFilename: audio.mp3
AudioLeadIn: 0
PreviewTime: 55741
Countdown: 1
SampleSet: Normal
StackLeniency: 0.7
Mode: 1
LetterboxInBreaks: 0
WidescreenStoryboard: 0

[Editor]
Bookmarks: 330,5977,11624,22918,34212,45506,56800,79388,82212,104800,116094,138682,149987,164094,186682
DistanceSpacing: 0.2
BeatDivisor: 4
GridSize: 32
TimelineZoom: 2.600001

[Metadata]
Title:POP/STARS (feat. Madison Beer, (G)I-DLE, Jaira Burns)
TitleUnicode:POP/STARS (feat. Madison Beer, (G)I-DLE, Jaira Burns)
Artist:K/DA
ArtistUnicode:K/DA
Creator:Foxeru
Version:Gold
Source:League of Legends
Tags:k-pop kpop popstar popstars kda ahri evelynn kaisa kai'sa akali riot games worlds 2018 miyeon soyeon (여자)아이들 Video game English Korean
BeatmapID:1864269
BeatmapSetID:891755

[Difficulty]
HPDrainRate:5
CircleSize:2
OverallDifficulty:5
ApproachRate:9
SliderMultiplier:1.4
SliderTickRate:1

[Events]
//Background and Video events
0,0,"down down down down down down.jpg",0,0
//Break Periods
2,138882,149377
//Storyboard Layer 0 (Background)
//Storyboard Layer 1 (Fail)
//Storyboard Layer 2 (Pass)
//Storyboard Layer 3 (Foreground)
//Storyboard Layer 4 (Overlay)
//Storyboard Sound Samples

[TimingPoints]
330,352.941176470588,4,1,0,90,1,0
330,-125,4,1,0,90,0,0
5977,-117.647058823529,4,1,0,90,0,0
10212,-116.279069767442,4,1,0,90,0,0
10388,-114.942528735632,4,1,0,90,0,0
10477,-113.636363636364,4,1,0,90,0,0
10565,-112.359550561798,4,1,0,90,0,0
10741,-111.111111111111,4,1,0,90,0,0
10918,-108.695652173913,4,1,0,90,0,0
11271,-105.263157894737,4,1,0,90,0,0
11624,-100,4,1,0,90,0,0
15859,-95.2380952380952,4,1,0,90,0,0
16212,-90.9090909090909,4,1,0,90,0,0
16565,-86.9565217391304,4,1,0,90,0,0
16918,-83.3333333333333,4,1,0,90,0,0
17271,-100,4,1,0,90,0,0
21506,-95.2380952380952,4,1,0,90,0,0
21859,-90.9090909090909,4,1,0,90,0,0
22212,-86.9565217391304,4,1,0,90,0,0
22565,-83.3333333333333,4,1,0,90,0,0
22918,-100,4,1,0,90,0,0
27977,-102.040816326531,4,1,0,90,0,0
28094,-104.166666666667,4,1,0,90,0,0
28212,-106.382978723404,4,1,0,90,0,0
28565,-100,4,1,0,90,0,0
32712,-98.0392156862745,4,1,0,90,0,0
32800,-95.2380952380952,4,1,0,90,0,0
33153,-90.9090909090909,4,1,0,90,0,0
33506,-86.9565217391304,4,1,0,90,0,0
33859,-83.3333333333333,4,1,0,90,0,0
34212,-80,4,1,0,90,0,0
35094,-133.333333333333,4,1,0,90,0,0
45153,-125,4,1,0,90,0,0
45329,-117.647058823529,4,1,0,90,0,0
45506,-111.111111111111,4,1,0,90,0,0
50271,-108.695652173913,4,1,0,90,0,0
50447,-106.382978723404,4,1,0,90,0,0
50624,-104.166666666667,4,1,0,90,0,0
50800,-103.092783505155,4,1,0,90,0,0
50888,-102.040816326531,4,1,0,90,0,0
50977,-101.010101010101,4,1,0,90,0,0
51153,-100,4,1,0,90,0,0
53977,-99.009900990099,4,1,0,90,0,0
54153,-98.0392156862745,4,1,0,90,0,0
54329,-97.0873786407767,4,1,0,90,0,0
54506,-96.1538461538461,4,1,0,90,0,0
54682,-95.2380952380952,4,1,0,90,0,0
54771,-94.3396226415097,4,1,0,90,0,0
54859,-93.4579439252339,4,1,0,90,0,0
54947,-92.5925925925929,4,1,0,90,0,0
55035,-91.743119266055,4,1,0,90,0,0
55124,-90.9090909090909,4,1,0,90,0,0
55212,-90.0900900900901,4,1,0,90,0,0
56624,-88.4955752212389,4,1,0,90,0,0
56800,-86.9565217391304,4,1,0,90,0,1
73035,-86.9565217391304,4,1,0,90,0,0
73741,-86.9565217391304,4,1,0,90,0,1
78329,-88.4955752212389,4,1,0,90,0,0
78682,-90.9090909090909,4,1,0,90,0,0
79035,-95.2380952380952,4,1,0,90,0,0
79388,-100,4,1,0,90,0,0
81859,-99.009900990099,4,1,0,90,0,0
81947,-98.0392156862745,4,1,0,90,0,0
82035,-97.0873786407767,4,1,0,90,0,0
82124,-96.1538461538461,4,1,0,90,0,0
82212,-95.2380952380952,4,1,0,90,0,0
104535,-97.0873786407767,4,1,0,90,0,0
104624,-98.0392156862745,4,1,0,90,0,0
104800,-100,4,1,0,90,0,0
105682,-111.111111111111,4,1,0,90,0,0
110093,-107.52688172043,4,1,0,90,0,0
110270,-104.166666666667,4,1,0,90,0,0
110446,-100,4,1,0,90,0,0
113271,-99.009900990099,4,1,0,90,0,0
113447,-98.0392156862745,4,1,0,90,0,0
113623,-97.0873786407767,4,1,0,90,0,0
113800,-96.1538461538461,4,1,0,90,0,0
113976,-95.2380952380952,4,1,0,90,0,0
114065,-94.3396226415097,4,1,0,90,0,0
114153,-93.4579439252339,4,1,0,90,0,0
114241,-92.5925925925929,4,1,0,90,0,0
114329,-91.743119266055,4,1,0,90,0,0
114418,-90.9090909090909,4,1,0,90,0,0
114506,-90.0900900900901,4,1,0,90,0,0
114594,-89.2857142857143,4,1,0,90,0,0
115918,-88.4955752212389,4,1,0,90,0,0
116094,-86.9565217391304,4,1,0,90,0,1
132329,-86.9565217391304,4,1,0,90,0,0
133035,-86.9565217391304,4,1,0,90,0,1
137623,-88.4955752212389,4,1,0,90,0,1
137976,-90.9090909090909,4,1,0,90,0,1
138329,-95.2380952380952,4,1,0,90,0,1
138682,-100,4,1,0,90,0,0
149977,-111.111111111111,4,1,0,90,0,0
154741,-108.695652173913,4,1,0,90,0,0
154918,-106.382978723404,4,1,0,90,0,0
155271,-103.092783505155,4,1,0,90,0,0
155447,-102.040816326531,4,1,0,90,0,0
155535,-101.010101010101,4,1,0,90,0,0
155624,-100,4,1,0,90,0,0
158447,-99.009900990099,4,1,0,90,0,0
158623,-98.0392156862745,4,1,0,90,0,0
158799,-97.0873786407767,4,1,0,90,0,0
158976,-96.1538461538461,4,1,0,90,0,0
159152,-95.2380952380952,4,1,0,90,0,0
159329,-94.3396226415097,4,1,0,90,0,0
159506,-93.4579439252339,4,1,0,90,0,0
159682,-92.5925925925929,4,1,0,90,0,0
159859,-91.743119266055,4,1,0,90,0,0
160035,-90.9090909090909,4,1,0,90,0,0
160212,-90.0900900900901,4,1,0,90,0,0
160388,-89.2857142857143,4,1,0,90,0,0
160565,-88.4955752212389,4,1,0,90,0,0
160653,-87.719298245614,4,1,0,90,0,0
160741,-86.9565217391304,4,1,0,90,0,0
160829,-86.2068965517241,4,1,0,90,0,0
160918,-85.4700854700855,4,1,0,90,0,0
161006,-84.7457627118644,4,1,0,90,0,0
161094,-84.0336134453781,4,1,0,90,0,0
164094,-83.3333333333333,4,1,0,90,0,1
180329,-83.3333333333333,4,1,0,90,0,0
181035,-83.3333333333333,4,1,0,90,0,1
185624,-88.4955752212389,4,1,0,90,0,0
185976,-90.9090909090909,4,1,0,90,0,0
186329,-95.2380952380952,4,1,0,90,0,0
186682,-100,4,1,0,90,0,0

[HitObjects]
256,192,682,5,8,0:0:0:0:
256,192,1212,1,8,0:0:0:0:
256,192,1741,1,8,0:0:0:0:
256,192,3329,1,8,0:0:0:0:
256,192,3506,1,8,0:0:0:0:
256,192,3682,1,8,0:0:0:0:
256,192,3859,1,8,0:0:0:0:
256,192,4388,1,8,0:0:0:0:
256,192,5977,5,0,0:0:0:0:
256,192,6153,1,8,0:0:0:0:
256,192,6241,1,0,0:0:0:0:
256,192,6329,1,0,0:0:0:0:
256,192,6506,1,0,0:0:0:0:
256,192,6682,1,8,0:0:0:0:
256,192,7388,1,0,0:0:0:0:
256,192,7565,1,8,0:0:0:0:
256,192,7653,1,0,0:0:0:0:
256,192,7741,1,8,0:0:0:0:
256,192,7918,1,0,0:0:0:0:
256,192,8094,1,8,0:0:0:0:
256,192,8624,1,0,0:0:0:0:
256,192,8800,1,8,0:0:0:0:
256,192,8977,1,8,0:0:0:0:
256,192,9065,1,8,0:0:0:0:
256,192,9153,1,0,0:0:0:0:
256,192,9329,1,8,0:0:0:0:
256,192,9506,1,0,0:0:0:0:
256,192,9859,1,8,0:0:0:0:
256,192,10212,1,8,0:0:0:0:
256,192,10388,1,0,0:0:0:0:
256,192,10477,1,0,0:0:0:0:
256,192,10565,1,8,0:0:0:0:
256,192,10741,1,8,0:0:0:0:
256,192,10918,1,0,0:0:0:0:
256,192,11271,1,8,0:0:0:0:
256,192,11624,5,4,0:0:0:0:
256,192,11977,1,8,0:0:0:0:
256,192,12153,1,0,0:0:0:0:
256,192,12329,1,8,0:0:0:0:
256,192,12506,1,8,0:0:0:0:
256,192,12594,1,8,0:0:0:0:
256,192,12682,1,0,0:0:0:0:
256,192,12859,1,8,0:0:0:0:
256,192,13035,1,0,0:0:0:0:
256,192,13388,1,0,0:0:0:0:
256,192,13565,1,0,0:0:0:0:
256,192,13653,1,0,0:0:0:0:
256,192,13741,1,8,0:0:0:0:
256,192,13918,1,0,0:0:0:0:
256,192,14094,1,8,0:0:0:0:
256,192,14182,1,0,0:0:0:0:
256,192,14271,1,8,0:0:0:0:
256,192,14447,1,0,0:0:0:0:
256,192,14800,1,0,0:0:0:0:
256,192,14977,1,8,0:0:0:0:
256,192,15065,1,8,0:0:0:0:
256,192,15153,1,0,0:0:0:0:
256,192,15329,1,0,0:0:0:0:
256,192,15506,1,8,0:0:0:0:
256,192,15859,1,8,0:0:0:0:
256,192,16212,1,0,0:0:0:0:
256,192,16565,1,0,0:0:0:0:
256,192,16918,1,8,0:0:0:0:
256,192,17271,1,4,0:0:0:0:
256,192,17624,1,8,0:0:0:0:
256,192,17800,1,0,0:0:0:0:
256,192,17977,1,8,0:0:0:0:
256,192,18065,1,0,0:0:0:0:
256,192,18153,1,0,0:0:0:0:
256,192,18329,1,0,0:0:0:0:
256,192,18506,1,8,0:0:0:0:
256,192,18682,1,8,0:0:0:0:
256,192,19035,1,0,0:0:0:0:
256,192,19124,1,0,0:0:0:0:
256,192,19212,1,8,0:0:0:0:
256,192,19388,1,0,0:0:0:0:
256,192,19565,1,8,0:0:0:0:
256,192,19653,1,8,0:0:0:0:
256,192,19741,1,8,0:0:0:0:
256,192,19918,1,0,0:0:0:0:
256,192,20094,1,8,0:0:0:0:
256,192,20447,1,0,0:0:0:0:
256,192,20624,1,8,0:0:0:0:
256,192,20712,1,8,0:0:0:0:
256,192,20800,1,0,0:0:0:0:
256,192,20888,1,0,0:0:0:0:
256,192,20977,1,8,0:0:0:0:
256,192,21153,1,0,0:0:0:0:
256,192,21329,1,8,0:0:0:0:
256,192,21506,1,0,0:0:0:0:
256,192,21859,1,8,0:0:0:0:
256,192,22212,1,8,0:0:0:0:
256,192,22565,1,0,0:0:0:0:
256,192,22918,5,4,0:0:0:0:
256,192,23182,1,8,0:0:0:0:
256,192,23271,1,0,0:0:0:0:
256,192,23447,1,8,0:0:0:0:
256,192,23624,1,0,0:0:0:0:
256,192,23800,1,0,0:0:0:0:
256,192,23888,1,0,0:0:0:0:
256,192,23977,1,8,0:0:0:0:
256,192,24153,1,0,0:0:0:0:
256,192,24329,1,8,0:0:0:0:
256,192,24418,1,0,0:0:0:0:
256,192,24506,1,0,0:0:0:0:
256,192,24594,1,0,0:0:0:0:
256,192,24682,1,8,0:0:0:0:
256,192,24859,1,0,0:0:0:0:
256,192,25035,1,8,0:0:0:0:
256,192,25212,1,0,0:0:0:0:
256,192,25741,1,0,0:0:0:0:
256,192,26006,1,0,0:0:0:0:
256,192,26094,1,8,0:0:0:0:
256,192,26271,1,0,0:0:0:0:
256,192,26447,1,8,0:0:0:0:
256,192,26624,1,0,0:0:0:0:
256,192,26712,1,8,0:0:0:0:
256,192,26800,1,8,0:0:0:0:
256,192,26977,1,0,0:0:0:0:
256,192,27153,1,8,0:0:0:0:
256,192,27241,1,8,0:0:0:0:
256,192,27329,1,0,0:0:0:0:
256,192,27418,1,0,0:0:0:0:
256,192,27506,1,0,0:0:0:0:
256,192,27682,1,0,0:0:0:0:
256,192,27859,1,12,0:0:0:0:
256,192,28212,1,12,0:0:0:0:
256,192,28565,1,4,0:0:0:0:
256,192,28918,1,8,0:0:0:0:
256,192,29094,1,8,0:0:0:0:
256,192,29182,1,8,0:0:0:0:
256,192,29271,1,0,0:0:0:0:
256,192,29447,1,0,0:0:0:0:
256,192,29624,1,8,0:0:0:0:
256,192,29800,1,0,0:0:0:0:
256,192,29977,1,8,0:0:0:0:
256,192,30329,1,0,0:0:0:0:
256,192,30418,1,8,0:0:0:0:
256,192,30506,1,0,0:0:0:0:
256,192,30594,1,0,0:0:0:0:
256,192,30682,1,8,0:0:0:0:
256,192,30859,1,0,0:0:0:0:
256,192,31035,1,0,0:0:0:0:
256,192,31124,1,8,0:0:0:0:
256,192,31212,1,8,0:0:0:0:
256,192,31300,1,0,0:0:0:0:
256,192,31388,1,8,0:0:0:0:
256,192,31741,1,0,0:0:0:0:
256,192,31918,1,8,0:0:0:0:
256,192,32006,1,8,0:0:0:0:
256,192,32094,1,0,0:0:0:0:
256,192,32271,1,8,0:0:0:0:
256,192,32447,1,0,0:0:0:0:
256,192,32535,1,0,0:0:0:0:
256,192,32624,1,8,0:0:0:0:
256,192,32712,1,0,0:0:0:0:
256,192,32800,1,8,0:0:0:0:
256,192,33153,1,8,0:0:0:0:
256,192,33506,1,8,0:0:0:0:
256,192,33859,1,0,0:0:0:0:
256,192,34212,5,4,0:0:0:0:
256,192,35094,1,8,0:0:0:0:
256,192,35271,1,0,0:0:0:0:
256,192,35447,1,0,0:0:0:0:
256,192,35624,1,8,0:0:0:0:
256,192,35977,1,0,0:0:0:0:
256,192,36329,1,8,0:0:0:0:
256,192,36682,1,8,0:0:0:0:
256,192,37035,1,0,0:0:0:0:
256,192,37918,1,0,0:0:0:0:
256,192,38094,1,8,0:0:0:0:
256,192,38271,1,0,0:0:0:0:
256,192,38447,1,8,0:0:0:0:
256,192,38624,1,8,0:0:0:0:
256,192,38800,1,0,0:0:0:0:
256,192,38977,1,8,0:0:0:0:
256,192,39153,1,8,0:0:0:0:
256,192,39506,1,0,0:0:0:0:
256,192,39682,1,8,0:0:0:0:
256,192,39859,1,0,0:0:0:0:
256,192,40741,1,8,0:0:0:0:
256,192,41094,1,0,0:0:0:0:
256,192,41271,1,8,0:0:0:0:
256,192,41624,1,0,0:0:0:0:
256,192,41800,1,0,0:0:0:0:
256,192,41977,1,8,0:0:0:0:
256,192,42329,1,0,0:0:0:0:
256,192,42682,1,0,0:0:0:0:
256,192,42859,1,8,0:0:0:0:
256,192,43035,1,0,0:0:0:0:
256,192,43212,1,8,0:0:0:0:
256,192,43565,1,0,0:0:0:0:
256,192,43741,1,8,0:0:0:0:
256,192,43918,1,0,0:0:0:0:
256,192,44094,1,8,0:0:0:0:
256,192,44271,1,8,0:0:0:0:
256,192,44447,1,0,0:0:0:0:
256,192,44624,1,0,0:0:0:0:
256,192,44800,1,8,0:0:0:0:
256,192,45153,1,0,0:0:0:0:
256,192,45329,1,8,0:0:0:0:
256,192,45506,5,4,0:0:0:0:
256,192,46035,1,8,0:0:0:0:
256,192,46212,1,0,0:0:0:0:
256,192,46565,1,8,0:0:0:0:
256,192,46741,1,0,0:0:0:0:
256,192,46918,1,8,0:0:0:0:
256,192,47447,1,8,0:0:0:0:
256,192,47624,1,0,0:0:0:0:
256,192,47977,1,8,0:0:0:0:
256,192,48153,1,0,0:0:0:0:
256,192,48241,1,0,0:0:0:0:
256,192,48329,1,8,0:0:0:0:
256,192,48859,1,8,0:0:0:0:
256,192,49035,1,0,0:0:0:0:
256,192,49388,1,8,0:0:0:0:
256,192,49565,1,0,0:0:0:0:
256,192,49741,1,8,0:0:0:0:
256,192,50271,1,8,0:0:0:0:
256,192,50447,1,0,0:0:0:0:
256,192,50624,1,0,0:0:0:0:
256,192,50800,1,8,0:0:0:0:
256,192,50888,1,0,0:0:0:0:
256,192,50977,1,8,0:0:0:0:
256,192,51153,1,8,0:0:0:0:
256,192,51506,1,8,0:0:0:0:
256,192,51859,1,8,0:0:0:0:
256,192,52212,1,0,0:0:0:0:
256,192,52565,1,8,0:0:0:0:
256,192,52918,1,8,0:0:0:0:
256,192,53271,1,8,0:0:0:0:
256,192,53624,1,0,0:0:0:0:
256,192,53977,1,8,0:0:0:0:
256,192,54153,1,8,0:0:0:0:
256,192,54329,1,8,0:0:0:0:
256,192,54506,1,8,0:0:0:0:
256,192,54682,1,8,0:0:0:0:
256,192,54859,1,8,0:0:0:0:
256,192,54947,1,8,0:0:0:0:
256,192,55035,1,8,0:0:0:0:
256,192,55212,1,8,0:0:0:0:
256,192,55741,1,8,0:0:0:0:
256,192,55918,1,0,0:0:0:0:
256,192,56094,1,8,0:0:0:0:
256,192,56271,1,0,0:0:0:0:
256,192,56447,1,8,0:0:0:0:
256,192,56624,1,8,0:0:0:0:
256,192,56800,5,4,0:0:0:0:
256,192,57153,1,0,0:0:0:0:
256,192,57506,1,12,0:0:0:0:
256,192,57859,1,0,0:0:0:0:
256,192,58388,1,0,0:0:0:0:
256,192,58565,1,0,0:0:0:0:
256,192,58918,1,12,0:0:0:0:
256,192,59271,1,0,0:0:0:0:
256,192,59447,1,0,0:0:0:0:
256,192,59535,1,8,0:0:0:0:
256,192,59624,1,8,0:0:0:0:
256,192,59800,1,0,0:0:0:0:
256,192,59977,1,8,0:0:0:0:
256,192,60153,1,8,0:0:0:0:
256,192,60241,1,8,0:0:0:0:
256,192,60329,1,0,0:0:0:0:
256,192,60506,1,8,0:0:0:0:
256,192,60682,1,8,0:0:0:0:
256,192,60771,1,0,0:0:0:0:
256,192,60859,1,0,0:0:0:0:
256,192,60947,1,0,0:0:0:0:
256,192,61035,1,8,0:0:0:0:
256,192,61388,1,0,0:0:0:0:
256,192,61565,1,0,0:0:0:0:
256,192,61653,1,8,0:0:0:0:
256,192,61741,1,8,0:0:0:0:
256,192,61918,1,8,0:0:0:0:
256,192,62094,1,0,0:0:0:0:
256,192,62271,1,8,0:0:0:0:
256,192,62447,1,0,0:0:0:0:
256,192,62624,1,8,0:0:0:0:
256,192,62800,1,0,0:0:0:0:
256,192,62977,1,0,0:0:0:0:
256,192,63153,1,12,0:0:0:0:
256,192,63506,1,0,0:0:0:0:
256,192,64035,1,0,0:0:0:0:
256,192,64212,1,0,0:0:0:0:
256,192,64565,1,12,0:0:0:0:
256,192,64918,1,8,0:0:0:0:
256,192,65094,1,0,0:0:0:0:
256,192,65271,1,8,0:0:0:0:
256,192,65624,1,8,0:0:0:0:
256,192,65800,1,0,0:0:0:0:
256,192,65888,1,0,0:0:0:0:
256,192,65977,1,8,0:0:0:0:
256,192,66153,1,0,0:0:0:0:
256,192,66329,1,8,0:0:0:0:
256,192,66506,1,8,0:0:0:0:
256,192,66594,1,0,0:0:0:0:
256,192,66682,1,8,0:0:0:0:
256,192,66859,1,0,0:0:0:0:
256,192,67035,1,0,0:0:0:0:
256,192,67388,1,8,0:0:0:0:
256,192,67565,1,0,0:0:0:0:
256,192,67741,1,8,0:0:0:0:
256,192,67918,1,8,0:0:0:0:
256,192,68006,1,8,0:0:0:0:
256,192,68094,1,4,0:0:0:0:
256,192,68447,1,0,0:0:0:0:
256,192,68624,1,0,0:0:0:0:
256,192,68800,1,12,0:0:0:0:
256,192,69153,1,0,0:0:0:0:
256,192,69329,1,0,0:0:0:0:
256,192,69418,1,0,0:0:0:0:
256,192,69506,1,8,0:0:0:0:
256,192,69682,1,0,0:0:0:0:
256,192,69771,1,8,0:0:0:0:
256,192,69859,1,0,0:0:0:0:
256,192,70035,1,8,0:0:0:0:
256,192,70212,1,0,0:0:0:0:
256,192,70300,1,0,0:0:0:0:
256,192,70388,1,8,0:0:0:0:
256,192,70565,1,8,0:0:0:0:
256,192,70741,1,0,0:0:0:0:
256,192,70918,1,12,0:0:0:0:
256,192,71271,1,0,0:0:0:0:
256,192,71447,1,0,0:0:0:0:
256,192,71624,1,12,0:0:0:0:
256,192,71977,1,0,0:0:0:0:
256,192,72153,1,8,0:0:0:0:
256,192,72241,1,0,0:0:0:0:
256,192,72329,1,8,0:0:0:0:
256,192,72506,1,0,0:0:0:0:
256,192,72859,1,0,0:0:0:0:
256,192,73035,1,8,0:0:0:0:
256,192,73741,1,0,0:0:0:0:
256,192,73918,1,8,0:0:0:0:
256,192,74006,1,8,0:0:0:0:
256,192,74094,1,8,0:0:0:0:
256,192,74182,1,8,0:0:0:0:
256,192,74271,1,0,0:0:0:0:
256,192,74447,1,12,0:0:0:0:
256,192,74800,1,0,0:0:0:0:
256,192,74977,1,0,0:0:0:0:
256,192,75153,1,8,0:0:0:0:
256,192,75329,1,0,0:0:0:0:
256,192,75418,1,0,0:0:0:0:
256,192,75594,1,0,0:0:0:0:
256,192,75682,1,8,0:0:0:0:
256,192,75859,1,8,0:0:0:0:
256,192,76212,1,0,0:0:0:0:
256,192,76565,1,0,0:0:0:0:
256,192,76653,1,0,0:0:0:0:
256,192,76741,1,0,0:0:0:0:
256,192,76918,1,8,0:0:0:0:
256,192,77094,1,0,0:0:0:0:
256,192,77182,1,0,0:0:0:0:
256,192,77271,1,8,0:0:0:0:
256,192,77447,1,8,0:0:0:0:
256,192,77624,1,0,0:0:0:0:
256,192,77712,1,0,0:0:0:0:
256,192,77800,1,8,0:0:0:0:
256,192,77888,1,0,0:0:0:0:
256,192,77977,1,8,0:0:0:0:
256,192,78329,1,8,0:0:0:0:
256,192,78682,1,8,0:0:0:0:
256,192,79035,1,8,0:0:0:0:
256,192,79388,5,0,0:0:0:0:
256,192,79741,1,0,0:0:0:0:
256,192,79918,1,8,0:0:0:0:
256,192,80271,1,0,0:0:0:0:
256,192,80447,1,8,0:0:0:0:
256,192,80800,1,8,0:0:0:0:
256,192,80977,1,8,0:0:0:0:
256,192,81153,1,0,0:0:0:0:
256,192,81329,1,0,0:0:0:0:
256,192,81506,1,8,0:0:0:0:
256,192,81594,1,8,0:0:0:0:
256,192,81682,1,8,0:0:0:0:
256,192,81771,1,8,0:0:0:0:
256,192,81859,1,8,0:0:0:0:
256,192,81947,1,8,0:0:0:0:
256,192,82035,1,8,0:0:0:0:
256,192,82124,1,8,0:0:0:0:
256,192,82212,5,0,0:0:0:0:
256,192,82565,1,8,0:0:0:0:
256,192,83094,1,0,0:0:0:0:
256,192,83271,1,8,0:0:0:0:
256,192,83447,1,0,0:0:0:0:
256,192,83624,1,8,0:0:0:0:
256,192,83712,1,8,0:0:0:0:
256,192,83800,1,8,0:0:0:0:
256,192,83977,1,0,0:0:0:0:
256,192,84153,1,0,0:0:0:0:
256,192,84329,1,8,0:0:0:0:
256,192,84506,1,0,0:0:0:0:
256,192,84682,1,8,0:0:0:0:
256,192,84859,1,8,0:0:0:0:
256,192,85035,1,0,0:0:0:0:
256,192,85212,1,8,0:0:0:0:
256,192,85565,1,0,0:0:0:0:
256,192,85653,1,0,0:0:0:0:
256,192,85741,1,8,0:0:0:0:
256,192,85918,1,0,0:0:0:0:
256,192,86094,1,8,0:0:0:0:
256,192,86271,1,0,0:0:0:0:
256,192,86447,1,8,0:0:0:0:
256,192,86624,1,0,0:0:0:0:
256,192,86977,1,0,0:0:0:0:
256,192,87153,1,8,0:0:0:0:
256,192,87329,1,0,0:0:0:0:
256,192,87506,1,8,0:0:0:0:
256,192,87859,1,0,0:0:0:0:
256,192,88035,1,8,0:0:0:0:
256,192,88124,1,0,0:0:0:0:
256,192,88212,1,8,0:0:0:0:
256,192,88300,1,8,0:0:0:0:
256,192,88388,1,0,0:0:0:0:
256,192,88565,1,0,0:0:0:0:
256,192,88741,1,8,0:0:0:0:
256,192,88918,1,8,0:0:0:0:
256,192,89447,1,0,0:0:0:0:
256,192,89535,1,8,0:0:0:0:
256,192,89624,1,0,0:0:0:0:
256,192,89800,1,8,0:0:0:0:
256,192,89888,1,0,0:0:0:0:
256,192,89977,1,8,0:0:0:0:
256,192,90153,1,0,0:0:0:0:
256,192,90329,1,8,0:0:0:0:
256,192,90859,1,8,0:0:0:0:
256,192,90947,1,8,0:0:0:0:
256,192,91035,1,8,0:0:0:0:
256,192,91124,1,8,0:0:0:0:
256,192,91212,1,0,0:0:0:0:
256,192,91388,1,8,0:0:0:0:
256,192,91565,1,0,0:0:0:0:
256,192,91741,1,8,0:0:0:0:
256,192,91918,1,8,0:0:0:0:
256,192,92006,1,0,0:0:0:0:
256,192,92094,1,8,0:0:0:0:
256,192,92271,1,0,0:0:0:0:
256,192,92447,1,8,0:0:0:0:
256,192,92624,1,0,0:0:0:0:
256,192,92800,1,8,0:0:0:0:
256,192,92977,1,8,0:0:0:0:
256,192,93153,1,0,0:0:0:0:
256,192,93329,1,8,0:0:0:0:
256,192,93682,1,0,0:0:0:0:
256,192,93859,1,8,0:0:0:0:
256,192,94212,1,0,0:0:0:0:
256,192,94477,1,8,0:0:0:0:
256,192,94741,1,8,0:0:0:0:
256,192,94829,1,8,0:0:0:0:
256,192,94918,1,0,0:0:0:0:
256,192,95094,1,0,0:0:0:0:
256,192,95182,1,8,0:0:0:0:
256,192,95447,1,0,0:0:0:0:
256,192,95624,1,8,0:0:0:0:
256,192,95800,1,8,0:0:0:0:
256,192,95888,1,8,0:0:0:0:
256,192,96065,1,0,0:0:0:0:
256,192,96153,1,8,0:0:0:0:
256,192,96329,1,0,0:0:0:0:
256,192,96594,1,8,0:0:0:0:
256,192,97035,1,8,0:0:0:0:
256,192,97300,1,0,0:0:0:0:
256,192,97565,1,8,0:0:0:0:
256,192,97653,1,0,0:0:0:0:
256,192,97741,1,8,0:0:0:0:
256,192,97918,1,8,0:0:0:0:
256,192,98006,1,0,0:0:0:0:
256,192,98271,1,0,0:0:0:0:
256,192,98359,1,0,0:0:0:0:
256,192,98447,1,8,0:0:0:0:
256,192,98624,1,8,0:0:0:0:
256,192,98712,1,8,0:0:0:0:
256,192,98800,1,0,0:0:0:0:
256,192,98977,1,0,0:0:0:0:
256,192,99329,1,0,0:0:0:0:
256,192,99506,1,8,0:0:0:0:
256,192,99682,1,0,0:0:0:0:
256,192,99771,1,0,0:0:0:0:
256,192,99859,1,8,0:0:0:0:
256,192,100035,1,8,0:0:0:0:
256,192,100124,1,8,0:0:0:0:
256,192,100212,1,0,0:0:0:0:
256,192,100388,1,8,0:0:0:0:
256,192,100565,1,0,0:0:0:0:
256,192,100918,1,8,0:0:0:0:
256,192,101094,1,0,0:0:0:0:
256,192,101182,1,8,0:0:0:0:
256,192,101271,1,8,0:0:0:0:
256,192,101447,1,0,0:0:0:0:
256,192,101624,1,0,0:0:0:0:
256,192,101712,1,0,0:0:0:0:
256,192,101800,1,8,0:0:0:0:
256,192,101977,1,0,0:0:0:0:
256,192,102329,1,8,0:0:0:0:
256,192,102418,1,8,0:0:0:0:
256,192,102506,1,0,0:0:0:0:
256,192,102682,1,8,0:0:0:0:
256,192,102859,1,0,0:0:0:0:
256,192,102947,1,0,0:0:0:0:
256,192,103035,1,0,0:0:0:0:
256,192,103212,1,8,0:0:0:0:
256,192,103388,1,0,0:0:0:0:
256,192,103565,1,0,0:0:0:0:
256,192,103653,1,8,0:0:0:0:
256,192,103829,1,8,0:0:0:0:
256,192,103918,1,0,0:0:0:0:
256,192,104094,1,8,0:0:0:0:
256,192,104271,1,0,0:0:0:0:
256,192,104359,1,8,0:0:0:0:
256,192,104535,1,8,0:0:0:0:
256,192,104624,1,8,0:0:0:0:
256,192,104800,5,12,0:0:0:0:
256,192,105682,1,8,0:0:0:0:
256,192,105859,1,0,0:0:0:0:
256,192,106035,1,0,0:0:0:0:
256,192,106212,1,8,0:0:0:0:
256,192,106565,1,0,0:0:0:0:
256,192,106918,1,8,0:0:0:0:
256,192,107271,1,8,0:0:0:0:
256,192,107624,1,0,0:0:0:0:
256,192,108506,1,0,0:0:0:0:
256,192,108682,1,8,0:0:0:0:
256,192,108859,1,0,0:0:0:0:
256,192,109035,1,8,0:0:0:0:
256,192,109212,1,8,0:0:0:0:
256,192,109388,1,0,0:0:0:0:
256,192,109565,1,8,0:0:0:0:
256,192,109741,1,8,0:0:0:0:
256,192,110094,1,0,0:0:0:0:
256,192,110271,1,8,0:0:0:0:
256,192,110447,1,0,0:0:0:0:
256,192,110800,1,8,0:0:0:0:
256,192,111153,1,8,0:0:0:0:
256,192,111506,1,0,0:0:0:0:
256,192,111859,1,8,0:0:0:0:
256,192,112212,1,8,0:0:0:0:
256,192,112565,1,8,0:0:0:0:
256,192,112918,1,0,0:0:0:0:
256,192,113271,1,8,0:0:0:0:
256,192,113447,1,8,0:0:0:0:
256,192,113624,1,8,0:0:0:0:
256,192,113800,1,8,0:0:0:0:
256,192,113977,1,8,0:0:0:0:
256,192,114065,1,8,0:0:0:0:
256,192,114153,1,8,0:0:0:0:
256,192,114241,1,8,0:0:0:0:
256,192,114329,1,8,0:0:0:0:
256,192,114418,1,8,0:0:0:0:
256,192,114506,1,8,0:0:0:0:
256,192,114594,1,8,0:0:0:0:
256,192,115035,1,8,0:0:0:0:
256,192,115212,1,0,0:0:0:0:
256,192,115388,1,8,0:0:0:0:
256,192,115565,1,0,0:0:0:0:
256,192,115741,1,8,0:0:0:0:
256,192,115918,1,8,0:0:0:0:
256,192,116094,5,4,0:0:0:0:
256,192,116447,1,0,0:0:0:0:
256,192,116800,1,12,0:0:0:0:
256,192,117153,1,0,0:0:0:0:
256,192,117682,1,0,0:0:0:0:
256,192,117859,1,0,0:0:0:0:
256,192,118212,1,12,0:0:0:0:
256,192,118565,1,0,0:0:0:0:
256,192,118741,1,0,0:0:0:0:
256,192,118829,1,8,0:0:0:0:
256,192,118918,1,8,0:0:0:0:
256,192,119094,1,0,0:0:0:0:
256,192,119271,1,8,0:0:0:0:
256,192,119447,1,8,0:0:0:0:
256,192,119535,1,8,0:0:0:0:
256,192,119624,1,0,0:0:0:0:
256,192,119800,1,8,0:0:0:0:
256,192,119977,1,8,0:0:0:0:
256,192,120065,1,8,0:0:0:0:
256,192,120153,1,8,0:0:0:0:
256,192,120241,1,0,0:0:0:0:
256,192,120329,1,8,0:0:0:0:
256,192,120682,1,0,0:0:0:0:
256,192,120859,1,0,0:0:0:0:
256,192,120947,1,8,0:0:0:0:
256,192,121035,1,8,0:0:0:0:
256,192,121212,1,8,0:0:0:0:
256,192,121388,1,0,0:0:0:0:
256,192,121565,1,8,0:0:0:0:
256,192,121741,1,0,0:0:0:0:
256,192,121918,1,8,0:0:0:0:
256,192,122094,1,0,0:0:0:0:
256,192,122271,1,0,0:0:0:0:
256,192,122447,1,12,0:0:0:0:
256,192,122800,1,0,0:0:0:0:
256,192,123329,1,0,0:0:0:0:
256,192,123506,1,0,0:0:0:0:
256,192,123859,1,12,0:0:0:0:
256,192,124212,1,8,0:0:0:0:
256,192,124388,1,0,0:0:0:0:
256,192,124565,1,8,0:0:0:0:
256,192,124918,1,8,0:0:0:0:
256,192,125094,1,0,0:0:0:0:
256,192,125182,1,0,0:0:0:0:
256,192,125271,1,8,0:0:0:0:
256,192,125447,1,0,0:0:0:0:
256,192,125624,1,8,0:0:0:0:
256,192,125712,1,0,0:0:0:0:
256,192,125800,1,8,0:0:0:0:
256,192,125888,1,0,0:0:0:0:
256,192,125977,1,8,0:0:0:0:
256,192,126153,1,0,0:0:0:0:
256,192,126329,1,0,0:0:0:0:
256,192,126682,1,8,0:0:0:0:
256,192,126859,1,0,0:0:0:0:
256,192,127035,1,8,0:0:0:0:
256,192,127212,1,8,0:0:0:0:
256,192,127300,1,8,0:0:0:0:
256,192,127388,1,4,0:0:0:0:
256,192,127741,1,0,0:0:0:0:
256,192,127918,1,0,0:0:0:0:
256,192,128094,1,12,0:0:0:0:
256,192,128447,1,0,0:0:0:0:
256,192,128624,1,0,0:0:0:0:
256,192,128712,1,0,0:0:0:0:
256,192,128800,1,8,0:0:0:0:
256,192,128977,1,0,0:0:0:0:
256,192,129065,1,8,0:0:0:0:
256,192,129153,1,0,0:0:0:0:
256,192,129329,1,8,0:0:0:0:
256,192,129506,1,0,0:0:0:0:
256,192,129594,1,0,0:0:0:0:
256,192,129682,1,8,0:0:0:0:
256,192,129859,1,8,0:0:0:0:
256,192,130035,1,0,0:0:0:0:
256,192,130212,1,12,0:0:0:0:
256,192,130565,1,0,0:0:0:0:
256,192,130741,1,0,0:0:0:0:
256,192,130918,1,12,0:0:0:0:
256,192,131271,1,0,0:0:0:0:
256,192,131447,1,8,0:0:0:0:
256,192,131535,1,0,0:0:0:0:
256,192,131624,1,8,0:0:0:0:
256,192,131800,1,0,0:0:0:0:
256,192,132153,1,0,0:0:0:0:
256,192,132329,1,8,0:0:0:0:
256,192,133035,1,0,0:0:0:0:
256,192,133212,1,8,0:0:0:0:
256,192,133300,1,8,0:0:0:0:
256,192,133388,1,0,0:0:0:0:
256,192,133565,1,0,0:0:0:0:
256,192,133741,1,12,0:0:0:0:
256,192,134094,1,0,0:0:0:0:
256,192,134271,1,0,0:0:0:0:
256,192,134447,1,8,0:0:0:0:
256,192,134624,1,0,0:0:0:0:
256,192,134712,1,0,0:0:0:0:
256,192,134888,1,0,0:0:0:0:
256,192,134977,1,8,0:0:0:0:
256,192,135153,1,8,0:0:0:0:
256,192,135506,1,0,0:0:0:0:
256,192,135859,1,0,0:0:0:0:
256,192,135947,1,0,0:0:0:0:
256,192,136035,1,0,0:0:0:0:
256,192,136212,1,8,0:0:0:0:
256,192,136388,1,0,0:0:0:0:
256,192,136477,1,0,0:0:0:0:
256,192,136565,1,8,0:0:0:0:
256,192,136741,1,8,0:0:0:0:
256,192,136918,1,0,0:0:0:0:
256,192,137006,1,0,0:0:0:0:
256,192,137094,1,8,0:0:0:0:
256,192,137182,1,0,0:0:0:0:
256,192,137271,1,8,0:0:0:0:
256,192,137624,1,8,0:0:0:0:
256,192,137977,1,8,0:0:0:0:
256,192,138329,1,8,0:0:0:0:
256,192,138682,1,0,0:0:0:0:
256,192,149977,5,4,0:0:0:0:
256,192,150506,1,8,0:0:0:0:
256,192,150682,1,0,0:0:0:0:
256,192,151035,1,8,0:0:0:0:
256,192,151212,1,0,0:0:0:0:
256,192,151388,1,8,0:0:0:0:
256,192,151918,1,8,0:0:0:0:
256,192,152094,1,0,0:0:0:0:
256,192,152447,1,8,0:0:0:0:
256,192,152624,1,0,0:0:0:0:
256,192,152712,1,0,0:0:0:0:
256,192,152800,1,8,0:0:0:0:
256,192,153329,1,8,0:0:0:0:
256,192,153506,1,0,0:0:0:0:
256,192,153859,1,8,0:0:0:0:
256,192,154035,1,0,0:0:0:0:
256,192,154212,1,8,0:0:0:0:
256,192,154741,1,8,0:0:0:0:
256,192,154918,1,0,0:0:0:0:
256,192,155271,1,8,0:0:0:0:
256,192,155447,1,0,0:0:0:0:
256,192,155535,1,0,0:0:0:0:
256,192,155624,1,8,0:0:0:0:
256,192,155977,1,8,0:0:0:0:
256,192,156329,1,8,0:0:0:0:
256,192,156682,1,8,0:0:0:0:
256,192,157035,1,8,0:0:0:0:
256,192,157388,1,8,0:0:0:0:
256,192,157741,1,8,0:0:0:0:
256,192,158094,1,8,0:0:0:0:
256,192,158447,1,8,0:0:0:0:
256,192,158624,1,0,0:0:0:0:
256,192,158800,1,8,0:0:0:0:
256,192,158977,1,0,0:0:0:0:
256,192,159153,1,8,0:0:0:0:
256,192,159329,1,8,0:0:0:0:
256,192,159506,1,8,0:0:0:0:
256,192,159682,1,8,0:0:0:0:
256,192,159859,1,8,0:0:0:0:
256,192,160035,1,0,0:0:0:0:
256,192,160212,1,8,0:0:0:0:
256,192,160388,1,0,0:0:0:0:
256,192,160565,1,8,0:0:0:0:
256,192,160741,1,8,0:0:0:0:
256,192,160829,1,8,0:0:0:0:
256,192,160918,1,8,0:0:0:0:
256,192,161094,1,8,0:0:0:0:
256,192,161624,1,8,0:0:0:0:
256,192,161977,1,8,0:0:0:0:
256,192,162153,1,0,0:0:0:0:
256,192,162329,1,8,0:0:0:0:
256,192,162506,1,8,0:0:0:0:
256,192,162682,1,0,0:0:0:0:
256,192,163035,1,8,0:0:0:0:
256,192,163212,1,0,0:0:0:0:
256,192,163388,1,8,0:0:0:0:
256,192,163565,1,0,0:0:0:0:
256,192,163741,1,8,0:0:0:0:
256,192,163918,1,8,0:0:0:0:
256,192,164094,5,4,0:0:0:0:
256,192,164447,1,0,0:0:0:0:
256,192,164800,1,12,0:0:0:0:
256,192,165153,1,0,0:0:0:0:
256,192,165682,1,0,0:0:0:0:
256,192,165859,1,0,0:0:0:0:
256,192,166212,1,12,0:0:0:0:
256,192,166565,1,0,0:0:0:0:
256,192,166741,1,0,0:0:0:0:
256,192,166829,1,8,0:0:0:0:
256,192,166918,1,8,0:0:0:0:
256,192,167094,1,0,0:0:0:0:
256,192,167271,1,8,0:0:0:0:
256,192,167447,1,8,0:0:0:0:
256,192,167535,1,8,0:0:0:0:
256,192,167624,1,0,0:0:0:0:
256,192,167800,1,8,0:0:0:0:
256,192,167977,1,8,0:0:0:0:
256,192,168065,1,0,0:0:0:0:
256,192,168153,1,0,0:0:0:0:
256,192,168241,1,0,0:0:0:0:
256,192,168329,1,8,0:0:0:0:
256,192,168682,1,0,0:0:0:0:
256,192,168859,1,0,0:0:0:0:
256,192,168947,1,8,0:0:0:0:
256,192,169035,1,8,0:0:0:0:
256,192,169212,1,8,0:0:0:0:
256,192,169388,1,0,0:0:0:0:
256,192,169565,1,8,0:0:0:0:
256,192,169741,1,0,0:0:0:0:
256,192,169918,1,8,0:0:0:0:
256,192,170094,1,0,0:0:0:0:
256,192,170271,1,0,0:0:0:0:
256,192,170447,1,12,0:0:0:0:
256,192,170800,1,0,0:0:0:0:
256,192,171329,1,0,0:0:0:0:
256,192,171506,1,0,0:0:0:0:
256,192,171859,1,12,0:0:0:0:
256,192,172212,1,8,0:0:0:0:
256,192,172388,1,0,0:0:0:0:
256,192,172565,1,8,0:0:0:0:
256,192,172918,1,8,0:0:0:0:
256,192,173094,1,0,0:0:0:0:
256,192,173182,1,0,0:0:0:0:
256,192,173271,1,8,0:0:0:0:
256,192,173447,1,0,0:0:0:0:
256,192,173624,1,8,0:0:0:0:
256,192,173712,1,0,0:0:0:0:
256,192,173800,1,0,0:0:0:0:
256,192,173888,1,0,0:0:0:0:
256,192,173977,1,8,0:0:0:0:
256,192,174153,1,0,0:0:0:0:
256,192,174329,1,0,0:0:0:0:
256,192,174682,1,8,0:0:0:0:
256,192,174859,1,0,0:0:0:0:
256,192,174947,1,0,0:0:0:0:
256,192,175035,1,8,0:0:0:0:
256,192,175212,1,8,0:0:0:0:
256,192,175300,1,8,0:0:0:0:
256,192,175388,1,4,0:0:0:0:
256,192,175741,1,0,0:0:0:0:
256,192,175918,1,0,0:0:0:0:
256,192,176094,1,12,0:0:0:0:
256,192,176447,1,0,0:0:0:0:
256,192,176624,1,0,0:0:0:0:
256,192,176712,1,0,0:0:0:0:
256,192,176800,1,8,0:0:0:0:
256,192,176977,1,0,0:0:0:0:
256,192,177065,1,8,0:0:0:0:
256,192,177153,1,0,0:0:0:0:
256,192,177329,1,8,0:0:0:0:
256,192,177506,1,0,0:0:0:0:
256,192,177594,1,0,0:0:0:0:
256,192,177682,1,8,0:0:0:0:
256,192,177859,1,8,0:0:0:0:
256,192,178035,1,0,0:0:0:0:
256,192,178212,1,12,0:0:0:0:
256,192,178565,1,0,0:0:0:0:
256,192,178741,1,0,0:0:0:0:
256,192,178918,1,12,0:0:0:0:
256,192,179271,1,0,0:0:0:0:
256,192,179447,1,8,0:0:0:0:
256,192,179535,1,0,0:0:0:0:
256,192,179624,1,8,0:0:0:0:
256,192,179800,1,0,0:0:0:0:
256,192,180153,1,0,0:0:0:0:
256,192,180329,1,8,0:0:0:0:
256,192,181035,1,0,0:0:0:0:
256,192,181212,1,8,0:0:0:0:
256,192,181300,1,8,0:0:0:0:
256,192,181388,1,0,0:0:0:0:
256,192,181477,1,8,0:0:0:0:
256,192,181565,1,0,0:0:0:0:
256,192,181741,1,12,0:0:0:0:
256,192,182094,1,0,0:0:0:0:
256,192,182271,1,0,0:0:0:0:
256,192,182447,1,8,0:0:0:0:
256,192,182624,1,0,0:0:0:0:
256,192,182712,1,0,0:0:0:0:
256,192,182888,1,0,0:0:0:0:
256,192,182977,1,8,0:0:0:0:
256,192,183153,1,8,0:0:0:0:
256,192,183329,1,0,0:0:0:0:
256,192,183418,1,0,0:0:0:0:
256,192,183506,1,8,0:0:0:0:
256,192,183859,1,8,0:0:0:0:
256,192,183947,1,8,0:0:0:0:
256,192,184035,1,8,0:0:0:0:
256,192,184212,1,0,0:0:0:0:
256,192,184388,1,0,0:0:0:0:
256,192,184477,1,0,0:0:0:0:
256,192,184565,1,8,0:0:0:0:
256,192,184741,1,8,0:0:0:0:
256,192,184918,1,0,0:0:0:0:
256,192,185006,1,0,0:0:0:0:
256,192,185094,1,8,0:0:0:0:
256,192,185182,1,8,0:0:0:0:
256,192,185271,1,0,0:0:0:0:
256,192,185624,1,8,0:0:0:0:
256,192,185977,1,8,0:0:0:0:
256,192,186329,1,8,0:0:0:0:
256,192,186682,1,0,0:0:0:0:
