osu file format v14

[General]
AudioFilename: audio.mp3
AudioLeadIn: 0
PreviewTime: 113272
Countdown: 0
SampleSet: Soft
StackLeniency: 0.2
Mode: 0
LetterboxInBreaks: 0
WidescreenStoryboard: 1

[Editor]
Bookmarks: 5978,22920,55743,68096,79390,98006,99155,115037,127390,138684,161272,173006,175390,186684
DistanceSpacing: 1
BeatDivisor: 4
GridSize: 4
TimelineZoom: 2.3

[Metadata]
Title:POP/STARS (feat. Madison Beer, (G)I-DLE, Jaira Burns)
TitleUnicode:POP/STARS (feat. Madison Beer, (G)I-DLE, Jaira Burns)
Artist:K/DA
ArtistUnicode:K/DA
Creator:-Mikan
Version:Pika's Grandmaster
Source:League of Legends
Tags:[[Pika]] pika mindmaster107 misery cami kkipalt Jory -jordan- Knightcore knightc0re deviouspanda collab popstars kda ahri evelynn kaisa kai'sa akali riot games kpop korean english video game
BeatmapID:2162083
BeatmapSetID:1034063

[Difficulty]
HPDrainRate:5.5
CircleSize:4
OverallDifficulty:8.3
ApproachRate:9.2
SliderMultiplier:2.1
SliderTickRate:1

[Events]
//Background and Video events
0,0,"bgg.jpeg",0,0
Video,-169,"kda.mp4"
//Break Periods
2,138882,149407
//Storyboard Layer 0 (Background)
//Storyboard Layer 1 (Fail)
//Storyboard Layer 2 (Pass)
//Storyboard Layer 3 (Foreground)
//Storyboard Layer 4 (Overlay)
//Storyboard Sound Samples

[TimingPoints]
330,352.941176470588,4,2,1,50,1,0
330,-250,4,2,1,50,0,0
682,-80,4,2,1,50,0,0
5271,-333.333333333333,4,2,1,50,0,0
5977,-181.818181818182,4,2,1,50,0,1
6065,-181.818181818182,4,2,1,50,0,0
8094,-181.818181818182,4,2,1,50,0,0
10212,-80,4,2,1,50,0,0
10213,-80,4,2,1,50,0,0
10918,-322.58064516129,4,2,1,50,0,0
11624,-322.58064516129,4,2,1,60,0,0
12329,-166.666666666667,4,2,1,60,0,1
12418,-166.666666666667,4,2,1,60,0,0
15153,-60.6060606060606,4,2,1,60,0,0
15506,-166.666666666667,4,2,1,60,0,0
15859,-68.9655172413793,4,2,1,60,0,0
16565,-111.111111111111,4,2,1,60,0,0
17977,-68.9655172413793,4,2,1,60,0,0
18329,-166.666666666667,4,2,1,60,0,0
21859,-58.8235294117647,4,2,1,60,0,0
22212,-68.9655172413793,4,2,1,60,0,0
22918,-166.666666666667,4,2,1,60,0,0
23624,-60.6060606060606,4,2,1,60,0,1
23712,-60.6060606060606,4,2,1,60,0,0
23977,-125,4,2,1,60,0,0
25918,-166.666666666667,4,2,1,60,0,0
26447,-57.1428571428571,4,2,1,60,0,0
26800,-142.857142857143,4,2,1,60,0,0
27153,-125,4,2,1,60,0,0
27859,-74.0740740740741,4,2,1,60,0,0
29271,-74.0740740740741,4,2,1,60,0,0
29624,-96.1538461538461,4,2,1,60,0,0
30329,-166.666666666667,4,2,1,60,0,0
30859,-96.1538461538461,4,2,1,60,0,0
34212,-181.818181818182,4,2,1,60,0,1
34300,-181.818181818182,4,2,1,40,0,0
37035,-181.818181818182,4,2,1,40,0,0
37124,-181.818181818182,4,2,1,40,0,0
39859,-181.818181818182,4,2,1,40,0,0
39947,-181.818181818182,4,2,1,40,0,0
43212,-181.818181818182,4,2,1,40,0,0
43300,-181.818181818182,4,2,1,40,0,0
45506,-125,4,2,1,40,0,0
45507,-125,4,2,1,50,0,0
52565,-105.263157894737,4,2,1,50,0,0
54330,-105.263157894737,4,2,1,60,0,0
54683,-105.263157894737,4,2,1,70,0,0
55036,-105.263157894737,4,2,1,80,0,0
55741,-50,4,2,1,80,0,0
55742,-50,4,2,1,60,0,0
56094,-58.8235294117647,4,2,1,60,0,0
56447,-71.4285714285714,4,2,1,60,0,0
56800,-500,4,2,1,80,0,0
57153,-83.3333333333333,4,2,1,80,0,1
57859,-71.4285714285714,4,2,1,80,0,1
58565,-64.5161290322581,4,2,1,80,0,1
59624,-51.2820512820513,4,2,1,80,0,1
59977,-62.5,4,2,1,80,0,1
60329,-55.5555555555556,4,2,1,80,0,1
60682,-90.9090909090909,4,2,1,80,0,1
60859,-58.8235294117647,4,2,1,80,0,1
61035,-90.9090909090909,4,2,1,80,0,1
61388,-76.9230769230769,4,2,1,80,0,1
62094,-153.846153846154,4,2,1,80,0,1
62800,-74.0740740740741,4,2,1,80,0,1
63506,-55.5555555555556,4,2,1,80,0,1
64212,-43.4782608695652,4,2,1,80,0,1
65271,-45.4545454545455,4,2,1,80,0,1
65624,-60.6060606060606,4,2,1,80,0,1
65977,-57.1428571428571,4,2,1,80,0,1
66329,-46.5116279069767,4,2,1,80,0,1
66506,-74.0740740740741,4,2,1,80,0,1
66682,-250,4,2,1,80,0,1
67035,-60.6060606060606,4,2,1,80,0,1
67388,-74.0740740740741,4,2,1,80,0,1
67741,-90.9090909090909,4,2,1,80,0,1
68094,-222.222222222222,4,2,1,80,0,1
68712,-222.222222222222,4,2,1,80,0,0
68800,-54.054054054054,4,2,1,80,0,1
69153,-68.9655172413793,4,2,1,80,0,1
69506,-83.3333333333333,4,2,1,80,0,1
70918,-222.222222222222,4,2,1,80,0,1
71624,-54.054054054054,4,2,1,80,0,1
71977,-68.9655172413793,4,2,1,80,0,1
72329,-76.9230769230769,4,2,1,80,0,1
73388,-76.9230769230769,4,2,1,80,0,0
73741,-68.9655172413793,4,2,1,80,0,0
74271,-90.9090909090909,4,2,1,80,0,0
74447,-45.4545454545455,4,2,1,80,0,1
74800,-62.5,4,2,1,80,0,1
75153,-90.9090909090909,4,2,1,80,0,1
76212,-74.0740740740741,4,2,1,80,0,1
76918,-45.4545454545455,4,2,1,80,0,1
77271,-57.1428571428571,4,2,1,80,0,1
77624,-80,4,2,1,80,0,1
78329,-500,4,2,1,80,0,0
78330,-500,4,2,1,60,0,0
79388,-105.263157894737,4,2,1,60,0,0
79918,-117.647058823529,4,2,1,60,0,0
80447,-95.2380952380952,4,2,1,60,0,0
80977,-90.9090909090909,4,2,1,60,0,0
82212,-400,4,2,1,60,0,0
82741,-90.9090909090909,4,2,1,60,0,0
83271,-181.818181818182,4,2,1,60,0,0
83977,-105.263157894737,4,2,1,60,0,0
84329,-76.9230769230769,4,2,1,60,0,0
84682,-86.9565217391304,4,2,1,60,0,0
85741,-83.3333333333333,4,2,1,60,0,0
86094,-105.263157894737,4,2,1,60,0,0
86624,-83.3333333333333,4,2,1,60,0,0
87153,-74.0740740740741,4,2,1,60,0,0
87506,-95.2380952380952,4,2,1,60,0,0
88035,-83.3333333333333,4,2,1,60,0,0
88036,-83.3333333333333,4,2,1,30,0,0
88565,-71.4285714285714,4,2,1,30,0,0
88566,-71.4285714285714,4,2,1,60,0,0
88918,-166.666666666667,4,2,1,60,0,0
89624,-117.647058823529,4,2,1,60,0,0
90153,-64.5161290322581,4,2,1,60,0,0
90859,-125,4,2,1,60,0,0
91388,-57.1428571428571,4,2,1,60,0,0
91741,-133.333333333333,4,2,1,60,0,0
92800,-133.333333333333,4,2,1,40,0,0
92976,-133.333333333333,4,2,1,50,0,0
93154,-133.333333333333,4,2,1,60,0,0
93330,-133.333333333333,4,2,1,70,0,0
93507,-133.333333333333,4,2,1,60,0,0
94212,-68.9655172413793,4,2,1,60,0,1
94300,-68.9655172413793,4,2,1,60,0,0
95271,-76.9230769230769,4,2,1,60,0,0
97035,-68.9655172413793,4,2,1,60,0,0
97388,-76.9230769230769,4,2,1,60,0,0
98447,-64.5161290322581,4,2,1,60,0,0
98712,-166.666666666667,4,2,1,60,0,0
99153,-166.666666666667,4,2,1,60,0,0
99859,-142.857142857143,4,2,1,60,0,0
104448,-142.857142857143,4,2,1,80,0,0
104800,-181.818181818182,4,2,1,80,0,1
104888,-181.818181818182,4,2,1,40,0,0
107624,-181.818181818182,4,2,1,40,0,0
107712,-181.818181818182,4,2,1,40,0,0
110448,-181.818181818182,4,2,1,50,0,0
111859,-86.9565217391304,4,2,1,50,0,0
114330,-86.9565217391304,4,2,1,55,0,0
114507,-86.9565217391304,4,2,1,60,0,0
114682,-45.4545454545455,4,2,1,60,0,0
115388,-54.054054054054,4,2,1,60,0,0
115741,-68.9655172413793,4,2,1,60,0,0
116094,-500,4,2,1,80,0,0
116447,-83.3333333333333,4,2,1,80,0,1
117153,-71.4285714285714,4,2,1,80,0,1
117859,-64.5161290322581,4,2,1,80,0,1
118918,-47.6190476190476,4,2,1,80,0,1
119271,-62.5,4,2,1,80,0,1
119624,-54.054054054054,4,2,1,80,0,1
119977,-90.9090909090909,4,2,1,80,0,1
120153,-64.5161290322581,4,2,1,80,0,1
120329,-95.2380952380952,4,2,1,80,0,1
120682,-66.6666666666667,4,2,1,80,0,1
121388,-133.333333333333,4,2,1,80,0,1
122094,-71.4285714285714,4,2,1,80,0,1
122800,-52.6315789473684,4,2,1,80,0,1
123506,-43.4782608695652,4,2,1,80,0,1
124565,-51.2820512820513,4,2,1,80,0,1
124918,-62.5,4,2,1,80,0,1
125271,-55.5555555555556,4,2,1,80,0,1
125624,-44.4444444444445,4,2,1,80,0,1
125800,-68.9655172413793,4,2,1,80,0,1
125977,-285.714285714286,4,2,1,80,0,1
126329,-55.5555555555556,4,2,1,80,0,1
126682,-64.5161290322581,4,2,1,80,0,1
127035,-95.2380952380952,4,2,1,80,0,1
127388,-285.714285714286,4,2,1,80,0,1
128006,-285.714285714286,4,2,1,80,0,0
128094,-52.6315789473684,4,2,1,80,0,1
128447,-60.6060606060606,4,2,1,80,0,1
128800,-80,4,2,1,80,0,1
130212,-333.333333333333,4,2,1,80,0,1
130918,-52.6315789473684,4,2,1,80,0,1
131271,-62.5,4,2,1,80,0,1
131624,-76.9230769230769,4,2,1,80,0,1
132682,-76.9230769230769,4,2,1,80,0,0
133741,-45.4545454545455,4,2,1,80,0,1
134094,-60.6060606060606,4,2,1,80,0,1
135506,-60.6060606060606,4,2,1,80,0,1
136212,-52.6315789473684,4,2,1,80,0,1
136565,-62.5,4,2,1,80,0,1
136918,-76.9230769230769,4,2,1,80,0,1
137624,-71.4285714285714,4,2,1,80,0,1
137977,-89.2857142857143,4,2,1,80,0,1
138329,-119.047619047619,4,2,1,80,0,1
138682,-119.047619047619,4,2,1,80,0,0
149977,-250,4,2,1,40,0,0
150682,-125,4,2,1,40,0,0
151388,-250,4,2,1,40,0,0
152094,-125,4,2,1,40,0,0
152800,-250,4,2,1,40,0,0
153506,-125,4,2,1,40,0,0
154212,-250,4,2,1,40,0,0
154918,-125,4,2,1,40,0,0
155624,-86.9565217391304,4,2,1,40,0,0
158801,-86.9565217391304,4,2,1,45,0,0
159154,-86.9565217391304,4,2,1,50,0,0
159507,-86.9565217391304,4,2,1,55,0,0
159860,-86.9565217391304,4,2,1,60,0,0
160213,-86.9565217391304,4,2,1,65,0,0
160566,-86.9565217391304,4,2,1,70,0,0
160919,-86.9565217391304,4,2,1,75,0,0
161095,-86.9565217391304,4,2,1,80,0,0
161624,-86.9565217391304,4,2,1,30,0,0
163035,-43.4782608695652,4,2,1,30,0,0
163036,-43.4782608695652,4,2,1,60,0,0
163388,-52.6315789473684,4,2,1,60,0,0
163741,-71.4285714285714,4,2,1,60,0,0
164094,-333.333333333333,4,2,1,90,0,0
164447,-66.6666666666667,4,2,1,90,0,1
165153,-55.5555555555556,4,2,1,90,0,1
165859,-47.6190476190476,4,2,1,90,0,1
166918,-45.4545454545455,4,2,1,90,0,1
167271,-57.1428571428571,4,2,1,90,0,1
167624,-51.2820512820513,4,2,1,90,0,1
167977,-125,4,2,1,90,0,1
168153,-71.4285714285714,4,2,1,90,0,1
168329,-90.9090909090909,4,2,1,90,0,1
168682,-66.6666666666667,4,2,1,90,0,1
169388,-133.333333333333,4,2,1,90,0,1
170094,-66.6666666666667,4,2,1,90,0,1
170800,-52.6315789473684,4,2,1,90,0,1
171506,-44.4444444444445,4,2,1,90,0,1
172565,-51.2820512820513,4,2,1,90,0,1
172918,-60.6060606060606,4,2,1,90,0,1
173271,-52.6315789473684,4,2,1,90,0,1
173624,-43.4782608695652,4,2,1,90,0,1
173800,-76.9230769230769,4,2,1,90,0,1
173977,-285.714285714286,4,2,1,90,0,1
174329,-55.5555555555556,4,2,1,90,0,1
174682,-66.6666666666667,4,2,1,90,0,1
175035,-83.3333333333333,4,2,1,90,0,1
175388,-285.714285714286,4,2,1,90,0,1
176006,-285.714285714286,4,2,1,90,0,0
176094,-47.6190476190476,4,2,1,90,0,1
176447,-58.8235294117647,4,2,1,90,0,1
176800,-52.6315789473684,4,2,1,90,0,1
177506,-58.8235294117647,4,2,1,90,0,1
177859,-71.4285714285714,4,2,1,90,0,1
178212,-90.9090909090909,4,2,1,90,0,1
178918,-52.6315789473684,4,2,1,90,0,1
179271,-58.8235294117647,4,2,1,90,0,1
179624,-47.6190476190476,4,2,1,90,0,1
180682,-47.6190476190476,4,2,1,90,0,0
181035,-62.5,4,2,1,90,0,0
181741,-41.6666666666667,4,2,1,90,0,1
182094,-60.6060606060606,4,2,1,90,0,1
182359,-47.6190476190476,4,2,1,90,0,1
183153,-58.8235294117647,4,2,1,90,0,1
184035,-47.6190476190476,4,2,1,90,0,1
184212,-43.4782608695652,4,2,1,90,0,1
184565,-54.054054054054,4,2,1,90,0,1
184918,-74.0740740740741,4,2,1,90,0,1
185624,-500,4,2,1,60,0,0
185977,-500,4,2,1,90,0,0
187036,-500,4,2,1,5,0,0

[Colours]
Combo1 : 0,128,192
Combo2 : 177,17,206
Combo3 : 238,64,207
Combo4 : 125,81,242

[HitObjects]
166,332,330,6,0,L|102:342,1,63,2|0,0:0|0:0,0:0:0:0:
92,354,682,6,0,P|75:313|85:277,1,65.625,2|0,0:1|0:0,0:0:0:0:
56,346,1212,2,0,P|57:301|82:273,1,65.625,2|0,0:1|0:0,0:0:0:0:
23,326,1741,2,0,P|43:286|77:271,1,65.625,2|0,0:1|0:0,0:0:0:0:
166,332,3153,6,0,L|100:342,1,65.625,2|0,0:0|0:0,0:0:0:0:
92,354,3329,2,0,P|75:313|85:277,1,65.625,2|0,0:1|0:0,0:0:0:0:
33,221,3506,2,0,P|66:192|104:190,1,65.625,2|0,0:1|0:0,0:0:0:0:
141,123,3682,2,0,P|178:146|191:181,1,65.625,2|0,0:1|0:0,0:0:0:0:
266,195,3859,2,0,P|255:238|226:261,1,65.625,2|0,0:1|0:0,0:0:0:0:
140,113,4388,2,0,P|179:132|195:166,1,65.625,2|0,0:1|0:0,0:0:0:0:
188,163,5271,6,0,L|183:93,1,62.9999980773926,2|2,0:0|0:0,0:0:0:0:
450,373,5977,5,2,0:0:0:0:
473,299,6153,1,0,0:0:0:0:
408,254,6329,1,0,0:0:0:0:
346,301,6506,1,0,0:0:0:0:
469,207,6682,2,0,B|492:174|492:174|465:103,1,115.50000352478,2|0,0:0|0:0,0:0:0:0:
346,301,7388,5,2,0:0:0:0:
268,314,7565,1,0,0:0:0:0:
255,236,7741,1,0,0:0:0:0:
333,223,7918,1,0,0:0:0:0:
260,322,8094,2,0,B|197:346|217:302|141:324,1,115.50000352478,2|0,0:0|0:0,0:0:0:0:
84,371,8624,1,0,0:0:0:0:
135,240,8800,5,2,0:0:0:0:
60,209,8977,1,0,0:0:0:0:
28,108,9153,1,2,0:0:0:0:
99,0,9329,1,0,0:0:0:0:
228,112,9506,5,2,0:0:0:0:
171,287,9682,1,0,0:0:0:0:
0,339,9859,1,2,0:0:0:0:
124,162,10035,1,0,0:0:0:0:
362,227,10212,6,0,B|409:222|409:222|390:214,1,65.625,2|0,0:0|0:0,0:0:0:0:
346,242,10388,6,0,B|365:285|365:285|367:264,1,65.625,2|0,0:0|0:0,0:0:0:0:
326,231,10565,6,0,B|290:262|290:262|310:257,1,65.625,2|0,0:0|0:0,0:0:0:0:
330,209,10741,6,0,B|289:185|289:185|299:203,1,65.625,2|0,0:0|0:0,0:0:0:0:
353,208,10918,6,0,B|362:161|362:161|345:181,2,65.0999974172975,0|0|8,0:0|0:0|3:3,0:0:0:0:
82,360,11800,1,0,0:0:0:0:
196,350,11977,1,0,0:0:0:0:
310,340,12153,1,0,0:0:0:0:
0,271,12329,6,0,B|10:239|10:239|0:211,1,62.9999980773926,0|0,1:0|0:0,0:0:0:0:
55,23,12682,2,0,L|50:151,1,125.999996154785,8|0,3:3|0:0,0:0:0:0:
199,94,13212,1,8,3:3:0:0:
128,57,13388,2,0,L|124:124,1,62.9999980773926,8|0,3:3|0:0,0:0:0:0:
377,20,13741,1,8,1:3:0:0:
199,12,13918,2,0,B|269:4|243:62|312:54,1,125.999996154785,8|0,3:3|0:0,0:0:0:0:
450,49,14447,5,8,3:3:0:0:
337,130,14624,2,0,L|271:128,2,62.9999980773926,0|0|0,0:0|0:0|0:0,0:0:0:0:
469,220,15153,6,0,B|404:182|404:182|415:258|415:258|408:281|408:281|419:298|419:298|428:361,1,259.875002478361,0|0,1:0|0:0,0:0:0:0:
435,368,15506,6,0,L|425:296,1,62.9999980773926,8|0,3:3|0:0,0:0:0:0:
193,253,15859,6,0,P|229:226|258:221,1,76.1250023231507,0|0,0:0|0:0,0:0:0:0:
336,248,16035,1,0,3:0:0:0:
126,365,16212,6,0,B|149:290|84:304|114:214,1,152.250004646301,0|0,3:0|0:0,0:0:0:0:
111,46,16565,6,0,P|124:192|1:97,1,377.999988464356,8|0,1:0|3:0,0:0:0:0:
318,307,17447,1,2,0:2:0:0:
169,160,17624,1,2,0:2:0:0:
126,365,17800,1,2,0:2:0:0:
415,331,17977,6,0,B|472:286|472:286|314:307,1,228.375006969452,0|0,1:0|0:0,0:0:0:0:
253,350,18329,2,0,P|289:305|234:264,1,125.999996154785,8|0,3:3|0:0,0:0:0:0:
390,209,18859,1,8,3:3:0:0:
398,217,19035,2,0,L|336:225,1,62.9999980773926,8|0,3:3|0:0,0:0:0:0:
263,61,19388,5,8,1:3:0:0:
269,185,19565,2,0,B|271:129|271:129|262:113|262:113|264:51,1,125.999996154785,8|0,3:3|0:0,0:0:0:0:
126,9,20094,5,8,3:3:0:0:
205,19,20271,1,2,0:0:0:0:
205,19,20359,1,2,0:0:0:0:
205,19,20447,1,2,0:0:0:0:
159,79,20624,1,0,0:0:0:0:
481,205,20800,1,0,1:0:0:0:
435,145,20977,1,0,0:0:0:0:
398,217,21153,2,0,L|405:279,2,62.9999980773926,8|0|0,3:3|0:0|0:0,0:0:0:0:
213,361,21682,5,0,3:0:0:0:
421,382,21859,2,0,B|275:375|353:265|197:262,1,267.750005106926,8|0,3:3|0:0,0:0:0:0:
118,227,22212,6,0,L|129:306,1,76.1250023231507,8|0,0:2|0:0,0:0:0:0:
119,315,22388,2,0,L|108:239,1,76.1250023231507,0|0,0:0|0:0,0:0:0:0:
36,182,22565,6,0,L|24:261,1,76.1250023231507,0|0,3:0|0:0,0:0:0:0:
28,342,22741,2,0,L|38:266,1,76.1250023231507,0|0,0:0|0:0,0:0:0:0:
121,35,22918,5,12,3:3:0:0:
76,111,23094,2,0,L|-8:103,2,62.9999980773926,0|0|0,0:0|0:0|0:0,0:0:0:0:
365,13,23624,6,0,B|277:19|277:19|243:37|243:37|205:22|205:22|112:26,1,259.875002478361,0|0,1:0|0:0,0:0:0:0:
104,34,23977,2,0,L|196:30,1,84,8|0,3:3|0:0,0:0:0:0:
390,88,24329,5,0,0:0:0:0:
307,92,24506,1,8,3:3:0:0:
398,96,24682,2,0,L|490:92,1,84,8|0,3:3|0:0,0:0:0:0:
294,314,25035,5,8,1:3:0:0:
245,163,25212,2,0,B|224:260|307:224|293:317,1,168,8|0,3:3|0:0,0:0:0:0:
116,378,25741,5,8,3:3:0:0:
151,306,25918,2,0,L|238:300,2,62.9999980773926,0|0|0,0:0|0:0|0:0,0:0:0:0:
14,71,26447,6,0,B|86:114|86:114|65:345,1,275.625002628565,0|0,1:0|0:0,0:0:0:0:
60,312,26800,2,0,L|66:227,1,73.4999977569581,8|0,3:3|0:0,0:0:0:0:
182,16,27153,5,0,0:0:0:0:
98,20,27329,1,0,3:0:0:0:
190,24,27506,2,0,L|279:20,1,84,0|0,3:0|0:0,0:0:0:0:
509,188,27859,6,0,B|526:112|478:128|504:53|504:53|498:93|465:114,1,212.6250008111,0|0,1:0|0:0,0:0:0:0:
383,154,28212,2,0,B|365:229|413:213|387:288|387:288|393:248|426:227,1,212.6250008111,0|0,0:0|0:0,0:0:0:0:
416,38,28565,5,0,3:0:0:0:
301,249,28741,1,2,0:2:0:0:
408,30,28918,5,2,0:2:0:0:
477,300,29094,1,2,0:2:0:0:
225,246,29271,2,0,B|327:223|327:223|295:254,1,141.750000540733,0|0,1:0|0:0,0:0:0:0:
138,273,29624,2,0,B|124:238|143:205|143:205|167:166|150:131|150:131|118:166|134:195,1,218.399998666992,8|0,3:3|0:0,0:0:0:0:
199,341,30153,5,8,3:3:0:0:
47,356,30329,2,0,L|112:356,1,62.9999980773926,8|0,3:3|0:0,0:0:0:0:
237,115,30682,5,8,1:3:0:0:
73,85,30859,2,0,P|166:42|237:115,1,218.399998666992,8|0,3:3|0:0,0:0:0:0:
382,70,31388,5,8,3:3:0:0:
363,71,31477,1,0,0:0:0:0:
345,72,31565,1,0,0:0:0:0:
327,73,31653,1,0,0:0:0:0:
309,75,31741,5,0,0:0:0:0:
450,14,31918,1,0,0:0:0:0:
512,258,32094,5,0,1:0:0:0:
442,6,32271,1,0,0:0:0:0:
338,198,32447,5,8,3:3:0:0:
479,137,32624,1,0,0:0:0:0:
371,319,32800,5,2,0:0:0:0:
360,306,32977,1,8,1:3:0:0:
281,267,33153,1,8,3:3:0:0:
157,280,33329,1,0,0:0:0:0:
77,384,33506,5,8,1:3:0:0:
224,326,33682,1,0,0:0:0:0:
252,149,33859,1,8,3:3:0:0:
101,14,34035,1,0,0:0:0:0:
92,29,34212,6,0,B|216:79|194:-13|316:39,1,231.000007049561,6|0,0:3|0:0,0:0:0:0:
392,74,35094,2,0,L|469:66,2,57.7500017623902,2|0|0,0:0|0:0|0:0,0:0:0:0:
344,140,35624,2,0,B|370:162|370:162|373:224,1,86.6250026435853,2|0,0:0|0:0,0:0:0:0:
349,237,35977,2,0,L|352:299,1,57.7500017623902,0|0,0:0|0:0,0:0:0:0:
253,347,36329,2,0,B|324:333|298:382|367:368,1,115.50000352478,2|0,0:0|0:0,0:0:0:0:
136,323,37035,6,0,P|187:379|191:278,1,231.000007049561,6|0,0:3|0:0,0:0:0:0:
68,288,37918,2,0,L|-4:293,2,57.7500017623902,2|0|0,0:0|0:0|0:0,0:0:0:0:
130,245,38447,2,0,B|120:217|120:217|126:190,1,57.7500017623902,2|0,0:0|0:0,0:0:0:0:
62,86,38800,2,0,B|72:114|72:114|66:141,1,57.7500017623902,0|0,0:0|0:0,0:0:0:0:
178,88,39153,2,0,L|55:86,1,115.50000352478,2|0,0:2|0:0,0:0:0:0:
241,36,39682,1,2,0:2:0:0:
241,36,39859,6,0,B|335:29|335:29|382:58|382:58|473:49,1,231.000007049561,6|0,0:3|0:0,0:0:0:0:
332,176,40741,2,0,P|322:148|332:114,2,57.7500017623902,2|0|0,0:0|0:0|0:0,0:0:0:0:
456,218,41271,6,0,L|385:224,1,57.7500017623902,2|0,0:0|0:0,0:0:0:0:
325,254,41624,2,0,L|254:260,1,57.7500017623902,0|0,0:0|0:0,0:0:0:0:
487,291,41977,6,0,L|416:297,1,57.7500017623902,2|0,0:0|0:0,0:0:0:0:
333,262,42329,2,0,L|262:268,1,57.7500017623902,0|2,0:0|0:2,0:0:0:0:
174,347,42682,6,0,B|50:342|50:342,1,115.50000352478,2|0,0:2|0:0,0:0:0:0:
182,355,43212,2,0,B|187:315|187:315|174:280|174:280|181:226,1,115.50000352478,6|2,0:3|0:0,0:0:0:0:
123,121,43741,1,6,0:3:0:0:
116,196,43918,1,0,0:0:0:0:
201,131,44094,6,0,P|202:99|186:71,1,57.7500017623902,2|0,0:0|0:0,0:0:0:0:
69,17,44447,2,0,P|57:43|58:71,1,57.7500017623902,2|0,0:0|0:0,0:0:0:0:
329,18,44800,2,0,B|240:16|240:16|257:27|266:50,1,115.50000352478,2|2,0:2|0:2,0:0:0:0:
410,35,45329,1,2,0:2:0:0:
371,213,45506,6,0,P|350:172|358:124,1,84,14|0,3:2|0:0,0:0:0:0:
432,116,45771,1,0,0:0:0:0:
432,116,45859,2,0,P|453:157|445:205,1,84,0|8,0:0|0:2,0:0:0:0:
337,288,46212,2,0,L|243:283,1,84,0|0,3:0|0:0,0:0:0:0:
106,227,46565,2,0,L|200:222,1,84,8|0,0:2|0:0,0:0:0:0:
33,270,46918,6,0,P|22:231|31:189,1,84,8|0,3:2|0:0,0:0:0:0:
101,61,47182,1,0,0:0:0:0:
101,61,47271,2,0,L|101:153,1,84,0|8,0:0|0:2,0:0:0:0:
265,102,47624,2,0,L|172:101,1,84,0|0,3:0|0:0,0:0:0:0:
420,60,47977,2,0,L|336:60,1,84,8|0,0:2|0:0,0:0:0:0:
406,252,48329,6,0,P|427:211|419:163,1,84,14|0,3:2|0:0,0:0:0:0:
345,155,48594,1,0,0:0:0:0:
345,155,48682,2,0,P|324:196|332:244,1,84,0|8,0:0|0:2,0:0:0:0:
493,369,49035,2,0,L|483:271,1,84,0|0,3:0|0:0,0:0:0:0:
329,341,49388,2,0,L|427:331,1,84,8|0,0:2|0:0,0:0:0:0:
257,297,49741,5,8,3:2:0:0:
265,381,49918,1,0,0:0:0:0:
265,381,50006,1,0,0:0:0:0:
265,381,50094,1,0,0:0:0:0:
186,339,50271,1,8,0:2:0:0:
169,173,50447,2,0,L|179:271,1,84,0|0,3:0|0:0,0:0:0:0:
296,4,50800,5,8,0:2:0:0:
253,212,50977,1,8,0:2:0:0:
62,136,51153,5,6,3:3:0:0:
67,142,51506,1,8,3:2:0:0:
448,108,51859,5,8,3:2:0:0:
443,114,52212,1,8,3:2:0:0:
62,136,52565,6,0,L|69:238,1,99.7499973363877,8|0,3:2|0:0,0:0:0:0:
67,142,52918,2,0,L|74:244,1,99.7499973363877,8|0,3:2|0:0,0:0:0:0:
448,108,53271,6,0,L|441:210,1,99.7499973363877,8|0,3:2|0:0,0:0:0:0:
443,114,53624,2,0,L|436:216,1,99.7499973363877,8|0,3:2|0:0,0:0:0:0:
244,378,53977,5,8,3:2:0:0:
254,362,54153,1,8,3:2:0:0:
262,259,54329,1,8,3:2:0:0:
166,189,54506,1,8,3:2:0:0:
51,262,54682,5,8,3:2:0:0:
224,384,54859,1,8,3:2:0:0:
436,261,55035,1,8,3:2:0:0:
371,11,55212,1,8,3:2:0:0:
371,11,55741,6,0,L|389:117,1,105,2|0,0:2|0:0,0:0:0:0:
288,132,55918,2,0,L|271:29,1,105,2|0,0:2|0:0,0:0:0:0:
114,93,56094,6,0,L|96:184,1,89.2500017023087,2|0,0:2|0:0,0:0:0:0:
181,198,56271,2,0,L|199:111,1,89.2500017023087,2|0,0:2|0:0,0:0:0:0:
346,208,56447,6,0,L|358:290,1,73.4999977569581,2|0,0:2|0:0,0:0:0:0:
280,294,56624,2,0,L|269:222,1,73.4999977569581,2|0,0:2|0:0,0:0:0:0:
510,217,56800,6,0,L|472:225,1,31.5,12|0,3:3|0:0,0:0:0:0:
480,224,57153,6,0,B|500:352,1,125.999996154785,2|0,0:2|0:0,0:0:0:0:
96,180,57506,2,0,B|116:308,1,125.999996154785,10|0,0:0|0:0,0:0:0:0:
499,212,57859,6,0,L|482:368,1,146.999995513916,10|0,3:3|0:0,0:0:0:0:
114,168,58212,2,0,L|97:324,1,146.999995513916,2|0,0:2|3:0,0:0:0:0:
486,132,58565,6,0,L|512:306,1,162.750001241684,2|0,3:2|0:0,0:0:0:0:
77,93,58918,2,0,L|103:267,1,162.750001241684,10|0,0:2|0:0,0:0:0:0:
400,3,59271,5,2,0:2:0:0:
328,224,59447,1,0,0:0:0:0:
163,53,59624,2,0,B|27:45|27:45|79:95,1,204.750000781059,10|0,3:3|0:0,0:0:0:0:
328,224,59977,2,0,P|346:186|336:142,1,84,2|0,0:2|0:0,0:0:0:0:
251,136,60153,2,0,P|233:174|243:218,1,84,2|0,0:2|0:0,0:0:0:0:
394,317,60329,6,0,B|486:297|486:297|388:291,1,188.999994232178,8|0,0:2|0:0,0:0:0:0:
201,346,60594,1,0,0:0:0:0:
201,346,60682,6,0,L|195:281,1,57.7500017623902,10|0,3:3|0:0,0:0:0:0:
122,275,60859,6,0,L|132:367,1,89.2500017023087,0|0,0:0|0:0,0:0:0:0:
62,384,61035,6,0,L|46:255,1,115.50000352478,2|0,0:2|0:0,0:0:0:0:
93,143,61300,1,0,0:0:0:0:
93,143,61388,6,0,B|101:178|101:178|84:217,1,68.2499968757631,0|0,3:0|0:0,0:0:0:0:
28,92,61565,2,0,B|20:57|20:57|37:18,1,68.2499968757631,0|0,0:0|0:0,0:0:0:0:
177,182,61741,6,0,L|246:186,1,68.2499968757631,8|0,0:2|0:0,0:0:0:0:
170,60,61918,2,0,L|101:63,1,68.2499968757631,0|0,0:0|0:0,0:0:0:0:
184,173,62094,6,0,L|257:177,1,68.2499968757631,0|0,3:0|0:0,0:0:0:0:
327,18,62447,5,0,3:0:0:0:
319,27,62624,1,0,0:0:0:0:
413,280,62800,6,0,P|439:162|404:121,1,141.750000540733,2|0,0:2|0:0,0:0:0:0:
99,104,63153,2,0,P|73:222|108:263,1,141.750000540733,8|0,1:3|0:0,0:0:0:0:
416,311,63506,6,0,P|453:140|403:81,1,188.999994232178,10|0,3:3|0:0,0:0:0:0:
96,73,63859,2,0,P|58:243|108:302,1,188.999994232178,2|0,0:2|3:0,0:0:0:0:
426,335,64212,6,0,P|483:230|450:99,1,241.500004606247,2|0,3:0|0:0,0:0:0:0:
86,49,64565,2,0,P|29:154|62:285,1,241.500004606247,10|0,0:2|0:0,0:0:0:0:
399,361,64918,5,10,0:3:0:0:
287,171,65094,1,0,0:0:0:0:
171,353,65271,6,0,B|133:375|92:353|92:353|47:328|-41:348|46:398|83:363,1,231.000007049561,10|0,3:3|0:0,0:0:0:0:
312,91,65624,6,0,B|320:48|320:48|298:12,1,86.6250008261204,2|0,0:0|0:0,0:0:0:0:
218,27,65800,2,0,B|210:70|210:70|232:106,1,86.6250008261204,2|0,0:0|0:0,0:0:0:0:
466,166,65977,6,0,B|511:124|511:124|389:131,1,183.750001752377,8|8,0:2|0:3,0:0:0:0:
283,218,66241,1,0,0:0:0:0:
283,218,66329,6,0,P|339:202|398:209,1,112.875001722336,10|0,3:3|0:0,0:0:0:0:
381,277,66506,6,0,P|342:271|311:282,1,70.8750002703667,8|0,0:3|0:0,0:0:0:0:
350,341,66682,6,0,L|355:384,1,42,2|0,0:0|0:0,0:0:0:0:
20,140,67035,6,0,L|9:252,1,86.6250008261204,0|0,3:0|0:0,0:0:0:0:
207,166,67212,2,0,L|196:278,1,86.6250008261204,0|0,0:0|0:0,0:0:0:0:
33,129,67388,6,0,L|41:205,1,70.8750002703667,8|0,0:2|0:0,0:0:0:0:
179,119,67565,2,0,L|186:189,1,70.8750002703667,0|0,0:0|0:0,0:0:0:0:
58,97,67741,6,0,L|52:159,1,57.7500017623902,2|0,3:0|0:0,0:0:0:0:
169,106,67918,2,0,L|163:168,1,57.7500017623902,0|0,0:0|0:0,0:0:0:0:
91,351,68094,6,0,L|96:301,3,47.2499985580445,14|0|0|0,3:3|0:0|0:0|0:0,0:0:0:0:
450,218,68800,6,0,B|487:254|422:350|422:350|316:299|333:244,1,291.374998888493,8|0,0:0|0:0,0:0:0:0:
507,171,69153,6,0,P|470:147|428:149,1,76.1250023231507,10|0,3:3|0:0,0:0:0:0:
262,222,69329,2,0,P|291:184|341:174,1,76.1250023231507,0|0,0:0|0:0,0:0:0:0:
436,25,69506,6,0,P|381:35|366:100,1,125.999996154785,2|2,0:2|3:0,0:0:0:0:
364,96,69771,1,0,0:0:0:0:
364,96,69859,2,0,P|326:52|264:66,1,125.999996154785,0|2,3:0|0:0,0:0:0:0:
450,218,70212,5,10,0:2:0:0:
265,64,70388,1,2,3:0:0:0:
331,248,70565,5,2,0:2:0:0:
436,25,70741,1,0,0:0:0:0:
421,349,70918,6,0,L|409:301,3,47.2499985580445,14|0|0|0,3:3|0:0|0:0|0:0,0:0:0:0:
71,146,71624,6,0,B|43:86|43:86|96:26|96:26|168:61|168:61|165:127,1,291.374998888493,8|0,0:2|0:0,0:0:0:0:
53,222,71977,6,0,B|17:204|17:204|-7:160,1,76.1250023231507,10|0,3:3|0:0,0:0:0:0:
210,192,72153,2,0,B|236:162|236:162|243:112,1,76.1250023231507,0|0,0:0|0:0,0:0:0:0:
10,288,72329,6,0,L|140:246,1,136.499993751526,2|2,0:0|3:0,0:0:0:0:
139,246,72594,1,0,0:0:0:0:
139,246,72682,2,0,L|275:235,1,136.499993751526,0|2,3:0|0:0,0:0:0:0:
2,172,73035,5,10,0:2:0:0:
241,125,73212,1,0,0:0:0:0:
0,183,73388,1,2,3:0:0:0:
472,134,73741,6,0,L|387:129,1,76.1250023231507,0|0,3:0|0:0,0:0:0:0:
387,30,73918,5,2,0:2:0:0:
392,80,74006,1,2,0:2:0:0:
397,130,74094,1,2,0:2:0:0:
402,181,74182,1,2,0:2:0:0:
407,231,74271,2,0,L|413:294,1,57.7500017623902,2|0,3:2|0:0,0:0:0:0:
287,323,74447,6,0,B|428:283|376:355|475:381|536:368|537:252|471:248|384:304,1,346.500010574341,8|0,1:3|0:0,0:0:0:0:
202,384,74800,6,0,L|193:295,1,84,10|0,3:3|0:0,0:0:0:0:
201,285,74977,2,0,L|208:368,1,84,0|0,0:0|0:0,0:0:0:0:
7,351,75153,6,0,B|64:362|64:362|119:340,1,115.50000352478,2|2,0:0|3:0,0:0:0:0:
249,211,75418,1,0,0:0:0:0:
249,211,75506,2,0,B|192:200|192:200|137:222,1,115.50000352478,0|2,3:0|0:2,0:0:0:0:
37,14,75859,5,10,0:2:0:0:
57,274,76035,1,0,0:0:0:0:
51,24,76212,6,0,L|57:104,1,70.8750002703667,10|0,0:3|0:0,0:0:0:0:
69,258,76388,2,0,L|64:188,1,70.8750002703667,0|0,0:0|0:0,0:0:0:0:
295,122,76565,5,10,3:3:0:0:
295,122,76653,1,2,0:0:0:0:
295,122,76741,2,2,L|215:128,1,70.8750002703667,2|0,0:0|0:0,0:0:0:0:
489,27,76918,6,0,L|510:144,1,115.50000352478,2|0,0:0|0:0,0:0:0:0:
399,164,77094,2,0,L|378:50,1,115.50000352478,2|0,0:0|0:0,0:0:0:0:
224,127,77271,6,0,L|208:217,1,91.8750008761883,10|0,0:2|0:0,0:0:0:0:
297,238,77447,2,0,L|312:147,1,91.8750008761883,10|0,0:3|0:0,0:0:0:0:
460,253,77624,6,0,L|474:327,1,65.625,10|0,3:3|0:0,0:0:0:0:
397,330,77800,2,0,L|384:265,1,65.625,8|0,0:3|0:0,0:0:0:0:
258,20,77977,5,2,0:0:0:0:
272,367,78153,1,0,0:0:0:0:
262,376,78329,2,0,L|215:380,2,42,2|2|2,3:0|0:0|0:0,0:0:0:0:
156,166,79388,6,0,B|164:233|164:233|176:252|176:252|183:313,1,149.624996004582,2|0,0:0|0:0,0:0:0:0:
182,311,79741,1,0,0:0:0:0:
83,207,79918,6,0,B|90:266|90:266|100:282|100:282|106:336,1,133.875002553463,2|0,0:0|0:0,0:0:0:0:
107,338,80271,1,0,0:0:0:0:
3,210,80447,6,0,B|11:283|11:283|25:304|25:304|32:371,1,165.374994953156,2|0,0:0|0:0,0:0:0:0:
32,370,80800,5,0,0:0:0:0:
43,130,80977,2,0,B|52:68|52:68|-4:77,2,115.50000352478,2|2|2,0:0|0:0|0:0,0:0:0:0:
128,84,81506,5,2,0:0:0:0:
200,51,81594,1,0,0:0:0:0:
268,64,81682,1,2,0:0:0:0:
310,106,81771,1,0,0:0:0:0:
328,152,81859,1,0,0:0:0:0:
366,175,81947,1,0,0:0:0:0:
400,176,82035,1,2,0:0:0:0:
423,167,82124,1,0,0:0:0:0:
434,156,82212,6,0,P|444:132|447:114,1,39.375,12|0,3:3|0:0,0:0:0:0:
443,89,82565,1,0,0:0:0:0:
502,384,82741,2,0,L|506:203,1,173.250005287171,2|0,0:0|0:0,0:0:0:0:
506,194,83094,1,0,0:0:0:0:
393,348,83271,2,0,L|384:262,1,86.6250026435853,8|0,3:3|0:0,0:0:0:0:
383,248,83624,1,0,0:0:0:0:
187,317,83800,5,8,3:3:0:0:
315,384,83977,2,0,B|222:376|273:328|181:317,1,149.624996004582,8|0,3:3|0:0,0:0:0:0:
41,344,84329,6,0,P|76:350|116:312,1,68.2499968757631,2|0,0:3|0:0,0:0:0:0:
130,255,84506,2,0,P|117:220|65:205,1,68.2499968757631,8|0,3:3|0:0,0:0:0:0:
0,58,84682,2,0,B|16:182|16:182|26:150|56:132,1,181.125003454685,0|0,0:0|0:0,0:0:0:0:
161,74,85035,6,0,P|197:141|125:102,1,181.125003454685,8|0,3:3|0:0,0:0:0:0:
153,64,85388,2,0,L|225:60,1,60.3750011515618,0|0,0:0|0:0,0:0:0:0:
312,58,85565,1,0,0:0:0:0:
142,55,85741,6,0,B|221:52|221:52|238:39|238:39|254:51|254:51|332:48,1,188.999994232178,2|0,0:2|0:0,0:0:0:0:
381,102,86094,2,0,B|366:152|366:152|384:198,1,99.7499973363877,8|0,3:3|0:0,0:0:0:0:
295,159,86447,1,0,0:0:0:0:
450,150,86624,6,0,L|520:144,1,62.9999980773926,8|0,3:0|0:0,0:0:0:0:
287,167,86800,2,0,L|218:171,1,62.9999980773926,8|0,3:3|0:0,0:0:0:0:
458,158,86977,1,0,0:0:0:0:
304,252,87153,6,0,B|332:295|332:295|449:284|449:284|467:237,1,212.6250008111,2|0,0:2|0:0,0:0:0:0:
449,240,87506,2,0,B|437:270|437:270|341:279|341:279|321:249,1,165.374994953156,0|0,0:0|0:0,0:0:0:0:
383,196,87859,5,0,3:0:0:0:
258,373,88035,1,8,0:0:0:0:
258,373,88124,2,0,L|249:307,1,62.9999980773926,8|8,0:0|0:0,0:0:0:0:
225,171,88300,1,8,0:0:0:0:
225,171,88388,2,0,L|216:233,1,62.9999980773926,8|2,0:0|0:0,0:0:0:0:
52,249,88565,6,0,B|181:227|117:335|255:309,1,220.499993270874,2|0,0:0|0:0,0:0:0:0:
254,315,88918,2,0,P|222:320|191:317,2,62.9999980773926,8|0|0,3:3|0:0|0:0,0:0:0:0:
482,360,89447,5,8,3:3:0:0:
334,357,89624,2,0,P|373:327|415:323,1,89.2500017023087,8|0,3:3|0:0,0:0:0:0:
413,116,89977,5,2,0:2:0:0:
485,280,90153,2,0,B|502:64|502:64|475:119|405:116,1,325.500002483368,0|0,3:0|0:0,0:0:0:0:
269,88,90682,5,8,3:3:0:0:
418,27,90859,2,0,B|332:23|365:94|268:88,1,168,2|0,0:0|0:0,0:0:0:0:
95,90,91388,6,0,B|39:151|110:208|110:208|207:205|196:122,1,275.625002628565,2|0,0:2|0:0,0:0:0:0:
194,51,91741,2,0,B|185:90|185:90|197:130,1,78.7500030040742,8|0,3:3|0:0,0:0:0:0:
278,172,92094,5,0,0:0:0:0:
285,188,92271,1,8,3:0:0:0:
278,284,92447,1,8,3:0:0:0:
165,336,92624,1,0,0:0:0:0:
20,231,92800,5,2,0:2:0:0:
123,15,92977,1,2,0:2:0:0:
408,109,93153,1,2,3:2:0:0:
374,192,93329,1,2,0:2:0:0:
374,192,93418,1,0,0:0:0:0:
374,192,93506,5,12,3:3:0:0:
482,360,93682,5,0,0:0:0:0:
471,270,93859,1,0,0:0:0:0:
458,180,94035,1,0,0:0:0:0:
299,329,94212,6,0,B|223:332|223:332|223:334|223:334|221:332|221:332|146:335,1,152.250004646301,0|0,1:0|0:0,0:0:0:0:
75,217,94477,1,0,0:0:0:0:
75,217,94565,2,0,B|89:254|89:254|79:291,1,76.1250023231507,8|0,3:3|0:0,0:0:0:0:
4,176,94741,1,0,0:0:0:0:
4,176,94829,1,0,0:0:0:0:
4,176,94918,6,0,B|-2:124|-2:124|14:81|14:81|7:22,1,152.250004646301,0|8,0:0|3:3,0:0:0:0:
144,35,95182,1,0,0:0:0:0:
144,35,95271,2,0,P|103:65|80:71,1,68.2499968757631,8|0,3:3|0:0,0:0:0:0:
214,0,95447,2,0,P|220:50|213:73,1,68.2499968757631,0|0,0:0|0:0,0:0:0:0:
167,127,95624,6,0,P|227:83|314:120,1,136.499993751526,0|8,1:0|3:3,0:0:0:0:
315,196,95888,1,0,0:0:0:0:
315,196,95977,2,0,P|255:240|168:203,1,136.499993751526,0|0,0:0|0:0,0:0:0:0:
481,36,96329,5,8,3:3:0:0:
368,20,96506,1,0,0:0:0:0:
398,126,96682,1,0,0:0:0:0:
510,141,96859,1,0,0:0:0:0:
436,376,97035,6,0,B|452:350|452:350|425:228,1,152.250004646301,0|0,1:0|0:0,0:0:0:0:
352,265,97300,1,0,0:0:0:0:
352,265,97388,2,0,L|370:338,1,68.2499968757631,8|0,3:3|0:0,0:0:0:0:
310,384,97565,1,0,0:0:0:0:
289,376,97653,1,0,0:0:0:0:
270,371,97741,6,0,B|216:372|216:372|192:358|192:358|127:361,1,136.499993751526,0|8,0:0|3:0,0:0:0:0:
0,323,98006,1,0,0:0:0:0:
0,323,98094,2,0,L|77:320,1,68.2499968757631,8|0,3:3|0:0,0:0:0:0:
214,273,98271,1,2,0:0:0:0:
173,265,98359,1,2,0:0:0:0:
138,276,98447,6,0,B|155:181|74:225|96:93,1,162.750001241684,0|2,1:0|0:0,0:0:0:0:
174,74,98712,1,2,0:0:0:0:
174,74,98800,2,0,L|173:137,2,62.9999980773926,2|0|0,0:0|0:0|3:0,0:0:0:0:
437,13,99329,5,2,0:2:0:0:
351,13,99506,1,2,0:2:0:0:
249,11,99682,1,2,0:2:0:0:
511,74,99859,6,0,B|501:111|501:111|514:152,1,73.4999977569581,0|0,1:0|0:0,0:0:0:0:
461,201,100124,1,0,0:0:0:0:
461,201,100212,2,0,L|461:286,2,73.4999977569581,8|0|0,3:3|0:0|0:0,0:0:0:0:
303,285,100741,1,8,3:3:0:0:
379,246,100918,2,0,L|379:320,1,73.4999977569581,8|0,3:3|0:0,0:0:0:0:
233,243,101182,1,0,0:0:0:0:
233,243,101271,6,0,L|235:187,1,36.749998878479,0|0,1:0|0:0,0:0:0:0:
300,83,101447,2,0,P|339:151|303:207,1,146.999995513916,8|0,3:3|0:0,0:0:0:0:
258,11,101977,5,8,3:3:0:0:
282,9,102153,1,0,0:0:0:0:
306,8,102329,1,2,0:0:0:0:
331,7,102506,1,8,3:3:0:0:
96,122,102682,5,0,1:0:0:0:
72,120,102859,1,2,0:0:0:0:
60,120,102947,1,0,0:0:0:0:
48,119,103035,1,8,3:3:0:0:
23,118,103212,1,0,0:0:0:0:
307,204,103388,5,2,0:0:0:0:
326,216,103565,1,0,1:0:0:0:
420,219,103741,1,8,3:0:0:0:
500,130,103918,1,0,0:0:0:0:
407,2,104094,5,8,1:3:0:0:
230,90,104271,1,0,0:0:0:0:
269,316,104447,1,8,3:0:0:0:
497,345,104624,1,0,0:0:0:0:
488,336,104800,6,0,B|443:336|408:342|408:342|354:307|354:307|313:317|266:315,1,231.000007049561,6|0,0:3|0:0,0:0:0:0:
154,373,105682,2,0,P|204:372|229:376,2,57.7500017623902,2|0|0,0:0|0:0|0:0,0:0:0:0:
84,328,106212,2,0,B|101:303|101:303|73:227,1,86.6250026435853,2|0,0:0|0:0,0:0:0:0:
92,236,106565,2,0,L|96:162,1,57.7500017623902,0|0,0:0|0:0,0:0:0:0:
46,121,106918,2,0,P|97:146|159:118,1,115.50000352478,2|0,0:0|0:0,0:0:0:0:
282,34,107624,6,0,B|362:-11|441:19|441:19|406:13|376:30,1,231.000007049561,6|0,0:3|0:0,0:0:0:0:
422,91,108506,2,0,L|491:86,2,57.7500017623902,2|0|0,0:0|0:0|0:0,0:0:0:0:
394,158,109035,2,0,B|407:187|407:187|398:215,1,57.7500017623902,2|0,0:0|0:0,0:0:0:0:
469,301,109388,2,0,B|456:272|456:272|464:248,1,57.7500017623902,0|0,0:0|0:0,0:0:0:0:
354,315,109741,2,0,L|478:300,1,115.50000352478,2|2,0:2|0:0,0:0:0:0:
300,375,110271,1,2,0:0:0:0:
482,165,110447,5,6,3:0:0:0:
490,173,110800,1,8,0:0:0:0:
30,165,111153,5,8,0:0:0:0:
22,173,111506,1,8,0:0:0:0:
482,165,111859,6,0,L|470:293,1,120.750002303124,8|0,3:2|0:0,0:0:0:0:
490,173,112212,2,0,L|478:301,1,120.750002303124,8|0,0:0|0:0,0:0:0:0:
30,165,112565,6,0,L|42:293,1,120.750002303124,8|0,0:0|0:0,0:0:0:0:
22,173,112918,2,0,L|34:301,1,120.750002303124,8|0,0:0|0:0,0:0:0:0:
315,14,113271,5,8,3:2:0:0:
325,17,113447,1,8,3:2:0:0:
361,152,113624,1,8,3:2:0:0:
237,219,113800,1,8,3:2:0:0:
135,121,113977,6,0,L|190:145,1,60.3750011515618,8|0,3:2|3:0,0:0:0:0:
325,17,114153,2,0,L|319:77,1,60.3750011515618,8|0,3:2|3:0,0:0:0:0:
482,165,114329,2,0,L|422:178,1,60.3750011515618,8|0,3:2|3:0,0:0:0:0:
389,360,114506,2,0,L|358:307,1,60.3750011515618,8|0,3:2|3:0,0:0:0:0:
379,358,115035,6,0,B|350:307|350:307|378:250,1,115.50000352478,2|0,0:2|0:0,0:0:0:0:
458,256,115212,2,0,B|487:307|487:307|459:364,1,115.50000352478,2|0,0:2|0:0,0:0:0:0:
239,220,115388,6,0,B|208:184|208:184|214:127,1,97.1249996294975,2|0,0:2|0:0,0:0:0:0:
291,112,115565,2,0,B|322:148|322:148|316:205,1,97.1249996294975,2|0,0:2|0:0,0:0:0:0:
81,309,115741,6,0,B|78:272|78:272|99:236,1,76.1250023231507,2|0,0:2|0:0,0:0:0:0:
170,259,115918,2,0,B|173:296|173:296|152:332,1,76.1250023231507,2|0,0:2|0:0,0:0:0:0:
5,116,116094,6,0,L|8:80,1,31.5,12|0,3:3|0:0,0:0:0:0:
8,85,116447,6,0,L|26:225,1,125.999996154785,2|0,0:2|0:0,0:0:0:0:
340,19,116800,2,0,L|358:159,1,125.999996154785,10|0,0:0|0:0,0:0:0:0:
42,64,117153,6,0,L|23:214,1,146.999995513916,10|0,3:3|0:0,0:0:0:0:
374,0,117506,2,0,L|355:150,1,146.999995513916,2|0,0:2|3:0,0:0:0:0:
42,64,117859,6,0,L|64:230,1,162.750001241684,2|0,3:2|0:0,0:0:0:0:
374,0,118212,2,0,L|396:166,1,162.750001241684,10|0,0:2|0:0,0:0:0:0:
125,334,118565,5,2,0:2:0:0:
221,99,118741,1,0,0:0:0:0:
382,306,118918,6,0,B|471:356|511:289|511:289|480:233|442:263,1,220.499993270874,10|0,3:3|0:0,0:0:0:0:
131,255,119271,6,0,P|115:294|124:334,1,84,2|0,0:2|0:0,0:0:0:0:
211,333,119447,2,0,P|226:293|217:253,1,84,2|0,0:2|0:0,0:0:0:0:
76,149,119624,6,0,B|-19:175|-19:175|92:193,1,194.249999258995,8|0,0:2|0:0,0:0:0:0:
236,109,119888,1,0,0:0:0:0:
236,109,119977,6,0,L|225:50,1,57.7500017623902,10|0,3:3|0:0,0:0:0:0:
291,25,120153,6,0,L|313:133,1,81.375000620842,0|0,0:0|0:0,0:0:0:0:
380,108,120329,6,0,L|356:-12,1,110.249996635437,2|0,0:2|0:0,0:0:0:0:
431,168,120594,1,0,0:0:0:0:
431,168,120682,2,0,B|397:191|397:191|359:184,1,78.7500030040742,0|0,3:0|0:0,0:0:0:0:
284,278,120859,2,0,B|318:255|318:255|356:262,1,78.7500030040742,0|0,0:0|0:0,0:0:0:0:
434,375,121035,2,0,L|424:275,1,78.7500030040742,8|0,0:2|0:0,0:0:0:0:
512,138,121212,2,0,L|504:216,1,78.7500030040742,0|0,0:0|0:0,0:0:0:0:
443,383,121388,6,0,L|433:294,1,78.7500030040742,0|0,3:0|0:0,0:0:0:0:
394,91,121741,5,0,3:0:0:0:
401,98,121918,1,0,0:0:0:0:
335,343,122094,6,0,P|251:381|200:363,1,146.999995513916,2|0,0:2|0:0,0:0:0:0:
155,90,122447,2,0,P|239:52|290:70,1,146.999995513916,8|0,1:3|0:0,0:0:0:0:
296,361,122800,6,0,P|187:363|140:292,1,199.499994672775,10|0,3:3|0:0,0:0:0:0:
203,53,123153,2,0,P|312:51|359:122,1,199.499994672775,2|0,0:2|3:0,0:0:0:0:
227,374,123506,6,0,P|113:312|112:171,1,241.500004606247,2|0,3:0|0:0,0:0:0:0:
287,27,123859,2,0,P|400:88|401:229,1,241.500004606247,10|0,0:2|0:0,0:0:0:0:
34,92,124212,5,10,0:3:0:0:
295,155,124388,1,0,0:0:0:0:
108,348,124565,6,0,B|56:351|54:296|54:296|124:235|187:323,1,204.750000781059,10|0,3:3|0:0,0:0:0:0:
491,279,124918,6,0,B|504:322|504:322|489:359,1,84,2|0,0:0|0:0,0:0:0:0:
409,354,125094,2,0,B|396:311|396:311|411:274,1,84,2|0,0:0|0:0,0:0:0:0:
422,120,125271,6,0,B|476:84|476:84|453:209,1,188.999994232178,8|8,0:2|0:3,0:0:0:0:
243,93,125535,1,0,0:0:0:0:
243,93,125624,6,0,P|301:75|363:79,1,118.125004506111,10|0,3:3|0:0,0:0:0:0:
351,150,125800,6,0,P|307:146|272:159,1,76.1250023231507,8|0,0:3|0:0,0:0:0:0:
318,217,125977,6,0,L|325:268,1,36.749998878479,2|0,0:0|0:0,0:0:0:0:
18,0,126329,6,0,L|28:94,1,94.499997116089,0|0,3:0|0:0,0:0:0:0:
233,0,126506,2,0,L|243:94,1,94.499997116089,0|0,0:0|0:0,0:0:0:0:
34,23,126682,6,0,L|26:104,1,81.375000620842,8|0,0:2|0:0,0:0:0:0:
227,33,126859,2,0,L|219:114,1,81.375000620842,0|0,0:0|0:0,0:0:0:0:
50,65,127035,6,0,L|57:126,1,55.1249983177186,2|0,3:0|0:0,0:0:0:0:
200,55,127212,2,0,L|207:116,1,55.1249983177186,0|0,0:0|0:0,0:0:0:0:
153,346,127388,6,0,L|149:309,3,36.749998878479,14|0|0|0,3:3|0:0|0:0|0:0,0:0:0:0:
442,121,128094,6,0,B|428:94|422:65|422:65|381:52|335:27|335:27|308:57|274:90|274:90|277:120|276:154,1,299.249992009163,8|0,0:0|0:0,0:0:0:0:
232,225,128447,6,0,L|318:223,1,86.6250008261204,10|0,3:3|0:0,0:0:0:0:
504,182,128624,2,0,L|421:207,1,86.6250008261204,0|0,0:0|0:0,0:0:0:0:
325,340,128800,6,0,P|296:287|337:207,1,131.25,2|2,0:2|3:0,0:0:0:0:
421,207,129065,1,0,0:0:0:0:
421,207,129153,2,0,P|460:257|450:320,1,131.25,0|2,3:0|0:0,0:0:0:0:
227,221,129506,5,10,0:2:0:0:
508,176,129682,1,2,3:0:0:0:
319,346,129859,5,2,0:2:0:0:
459,324,130035,1,0,0:0:0:0:
353,117,130212,6,0,L|361:157,3,31.4999990386963,14|0|0|0,3:3|0:0|0:0|0:0,0:0:0:0:
72,256,130918,6,0,B|58:343|144:372|144:372|238:357|235:265,1,299.249992009163,8|0,0:2|0:0,0:0:0:0:
73,163,131271,6,0,P|27:174|0:199,1,84,10|0,3:3|0:0,0:0:0:0:
256,182,131447,2,0,P|298:202|319:232,1,84,0|0,0:0|0:0,0:0:0:0:
85,72,131624,6,0,P|142:105|164:168,1,136.499993751526,2|2,0:0|3:0,0:0:0:0:
164,168,131888,1,0,0:0:0:0:
165,168,131977,2,0,P|199:110|263:90,1,136.499993751526,0|2,3:0|0:0,0:0:0:0:
183,18,132329,5,10,0:2:0:0:
152,284,132506,1,0,0:0:0:0:
183,18,132682,1,2,3:0:0:0:
488,382,133035,5,0,3:0:0:0:
375,333,133212,1,2,0:2:0:0:
378,254,133388,1,2,0:2:0:0:
489,209,133565,1,2,3:2:0:0:
250,334,133741,6,0,B|109:301|179:378|73:388|11:381|3:292|61:220|131:251|146:300|134:326,1,346.500010574341,8|0,1:3|0:0,0:0:0:0:
48,360,134094,2,0,P|33:314|57:263,1,86.6250008261204,10|0,3:3|0:0,0:0:0:0:
0,215,134271,2,0,P|32:179|88:174,1,86.6250008261204,0|0,0:0|0:0,0:0:0:0:
161,186,134447,6,0,P|81:164|60:76,1,173.250001652241,2|2,0:0|3:0,0:0:0:0:
125,16,134712,1,0,0:0:0:0:
125,16,134800,2,0,P|205:38|226:126,1,173.250001652241,0|2,3:0|0:2,0:0:0:0:
427,102,135153,5,10,0:2:0:0:
228,117,135329,1,0,0:0:0:0:
477,174,135506,6,0,L|390:180,1,86.6250008261204,10|0,0:3|0:0,0:0:0:0:
190,197,135682,2,0,L|277:191,1,86.6250008261204,0|0,0:0|0:0,0:0:0:0:
318,23,135859,1,8,3:3:0:0:
318,23,135947,1,0,0:0:0:0:
318,23,136035,6,0,L|328:116,1,86.6250008261204,0|0,0:0|0:0,0:0:0:0:
108,200,136212,6,0,L|120:100,1,99.7499973363877,2|0,0:0|0:0,0:0:0:0:
224,114,136388,2,0,L|211:213,1,99.7499973363877,2|0,0:0|0:0,0:0:0:0:
394,262,136565,6,0,L|384:178,1,84,10|0,0:2|0:0,0:0:0:0:
303,189,136741,2,0,L|312:272,1,84,10|0,0:3|0:0,0:0:0:0:
156,344,136918,6,0,L|163:276,1,68.2499968757631,10|0,3:3|0:0,0:0:0:0:
236,284,137094,2,0,L|228:351,1,68.2499968757631,8|0,0:3|0:0,0:0:0:0:
209,15,137271,5,2,0:0:0:0:
303,369,137447,1,0,0:0:0:0:
500,73,137624,6,0,B|413:62|413:62|376:80|376:80|280:70,1,220.499993270874,2|0,3:0|0:0,0:0:0:0:
477,94,137977,2,0,B|407:85|407:85|377:99|377:99|301:91,1,176.40000215332,2|0,0:0|0:0,0:0:0:0:
455,114,138329,2,0,B|402:107|402:107|380:118|380:118|323:112,1,132.299995962525,2|0,0:0|0:0,0:0:0:0:
433,135,138682,5,6,0:0:0:0:
215,345,149977,6,0,B|260:333|260:333|298:348,1,84,6|0,3:3|0:0,0:0:0:0:
346,279,150506,1,8,0:2:0:0:
207,353,150682,6,0,L|301:358,1,84,0|0,3:0|0:0,0:0:0:0:
388,368,151035,1,8,0:2:0:0:
162,192,151388,6,0,P|171:233|159:273,1,84,8|0,3:2|0:0,0:0:0:0:
91,229,151918,1,8,0:2:0:0:
171,186,152094,6,0,P|180:226|167:266,1,84,0|0,3:0|0:0,0:0:0:0:
11,220,152447,1,8,0:2:0:0:
326,115,152800,6,0,L|413:116,1,84,10|0,3:2|0:0,0:0:0:0:
492,116,153329,1,8,0:2:0:0:
318,107,153506,6,0,L|405:108,1,84,0|0,3:0|0:0,0:0:0:0:
164,105,153859,1,8,0:2:0:0:
365,267,154212,6,0,B|350:228|350:228|361:184,1,84,8|0,3:2|0:0,0:0:0:0:
401,107,154741,1,8,0:2:0:0:
368,280,154918,6,0,L|368:191,1,84,0|0,3:0|0:0,0:0:0:0:
368,33,155271,1,8,0:2:0:0:
452,240,155447,1,8,0:2:0:0:
164,105,155624,6,0,L|40:96,1,120.750002303124,2|0,3:2|0:0,0:0:0:0:
172,113,155977,2,0,L|48:104,1,120.750002303124,8|0,3:2|0:0,0:0:0:0:
339,240,156329,6,0,L|463:231,1,120.750002303124,8|0,3:2|0:0,0:0:0:0:
331,248,156682,2,0,L|455:239,1,120.750002303124,8|0,3:2|0:0,0:0:0:0:
285,345,157035,6,0,P|248:294|249:234,1,120.750002303124,8|0,3:2|0:0,0:0:0:0:
273,354,157388,2,0,P|236:303|237:243,1,120.750002303124,8|0,3:2|0:0,0:0:0:0:
227,39,157741,6,0,P|264:90|263:150,1,120.750002303124,8|0,3:2|0:0,0:0:0:0:
239,30,158094,2,0,P|276:81|275:141,1,120.750002303124,8|0,3:2|0:0,0:0:0:0:
155,332,158447,5,8,3:2:0:0:
147,331,158624,1,8,3:2:0:0:
122,314,158800,1,8,3:2:0:0:
111,263,158977,1,8,3:2:0:0:
134,201,159153,5,8,3:2:0:0:
226,165,159329,1,8,3:2:0:0:
306,236,159506,1,8,3:2:0:0:
418,251,159682,1,8,3:2:0:0:
479,135,159859,5,8,3:2:0:0:
404,32,160035,1,8,3:2:0:0:
261,95,160212,1,8,3:2:0:0:
318,261,160388,1,8,3:2:0:0:
332,62,160565,5,8,3:2:0:0:
120,9,160741,1,8,3:2:0:0:
22,254,160918,1,8,3:2:0:0:
316,357,161094,1,8,3:2:0:0:
392,120,163035,6,0,L|380:-2,1,120.750002303124,2|0,0:0|0:0,0:0:0:0:
254,13,163212,2,0,L|265:133,1,120.750002303124,2|0,0:0|0:0,0:0:0:0:
63,202,163388,6,0,L|74:102,1,99.7499973363877,2|0,0:0|0:0,0:0:0:0:
166,114,163565,2,0,L|154:213,1,99.7499973363877,2|0,0:0|0:0,0:0:0:0:
333,297,163741,6,0,L|322:213,1,73.4999977569581,2|0,0:0|0:0,0:0:0:0:
244,236,163918,2,0,L|252:308,1,73.4999977569581,2|0,0:0|0:0,0:0:0:0:
507,234,164094,6,0,L|446:245,1,47.2499985580445,12|0,3:3|0:0,0:0:0:0:
438,228,164447,6,0,L|458:410,1,157.500006008148,2|0,0:2|0:0,0:0:0:0:
63,202,164800,2,0,L|83:384,1,157.500006008148,10|0,0:0|0:0,0:0:0:0:
461,195,165153,6,0,L|454:393,1,188.999994232178,10|0,3:3|0:0,0:0:0:0:
86,169,165506,2,0,L|79:367,1,188.999994232178,2|0,0:2|3:0,0:0:0:0:
469,85,165859,6,0,L|502:320,1,220.499993270874,2|0,3:2|0:0,0:0:0:0:
23,119,166212,2,0,L|56:354,1,220.499993270874,10|0,0:2|0:0,0:0:0:0:
386,336,166565,5,2,0:2:0:0:
69,210,166741,1,0,0:0:0:0:
355,51,166918,6,0,B|514:30|514:30|466:88,1,231.000007049561,10|0,3:3|0:0,0:0:0:0:
219,284,167271,6,0,P|198:245|205:200,1,91.8750008761883,2|0,0:2|0:0,0:0:0:0:
284,185,167447,2,0,P|305:224|298:269,1,91.8750008761883,2|0,0:2|0:0,0:0:0:0:
138,351,167624,6,0,B|36:332|36:332|137:309,1,204.750000781059,8|0,0:2|0:0,0:0:0:0:
485,342,167888,1,0,0:0:0:0:
485,342,167977,6,0,L|440:351,1,42,10|0,3:3|0:0,0:0:0:0:
413,284,168153,6,0,L|485:271,1,73.4999977569581,0|0,0:0|0:0,0:0:0:0:
494,197,168329,6,0,L|371:220,1,115.50000352478,2|0,0:2|0:0,0:0:0:0:
222,191,168594,1,0,0:0:0:0:
222,191,168682,6,0,B|262:204|262:204|308:188,1,78.7500030040742,0|0,3:0|0:0,0:0:0:0:
424,66,168859,2,0,B|384:53|384:53|338:69,1,78.7500030040742,0|0,0:0|0:0,0:0:0:0:
380,218,169035,6,0,L|387:139,1,78.7500030040742,8|0,0:2|0:0,0:0:0:0:
253,37,169212,2,0,L|261:117,1,78.7500030040742,0|0,0:0|0:0,0:0:0:0:
389,227,169388,2,0,L|396:148,1,78.7500030040742,0|0,3:0|0:0,0:0:0:0:
105,56,169741,5,0,3:0:0:0:
112,63,169918,1,0,0:0:0:0:
161,353,170094,6,0,P|287:343|307:318,1,157.500006008148,2|0,0:2|0:0,0:0:0:0:
253,37,170447,2,0,P|127:47|107:72,1,157.500006008148,8|0,1:3|0:0,0:0:0:0:
273,384,170800,6,0,P|386:340|416:258,1,199.499994672775,10|0,3:3|0:0,0:0:0:0:
239,20,171153,2,0,P|126:64|96:146,1,199.499994672775,2|0,0:2|3:0,0:0:0:0:
424,340,171506,6,0,P|489:243|465:133,1,236.250009012223,2|0,3:0|0:0,0:0:0:0:
98,60,171859,2,0,P|33:157|57:267,1,236.250009012223,10|0,0:2|0:0,0:0:0:0:
362,217,172212,5,10,0:3:0:0:
85,49,172388,1,0,0:0:0:0:
92,335,172565,6,0,B|86:371|120:386|120:386|198:363|168:268|70:234,1,204.750000781059,10|0,3:3|0:0,0:0:0:0:
315,31,172918,6,0,P|322:73|304:112,1,86.6250008261204,2|0,0:0|0:0,0:0:0:0:
227,100,173094,2,0,P|220:58|239:20,1,86.6250008261204,2|0,0:0|0:0,0:0:0:0:
409,65,173271,6,0,B|427:193|427:193|417:160|377:143,1,199.499994672775,8|8,0:2|0:3,0:0:0:0:
237,225,173535,1,0,0:0:0:0:
237,225,173624,6,0,P|313:205|372:222,1,120.750002303124,10|0,3:3|0:0,0:0:0:0:
337,283,173800,6,0,P|289:278|268:288,1,68.2499968757631,8|0,0:3|0:0,0:0:0:0:
307,348,173977,6,0,L|309:387,1,36.749998878479,2|0,0:0|0:0,0:0:0:0:
30,96,174329,6,0,L|132:90,1,94.499997116089,0|0,3:0|0:0,0:0:0:0:
46,305,174506,2,0,L|148:299,1,94.499997116089,0|0,0:0|0:0,0:0:0:0:
72,101,174682,6,0,L|156:112,1,78.7500030040742,8|0,0:2|0:0,0:0:0:0:
61,274,174859,2,0,L|145:285,1,78.7500030040742,0|0,0:0|0:0,0:0:0:0:
97,123,175035,6,0,L|165:116,1,62.9999980773926,2|0,3:0|0:0,0:0:0:0:
110,261,175212,2,0,L|178:254,1,62.9999980773926,0|0,0:0|0:0,0:0:0:0:
381,153,175388,6,0,L|333:161,3,36.749998878479,14|0|0|0,3:3|0:0|0:0|0:0,0:0:0:0:
398,361,176094,6,0,B|420:235|311:303|349:134,1,220.499993270874,8|2,0:0|0:2,0:0:0:0:
424,93,176359,1,0,0:0:0:0:
424,93,176447,2,0,P|477:132|487:162,1,89.2500017023087,10|0,3:3|0:0,0:0:0:0:
361,23,176624,2,0,P|421:-3|452:2,1,89.2500017023087,0|0,0:0|0:0,0:0:0:0:
286,80,176800,6,0,L|45:68,1,199.499994672775,2|2,0:2|3:0,0:0:0:0:
0,106,177065,1,0,0:0:0:0:
0,106,177153,2,0,L|241:94,1,199.499994672775,0|2,3:0|0:0,0:0:0:0:
73,360,177418,1,0,0:0:0:0:
73,360,177506,6,0,L|62:267,1,89.2500017023087,10|0,0:2|0:0,0:0:0:0:
52,182,177682,2,0,L|62:270,1,89.2500017023087,2|0,3:0|0:0,0:0:0:0:
161,341,177859,6,0,L|166:266,1,73.4999977569581,2|0,0:2|0:0,0:0:0:0:
170,194,178035,2,0,L|164:267,1,73.4999977569581,0|0,0:0|0:0,0:0:0:0:
410,360,178212,6,0,L|477:364,1,57.7500017623902,14|0,3:3|0:0,0:0:0:0:
352,356,178388,2,0,L|419:360,1,57.7500017623902,0|0,0:0|0:0,0:0:0:0:
308,238,178565,6,0,L|375:234,1,57.7500017623902,0|0,0:0|0:0,0:0:0:0:
250,242,178741,2,0,L|317:238,1,57.7500017623902,0|0,0:0|0:0,0:0:0:0:
423,285,178918,6,0,B|383:238|383:238|401:96,1,199.499994672775,8|0,0:2|0:0,0:0:0:0:
489,97,179182,1,0,0:0:0:0:
489,97,179271,2,0,L|399:101,1,89.2500017023087,10|0,3:3|0:0,0:0:0:0:
242,7,179447,2,0,L|332:11,1,89.2500017023087,0|0,0:0|0:0,0:0:0:0:
221,173,179624,6,0,P|130:206|54:99,1,220.499993270874,2|2,0:0|3:0,0:0:0:0:
53,124,179888,1,0,0:0:0:0:
54,125,179977,2,0,P|128:187|73:306,1,220.499993270874,0|2,3:0|0:0,0:0:0:0:
231,85,180329,5,10,0:2:0:0:
210,282,180506,1,0,0:0:0:0:
0,203,180682,1,2,3:0:0:0:
434,376,181035,6,0,L|442:288,1,84,0|0,3:0|0:0,0:0:0:0:
447,158,181212,1,2,0:2:0:0:
480,164,181300,1,2,0:0:0:0:
491,195,181388,1,2,0:2:0:0:
470,221,181477,1,2,0:0:0:0:
436,216,181565,1,2,3:2:0:0:
425,184,181653,1,0,0:0:0:0:
459,191,181741,6,0,B|484:104|484:104|489:100|489:100|518:22|518:22|385:10|385:10|415:84,1,377.999988464356,8|0,1:3|0:0,0:0:0:0:
237,62,182094,6,0,L|323:63,1,86.6250008261204,10|0,3:3|0:0,0:0:0:0:
69,15,182271,2,0,L|156:14,1,86.6250008261204,0|0,0:0|0:0,0:0:0:0:
177,130,182447,6,0,B|171:223|171:223|187:262|187:262|182:352,1,220.499993270874,2|2,0:0|3:0,0:0:0:0:
102,360,182712,1,0,0:0:0:0:
102,360,182800,2,0,B|106:274|106:274|90:235|90:235|96:142,1,220.499993270874,0|2,3:0|0:2,0:0:0:0:
297,233,183065,1,0,0:0:0:0:
297,233,183153,6,0,L|203:229,1,89.2500017023087,10|0,0:2|0:0,0:0:0:0:
412,292,183329,2,0,L|506:288,1,89.2500017023087,0|0,0:0|0:0,0:0:0:0:
291,242,183506,6,0,L|197:238,1,89.2500017023087,10|0,0:3|0:0,0:0:0:0:
419,285,183682,2,0,L|513:281,1,89.2500017023087,0|0,0:0|0:0,0:0:0:0:
372,45,183859,5,10,3:3:0:0:
372,45,183947,1,2,0:0:0:0:
372,45,184035,2,2,L|380:154,1,110.249996635437,2|0,0:0|0:0,0:0:0:0:
102,360,184212,6,0,L|113:223,1,120.750002303124,2|0,0:0|0:0,0:0:0:0:
241,247,184388,2,0,L|231:367,1,120.750002303124,2|0,0:0|0:0,0:0:0:0:
439,274,184565,6,0,L|428:167,1,97.1249996294975,10|0,0:2|0:0,0:0:0:0:
341,188,184741,2,0,L|350:284,1,97.1249996294975,10|0,0:3|0:0,0:0:0:0:
151,144,184918,6,0,L|158:73,1,70.8750002703667,10|0,3:3|0:0,0:0:0:0:
237,83,185095,2,0,L|229:153,1,70.8750002703667,8|0,0:3|0:0,0:0:0:0:
406,357,185271,5,2,0:0:0:0:
248,0,185447,1,0,0:0:0:0:
0,206,185624,6,0,L|44:200,3,42,2|2|2|2,3:0|0:0|0:0|0:0,0:0:0:0:
