osu file format v14

[General]
AudioFilename: audio.mp3
AudioLeadIn: 0
PreviewTime: 126790
Countdown: 0
SampleSet: Normal
StackLeniency: 0.7
Mode: 1
LetterboxInBreaks: 0
WidescreenStoryboard: 0

[Editor]
Bookmarks: 3410,10170,16931,23691,30452,37212,43973,50733,57494,84536,86226,92987,99748,106508,113269,120029,126790,153832,155522,162283,169043,175804,182564,209184
DistanceSpacing: 0.5
BeatDivisor: 4
GridSize: 32
TimelineZoom: 1.4

[Metadata]
Title:MORE feat. Madison Beer, (G)I-DLE, Lexie Liu, Jaira Burns, Seraphine
TitleUnicode:MORE feat. Madison Beer, (G)I-DLE, Lexie Liu, Jaira Burns, Seraphine
Artist:K/DA
ArtistUnicode:K/DA
Creator:eiri-
Version:Oni
Source:League of Legends
Tags:Ayyri English Korean Pop Video Game Electronic POP/STARS POPSTARS LoL Riot Games KDA (여자)아이들 Reunion Worlds 2020 Evelynn Kai'Sa KaiSa Ahri Akali Kpop K-Pop Hip-Hop HipHop Jeon Soyeon So-Yeon 전소연 Cho Miyeon Mi-Yeon 조미연 Bekuh BOOM Rap
BeatmapID:2777877
BeatmapSetID:1341003

[Difficulty]
HPDrainRate:6
CircleSize:2
OverallDifficulty:6
ApproachRate:10
SliderMultiplier:1.4
SliderTickRate:1

[Events]
//Background and Video events
0,0,"Akali 783.jpg",0,-30
Video,-75,"KDA.mp4"
//Break Periods
//Storyboard Layer 0 (Background)
//Storyboard Layer 1 (Fail)
//Storyboard Layer 2 (Pass)
//Storyboard Layer 3 (Foreground)
//Storyboard Layer 4 (Overlay)
//Storyboard Sound Samples

[TimingPoints]
3410,422.535211267606,4,1,0,70,1,0
10117,-100,4,1,0,75,0,0
16455,-100,4,1,0,80,0,0
43920,-100,4,1,0,60,0,0
50681,-100,4,1,0,90,0,0
57494,-100,4,1,0,100,0,1
84536,-100,4,1,0,100,0,0
86174,-100,4,1,0,80,0,0
99695,-100,4,1,0,70,0,0
113216,-100,4,1,0,60,0,0
119976,-100,4,1,0,90,0,0
126790,-100,4,1,0,100,0,1
153832,-100,4,1,0,100,0,0
155469,-100,4,1,0,50,0,0
168990,-100,4,1,0,60,0,0
175751,-100,4,1,0,70,0,0
182564,-100,4,1,0,100,0,1
209184,-100,4,1,0,100,0,0

[HitObjects]
256,192,3410,5,4,0:0:0:0:
256,192,3832,1,8,0:0:0:0:
256,192,4255,1,0,0:0:0:0:
256,192,4677,1,0,0:0:0:0:
256,192,4888,1,0,0:0:0:0:
256,192,5100,1,8,0:0:0:0:
256,192,5522,1,0,0:0:0:0:
256,192,5945,1,8,0:0:0:0:
256,192,6367,1,0,0:0:0:0:
256,192,6579,1,8,0:0:0:0:
256,192,6790,1,4,0:0:0:0:
256,192,7212,1,8,0:0:0:0:
256,192,7424,1,8,0:0:0:0:
256,192,7635,1,0,0:0:0:0:
256,192,7846,1,0,0:0:0:0:
256,192,8057,1,8,0:0:0:0:
256,192,8480,1,4,0:0:0:0:
256,192,8902,1,12,0:0:0:0:
256,192,9325,1,4,0:0:0:0:
256,192,9748,1,8,0:0:0:0:
256,192,9853,1,8,0:0:0:0:
256,192,9959,1,8,0:0:0:0:
256,192,10170,1,4,0:0:0:0:
256,192,10593,1,8,0:0:0:0:
256,192,10804,1,0,0:0:0:0:
256,192,11015,1,8,0:0:0:0:
256,192,11438,1,8,0:0:0:0:
256,192,11649,1,8,0:0:0:0:
256,192,11860,1,0,0:0:0:0:
256,192,12071,1,0,0:0:0:0:
256,192,12283,1,8,0:0:0:0:
256,192,12494,1,0,0:0:0:0:
256,192,12917,1,0,0:0:0:0:
256,192,13128,1,8,0:0:0:0:
256,192,13233,1,8,0:0:0:0:
256,192,13339,1,8,0:0:0:0:
256,192,13550,1,4,0:0:0:0:
256,192,13973,1,8,0:0:0:0:
256,192,14184,1,0,0:0:0:0:
256,192,14395,1,8,0:0:0:0:
256,192,14818,1,0,0:0:0:0:
256,192,15240,1,0,0:0:0:0:
256,192,15346,1,0,0:0:0:0:
256,192,15452,1,0,0:0:0:0:
256,192,15557,1,0,0:0:0:0:
256,192,15663,1,0,0:0:0:0:
256,192,15769,1,0,0:0:0:0:
256,192,15874,1,0,0:0:0:0:
256,192,15980,1,0,0:0:0:0:
256,192,16086,1,8,0:0:0:0:
256,192,16297,1,0,0:0:0:0:
256,192,16508,1,8,0:0:0:0:
256,192,16614,1,0,0:0:0:0:
256,192,16719,1,8,0:0:0:0:
256,192,16931,1,0,0:0:0:0:
256,192,17353,1,8,0:0:0:0:
256,192,17459,1,8,0:0:0:0:
256,192,17564,1,0,0:0:0:0:
256,192,17776,1,8,0:0:0:0:
256,192,18198,1,8,0:0:0:0:
256,192,18304,1,0,0:0:0:0:
256,192,18410,1,8,0:0:0:0:
256,192,18621,1,0,0:0:0:0:
256,192,19043,1,0,0:0:0:0:
256,192,19149,1,8,0:0:0:0:
256,192,19255,1,8,0:0:0:0:
256,192,19466,1,8,0:0:0:0:
256,192,19888,1,8,0:0:0:0:
256,192,19994,1,0,0:0:0:0:
256,192,20100,1,8,0:0:0:0:
256,192,20205,1,8,0:0:0:0:
256,192,20311,1,0,0:0:0:0:
256,192,20733,1,8,0:0:0:0:
256,192,20839,1,8,0:0:0:0:
256,192,20945,1,0,0:0:0:0:
256,192,21050,1,0,0:0:0:0:
256,192,21156,1,8,0:0:0:0:
256,192,21473,1,0,0:0:0:0:
256,192,21579,1,8,0:0:0:0:
256,192,21684,1,8,0:0:0:0:
256,192,21790,1,0,0:0:0:0:
256,192,22001,1,8,0:0:0:0:
256,192,22212,1,0,0:0:0:0:
256,192,22424,1,0,0:0:0:0:
256,192,22635,1,0,0:0:0:0:
256,192,22740,1,0,0:0:0:0:
256,192,22846,1,8,0:0:0:0:
256,192,23269,1,0,0:0:0:0:
256,192,23480,1,8,0:0:0:0:
256,192,23691,1,0,0:0:0:0:
256,192,23832,1,8,0:0:0:0:
256,192,23973,1,8,0:0:0:0:
256,192,24114,1,0,0:0:0:0:
256,192,24325,1,0,0:0:0:0:
256,192,24431,1,0,0:0:0:0:
256,192,24536,1,8,0:0:0:0:
256,192,24853,1,8,0:0:0:0:
256,192,25276,1,0,0:0:0:0:
256,192,25381,1,8,0:0:0:0:
256,192,25593,1,0,0:0:0:0:
256,192,25698,1,8,0:0:0:0:
256,192,25804,1,0,0:0:0:0:
256,192,25945,1,8,0:0:0:0:
256,192,26086,1,0,0:0:0:0:
256,192,26226,1,8,0:0:0:0:
256,192,26543,1,0,0:0:0:0:
256,192,26649,1,8,0:0:0:0:
256,192,26755,1,8,0:0:0:0:
256,192,26860,1,8,0:0:0:0:
256,192,27071,1,0,0:0:0:0:
256,192,27212,1,8,0:0:0:0:
256,192,27353,1,8,0:0:0:0:
256,192,27494,1,0,0:0:0:0:
256,192,27635,1,8,0:0:0:0:
256,192,27776,1,0,0:0:0:0:
256,192,27917,1,8,0:0:0:0:
256,192,28233,1,0,0:0:0:0:
256,192,28621,1,0,0:0:0:0:
256,192,28762,1,8,0:0:0:0:
256,192,28902,1,8,0:0:0:0:
256,192,29043,1,0,0:0:0:0:
256,192,29184,1,8,0:0:0:0:
256,192,29325,1,8,0:0:0:0:
256,192,29466,1,0,0:0:0:0:
256,192,29607,1,8,0:0:0:0:
256,192,29924,1,0,0:0:0:0:
256,192,30452,1,0,0:0:0:0:
256,192,31086,1,0,0:0:0:0:
256,192,31297,1,8,0:0:0:0:
256,192,31438,1,8,0:0:0:0:
256,192,31579,1,8,0:0:0:0:
256,192,32001,1,0,0:0:0:0:
256,192,32142,1,8,0:0:0:0:
256,192,32353,1,8,0:0:0:0:
256,192,32564,1,0,0:0:0:0:
256,192,32705,1,8,0:0:0:0:
256,192,32846,1,0,0:0:0:0:
256,192,32987,1,8,0:0:0:0:
256,192,33128,1,8,0:0:0:0:
256,192,33269,1,8,0:0:0:0:
256,192,33691,1,8,0:0:0:0:
256,192,33832,1,0,0:0:0:0:
256,192,33973,1,8,0:0:0:0:
256,192,34114,1,8,0:0:0:0:
256,192,34255,1,0,0:0:0:0:
256,192,34536,1,0,0:0:0:0:
256,192,34677,1,8,0:0:0:0:
256,192,34818,1,8,0:0:0:0:
256,192,34959,1,8,0:0:0:0:
256,192,35381,1,0,0:0:0:0:
256,192,35522,1,8,0:0:0:0:
256,192,35663,1,8,0:0:0:0:
256,192,35804,1,0,0:0:0:0:
256,192,35945,1,8,0:0:0:0:
256,192,36226,1,0,0:0:0:0:
256,192,36367,1,8,0:0:0:0:
256,192,36790,1,0,0:0:0:0:
256,192,37071,1,8,0:0:0:0:
256,192,37212,1,0,0:0:0:0:
256,192,37353,1,8,0:0:0:0:
256,192,37494,1,8,0:0:0:0:
256,192,37635,1,0,0:0:0:0:
256,192,37917,1,0,0:0:0:0:
256,192,38057,1,8,0:0:0:0:
256,192,38339,1,0,0:0:0:0:
256,192,38480,1,8,0:0:0:0:
256,192,38762,1,0,0:0:0:0:
256,192,38902,1,8,0:0:0:0:
256,192,39043,1,0,0:0:0:0:
256,192,39184,1,8,0:0:0:0:
256,192,39325,1,8,0:0:0:0:
256,192,39607,1,0,0:0:0:0:
256,192,39748,1,8,0:0:0:0:
256,192,40029,1,0,0:0:0:0:
256,192,40170,1,8,0:0:0:0:
256,192,40311,1,8,0:0:0:0:
256,192,40452,1,0,0:0:0:0:
256,192,40593,1,8,0:0:0:0:
256,192,40733,1,8,0:0:0:0:
256,192,40874,1,0,0:0:0:0:
256,192,41015,1,8,0:0:0:0:
256,192,41297,1,0,0:0:0:0:
256,192,41438,1,8,0:0:0:0:
256,192,41579,1,0,0:0:0:0:
256,192,41719,1,0,0:0:0:0:
256,192,41860,1,8,0:0:0:0:
256,192,42142,1,0,0:0:0:0:
256,192,42283,1,8,0:0:0:0:
256,192,42424,1,8,0:0:0:0:
256,192,42564,1,0,0:0:0:0:
256,192,42705,1,8,0:0:0:0:
256,192,42987,1,0,0:0:0:0:
256,192,43128,1,8,0:0:0:0:
256,192,43410,1,0,0:0:0:0:
256,192,43550,1,8,0:0:0:0:
256,192,43691,1,8,0:0:0:0:
256,192,43832,1,8,0:0:0:0:
256,192,43973,1,4,0:0:0:0:
256,192,45663,1,8,0:0:0:0:
256,192,46297,1,0,0:0:0:0:
256,192,46508,1,8,0:0:0:0:
256,192,46931,1,8,0:0:0:0:
256,192,47353,1,0,0:0:0:0:
256,192,48832,1,0,0:0:0:0:
256,192,49043,1,8,0:0:0:0:
256,192,49677,1,0,0:0:0:0:
256,192,49888,1,8,0:0:0:0:
256,192,50100,1,8,0:0:0:0:
256,192,50522,1,0,0:0:0:0:
256,192,50733,1,12,0:0:0:0:
256,192,51579,1,0,0:0:0:0:
256,192,52424,1,0,0:0:0:0:
256,192,53269,1,0,0:0:0:0:
256,192,54114,1,0,0:0:0:0:
256,192,54536,1,0,0:0:0:0:
256,192,54959,1,0,0:0:0:0:
256,192,55381,1,0,0:0:0:0:
256,192,55593,1,0,0:0:0:0:
256,192,55804,1,0,0:0:0:0:
256,192,55910,1,0,0:0:0:0:
256,192,56015,1,0,0:0:0:0:
256,192,56121,1,0,0:0:0:0:
256,192,56226,1,0,0:0:0:0:
256,192,56332,1,0,0:0:0:0:
256,192,56438,1,0,0:0:0:0:
256,192,56543,1,0,0:0:0:0:
256,192,57494,1,4,0:0:0:0:
256,192,58128,1,0,0:0:0:0:
256,192,58339,1,8,0:0:0:0:
256,192,58762,1,8,0:0:0:0:
256,192,58973,1,0,0:0:0:0:
256,192,59184,1,8,0:0:0:0:
256,192,59395,1,0,0:0:0:0:
256,192,59607,1,0,0:0:0:0:
256,192,60029,1,8,0:0:0:0:
256,192,60240,1,0,0:0:0:0:
256,192,60452,1,0,0:0:0:0:
256,192,60663,1,8,0:0:0:0:
256,192,60874,1,4,0:0:0:0:
256,192,61508,1,0,0:0:0:0:
256,192,61719,1,8,0:0:0:0:
256,192,62142,1,8,0:0:0:0:
256,192,62353,1,8,0:0:0:0:
256,192,62459,1,8,0:0:0:0:
256,192,62564,1,8,0:0:0:0:
256,192,62776,1,0,0:0:0:0:
256,192,62987,1,0,0:0:0:0:
256,192,63198,1,0,0:0:0:0:
256,192,63304,1,0,0:0:0:0:
256,192,63410,1,8,0:0:0:0:
256,192,63621,1,8,0:0:0:0:
256,192,63832,1,0,0:0:0:0:
256,192,64043,1,8,0:0:0:0:
256,192,64255,1,4,0:0:0:0:
256,192,64466,1,0,0:0:0:0:
256,192,64888,1,0,0:0:0:0:
256,192,65100,1,8,0:0:0:0:
256,192,65522,1,8,0:0:0:0:
256,192,65733,1,0,0:0:0:0:
256,192,65945,1,8,0:0:0:0:
256,192,66156,1,0,0:0:0:0:
256,192,66367,1,0,0:0:0:0:
256,192,66790,1,8,0:0:0:0:
256,192,67001,1,0,0:0:0:0:
256,192,67107,1,0,0:0:0:0:
256,192,67212,1,8,0:0:0:0:
256,192,67424,1,8,0:0:0:0:
256,192,67635,1,4,0:0:0:0:
256,192,68269,1,0,0:0:0:0:
256,192,68480,1,8,0:0:0:0:
256,192,68586,1,0,0:0:0:0:
256,192,68691,1,8,0:0:0:0:
256,192,68902,1,0,0:0:0:0:
256,192,69114,1,8,0:0:0:0:
256,192,69219,1,8,0:0:0:0:
256,192,69325,1,8,0:0:0:0:
256,192,69536,1,0,0:0:0:0:
256,192,69748,1,0,0:0:0:0:
256,192,69959,1,0,0:0:0:0:
256,192,70064,1,0,0:0:0:0:
256,192,70170,1,8,0:0:0:0:
256,192,70381,1,8,0:0:0:0:
256,192,70487,1,8,0:0:0:0:
256,192,70593,1,0,0:0:0:0:
256,192,70804,1,8,0:0:0:0:
256,192,71015,1,4,0:0:0:0:
256,192,71438,1,8,0:0:0:0:
256,192,71649,1,0,0:0:0:0:
256,192,71860,1,8,0:0:0:0:
256,192,72071,1,8,0:0:0:0:
256,192,72177,1,8,0:0:0:0:
256,192,72283,1,0,0:0:0:0:
256,192,72494,1,0,0:0:0:0:
256,192,72705,1,8,0:0:0:0:
256,192,72917,1,0,0:0:0:0:
256,192,73128,1,0,0:0:0:0:
256,192,73339,1,8,0:0:0:0:
256,192,73445,1,0,0:0:0:0:
256,192,73550,1,8,0:0:0:0:
256,192,73762,1,0,0:0:0:0:
256,192,73867,1,0,0:0:0:0:
256,192,73973,1,8,0:0:0:0:
256,192,74184,1,8,0:0:0:0:
256,192,74395,1,4,0:0:0:0:
256,192,74818,1,8,0:0:0:0:
256,192,75029,1,0,0:0:0:0:
256,192,75240,1,8,0:0:0:0:
256,192,75452,1,0,0:0:0:0:
256,192,75557,1,0,0:0:0:0:
256,192,75663,1,8,0:0:0:0:
256,192,76086,1,8,0:0:0:0:
256,192,76297,1,0,0:0:0:0:
256,192,76508,1,0,0:0:0:0:
256,192,76719,1,0,0:0:0:0:
256,192,76825,1,0,0:0:0:0:
256,192,76931,1,8,0:0:0:0:
256,192,77142,1,8,0:0:0:0:
256,192,77248,1,8,0:0:0:0:
256,192,77353,1,0,0:0:0:0:
256,192,77776,1,4,0:0:0:0:
256,192,77987,1,0,0:0:0:0:
256,192,78199,1,8,0:0:0:0:
256,192,78410,1,0,0:0:0:0:
256,192,78515,1,0,0:0:0:0:
256,192,78621,1,8,0:0:0:0:
256,192,78832,1,8,0:0:0:0:
256,192,79044,1,0,0:0:0:0:
256,192,79149,1,0,0:0:0:0:
256,192,79255,1,0,0:0:0:0:
256,192,79466,1,8,0:0:0:0:
256,192,79678,1,0,0:0:0:0:
256,192,79889,1,0,0:0:0:0:
256,192,80100,1,8,0:0:0:0:
256,192,80206,1,0,0:0:0:0:
256,192,80311,1,8,0:0:0:0:
256,192,80523,1,0,0:0:0:0:
256,192,80628,1,0,0:0:0:0:
256,192,80734,1,8,0:0:0:0:
256,192,80945,1,8,0:0:0:0:
256,192,81156,1,4,0:0:0:0:
256,192,81579,1,8,0:0:0:0:
256,192,81790,1,0,0:0:0:0:
256,192,82001,1,8,0:0:0:0:
256,192,82213,1,0,0:0:0:0:
256,192,82318,1,0,0:0:0:0:
256,192,82424,1,8,0:0:0:0:
256,192,82847,1,8,0:0:0:0:
256,192,83058,1,0,0:0:0:0:
256,192,83269,1,0,0:0:0:0:
256,192,83480,1,0,0:0:0:0:
256,192,83586,1,0,0:0:0:0:
256,192,83692,1,8,0:0:0:0:
256,192,83903,1,8,0:0:0:0:
256,192,84009,1,8,0:0:0:0:
256,192,84114,1,0,0:0:0:0:
256,192,84325,1,8,0:0:0:0:
256,192,84536,1,4,0:0:0:0:
256,192,84959,1,12,0:0:0:0:
256,192,85381,1,4,0:0:0:0:
256,192,85804,1,8,0:0:0:0:
256,192,85910,1,8,0:0:0:0:
256,192,86226,1,4,0:0:0:0:
256,192,86543,1,0,0:0:0:0:
256,192,86649,1,8,0:0:0:0:
256,192,86860,1,0,0:0:0:0:
256,192,87071,1,8,0:0:0:0:
256,192,87494,1,8,0:0:0:0:
256,192,87600,1,8,0:0:0:0:
256,192,87917,1,0,0:0:0:0:
256,192,88233,1,0,0:0:0:0:
256,192,88339,1,8,0:0:0:0:
256,192,88445,1,0,0:0:0:0:
256,192,88762,1,8,0:0:0:0:
256,192,89184,1,8,0:0:0:0:
256,192,89290,1,8,0:0:0:0:
256,192,89607,1,0,0:0:0:0:
256,192,89924,1,0,0:0:0:0:
256,192,90029,1,8,0:0:0:0:
256,192,90135,1,8,0:0:0:0:
256,192,90452,1,8,0:0:0:0:
256,192,90874,1,0,0:0:0:0:
256,192,91086,1,8,0:0:0:0:
256,192,91297,1,0,0:0:0:0:
256,192,91508,1,8,0:0:0:0:
256,192,91614,1,0,0:0:0:0:
256,192,91719,1,8,0:0:0:0:
256,192,91931,1,0,0:0:0:0:
256,192,92142,1,8,0:0:0:0:
256,192,92564,1,8,0:0:0:0:
256,192,92670,1,8,0:0:0:0:
256,192,92987,1,0,0:0:0:0:
256,192,93093,1,8,0:0:0:0:
256,192,93198,1,8,0:0:0:0:
256,192,93410,1,0,0:0:0:0:
256,192,93515,1,8,0:0:0:0:
256,192,93832,1,8,0:0:0:0:
256,192,94255,1,8,0:0:0:0:
256,192,94360,1,0,0:0:0:0:
256,192,94466,1,8,0:0:0:0:
256,192,94571,1,8,0:0:0:0:
256,192,94677,1,0,0:0:0:0:
256,192,94994,1,0,0:0:0:0:
256,192,95100,1,8,0:0:0:0:
256,192,95205,1,8,0:0:0:0:
256,192,95522,1,8,0:0:0:0:
256,192,95628,1,8,0:0:0:0:
256,192,95733,1,8,0:0:0:0:
256,192,95945,1,0,0:0:0:0:
256,192,96050,1,8,0:0:0:0:
256,192,96367,1,0,0:0:0:0:
256,192,96684,1,0,0:0:0:0:
256,192,96790,1,8,0:0:0:0:
256,192,96895,1,8,0:0:0:0:
256,192,97212,1,8,0:0:0:0:
256,192,97635,1,0,0:0:0:0:
256,192,97846,1,8,0:0:0:0:
256,192,98057,1,0,0:0:0:0:
256,192,98269,1,8,0:0:0:0:
256,192,98374,1,0,0:0:0:0:
256,192,98480,1,8,0:0:0:0:
256,192,98691,1,0,0:0:0:0:
256,192,98902,1,8,0:0:0:0:
256,192,99008,1,0,0:0:0:0:
256,192,99114,1,8,0:0:0:0:
256,192,99325,1,8,0:0:0:0:
256,192,99431,1,8,0:0:0:0:
256,192,99536,1,0,0:0:0:0:
256,192,99748,1,4,0:0:0:0:
256,192,101015,1,0,0:0:0:0:
256,192,101438,1,8,0:0:0:0:
256,192,102494,1,0,0:0:0:0:
256,192,102705,1,8,0:0:0:0:
256,192,103128,1,0,0:0:0:0:
256,192,103339,1,0,0:0:0:0:
256,192,103550,1,0,0:0:0:0:
256,192,104395,1,0,0:0:0:0:
256,192,104607,1,0,0:0:0:0:
256,192,104818,1,8,0:0:0:0:
256,192,105452,1,0,0:0:0:0:
256,192,105663,1,8,0:0:0:0:
256,192,105769,1,8,0:0:0:0:
256,192,105874,1,0,0:0:0:0:
256,192,106086,1,8,0:0:0:0:
256,192,106297,1,0,0:0:0:0:
256,192,106508,1,0,0:0:0:0:
256,192,107142,1,0,0:0:0:0:
256,192,107776,1,0,0:0:0:0:
256,192,108198,1,8,0:0:0:0:
256,192,109255,1,0,0:0:0:0:
256,192,109466,1,8,0:0:0:0:
256,192,109888,1,0,0:0:0:0:
256,192,110100,1,0,0:0:0:0:
256,192,110311,1,0,0:0:0:0:
256,192,111156,1,0,0:0:0:0:
256,192,111368,1,0,0:0:0:0:
256,192,111579,1,8,0:0:0:0:
256,192,112424,1,0,0:0:0:0:
256,192,112635,1,0,0:0:0:0:
256,192,112846,1,0,0:0:0:0:
256,192,112952,1,8,0:0:0:0:
256,192,113057,1,0,0:0:0:0:
256,192,113269,1,4,0:0:0:0:
256,192,114959,1,8,0:0:0:0:
256,192,115593,1,0,0:0:0:0:
256,192,115804,1,8,0:0:0:0:
256,192,116227,1,8,0:0:0:0:
256,192,116649,1,0,0:0:0:0:
256,192,118128,1,0,0:0:0:0:
256,192,118339,1,8,0:0:0:0:
256,192,118973,1,0,0:0:0:0:
256,192,119184,1,8,0:0:0:0:
256,192,119396,1,8,0:0:0:0:
256,192,119818,1,0,0:0:0:0:
256,192,120029,1,12,0:0:0:0:
256,192,120875,1,0,0:0:0:0:
256,192,121720,1,0,0:0:0:0:
256,192,122565,1,0,0:0:0:0:
256,192,123410,1,0,0:0:0:0:
256,192,123832,1,0,0:0:0:0:
256,192,124255,1,0,0:0:0:0:
256,192,124677,1,0,0:0:0:0:
256,192,124889,1,0,0:0:0:0:
256,192,125100,1,0,0:0:0:0:
256,192,125206,1,0,0:0:0:0:
256,192,125311,1,0,0:0:0:0:
256,192,125417,1,0,0:0:0:0:
256,192,125522,1,0,0:0:0:0:
256,192,125628,1,0,0:0:0:0:
256,192,125734,1,0,0:0:0:0:
256,192,125839,1,0,0:0:0:0:
256,192,126790,1,4,0:0:0:0:
256,192,127424,1,0,0:0:0:0:
256,192,127635,1,8,0:0:0:0:
256,192,128058,1,8,0:0:0:0:
256,192,128269,1,0,0:0:0:0:
256,192,128480,1,8,0:0:0:0:
256,192,128691,1,0,0:0:0:0:
256,192,128903,1,0,0:0:0:0:
256,192,129325,1,8,0:0:0:0:
256,192,129536,1,0,0:0:0:0:
256,192,129748,1,0,0:0:0:0:
256,192,129959,1,8,0:0:0:0:
256,192,130170,1,4,0:0:0:0:
256,192,130804,1,0,0:0:0:0:
256,192,131015,1,8,0:0:0:0:
256,192,131438,1,8,0:0:0:0:
256,192,131649,1,8,0:0:0:0:
256,192,131755,1,8,0:0:0:0:
256,192,131860,1,8,0:0:0:0:
256,192,132072,1,0,0:0:0:0:
256,192,132283,1,0,0:0:0:0:
256,192,132494,1,0,0:0:0:0:
256,192,132600,1,0,0:0:0:0:
256,192,132706,1,8,0:0:0:0:
256,192,132917,1,8,0:0:0:0:
256,192,133128,1,0,0:0:0:0:
256,192,133339,1,8,0:0:0:0:
256,192,133551,1,4,0:0:0:0:
256,192,133762,1,0,0:0:0:0:
256,192,134184,1,0,0:0:0:0:
256,192,134396,1,8,0:0:0:0:
256,192,134818,1,8,0:0:0:0:
256,192,135029,1,0,0:0:0:0:
256,192,135241,1,8,0:0:0:0:
256,192,135452,1,0,0:0:0:0:
256,192,135663,1,0,0:0:0:0:
256,192,136086,1,8,0:0:0:0:
256,192,136297,1,0,0:0:0:0:
256,192,136403,1,0,0:0:0:0:
256,192,136508,1,8,0:0:0:0:
256,192,136720,1,8,0:0:0:0:
256,192,136931,1,4,0:0:0:0:
256,192,137565,1,0,0:0:0:0:
256,192,137776,1,8,0:0:0:0:
256,192,137882,1,0,0:0:0:0:
256,192,137987,1,8,0:0:0:0:
256,192,138198,1,0,0:0:0:0:
256,192,138410,1,8,0:0:0:0:
256,192,138515,1,8,0:0:0:0:
256,192,138621,1,8,0:0:0:0:
256,192,138832,1,0,0:0:0:0:
256,192,139044,1,0,0:0:0:0:
256,192,139255,1,0,0:0:0:0:
256,192,139360,1,0,0:0:0:0:
256,192,139466,1,8,0:0:0:0:
256,192,139677,1,8,0:0:0:0:
256,192,139783,1,8,0:0:0:0:
256,192,139889,1,0,0:0:0:0:
256,192,140100,1,8,0:0:0:0:
256,192,140311,1,4,0:0:0:0:
256,192,140734,1,8,0:0:0:0:
256,192,140945,1,0,0:0:0:0:
256,192,141156,1,8,0:0:0:0:
256,192,141367,1,8,0:0:0:0:
256,192,141473,1,8,0:0:0:0:
256,192,141579,1,0,0:0:0:0:
256,192,141790,1,0,0:0:0:0:
256,192,142001,1,8,0:0:0:0:
256,192,142213,1,0,0:0:0:0:
256,192,142424,1,0,0:0:0:0:
256,192,142635,1,8,0:0:0:0:
256,192,142741,1,0,0:0:0:0:
256,192,142846,1,8,0:0:0:0:
256,192,143058,1,0,0:0:0:0:
256,192,143163,1,0,0:0:0:0:
256,192,143269,1,8,0:0:0:0:
256,192,143480,1,8,0:0:0:0:
256,192,143691,1,4,0:0:0:0:
256,192,144114,1,8,0:0:0:0:
256,192,144325,1,0,0:0:0:0:
256,192,144536,1,8,0:0:0:0:
256,192,144748,1,0,0:0:0:0:
256,192,144853,1,0,0:0:0:0:
256,192,144959,1,8,0:0:0:0:
256,192,145382,1,8,0:0:0:0:
256,192,145593,1,0,0:0:0:0:
256,192,145804,1,0,0:0:0:0:
256,192,146015,1,0,0:0:0:0:
256,192,146121,1,0,0:0:0:0:
256,192,146227,1,8,0:0:0:0:
256,192,146438,1,8,0:0:0:0:
256,192,146544,1,8,0:0:0:0:
256,192,146649,1,0,0:0:0:0:
256,192,147072,1,4,0:0:0:0:
256,192,147283,1,0,0:0:0:0:
256,192,147495,1,8,0:0:0:0:
256,192,147706,1,0,0:0:0:0:
256,192,147811,1,0,0:0:0:0:
256,192,147917,1,8,0:0:0:0:
256,192,148128,1,8,0:0:0:0:
256,192,148340,1,0,0:0:0:0:
256,192,148445,1,0,0:0:0:0:
256,192,148551,1,0,0:0:0:0:
256,192,148762,1,8,0:0:0:0:
256,192,148974,1,0,0:0:0:0:
256,192,149185,1,0,0:0:0:0:
256,192,149396,1,8,0:0:0:0:
256,192,149502,1,0,0:0:0:0:
256,192,149607,1,8,0:0:0:0:
256,192,149819,1,0,0:0:0:0:
256,192,149924,1,0,0:0:0:0:
256,192,150030,1,8,0:0:0:0:
256,192,150241,1,8,0:0:0:0:
256,192,150452,1,4,0:0:0:0:
256,192,150875,1,8,0:0:0:0:
256,192,151086,1,0,0:0:0:0:
256,192,151297,1,8,0:0:0:0:
256,192,151509,1,0,0:0:0:0:
256,192,151614,1,0,0:0:0:0:
256,192,151720,1,8,0:0:0:0:
256,192,152143,1,8,0:0:0:0:
256,192,152354,1,0,0:0:0:0:
256,192,152565,1,0,0:0:0:0:
256,192,152987,1,0,0:0:0:0:
256,192,153198,1,8,0:0:0:0:
256,192,153410,1,0,0:0:0:0:
256,192,153832,1,0,0:0:0:0:
256,192,154043,12,0,155311,0:0:0:0:
256,192,155522,5,12,0:0:0:0:
256,192,156367,1,0,0:0:0:0:
256,192,157212,1,8,0:0:0:0:
256,192,157424,1,0,0:0:0:0:
256,192,157635,1,8,0:0:0:0:
256,192,158057,1,8,0:0:0:0:
256,192,158480,1,8,0:0:0:0:
256,192,158691,1,8,0:0:0:0:
256,192,158902,1,0,0:0:0:0:
256,192,159748,1,8,0:0:0:0:
256,192,160593,1,0,0:0:0:0:
256,192,160804,1,8,0:0:0:0:
256,192,161015,1,8,0:0:0:0:
256,192,161438,1,8,0:0:0:0:
256,192,161860,1,8,0:0:0:0:
256,192,162071,1,8,0:0:0:0:
256,192,162283,1,0,0:0:0:0:
256,192,163128,1,8,0:0:0:0:
256,192,163973,1,8,0:0:0:0:
256,192,164184,1,0,0:0:0:0:
256,192,164395,1,8,0:0:0:0:
256,192,164818,1,8,0:0:0:0:
256,192,165240,1,8,0:0:0:0:
256,192,165452,1,8,0:0:0:0:
256,192,165663,1,0,0:0:0:0:
256,192,166508,1,8,0:0:0:0:
256,192,167353,1,0,0:0:0:0:
256,192,168410,1,0,0:0:0:0:
256,192,168621,1,8,0:0:0:0:
256,192,168832,1,0,0:0:0:0:
256,192,169043,1,0,0:0:0:0:
256,192,169677,1,0,0:0:0:0:
256,192,169888,1,8,0:0:0:0:
256,192,170311,1,0,0:0:0:0:
256,192,170733,1,0,0:0:0:0:
256,192,171367,1,0,0:0:0:0:
256,192,171579,1,8,0:0:0:0:
256,192,172001,1,0,0:0:0:0:
256,192,172212,1,8,0:0:0:0:
256,192,172283,1,8,0:0:0:0:
256,192,172353,1,8,0:0:0:0:
256,192,172424,1,0,0:0:0:0:
256,192,173057,1,0,0:0:0:0:
256,192,173269,1,8,0:0:0:0:
256,192,173691,1,0,0:0:0:0:
256,192,174114,1,0,0:0:0:0:
256,192,174748,1,0,0:0:0:0:
256,192,174959,1,8,0:0:0:0:
256,192,175381,1,0,0:0:0:0:
256,192,175593,1,8,0:0:0:0:
256,192,175698,1,8,0:0:0:0:
256,192,175804,1,0,0:0:0:0:
256,192,176226,1,8,0:0:0:0:
256,192,176438,1,0,0:0:0:0:
256,192,176649,1,8,0:0:0:0:
256,192,177071,1,0,0:0:0:0:
256,192,177283,1,8,0:0:0:0:
256,192,177494,1,0,0:0:0:0:
256,192,177917,1,8,0:0:0:0:
256,192,178128,1,0,0:0:0:0:
256,192,178339,1,0,0:0:0:0:
256,192,178762,1,0,0:0:0:0:
256,192,178973,1,0,0:0:0:0:
256,192,179079,1,8,0:0:0:0:
256,192,179184,1,0,0:0:0:0:
256,192,179395,1,8,0:0:0:0:
256,192,179607,1,0,0:0:0:0:
256,192,179818,1,8,0:0:0:0:
256,192,180029,1,0,0:0:0:0:
256,192,180240,1,8,0:0:0:0:
256,192,180452,1,0,0:0:0:0:
256,192,180663,1,0,0:0:0:0:
256,192,180874,1,0,0:0:0:0:
256,192,180980,1,0,0:0:0:0:
256,192,181086,1,0,0:0:0:0:
256,192,181191,1,0,0:0:0:0:
256,192,181297,1,0,0:0:0:0:
256,192,181402,1,0,0:0:0:0:
256,192,181508,1,0,0:0:0:0:
256,192,181614,1,0,0:0:0:0:
256,192,182564,1,4,0:0:0:0:
256,192,182987,1,8,0:0:0:0:
256,192,183198,1,0,0:0:0:0:
256,192,183409,1,8,0:0:0:0:
256,192,183832,1,8,0:0:0:0:
256,192,184043,1,0,0:0:0:0:
256,192,184254,1,8,0:0:0:0:
256,192,184465,1,0,0:0:0:0:
256,192,184677,1,0,0:0:0:0:
256,192,185099,1,8,0:0:0:0:
256,192,185310,1,0,0:0:0:0:
256,192,185522,1,0,0:0:0:0:
256,192,185733,1,8,0:0:0:0:
256,192,185944,1,4,0:0:0:0:
256,192,186156,1,0,0:0:0:0:
256,192,186262,1,0,0:0:0:0:
256,192,186367,1,8,0:0:0:0:
256,192,186578,1,0,0:0:0:0:
256,192,186789,1,8,0:0:0:0:
256,192,187212,1,8,0:0:0:0:
256,192,187423,1,8,0:0:0:0:
256,192,187529,1,8,0:0:0:0:
256,192,187634,1,8,0:0:0:0:
256,192,187846,1,0,0:0:0:0:
256,192,188057,1,0,0:0:0:0:
256,192,188268,1,0,0:0:0:0:
256,192,188374,1,0,0:0:0:0:
256,192,188480,1,8,0:0:0:0:
256,192,188691,1,8,0:0:0:0:
256,192,188902,1,0,0:0:0:0:
256,192,189113,1,8,0:0:0:0:
256,192,189325,1,4,0:0:0:0:
256,192,189536,1,0,0:0:0:0:
256,192,189748,1,8,0:0:0:0:
256,192,189853,1,8,0:0:0:0:
256,192,189958,1,0,0:0:0:0:
256,192,190170,1,8,0:0:0:0:
256,192,190592,1,8,0:0:0:0:
256,192,190803,1,0,0:0:0:0:
256,192,191015,1,8,0:0:0:0:
256,192,191226,1,0,0:0:0:0:
256,192,191437,1,0,0:0:0:0:
256,192,191860,1,8,0:0:0:0:
256,192,192071,1,0,0:0:0:0:
256,192,192177,1,0,0:0:0:0:
256,192,192282,1,8,0:0:0:0:
256,192,192494,1,8,0:0:0:0:
256,192,192705,1,4,0:0:0:0:
256,192,193128,1,8,0:0:0:0:
256,192,193339,1,0,0:0:0:0:
256,192,193550,1,8,0:0:0:0:
256,192,193656,1,0,0:0:0:0:
256,192,193761,1,8,0:0:0:0:
256,192,193972,1,0,0:0:0:0:
256,192,194184,1,8,0:0:0:0:
256,192,194289,1,8,0:0:0:0:
256,192,194395,1,8,0:0:0:0:
256,192,194606,1,0,0:0:0:0:
256,192,194818,1,0,0:0:0:0:
256,192,195029,1,0,0:0:0:0:
256,192,195134,1,0,0:0:0:0:
256,192,195240,1,8,0:0:0:0:
256,192,195451,1,8,0:0:0:0:
256,192,195557,1,8,0:0:0:0:
256,192,195663,1,0,0:0:0:0:
256,192,195874,1,8,0:0:0:0:
256,192,196085,1,4,0:0:0:0:
256,192,196508,1,8,0:0:0:0:
256,192,196719,1,0,0:0:0:0:
256,192,196930,1,8,0:0:0:0:
256,192,197141,1,8,0:0:0:0:
256,192,197247,1,8,0:0:0:0:
256,192,197353,1,0,0:0:0:0:
256,192,197564,1,0,0:0:0:0:
256,192,197775,1,8,0:0:0:0:
256,192,197987,1,0,0:0:0:0:
256,192,198198,1,0,0:0:0:0:
256,192,198409,1,8,0:0:0:0:
256,192,198515,1,0,0:0:0:0:
256,192,198620,1,8,0:0:0:0:
256,192,198832,1,0,0:0:0:0:
256,192,198937,1,0,0:0:0:0:
256,192,199043,1,8,0:0:0:0:
256,192,199254,1,8,0:0:0:0:
256,192,199465,1,4,0:0:0:0:
256,192,199888,1,8,0:0:0:0:
256,192,200099,1,0,0:0:0:0:
256,192,200310,1,8,0:0:0:0:
256,192,200522,1,0,0:0:0:0:
256,192,200627,1,0,0:0:0:0:
256,192,200733,1,8,0:0:0:0:
256,192,200945,1,0,0:0:0:0:
256,192,201156,1,8,0:0:0:0:
256,192,201367,1,0,0:0:0:0:
256,192,201578,1,0,0:0:0:0:
256,192,201789,1,0,0:0:0:0:
256,192,201895,1,0,0:0:0:0:
256,192,202001,1,8,0:0:0:0:
256,192,202212,1,8,0:0:0:0:
256,192,202318,1,8,0:0:0:0:
256,192,202423,1,0,0:0:0:0:
256,192,202635,1,8,0:0:0:0:
256,192,202846,1,4,0:0:0:0:
256,192,203057,1,0,0:0:0:0:
256,192,203269,1,8,0:0:0:0:
256,192,203480,1,0,0:0:0:0:
256,192,203585,1,0,0:0:0:0:
256,192,203691,1,8,0:0:0:0:
256,192,203902,1,8,0:0:0:0:
256,192,204114,1,0,0:0:0:0:
256,192,204219,1,0,0:0:0:0:
256,192,204325,1,0,0:0:0:0:
256,192,204536,1,8,0:0:0:0:
256,192,204748,1,0,0:0:0:0:
256,192,204959,1,0,0:0:0:0:
256,192,205170,1,8,0:0:0:0:
256,192,205276,1,0,0:0:0:0:
256,192,205381,1,8,0:0:0:0:
256,192,205593,1,0,0:0:0:0:
256,192,205698,1,0,0:0:0:0:
256,192,205804,1,8,0:0:0:0:
256,192,206015,1,8,0:0:0:0:
256,192,206226,1,4,0:0:0:0:
256,192,206649,1,8,0:0:0:0:
256,192,206860,1,0,0:0:0:0:
256,192,207071,1,8,0:0:0:0:
256,192,207283,1,0,0:0:0:0:
256,192,207388,1,0,0:0:0:0:
256,192,207494,1,8,0:0:0:0:
256,192,207705,1,0,0:0:0:0:
256,192,207917,1,8,0:0:0:0:
256,192,208128,1,0,0:0:0:0:
256,192,208339,1,0,0:0:0:0:
256,192,208762,1,0,0:0:0:0:
256,192,208973,1,8,0:0:0:0:
256,192,209184,1,0,0:0:0:0:
