osu file format v14

[General]
AudioFilename: audio.mp3
AudioLeadIn: 0
PreviewTime: 126790
Countdown: 0
SampleSet: Normal
StackLeniency: 0.7
Mode: 1
LetterboxInBreaks: 0
WidescreenStoryboard: 0

[Editor]
Bookmarks: 3410,10170,16931,23691,30452,37212,43973,50733,57494,84536,86226,92987,99748,106508,113269,120029,126790,153832,155522,162283,169043,175804,182564,209184
DistanceSpacing: 0.5
BeatDivisor: 4
GridSize: 32
TimelineZoom: 1.4

[Metadata]
Title:MORE feat. Madison Beer, (G)I-DLE, Lexie Liu, Jaira Burns, Seraphine
TitleUnicode:MORE feat. Madison Beer, (G)I-DLE, Lexie Liu, Jaira Burns, Seraphine
Artist:K/DA
ArtistUnicode:K/DA
Creator:eiri-
Version:Kantan
Source:League of Legends
Tags:Ayyri English Korean Pop Video Game Electronic POP/STARS POPSTARS LoL Riot Games KDA (여자)아이들 Reunion Worlds 2020 Evelynn Kai'Sa KaiSa Ahri Akali Kpop K-Pop Hip-Hop HipHop Jeon Soyeon So-Yeon 전소연 Cho Miyeon Mi-Yeon 조미연 Bekuh BOOM Rap
BeatmapID:3116210
BeatmapSetID:1341003

[Difficulty]
HPDrainRate:8
CircleSize:2
OverallDifficulty:3
ApproachRate:10
SliderMultiplier:1.4
SliderTickRate:1

[Events]
//Background and Video events
0,0,"Akali 783.jpg",0,-30
Video,-75,"KDA.mp4"
//Break Periods
//Storyboard Layer 0 (Background)
//Storyboard Layer 1 (Fail)
//Storyboard Layer 2 (Pass)
//Storyboard Layer 3 (Foreground)
//Storyboard Layer 4 (Overlay)
//Storyboard Sound Samples

[TimingPoints]
3410,422.535211267606,4,1,0,70,1,0
10117,-100,4,1,0,75,0,0
16455,-100,4,1,0,80,0,0
43920,-100,4,1,0,60,0,0
50681,-100,4,1,0,90,0,0
57494,-100,4,1,0,100,0,1
84536,-100,4,1,0,100,0,0
86174,-100,4,1,0,80,0,0
99695,-100,4,1,0,70,0,0
113216,-100,4,1,0,60,0,0
119976,-100,4,1,0,90,0,0
126790,-100,4,1,0,100,0,1
153832,-100,4,1,0,100,0,0
155469,-100,4,1,0,50,0,0
168990,-100,4,1,0,60,0,0
175751,-100,4,1,0,70,0,0
182564,-100,4,1,0,100,0,1
209184,-100,4,1,0,100,0,0

[HitObjects]
256,192,3410,5,4,0:0:0:0:
256,192,3832,1,8,0:0:0:0:
256,192,4677,1,0,0:0:0:0:
256,192,5100,1,8,0:0:0:0:
256,192,6790,1,4,0:0:0:0:
256,192,7212,1,8,0:0:0:0:
256,192,8057,1,8,0:0:0:0:
256,192,8480,1,4,0:0:0:0:
256,192,9325,1,4,0:0:0:0:
256,192,10170,1,4,0:0:0:0:
256,192,10593,1,8,0:0:0:0:
256,192,11860,1,0,0:0:0:0:
256,192,12494,1,0,0:0:0:0:
256,192,13128,1,8,0:0:0:0:
256,192,13550,1,4,0:0:0:0:
256,192,13973,1,8,0:0:0:0:
256,192,14818,1,8,0:0:0:0:
256,192,15240,1,0,0:0:0:0:
256,192,15663,1,0,0:0:0:0:
256,192,16086,1,8,0:0:0:0:
256,192,16931,1,0,0:0:0:0:
256,192,17776,1,8,0:0:0:0:
256,192,18621,1,8,0:0:0:0:
256,192,19043,1,0,0:0:0:0:
256,192,19466,1,8,0:0:0:0:
256,192,20311,1,0,0:0:0:0:
256,192,21156,1,8,0:0:0:0:
256,192,21579,1,0,0:0:0:0:
256,192,22001,1,8,0:0:0:0:
256,192,23691,1,0,0:0:0:0:
256,192,24536,1,8,0:0:0:0:
256,192,25381,1,0,0:0:0:0:
256,192,25804,1,0,0:0:0:0:
256,192,26226,1,8,0:0:0:0:
256,192,27071,1,0,0:0:0:0:
256,192,27917,1,8,0:0:0:0:
256,192,28762,1,0,0:0:0:0:
256,192,30452,1,0,0:0:0:0:
256,192,31297,1,8,0:0:0:0:
256,192,32142,1,0,0:0:0:0:
256,192,32564,1,0,0:0:0:0:
256,192,32987,1,8,0:0:0:0:
256,192,33832,1,0,0:0:0:0:
256,192,34677,1,8,0:0:0:0:
256,192,35522,1,0,0:0:0:0:
256,192,37212,1,0,0:0:0:0:
256,192,38057,1,8,0:0:0:0:
256,192,38480,1,0,0:0:0:0:
256,192,38902,1,8,0:0:0:0:
256,192,39748,1,8,0:0:0:0:
256,192,40170,1,0,0:0:0:0:
256,192,40593,1,0,0:0:0:0:
256,192,41015,1,0,0:0:0:0:
256,192,41438,1,8,0:0:0:0:
256,192,42283,1,0,0:0:0:0:
256,192,43128,1,8,0:0:0:0:
256,192,43973,1,4,0:0:0:0:
256,192,45663,1,8,0:0:0:0:
256,192,46508,1,8,0:0:0:0:
256,192,46931,1,8,0:0:0:0:
256,192,47353,1,0,0:0:0:0:
256,192,49043,1,8,0:0:0:0:
256,192,49888,1,8,0:0:0:0:
256,192,50733,1,12,0:0:0:0:
256,192,51579,1,0,0:0:0:0:
256,192,52424,1,0,0:0:0:0:
256,192,53269,1,0,0:0:0:0:
256,192,54114,1,0,0:0:0:0:
256,192,54536,1,0,0:0:0:0:
256,192,54959,1,0,0:0:0:0:
256,192,55381,1,0,0:0:0:0:
256,192,55804,1,0,0:0:0:0:
256,192,56438,1,0,0:0:0:0:
256,192,57494,1,4,0:0:0:0:
256,192,58339,1,8,0:0:0:0:
256,192,58762,1,0,0:0:0:0:
256,192,59184,1,8,0:0:0:0:
256,192,60029,1,8,0:0:0:0:
256,192,60874,1,4,0:0:0:0:
256,192,62564,1,0,0:0:0:0:
256,192,63410,1,8,0:0:0:0:
256,192,63832,1,8,0:0:0:0:
256,192,64255,1,4,0:0:0:0:
256,192,65100,1,8,0:0:0:0:
256,192,65522,1,0,0:0:0:0:
256,192,65945,1,8,0:0:0:0:
256,192,66790,1,8,0:0:0:0:
256,192,67635,1,4,0:0:0:0:
256,192,68480,1,8,0:0:0:0:
256,192,68902,1,8,0:0:0:0:
256,192,69325,1,0,0:0:0:0:
256,192,70170,1,8,0:0:0:0:
256,192,70593,1,0,0:0:0:0:
256,192,71015,1,4,0:0:0:0:
256,192,71860,1,8,0:0:0:0:
256,192,72705,1,0,0:0:0:0:
256,192,73128,1,0,0:0:0:0:
256,192,73550,1,8,0:0:0:0:
256,192,74395,1,4,0:0:0:0:
256,192,75240,1,8,0:0:0:0:
256,192,75663,1,0,0:0:0:0:
256,192,76086,1,8,0:0:0:0:
256,192,77776,1,4,0:0:0:0:
256,192,78621,1,8,0:0:0:0:
256,192,79043,1,8,0:0:0:0:
256,192,79466,1,0,0:0:0:0:
256,192,80311,1,8,0:0:0:0:
256,192,81156,1,4,0:0:0:0:
256,192,82001,1,8,0:0:0:0:
256,192,82424,1,0,0:0:0:0:
256,192,82846,1,8,0:0:0:0:
256,192,83691,1,8,0:0:0:0:
256,192,84536,1,4,0:0:0:0:
256,192,84959,1,12,0:0:0:0:
256,192,85381,1,4,0:0:0:0:
256,192,86226,1,4,0:0:0:0:
256,192,87071,1,8,0:0:0:0:
256,192,87917,1,0,0:0:0:0:
256,192,88762,1,8,0:0:0:0:
256,192,89607,1,0,0:0:0:0:
256,192,90452,1,8,0:0:0:0:
256,192,91297,1,0,0:0:0:0:
256,192,92987,1,0,0:0:0:0:
256,192,93832,1,8,0:0:0:0:
256,192,94677,1,0,0:0:0:0:
256,192,95522,1,8,0:0:0:0:
256,192,96367,1,0,0:0:0:0:
256,192,97212,1,8,0:0:0:0:
256,192,98057,1,0,0:0:0:0:
256,192,99748,1,4,0:0:0:0:
256,192,101015,1,0,0:0:0:0:
256,192,101438,1,8,0:0:0:0:
256,192,102705,1,8,0:0:0:0:
256,192,103128,1,0,0:0:0:0:
256,192,104395,1,0,0:0:0:0:
256,192,104818,1,8,0:0:0:0:
256,192,106508,1,0,0:0:0:0:
256,192,107142,1,0,0:0:0:0:
256,192,107776,1,0,0:0:0:0:
256,192,108198,1,8,0:0:0:0:
256,192,109466,1,8,0:0:0:0:
256,192,109888,1,0,0:0:0:0:
256,192,111156,1,0,0:0:0:0:
256,192,111579,1,8,0:0:0:0:
256,192,112424,1,0,0:0:0:0:
256,192,113269,1,4,0:0:0:0:
256,192,114959,1,8,0:0:0:0:
256,192,115804,1,8,0:0:0:0:
256,192,116226,1,8,0:0:0:0:
256,192,116649,1,0,0:0:0:0:
256,192,118339,1,8,0:0:0:0:
256,192,119184,1,8,0:0:0:0:
256,192,120029,1,12,0:0:0:0:
256,192,120874,1,0,0:0:0:0:
256,192,121719,1,0,0:0:0:0:
256,192,122564,1,0,0:0:0:0:
256,192,123410,1,0,0:0:0:0:
256,192,123832,1,0,0:0:0:0:
256,192,124255,1,0,0:0:0:0:
256,192,124677,1,0,0:0:0:0:
256,192,125100,1,0,0:0:0:0:
256,192,125733,1,0,0:0:0:0:
256,192,126790,1,4,0:0:0:0:
256,192,127635,1,8,0:0:0:0:
256,192,128057,1,0,0:0:0:0:
256,192,128480,1,8,0:0:0:0:
256,192,129325,1,8,0:0:0:0:
256,192,130170,1,4,0:0:0:0:
256,192,131860,1,0,0:0:0:0:
256,192,132705,1,8,0:0:0:0:
256,192,133128,1,8,0:0:0:0:
256,192,133550,1,4,0:0:0:0:
256,192,134395,1,8,0:0:0:0:
256,192,134818,1,0,0:0:0:0:
256,192,135240,1,8,0:0:0:0:
256,192,136086,1,8,0:0:0:0:
256,192,136931,1,4,0:0:0:0:
256,192,137776,1,8,0:0:0:0:
256,192,138198,1,8,0:0:0:0:
256,192,138621,1,0,0:0:0:0:
256,192,139466,1,8,0:0:0:0:
256,192,139888,1,0,0:0:0:0:
256,192,140311,1,4,0:0:0:0:
256,192,141156,1,8,0:0:0:0:
256,192,142001,1,0,0:0:0:0:
256,192,142424,1,0,0:0:0:0:
256,192,142846,1,8,0:0:0:0:
256,192,143691,1,4,0:0:0:0:
256,192,144536,1,8,0:0:0:0:
256,192,144959,1,0,0:0:0:0:
256,192,145381,1,8,0:0:0:0:
256,192,147071,1,4,0:0:0:0:
256,192,147917,1,8,0:0:0:0:
256,192,148339,1,8,0:0:0:0:
256,192,148762,1,0,0:0:0:0:
256,192,149607,1,8,0:0:0:0:
256,192,150452,1,4,0:0:0:0:
256,192,151297,1,8,0:0:0:0:
256,192,151719,1,0,0:0:0:0:
256,192,152142,1,8,0:0:0:0:
256,192,152987,1,8,0:0:0:0:
256,192,153832,1,4,0:0:0:0:
256,192,154043,8,0,155311,0:0:0:0:
256,192,155522,5,12,0:0:0:0:
256,192,156367,1,0,0:0:0:0:
256,192,157212,1,8,0:0:0:0:
256,192,158902,1,0,0:0:0:0:
256,192,159748,1,8,0:0:0:0:
256,192,160593,1,0,0:0:0:0:
256,192,162283,1,0,0:0:0:0:
256,192,163128,1,8,0:0:0:0:
256,192,163973,1,8,0:0:0:0:
256,192,165663,1,0,0:0:0:0:
256,192,166508,1,8,0:0:0:0:
256,192,167353,1,0,0:0:0:0:
256,192,168621,1,8,0:0:0:0:
256,192,169043,1,0,0:0:0:0:
256,192,170311,1,0,0:0:0:0:
256,192,170733,1,0,0:0:0:0:
256,192,172001,1,0,0:0:0:0:
256,192,172424,1,0,0:0:0:0:
256,192,173691,1,0,0:0:0:0:
256,192,174114,1,0,0:0:0:0:
256,192,175381,1,0,0:0:0:0:
256,192,175804,1,0,0:0:0:0:
256,192,176438,1,0,0:0:0:0:
256,192,177071,1,0,0:0:0:0:
256,192,177494,1,0,0:0:0:0:
256,192,178128,1,0,0:0:0:0:
256,192,179184,1,0,0:0:0:0:
256,192,179607,1,0,0:0:0:0:
256,192,180029,1,0,0:0:0:0:
256,192,180874,1,0,0:0:0:0:
256,192,181297,1,0,0:0:0:0:
256,192,182564,1,4,0:0:0:0:
256,192,183410,1,8,0:0:0:0:
256,192,183832,1,0,0:0:0:0:
256,192,184255,1,8,0:0:0:0:
256,192,185100,1,8,0:0:0:0:
256,192,185522,1,8,0:0:0:0:
256,192,185945,1,4,0:0:0:0:
256,192,187635,1,0,0:0:0:0:
256,192,188480,1,8,0:0:0:0:
256,192,188902,1,8,0:0:0:0:
256,192,189325,1,4,0:0:0:0:
256,192,190170,1,8,0:0:0:0:
256,192,190593,1,0,0:0:0:0:
256,192,191015,1,8,0:0:0:0:
256,192,191860,1,8,0:0:0:0:
256,192,192705,1,4,0:0:0:0:
256,192,193550,1,8,0:0:0:0:
256,192,193973,1,8,0:0:0:0:
256,192,194395,1,0,0:0:0:0:
256,192,195240,1,8,0:0:0:0:
256,192,195663,1,0,0:0:0:0:
256,192,196086,1,4,0:0:0:0:
256,192,196931,1,8,0:0:0:0:
256,192,197776,1,0,0:0:0:0:
256,192,198198,1,0,0:0:0:0:
256,192,198621,1,8,0:0:0:0:
256,192,199466,1,4,0:0:0:0:
256,192,200311,1,8,0:0:0:0:
256,192,200733,1,0,0:0:0:0:
256,192,201156,1,8,0:0:0:0:
256,192,202846,1,4,0:0:0:0:
256,192,203691,1,8,0:0:0:0:
256,192,204114,1,8,0:0:0:0:
256,192,204536,1,0,0:0:0:0:
256,192,205381,1,8,0:0:0:0:
256,192,206226,1,4,0:0:0:0:
256,192,207071,1,8,0:0:0:0:
256,192,207494,1,0,0:0:0:0:
256,192,207917,1,8,0:0:0:0:
256,192,208762,1,8,0:0:0:0:
256,192,209184,1,0,0:0:0:0:
