osu file format v14

[General]
AudioFilename: audio.mp3
AudioLeadIn: 0
PreviewTime: 57387
Countdown: 0
SampleSet: Soft
StackLeniency: 0.7
Mode: 0
LetterboxInBreaks: 0
WidescreenStoryboard: 1
EpilepsyWarning: 1

[Editor]
Bookmarks: 26,3406,16927,30448,43969,50730,57490,71011,84533,99746,113267,120028,126788,182563,209603
DistanceSpacing: 1.1
BeatDivisor: 4
GridSize: 32
TimelineZoom: 1.6

[Metadata]
Title:MORE feat. Madison Beer, (G)I-DLE, Lexie Liu, Jaira Burns, Seraphine
TitleUnicode:MORE feat. Madison Beer, (G)I-DLE, Lexie Liu, Jaira Burns, Seraphine
Artist:K/DA
ArtistUnicode:K/DA
Creator:Elinor
Version:Normal
Source:League of Legends
Tags:reform kujinn halgoh wafer goopert kami no kotoba mayflower [_eli_] eli kpop english korean chinese pop kda ahri evelynn kaisa kai'sa akali riot games miyeon soyeon (여자)아이들 gidle g_idle lol ft. k-pop (G)I-DLE all out
BeatmapID:2674431
BeatmapSetID:1288125

[Difficulty]
HPDrainRate:3
CircleSize:3.2
OverallDifficulty:4
ApproachRate:5
SliderMultiplier:1
SliderTickRate:1

[Events]
//Background and Video events
0,0,"bg.jpg",0,0
//Break Periods
2,44171,49532
2,113467,118828
2,155720,167842
//Storyboard Layer 0 (Background)
//Storyboard Layer 1 (Fail)
//Storyboard Layer 2 (Pass)
//Storyboard Layer 3 (Foreground)
//Storyboard Layer 4 (Overlay)
//Storyboard Sound Samples

[TimingPoints]
28,422.535211267606,4,2,0,5,1,0
28,-100,4,2,0,5,0,0
450,-100,4,2,0,10,0,0
873,-100,4,2,0,15,0,0
1295,-100,4,2,0,20,0,0
1718,-100,4,2,0,25,0,0
2140,-100,4,2,0,30,0,0
2563,-100,4,2,0,5,0,0
2985,-100,4,2,0,40,0,0
3408,-111.111111111111,4,2,10,50,0,0
17563,-111.111111111111,4,2,11,60,0,0
43971,-111.111111111111,4,2,12,50,0,0
45661,-111.111111111111,4,2,12,50,0,0
50732,-111.111111111111,4,2,13,60,0,0
57492,-90.9090909090909,4,2,14,70,0,1
84535,-111.111111111111,4,2,10,50,0,0
85802,-111.111111111111,4,2,14,50,0,0
99746,-111.111111111111,4,2,15,60,0,0
113267,-111.111111111111,4,2,12,50,0,0
114957,-111.111111111111,4,2,12,50,0,0
120028,-111.111111111111,4,2,13,60,0,0
126788,-90.9090909090909,4,2,14,70,0,1
153830,-166.666666666667,4,2,14,70,0,0
155520,-166.666666666667,4,2,12,50,0,0
169042,-111.111111111111,4,2,16,60,0,0
182563,-90.9090909090909,4,2,14,70,0,1
209605,-99.9999999999999,4,2,14,30,0,0

[Colours]
Combo1 : 249,66,181
Combo2 : 138,68,255
Combo3 : 169,154,231
Combo4 : 95,214,207
Combo5 : 255,130,183

[HitObjects]
256,192,239,12,0,2563,0:0:0:0:
32,192,3408,5,12,3:0:0:0:
72,292,3830,2,0,P|104:320|152:320,1,89.999997253418,8|8,0:3|0:3,0:0:0:0:
244,268,4675,2,0,L|252:224,1,44.999998626709,10|2,0:3|0:3,0:0:0:0:
288,184,5098,2,0,L|376:200,2,89.999997253418,12|12|12,0:2|0:2|0:2,0:0:0:0:
192,140,6366,2,0,L|200:96,1,44.999998626709,12|0,0:2|0:0,0:0:0:0:
212,44,6788,5,14,3:3:0:0:
316,24,7211,2,0,P|364:24|396:52,1,89.999997253418,10|10,0:3|0:3,0:0:0:0:
460,136,8056,1,10,0:3:0:0:
468,244,8478,2,0,L|456:336,2,89.999997253418,12|12|12,0:1|0:1|0:1,0:0:0:0:
460,136,9746,1,14,0:1:0:0:
352,156,10168,6,0,B|308:152|308:188|268:184,1,89.999997253418,12|8,3:3|0:3,0:0:0:0:
220,164,10802,1,4,0:3:0:0:
220,164,11013,2,0,L|208:72,1,89.999997253418,8|12,0:0|0:3,0:0:0:0:
108,32,11858,2,0,L|56:44,1,44.999998626709,12|0,0:3|0:0,0:0:0:0:
24,76,12281,1,8,0:0:0:0:
24,76,12492,2,0,P|4:136|36:200,1,134.999995880127,4|10,0:3|0:0,0:0:0:0:
104,280,13549,5,12,3:3:0:0:
192,344,13971,2,0,L|280:328,1,89.999997253418,8|8,0:3|0:0,0:0:0:0:
387,345,14816,1,12,0:3:0:0:
463,269,15239,2,0,L|471:221,1,44.999998626709,6|2,0:3|0:3,0:0:0:0:
479,171,15661,1,2,0:2:0:0:
416,82,16084,2,0,L|372:94,1,44.999998626709,2|2,0:3|0:3,0:0:0:0:
324,112,16506,2,0,L|236:96,1,89.999997253418,2|2,0:2|0:3,0:0:0:0:
128,80,17351,6,0,L|132:128,1,44.999998626709,2|0,0:3|3:3,0:0:0:0:
136,180,17774,1,8,0:0:0:0:
120,288,18197,2,0,L|76:280,2,44.999998626709,2|2|2,0:0|0:0|0:0,0:0:0:0:
212,340,19042,2,0,L|256:332,1,44.999998626709,4|2,3:0|0:0,0:0:0:0:
308,324,19464,1,8,0:0:0:0:
376,240,19887,2,0,L|420:244,2,44.999998626709,2|2|0,0:0|0:0|3:0,0:0:0:0:
280,192,20732,6,0,L|284:144,1,44.999998626709,2|2,0:0|3:2,0:0:0:0:
288,92,21154,1,8,0:0:0:0:
380,36,21577,2,0,L|424:44,1,44.999998626709,2|2,0:0|0:0,0:0:0:0:
472,68,21999,2,0,P|484:108|472:156,2,89.999997253418,2|4|10,3:2|3:0|0:0,0:0:0:0:
380,36,23267,1,10,0:3:0:0:
272,32,23689,6,0,L|224:40,1,44.999998626709,2|0,0:1|0:0,0:0:0:0:
176,48,24112,1,2,0:1:0:0:
76,92,24535,2,0,P|64:136|76:180,1,89.9999972534181,8|10,0:0|0:3,0:0:0:0:
132,268,25380,2,0,L|176:260,1,44.999998626709,2|0,0:2|3:0,0:0:0:0:
228,252,25802,1,2,3:2:0:0:
312,184,26225,2,0,B|360:180|360:212|404:208,1,89.9999972534181,8|4,0:0|0:1,0:0:0:0:
496,252,27070,6,0,L|488:296,1,44.999998626709,2|0,0:1|0:0,0:0:0:0:
476,348,27492,1,2,0:1:0:0:
368,360,27915,2,0,L|276:344,1,89.9999972534181,10|10,3:1|0:3,0:0:0:0:
176,320,28760,2,0,L|132:332,1,44.999998626709,2|4,0:0|3:0,0:0:0:0:
80,348,29182,1,4,3:3:0:0:
28,252,29605,2,0,L|36:160,1,89.9999972534181,8|0,0:0|0:0,0:0:0:0:
48,56,30450,5,2,0:0:0:0:
144,104,30873,1,8,0:3:0:0:
236,44,31295,2,0,L|268:36,2,29.9999990844727,10|2|2,0:1|0:1|0:1,0:0:0:0:
180,176,32140,2,0,L|192:220,1,44.999998626709,4|0,0:2|0:0,0:0:0:0:
216,264,32563,2,0,L|208:308,1,44.999998626709,4|0,3:2|0:0,0:0:0:0:
172,348,32985,2,0,L|140:341,2,29.9999990844727,6|2|2,0:2|0:1|0:1,0:0:0:0:
316,352,33830,6,0,L|360:340,1,44.999998626709,2|0,3:2|0:0,0:0:0:0:
412,340,34253,2,0,L|456:352,1,44.999998626709,6|0,0:2|3:0,0:0:0:0:
492,312,34675,2,0,L|500:284,2,29.9999990844727,10|2|2,0:1|0:1|0:1,0:0:0:0:
384,220,35520,2,0,L|376:176,1,44.999998626709,4|0,0:0|3:2,0:0:0:0:
340,136,35943,2,0,L|348:88,1,44.999998626709,6|0,3:2|0:0,0:0:0:0:
384,52,36366,2,0,L|420:60,2,29.9999990844727,14|2|2,0:2|0:1|0:1,0:0:0:0:
244,28,37211,6,0,L|192:44,1,44.999998626709,2|2,3:1|0:1,0:0:0:0:
148,52,37633,1,2,0:1:0:0:
48,92,38056,2,0,L|64:184,1,89.9999972534181,8|2,0:0|0:0,0:0:0:0:
100,284,38901,2,0,L|188:268,1,89.9999972534181,2|2,0:0|3:2,0:0:0:0:
296,252,39746,2,0,L|344:264,1,44.999998626709,10|0,0:0|0:0,0:0:0:0:
392,280,40168,1,2,0:1:0:0:
492,240,40591,5,6,0:1:0:0:
468,136,41013,1,2,0:1:0:0:
376,80,41436,2,0,L|332:92,1,44.999998626709,10|0,0:0|0:0,0:0:0:0:
280,104,41858,1,2,0:0:0:0:
200,176,42281,1,2,0:0:0:0:
104,128,42704,1,2,3:1:0:0:
146,28,43126,2,0,L|193:18,1,44.999998626709,10|0,0:1|0:0,0:0:0:0:
244,20,43549,2,2,L|256:64,1,44.999998626709,2|2,0:3|0:3,0:3:0:0:
276,112,43971,5,6,3:0:0:0:
368,352,50732,6,0,P|416:352|452:328,1,89.9999972534181,14|8,3:0|0:1,0:0:0:0:
472,280,51366,1,8,0:1:0:0:
472,280,51577,2,0,L|456:192,1,89.9999972534181,8|8,3:0|0:1,0:0:0:0:
396,100,52422,2,0,B|348:96|352:132|312:128,1,89.9999972534181,10|10,3:0|0:1,0:0:0:0:
260,124,53056,2,0,L|168:108,1,89.9999972534181,10|10,0:1|0:2,0:0:0:0:
120,100,53689,1,10,0:1:0:0:
36,168,54112,6,0,L|44:212,1,44.999998626709,10|8,3:0|0:0,0:0:0:0:
56,264,54535,1,8,3:0:0:0:
140,332,54957,1,8,3:0:0:0:
212,252,55380,1,8,3:0:0:0:
284,332,55802,2,0,L|328:320,1,44.999998626709,10|8,3:2|3:1,0:0:0:0:
380,316,56225,2,0,L|428:328,1,44.999998626709,8|10,3:2|3:1,0:0:0:0:
476,340,56647,1,4,0:2:0:0:
492,100,57492,6,0,P|452:64|396:64,1,110.000003356934,4|0,3:0|0:0,0:0:0:0:
338,72,58126,1,2,3:3:0:0:
338,72,58337,1,8,0:0:0:0:
266,169,58760,2,0,L|278:229,1,55.0000016784668,2|2,0:0|0:0,0:0:0:0:
264,282,59182,2,0,L|208:294,1,55.0000016784668,2|2,0:0|3:2,0:0:0:0:
156,320,59605,1,4,3:0:0:0:
36,300,60028,2,0,P|20:252|36:196,1,110.000003356934,10|2,0:0|0:0,0:0:0:0:
62,142,60661,1,2,0:0:0:0:
62,142,60873,6,0,L|170:162,1,110.000003356934,4|0,3:2|0:0,0:0:0:0:
287,192,61718,1,8,0:0:0:0:
384,124,62140,2,0,P|384:72|348:28,1,110.000003356934,8|0,0:1|0:0,0:0:0:0:
292,20,62774,1,2,3:2:0:0:
292,20,62985,2,0,L|236:36,1,55.0000016784668,4|2,0:3|0:0,0:0:0:0:
188,68,63408,2,0,L|132:56,1,55.0000016784668,10|2,0:0|0:0,0:0:0:0:
76,48,63830,1,2,3:2:0:0:
0,144,64253,6,0,L|28:256,1,110.000003356934,6|0,3:2|0:0,0:0:0:0:
100,348,65098,1,8,0:0:0:0:
208,308,65520,2,0,L|260:324,1,55.0000016784668,2|2,0:0|0:0,0:0:0:0:
312,348,65943,2,0,L|364:328,1,55.0000016784668,2|2,0:0|3:2,0:0:0:0:
392,276,66366,1,4,3:0:0:0:
316,184,66788,2,0,L|264:208,1,55.0000016784668,10|2,0:0|0:0,0:0:0:0:
208,204,67211,2,0,L|156:184,1,55.0000016784668,2|2,0:0|0:0,0:0:0:0:
116,140,67633,6,0,P|100:92|128:40,1,110.000003356934,6|0,3:2|0:0,0:0:0:0:
244,8,68478,1,8,0:0:0:0:
364,24,68901,2,0,L|420:36,1,55.0000016784668,8|2,0:1|0:1,0:0:0:0:
468,68,69323,2,0,L|448:176,1,110.000003356934,0|4,0:0|0:3,0:0:0:0:
352,252,70168,2,0,L|300:236,1,55.0000016784668,10|2,0:0|0:0,0:0:0:0:
244,216,70591,1,2,3:2:0:0:
124,200,71013,6,0,P|92:236|92:296,1,110.000003356934,6|2,3:0|0:0,0:0:0:0:
132,348,71647,1,2,3:2:0:0:
132,348,71858,2,0,L|240:364,1,110.000003356934,10|8,0:2|0:1,0:0:0:0:
332,304,72704,2,0,L|384:320,1,55.0000016784668,0|0,0:0|3:0,0:0:0:0:
436,352,73126,2,0,L|488:332,1,55.0000016784668,4|2,3:0|0:3,0:0:0:0:
504,272,73549,2,0,P|504:216|468:180,1,110.000003356934,10|2,0:0|0:0,0:0:0:0:
348,156,74394,6,0,B|292:156|300:200|252:200,1,110.000003356934,6|2,3:2|0:2,0:0:0:0:
204,172,75028,1,2,3:2:0:0:
204,172,75239,2,0,L|192:116,1,55.0000016784668,10|2,0:2|0:1,0:0:0:0:
180,60,75661,1,10,0:1:0:0:
64,28,76084,1,2,0:0:0:0:
12,136,76506,1,4,3:0:0:0:
84,236,76929,2,0,L|140:224,1,55.0000016784668,10|2,0:2|0:2,0:0:0:0:
196,212,77351,1,4,3:0:0:0:
304,156,77774,6,0,L|360:164,1,55.0000016784668,6|2,3:2|3:2,0:0:0:0:
408,200,78197,2,0,L|400:256,1,55.0000016784668,2|2,0:2|3:3,0:0:0:0:
384,312,78619,2,0,P|344:344|288:344,1,110.000003356934,10|8,0:0|0:1,0:0:0:0:
188,276,79464,2,0,L|136:296,1,55.0000016784668,2|2,0:0|3:2,0:0:0:0:
96,340,79887,2,0,L|44:320,1,55.0000016784668,4|2,3:0|0:1,0:0:0:0:
24,264,80309,2,0,P|24:208|60:172,1,110.000003356934,8|2,0:0|0:1,0:0:0:0:
172,132,81154,6,0,L|280:160,1,110.000003356934,4|2,3:0|0:0,0:0:0:0:
344,172,81788,1,2,3:3:0:0:
344,172,81999,2,0,L|396:156,1,55.0000016784668,10|2,0:0|0:0,0:0:0:0:
456,140,82421,1,10,0:1:0:0:
410,27,82844,2,0,L|357:16,1,55.0000016784668,2|4,0:0|0:3,0:0:0:0:
295,19,83266,1,4,3:0:0:0:
209,104,83689,2,0,L|157:88,1,55.0000016784668,10|2,0:0|0:0,0:0:0:0:
98,71,84111,1,4,3:0:0:0:
56,168,84535,5,4,3:2:0:0:
124,252,84957,1,4,3:2:0:0:
224,216,85380,1,4,3:2:0:0:
400,340,86225,6,0,P|448:340|480:312,1,89.9999972534181,2|2,1:2|0:0,0:0:0:0:
496,264,86858,1,2,1:3:0:0:
496,264,87070,2,0,P|496:212|472:184,1,89.9999972534181,8|8,0:3|0:1,0:0:0:0:
364,172,87915,2,0,L|276:192,1,89.9999972534181,2|2,1:2|0:0,0:0:0:0:
248,236,88549,1,2,1:3:0:0:
248,236,88760,2,0,L|156:220,1,89.9999972534181,8|2,0:3|0:0,0:0:0:0:
60,176,89605,6,0,B|44:136|44:136|60:92,1,89.9999972534181,2|2,1:2|0:0,0:0:0:0:
88,44,90239,1,2,1:3:0:0:
88,44,90450,2,0,B|132:32|132:32|176:44,1,89.9999972534181,8|8,0:3|0:1,0:0:0:0:
264,104,91295,2,0,P|280:68|280:16,2,89.9999972534181,2|2|8,1:2|0:0|0:3,0:0:0:0:
216,200,92563,1,10,0:0:0:0:
116,160,92985,6,0,L|28:180,1,89.9999972534181,8|2,1:1|0:0,0:0:0:0:
16,232,93619,1,0,1:0:0:0:
16,232,93830,2,0,L|40:320,1,89.9999972534181,8|8,0:3|0:1,0:0:0:0:
144,348,94675,2,0,P|184:320|228:320,1,89.9999972534181,0|2,1:0|0:0,0:0:0:0:
276,332,95309,1,2,1:3:0:0:
276,332,95520,2,0,P|316:360|360:360,1,89.9999972534181,8|2,0:3|0:0,0:0:0:0:
440,292,96366,6,0,P|444:236|448:196,1,89.9999972534181,8|2,1:1|0:0,0:0:0:0:
404,168,96999,1,0,1:0:0:0:
404,168,97211,2,0,P|400:112|396:72,1,89.9999972534181,8|8,0:3|0:1,0:0:0:0:
296,36,98056,2,0,L|248:52,1,44.999998626709,2|2,1:2|0:0,0:0:0:0:
216,88,98478,2,0,L|172:80,1,44.999998626709,2|2,0:0|1:2,0:0:0:0:
120,68,98901,1,8,0:3:0:0:
48,152,99323,1,8,0:0:0:0:
80,256,99746,6,0,B|156:244|144:340|236:324,1,180,6|2,3:2|0:0,0:0:0:0:
324,260,101013,1,2,3:2:0:0:
236,200,101436,1,8,0:0:0:0:
452,40,102492,1,2,3:2:0:0:
452,40,102704,2,0,L|444:88,1,44.999998626709,2|2,0:2|0:2,0:0:0:0:
424,136,103126,6,0,L|336:116,1,90,2|2,3:2|3:2,0:0:0:0:
256,40,103971,2,0,L|168:60,1,90,2|2,0:2|3:2,0:0:0:0:
116,76,104605,1,2,3:3:0:0:
116,76,104816,2,0,P|96:112|96:160,1,89.9999972534181,8|0,0:0|0:0,0:0:0:0:
168,240,105661,2,0,L|256:220,1,89.9999972534181,8|8,0:1|3:1,0:0:0:0:
364,208,106506,6,0,P|384:244|384:300,1,89.9999972534181,2|2,3:0|0:3,0:0:0:0:
376,344,107140,1,2,3:3:0:0:
376,344,107351,2,0,P|336:356|288:344,1,89.9999972534181,2|2,0:3|3:3,0:0:0:0:
228,256,108197,2,0,B|136:244|172:344|72:328,1,179.999994506836,10|2,0:3|0:1,0:0:0:0:
36,296,109253,1,2,3:1:0:0:
36,296,109464,2,0,L|28:248,1,44.999998626709,2|4,0:1|0:0,0:0:0:0:
16,200,109887,6,0,P|48:169|94:169,1,89.9999972534181,2|2,3:0|3:3,0:0:0:0:
192,205,110732,2,0,L|288:185,1,89.9999972534181,2|2,0:3|3:3,0:0:0:0:
320,150,111366,1,2,3:3:0:0:
320,150,111577,2,0,L|408:170,1,89.9999972534181,10|2,0:3|0:1,0:0:0:0:
473,84,112422,2,0,L|466:38,2,44.999998626709,2|2|8,3:1|3:1|3:1,0:0:0:0:
485,136,113056,1,8,3:1:0:0:
485,136,113267,5,6,3:0:0:0:
485,136,120028,6,0,L|473:228,1,89.9999972534181,14|8,3:0|0:1,0:0:0:0:
423,246,120662,1,8,0:1:0:0:
423,246,120873,2,0,L|439:334,1,89.9999972534181,8|8,3:0|0:1,0:0:0:0:
333,357,121718,2,0,B|294:360|298:324|250:328,1,89.9999972534181,10|10,3:0|0:1,0:0:0:0:
197,317,122352,2,0,L|105:337,1,89.9999972534181,10|10,0:1|0:2,0:0:0:0:
56,346,122985,1,10,0:1:0:0:
36,240,123408,6,0,L|40:196,1,44.999998626709,10|8,3:0|0:0,0:0:0:0:
44,140,123831,1,8,3:0:0:0:
112,56,124253,1,8,3:0:0:0:
188,132,124676,1,8,3:0:0:0:
264,56,125098,2,0,L|308:44,1,44.999998626709,10|8,3:2|3:1,0:0:0:0:
364,53,125521,2,0,L|412:65,1,44.999998626709,8|10,3:2|3:1,0:0:0:0:
460,80,125943,1,4,0:0:0:0:
448,320,126788,6,0,P|396:320|352:280,1,110.000003356934,4|0,3:0|0:0,0:0:0:0:
324,230,127422,1,2,3:3:0:0:
324,230,127633,1,8,0:0:0:0:
223,297,128056,2,0,L|167:313,1,55.0000016784668,2|2,0:0|0:0,0:0:0:0:
111,328,128478,2,0,L|59:304,1,55.0000016784668,2|2,0:0|3:2,0:0:0:0:
26,255,128901,1,4,3:0:0:0:
96,156,129323,2,0,B|148:156|144:200|192:200,1,110.000003356934,10|2,0:0|0:0,0:0:0:0:
240,162,129957,1,2,0:0:0:0:
240,162,130169,6,0,P|256:110|228:62,1,110.000003356934,4|0,3:2|0:0,0:0:0:0:
117,19,131014,1,8,0:0:0:0:
28,108,131436,2,0,L|48:220,1,110.000003356934,8|0,0:1|0:0,0:0:0:0:
68,280,132070,1,2,3:2:0:0:
68,280,132281,2,0,L|124:264,1,55.0000016784668,4|2,0:3|0:0,0:0:0:0:
168,240,132704,2,0,L|220:256,1,55.0000016784668,10|2,0:0|0:0,0:0:0:0:
280,272,133126,1,2,3:2:0:0:
380,336,133549,6,0,L|409:229,1,110.000003356934,6|0,3:2|0:0,0:0:0:0:
404,108,134394,1,8,0:0:0:0:
320,20,134816,2,0,L|264:28,1,55.0000016784668,2|2,0:0|0:0,0:0:0:0:
212,44,135239,2,0,P|200:68|204:96,1,55.0000016784668,2|2,0:0|3:2,0:0:0:0:
220,152,135662,1,4,3:0:0:0:
296,244,136084,2,0,L|348:224,1,55.0000016784668,10|2,0:0|0:0,0:0:0:0:
396,188,136507,2,0,L|448:204,1,55.0000016784668,2|2,0:0|0:0,0:0:0:0:
488,248,136929,6,0,P|504:294|476:344,1,110.000003356934,6|0,3:2|0:0,0:0:0:0:
356,356,137774,1,8,0:0:0:0:
236,348,138197,2,0,L|180:336,1,55.0000016784668,8|2,0:1|0:1,0:0:0:0:
150,284,138619,2,0,P|188:246|241:246,1,110.000003356934,0|4,0:0|0:3,0:0:0:0:
332,165,139464,2,0,L|320:109,1,55.0000016784668,10|2,0:0|0:0,0:0:0:0:
281,64,139887,1,2,3:2:0:0:
168,32,140309,6,0,P|124:32|80:76,1,110.000003356934,6|2,3:0|0:0,0:0:0:0:
52,132,140943,1,2,3:2:0:0:
52,132,141154,2,0,P|36:184|68:228,1,110.000003356934,10|8,0:2|0:1,0:0:0:0:
152,312,142000,2,0,L|204:328,1,55.0000016784668,0|0,0:0|3:0,0:0:0:0:
264,328,142422,2,0,L|316:304,1,55.0000016784668,4|2,3:0|0:3,0:0:0:0:
320,244,142845,2,0,P|284:212|224:212,1,110.000003356934,10|2,0:0|0:0,0:0:0:0:
192,96,143690,6,0,B|244:96|236:52|292:52,1,110.000003356934,6|2,3:2|0:2,0:0:0:0:
352,56,144324,1,2,3:2:0:0:
352,56,144535,2,0,L|360:112,1,55.0000016784668,10|2,0:2|0:1,0:0:0:0:
372,168,144957,1,10,0:1:0:0:
268,228,145380,1,2,0:0:0:0:
160,172,145802,1,4,3:0:0:0:
68,248,146225,2,0,L|84:300,1,55.0000016784668,10|2,0:2|0:2,0:0:0:0:
108,356,146647,1,4,3:0:0:0:
228,348,147070,6,0,L|284:332,1,55.0000016784668,6|2,3:2|3:2,0:0:0:0:
340,328,147493,2,0,L|392:344,1,55.0000016784668,2|2,0:2|3:3,0:0:0:0:
452,348,147915,2,0,P|480:320|480:252,1,110.000003356934,10|8,0:0|0:1,0:0:0:0:
436,140,148760,2,0,L|380:128,1,55.0000016784668,2|2,0:0|3:2,0:0:0:0:
324,136,149182,2,0,L|272:160,1,55.0000016784668,4|2,3:0|0:1,0:0:0:0:
236,208,149605,2,0,B|188:192|188:248|132:232,1,110.000003356934,8|2,0:0|0:1,0:0:0:0:
32,168,150450,6,0,L|20:56,1,110.000003356934,4|2,3:0|0:0,0:0:0:0:
72,28,151084,1,2,3:3:0:0:
72,28,151295,2,0,L|128:36,1,55.0000016784668,10|2,0:0|0:0,0:0:0:0:
184,48,151717,1,10,0:1:0:0:
148,164,152140,2,0,P|148:196|161:216,1,55.0000016784668,2|4,0:0|0:3,0:0:0:0:
214,240,152562,1,4,3:0:0:0:
297,152,152985,2,0,L|357:144,1,55.0000016784668,10|2,3:2|0:0,0:0:0:0:
411,140,153407,1,4,3:0:0:0:
509,208,153830,6,0,P|477:328|373:344,1,239.999992675781,0|6,3:0|3:0,0:0:0:0:
375,344,169042,6,0,L|328:332,1,44.999998626709,12|0,3:0|0:0,0:0:0:0:
280,320,169464,1,8,0:3:0:0:
280,320,169675,2,0,L|148:344,1,135,0|8,3:0|3:0,0:0:0:0:
68,268,170732,2,0,L|72:224,1,44.999998626709,12|0,3:0|0:0,0:0:0:0:
76,168,171154,1,8,0:3:0:0:
76,168,171366,2,0,B|144:152|136:224|204:204,1,134.999995880127,0|8,3:0|3:3,0:0:0:0:
276,132,172422,6,0,L|332:120,1,44.999998626709,12|0,3:0|0:0,0:0:0:0:
372,116,172844,1,8,0:3:0:0:
372,116,173056,2,0,P|404:156|404:236,1,134.999995880127,0|8,3:0|3:0,0:0:0:0:
368,340,174112,2,0,L|324:328,1,44.999998626709,12|0,3:0|0:0,0:0:0:0:
276,308,174535,1,8,0:3:0:0:
276,308,174746,2,0,L|144:344,1,134.999995880127,0|0,3:0|3:0,0:0:0:0:
64,272,175802,6,0,L|52:220,2,44.999998626709,12|8|8,3:0|0:3|0:3,0:0:0:0:
152,212,176647,2,0,L|164:160,2,44.999998626709,8|8|8,0:3|0:3|3:0,0:0:0:0:
80,132,177492,2,0,L|36:144,2,44.999998626709,12|8|8,3:0|0:3|0:3,0:0:0:0:
151,50,178337,2,0,L|107:38,2,44.999998626709,8|8|8,0:3|0:3|3:3,0:0:0:0:
203,78,178971,1,8,0:3:0:0:
203,78,179182,6,0,L|296:53,1,89.9999972534181,12|12,3:0|0:3,0:0:0:0:
348,55,179816,1,8,3:0:0:0:
348,55,180028,2,0,B|392:51|388:87|432:83,1,89.9999972534181,12|12,0:3|3:3,0:0:0:0:
497,168,180873,2,0,L|487:212,1,44.999998626709,12|12,3:3|0:3,0:0:0:0:
475,264,181295,1,12,0:3:0:0:
400,342,181718,2,0,P|339:319|279:347,1,134.999995880127,4|0,0:2|0:0,0:0:0:0:
212,351,182563,6,0,L|190:244,1,110.000003356934,4|0,3:0|0:0,0:0:0:0:
216,188,183197,1,2,3:3:0:0:
216,188,183408,1,8,0:0:0:0:
142,91,183831,2,0,L|82:103,1,55.0000016784668,2|2,0:0|0:0,0:0:0:0:
38,136,184253,2,0,L|50:192,1,55.0000016784668,2|2,0:0|3:2,0:0:0:0:
50,250,184676,1,4,3:0:0:0:
140,330,185098,2,0,B|188:310|188:366|244:342,1,110.000003356934,10|2,0:0|0:0,0:0:0:0:
273,289,185732,1,2,0:0:0:0:
273,289,185943,6,0,P|293:257|293:185,1,110.000003356934,4|0,3:2|0:0,0:0:0:0:
200,108,186789,1,8,0:0:0:0:
280,17,187211,2,0,L|388:33,1,110.000003356934,8|0,0:1|0:0,0:0:0:0:
440,64,187845,1,2,3:2:0:0:
440,64,188056,2,0,L|428:120,1,55.0000016784668,4|2,0:3|0:0,0:0:0:0:
408,176,188479,2,0,L|424:232,1,55.0000016784668,10|2,0:0|0:0,0:0:0:0:
464,272,188901,2,0,L|448:324,1,55.0000016784668,2|2,3:2|0:3,0:0:0:0:
388,340,189324,6,0,P|340:340|304:288,1,110.000003356934,6|0,3:2|0:0,0:0:0:0:
272,176,190169,1,8,0:0:0:0:
160,124,190591,2,0,L|108:140,1,55.0000016784668,2|2,0:0|0:0,0:0:0:0:
52,160,191013,2,0,P|44:188|52:212,1,55.0000016784668,2|2,0:0|3:2,0:0:0:0:
76,268,191437,1,4,3:0:0:0:
164,348,191859,2,0,L|220:332,1,55.0000016784668,10|2,0:0|0:0,0:0:0:0:
260,288,192282,2,0,L|316:304,1,55.0000016784668,2|2,0:0|0:0,0:0:0:0:
372,324,192704,6,0,B|424:312|424:368|476:348,1,110.000003356934,6|0,3:2|0:0,0:0:0:0:
504,232,193549,1,8,0:0:0:0:
424,144,193972,2,0,L|368:156,1,55.0000016784668,8|2,0:1|0:1,0:0:0:0:
336,204,194394,2,0,L|228:184,1,110.000003356934,0|4,0:0|0:3,0:0:0:0:
180,72,195239,2,0,L|232:56,1,55.0000016784668,10|2,0:0|0:0,0:0:0:0:
292,56,195662,1,2,3:2:0:0:
412,36,196084,6,0,P|460:36|496:84,1,110.000003356934,6|2,3:0|0:0,0:0:0:0:
500,148,196718,1,2,3:2:0:0:
500,148,196929,2,0,L|476:256,1,110.000003356934,10|8,0:2|0:1,0:0:0:0:
460,320,197563,1,2,0:1:0:0:
460,320,197775,2,0,L|408:300,1,55.0000016784668,0|0,0:0|3:0,0:0:0:0:
348,276,198197,2,0,L|292:292,1,55.0000016784668,4|2,3:0|0:3,0:0:0:0:
232,316,198619,2,0,B|188:304|188:364|132:352,1,110.000003356934,10|2,0:0|0:0,0:0:0:0:
40,260,199464,6,0,P|16:216|32:160,1,110.000003356934,6|2,3:2|0:2,0:0:0:0:
80,116,200099,1,2,3:2:0:0:
80,116,200310,2,0,L|136:128,1,55.0000016784668,10|2,0:2|0:1,0:0:0:0:
196,144,200732,1,10,0:1:0:0:
324,180,201155,1,2,0:0:0:0:
364,56,201577,1,4,3:0:0:0:
240,16,202000,2,0,L|184:24,1,55.0000016784668,10|2,0:2|0:2,0:0:0:0:
120,28,202422,1,4,3:0:0:0:
28,124,202845,6,0,L|44:180,1,55.0000016784668,6|2,3:2|3:2,0:0:0:0:
20,240,203268,2,0,L|36:292,1,55.0000016784668,2|2,0:2|3:3,0:0:0:0:
96,324,203689,2,0,B|144:312|144:376|192:360,1,110.000003356934,10|8,0:0|0:1,0:0:0:0:
252,336,204323,1,2,0:1:0:0:
252,336,204535,2,0,L|304:320,1,55.0000016784668,2|2,0:0|3:2,0:0:0:0:
316,256,204957,2,0,L|300:200,1,55.0000016784668,4|2,3:0|0:1,0:0:0:0:
296,136,205380,2,0,P|328:96|384:96,1,110.000003356934,8|2,0:0|0:1,0:0:0:0:
508,144,206225,6,0,L|484:252,1,110.000003356934,4|2,3:0|0:0,0:0:0:0:
460,312,206858,1,2,3:3:0:0:
460,312,207070,2,0,L|408:296,1,55.0000016784668,10|2,0:0|0:0,0:0:0:0:
352,276,207492,1,10,0:1:0:0:
232,328,207915,2,0,P|203:328|179:310,1,55.0000016784668,2|4,0:0|0:3,0:0:0:0:
164,248,208337,1,4,3:0:0:0:
212,124,208760,2,0,L|264:108,1,55.0000016784668,10|2,3:2|0:0,0:0:0:0:
328,96,209182,2,0,B|376:82|376:143|428:129,1,110.000003356934,2|0,3:2|0:0,0:0:0:0:
