osu file format v14

[General]
AudioFilename: audio.mp3
AudioLeadIn: 0
PreviewTime: 57387
Countdown: 0
SampleSet: Soft
StackLeniency: 0.7
Mode: 0
LetterboxInBreaks: 0
WidescreenStoryboard: 1
EpilepsyWarning: 1

[Editor]
Bookmarks: 26,3406,16927,30448,43969,50730,57490,84533,99746,113267,120028,126788,155520,169042,182563,209603
DistanceSpacing: 1.2
BeatDivisor: 2
GridSize: 32
TimelineZoom: 1.6

[Metadata]
Title:MORE feat. Madison Beer, (G)I-DLE, Lexie Liu, Jaira Burns, Seraphine
TitleUnicode:MORE feat. Madison Beer, (G)I-DLE, Lexie Liu, Jaira Burns, Seraphine
Artist:K/DA
ArtistUnicode:K/DA
Creator:Elinor
Version:Easy
Source:League of Legends
Tags:reform kujinn halgoh wafer goopert kami no kotoba mayflower [_eli_] eli kpop english korean chinese pop kda ahri evelynn kaisa kai'sa akali riot games miyeon soyeon (여자)아이들 gidle g_idle lol ft. k-pop (G)I-DLE all out
BeatmapID:2675979
BeatmapSetID:1288125

[Difficulty]
HPDrainRate:2
CircleSize:3
OverallDifficulty:3
ApproachRate:4
SliderMultiplier:0.9
SliderTickRate:1

[Events]
//Background and Video events
0,0,"bg.jpg",0,0
//Break Periods
2,44171,49412
2,113467,118708
2,155720,167722
//Storyboard Layer 0 (Background)
//Storyboard Layer 1 (Fail)
//Storyboard Layer 2 (Pass)
//Storyboard Layer 3 (Foreground)
//Storyboard Layer 4 (Overlay)
//Storyboard Sound Samples

[TimingPoints]
28,422.535211267606,4,2,0,5,1,0
28,-100,4,2,0,5,0,0
450,-100,4,2,0,10,0,0
873,-100,4,2,0,15,0,0
1295,-100,4,2,0,20,0,0
1718,-100,4,2,0,25,0,0
2140,-100,4,2,0,30,0,0
2563,-100,4,2,0,35,0,0
2985,-100,4,2,0,40,0,0
3408,-100,4,2,10,50,0,0
17563,-100,4,2,11,60,0,0
43971,-100,4,2,12,50,0,0
45661,-100,4,2,12,50,0,0
50732,-100,4,2,13,60,0,0
57492,-90.9090909090909,4,2,14,70,0,1
84535,-99.9999999999999,4,2,10,50,0,0
85802,-99.9999999999999,4,2,14,50,0,0
99746,-99.9999999999999,4,2,15,60,0,0
113267,-99.9999999999999,4,2,12,50,0,0
114957,-99.9999999999999,4,2,12,50,0,0
120028,-99.9999999999999,4,2,13,60,0,0
126788,-90.9090909090909,4,2,14,70,0,1
153830,-111.111111111111,4,2,14,70,0,0
155520,-142.857142857143,4,2,12,50,0,0
156366,-99.9999999999999,4,2,12,50,0,0
169042,-99.9999999999999,4,2,16,60,0,0
182563,-90.9090909090909,4,2,14,70,0,1
209605,-99.9999999999999,4,2,14,30,0,0

[Colours]
Combo1 : 249,66,181
Combo2 : 138,68,255
Combo3 : 169,154,231
Combo4 : 95,214,207
Combo5 : 255,130,183

[HitObjects]
472,40,3408,5,12,3:0:0:0:
460,148,3830,2,0,L|448:240,1,89.9999972534181,8|8,0:3|0:3,0:0:0:0:
404,336,4675,1,10,0:3:0:0:
300,340,5098,2,0,L|212:316,2,89.9999972534181,12|12|12,0:2|0:2|0:2,0:0:0:0:
356,248,6366,1,12,0:2:0:0:
304,156,6788,5,14,3:3:0:0:
200,184,7211,2,0,L|112:204,1,89.9999972534181,10|10,0:3|0:3,0:0:0:0:
32,132,8056,1,10,0:3:0:0:
96,44,8478,2,0,L|188:60,2,89.9999972534181,12|12|12,0:1|0:1|0:1,0:0:0:0:
32,132,9746,1,14,0:1:0:0:
0,236,10168,6,0,P|0:284|24:320,1,89.9999972534181,12|8,3:3|0:3,0:0:0:0:
124,356,11013,2,0,P|172:356|204:328,1,89.9999972534181,8|12,0:0|0:3,0:0:0:0:
236,228,11858,2,0,L|224:136,1,89.9999972534181,12|8,0:3|0:0,0:0:0:0:
220,84,12492,2,0,B|288:60|288:124|348:104,1,134.999995880127,4|10,0:3|0:0,0:0:0:0:
448,60,13549,5,12,3:3:0:0:
492,160,13971,2,0,L|476:256,1,89.9999972534181,8|8,0:3|0:0,0:0:0:0:
428,344,14816,1,12,0:3:0:0:
320,356,15239,1,6,0:3:0:0:
244,280,15661,1,2,0:2:0:0:
284,179,16084,1,2,0:3:0:0:
389,156,16506,2,0,P|397:108|381:72,1,90,2|2,0:2|0:3,0:0:0:0:
277,38,17351,6,0,P|231:38|198:65,1,90,2|8,0:3|0:0,0:0:0:0:
146,160,18197,2,0,L|162:248,1,89.9999972534181,2|2,0:0|0:0,0:0:0:0:
219,340,19042,1,4,3:0:0:0:
307,278,19464,1,8,0:0:0:0:
388,348,19887,2,0,P|432:348|472:320,1,89.9999972534181,2|0,0:0|3:0,0:0:0:0:
488,216,20732,6,0,P|488:172|464:132,1,89.9999972534181,2|8,0:0|0:0,0:0:0:0:
372,80,21577,1,2,0:0:0:0:
288,148,21999,1,2,3:2:0:0:
208,76,22422,2,0,L|112:60,2,89.9999972534181,4|10|10,3:0|0:0|0:3,0:0:0:0:
288,148,23689,6,0,P|300:188|288:236,1,89.9999972534181,2|2,0:1|0:1,0:0:0:0:
240,332,24535,2,0,P|204:356|156:356,1,90,8|10,0:0|0:3,0:0:0:0:
52,336,25380,1,2,0:2:0:0:
12,236,25802,1,2,3:2:0:0:
92,164,26225,2,0,L|184:176,1,90,8|4,0:0|0:1,0:0:0:0:
268,112,27070,6,0,P|304:88|352:88,1,90,2|2,0:1|0:1,0:0:0:0:
456,108,27915,2,0,P|472:136|472:196,1,90,10|10,3:1|0:3,0:0:0:0:
464,300,28760,1,2,0:0:0:0:
372,356,29182,1,4,3:3:0:0:
280,296,29605,2,0,L|188:316,1,89.9999972534181,8|0,0:0|0:0,0:0:0:0:
88,348,30450,6,0,P|48:288|80:192,1,179.999994506836,2|10,0:0|0:1,0:0:0:0:
160,116,31718,1,0,0:0:0:0:
268,128,32140,2,0,L|360:140,1,89.9999972534181,4|4,0:2|3:2,0:0:0:0:
464,128,32985,2,0,L|480:36,1,89.9999972534181,6|0,0:2|0:0,0:0:0:0:
376,12,33830,6,0,B|312:12|312:12|272:48|272:48|208:48,1,179.999994506836,2|10,3:2|0:1,0:0:0:0:
100,40,35098,1,0,0:0:0:0:
28,120,35520,2,0,L|44:208,1,89.9999972534181,4|6,0:0|3:2,0:0:0:0:
132,272,36366,2,0,L|148:184,1,89.9999972534181,14|2,0:2|0:0,0:0:0:0:
248,144,37211,6,0,P|295:144|336:168,2,89.9999972534181,2|2|8,3:1|0:1|0:0,0:0:0:0:
220,248,38478,1,2,0:0:0:0:
272,344,38901,2,0,L|364:328,1,89.9999972534181,2|2,0:0|3:2,0:0:0:0:
460,288,39746,1,10,0:0:0:0:
480,180,40168,6,0,P|480:132|460:96,2,89.9999972534181,2|6|2,0:1|0:1|0:1,0:0:0:0:
388,236,41436,2,0,L|296:220,1,89.9999972534181,10|2,0:0|0:0,0:0:0:0:
192,236,42281,2,0,L|180:332,1,89.9999972534181,2|2,0:0|3:1,0:0:0:0:
76,356,43126,2,0,L|64:264,1,89.9999972534181,10|2,0:1|0:3,0:0:0:0:
48,160,43971,5,6,3:0:0:0:
48,160,50732,6,0,B|136:132|132:216|220:188,1,179.999994506836,14|8,3:0|3:0,0:0:0:0:
376,40,52422,2,0,L|476:56,1,89.9999972534181,10|10,3:0|0:1,0:0:0:0:
504,156,53267,2,0,L|404:172,1,89.9999972534181,10|10,3:0|0:1,0:0:0:0:
320,220,54112,6,0,P|328:268|336:316,2,89.9999972534181,10|8|8,3:0|3:0|3:0,0:0:0:0:
296,116,55380,1,8,3:0:0:0:
204,60,55802,1,10,3:2:0:0:
100,88,56225,1,8,3:2:0:0:
36,176,56647,2,0,P|24:216|36:264,1,89.9999972534181,4|0,0:2|0:0,0:0:0:0:
136,328,57492,6,0,B|180:324|180:324|220:348|220:348|277:342,1,148.50000453186,4|2,3:0|3:3,0:0:0:0:
336,333,58337,1,8,0:0:0:0:
454,347,58760,1,2,0:0:0:0:
491,234,59182,2,0,P|507:189|487:141,1,99.0000030212403,2|4,0:0|3:0,0:0:0:0:
414,50,60028,2,0,L|366:59,1,49.5000015106202,10|2,0:0|0:0,0:0:0:0:
306,69,60450,1,2,0:0:0:0:
207,136,60873,6,0,L|226:233,1,99.0000030212403,4|0,3:2|0:0,0:0:0:0:
213,351,61718,2,0,L|116:367,1,99.0000030212403,8|8,0:0|0:1,0:0:0:0:
15,301,62563,2,0,P|7:281|6:254,1,49.5000015106202,0|2,0:0|3:2,0:0:0:0:
27,198,62985,1,4,0:3:0:0:
78,90,63408,2,0,P|118:66|169:66,1,99.0000030212403,10|2,0:0|3:2,0:0:0:0:
219,173,64253,6,0,B|295:173|268:239|345:239,1,148.50000453186,6|2,3:2|3:3,0:0:0:0:
403,237,65098,1,8,0:0:0:0:
500,169,65520,1,2,0:0:0:0:
506,50,65943,2,0,L|401:23,1,99.0000030212403,2|4,0:0|3:0,0:0:0:0:
293,1,66788,2,0,L|246:13,1,49.5000015106202,10|2,0:0|0:0,0:0:0:0:
187,27,67211,1,2,0:0:0:0:
92,98,67633,6,0,P|73:159|114:228,1,148.50000453186,6|2,3:2|3:3,0:0:0:0:
166,255,68478,1,8,0:0:0:0:
247,341,68901,2,0,L|342:316,2,99.0000030212403,8|0|4,0:1|0:0|0:3,0:0:0:0:
128,347,70168,2,0,L|81:333,1,49.5000015106202,10|2,0:0|0:0,0:0:0:0:
24,312,70591,1,2,3:2:0:0:
0,195,71013,6,0,P|0:146|32:108,1,99.0000030212403,6|2,3:0|0:0,0:0:0:0:
116,26,71858,2,0,P|167:26|201:57,1,99.0000030212403,10|8,0:2|0:1,0:0:0:0:
250,165,72704,2,0,L|394:128,1,148.50000453186,0|2,0:0|0:3,0:0:0:0:
451,114,73549,1,10,0:0:0:0:
508,217,73971,1,2,0:0:0:0:
447,319,74394,6,0,P|395:359|323:332,1,148.50000453186,6|2,3:2|3:2,0:0:0:0:
286,285,75239,1,10,0:2:0:0:
261,168,75661,1,10,0:1:0:0:
150,123,76084,2,0,L|51:142,1,99.0000030212403,2|4,0:0|3:0,0:0:0:0:
5,250,76929,2,0,L|25:351,1,99.0000030212403,10|4,0:2|3:0,0:0:0:0:
143,352,77774,6,0,B|186:316|186:316|275:344,1,148.50000453186,6|2,3:2|3:3,0:0:0:0:
330,363,78619,1,10,0:0:0:0:
448,360,79042,1,8,0:1:0:0:
493,250,79464,2,0,P|493:172|443:125,1,148.50000453186,2|2,0:0|0:1,0:0:0:0:
386,113,80309,1,8,0:0:0:0:
296,191,80732,1,2,0:1:0:0:
194,129,81154,6,0,B|125:129|143:200|73:200,1,148.50000453186,4|2,3:0|3:3,0:0:0:0:
24,163,81999,1,10,0:0:0:0:
22,44,82422,1,10,0:1:0:0:
132,0,82844,2,0,L|228:30,1,99.0000030212403,2|4,0:0|3:0,0:0:0:0:
277,137,83689,2,0,L|374:114,1,99.0000030212403,10|4,0:0|3:0,0:0:0:0:
480,100,84535,6,0,L|463:10,2,90,4|4|4,3:2|3:2|3:2,0:0:0:0:
444,313,86225,6,0,P|392:281|276:281,1,180,2|8,1:2|0:3,0:0:0:0:
188,343,87492,1,8,0:1:0:0:
88,304,87915,2,0,B|52:228|52:228|84:136,1,180,2|8,1:2|0:3,0:0:0:0:
180,92,89182,1,2,0:0:0:0:
284,112,89605,6,0,B|356:100|344:200|440:180,1,180,2|8,1:2|0:3,0:0:0:0:
508,100,90873,1,8,0:1:0:0:
436,20,91295,2,0,L|348:40,2,90,2|2|8,1:2|0:0|0:3,0:0:0:0:
508,100,92563,1,10,0:0:0:0:
500,208,92985,6,0,P|500:284|428:352,1,180,8|8,1:1|0:3,0:0:0:0:
320,352,94253,1,8,0:1:0:0:
216,320,94675,2,0,B|176:248|176:248|216:160,1,180,0|8,1:0|0:3,0:0:0:0:
292,80,95943,1,2,0:0:0:0:
200,20,96366,6,0,P|112:20|48:84,1,180,8|8,1:1|0:3,0:0:0:0:
32,188,97633,1,8,0:1:0:0:
100,272,98056,2,0,L|188:296,2,90,2|2|8,1:2|0:0|0:3,0:0:0:0:
136,168,99323,1,8,0:0:0:0:
244,172,99746,6,0,B|320:160|308:256|400:240,1,180,6|2,3:2|0:0,0:0:0:0:
500,200,101013,1,2,3:2:0:0:
492,92,101436,2,0,P|452:56|332:56,1,180,8|2,0:0|0:0,0:0:0:0:
264,140,102704,1,2,0:2:0:0:
204,232,103126,6,0,L|116:212,1,90,2|2,3:2|3:2,0:0:0:0:
44,132,103971,2,0,L|132:100,1,90,2|2,0:2|3:2,0:0:0:0:
216,40,104816,2,0,P|300:64|300:148,1,180,8|8,0:0|0:1,0:0:0:0:
264,244,106084,1,8,3:1:0:0:
336,320,106506,6,0,P|368:344|416:344,1,90,2|2,3:0|0:3,0:0:0:0:
480,256,107351,2,0,P|492:216|476:172,1,90,2|2,0:3|3:3,0:0:0:0:
412,84,108197,2,0,L|232:112,1,180,10|2,0:3|0:1,0:0:0:0:
128,128,109464,1,2,0:1:0:0:
52,204,109887,6,0,L|72:292,1,90,2|2,3:0|3:3,0:0:0:0:
164,344,110732,2,0,L|176:252,1,90,2|2,0:3|3:3,0:0:0:0:
252,179,111577,1,10,0:3:0:0:
380,352,112422,2,0,P|416:352|464:324,1,90,2|8,3:1|3:1,0:0:0:0:
500,224,113267,1,6,3:0:0:0:
500,224,120028,6,0,B|414:251|418:167|330:195,1,179.999994506836,14|8,3:0|3:0,0:0:0:0:
156,340,121718,2,0,L|64:320,1,90,10|10,3:0|0:1,0:0:0:0:
12,228,122563,2,0,L|104:208,1,90,10|10,3:0|0:1,0:0:0:0:
208,204,123408,6,0,P|216:252|224:300,2,89.9999972534181,10|8|8,3:0|3:0|3:0,0:0:0:0:
244,104,124676,1,8,3:0:0:0:
328,40,125098,1,10,3:2:0:0:
428,84,125520,1,8,3:2:0:0:
476,180,125943,2,0,L|376:204,1,90,4|0,0:0|0:0,0:0:0:0:
319,297,126788,6,0,P|268:246|195:246,1,148.50000453186,4|2,3:0|3:3,0:0:0:0:
143,275,127633,1,8,0:0:0:0:
32,318,128056,1,2,0:0:0:0:
4,202,128478,2,0,P|4:154|37:119,1,99.0000030212403,2|4,0:0|3:0,0:0:0:0:
119,32,129323,2,0,L|170:45,1,49.5000015106202,10|2,0:0|0:0,0:0:0:0:
224,60,129746,1,2,0:0:0:0:
270,169,130168,6,0,P|319:169|354:136,1,99.0000030212403,4|0,3:2|0:0,0:0:0:0:
411,32,131013,2,0,P|459:32|495:65,1,99.0000030212403,8|8,0:0|0:1,0:0:0:0:
502,183,131858,2,0,L|491:231,1,49.5000015106202,0|2,0:0|3:2,0:0:0:0:
473,288,132281,1,4,0:3:0:0:
359,324,132703,2,0,L|337:228,1,99.0000030212403,10|2,0:0|3:2,0:0:0:0:
268,129,133549,6,0,B|214:135|214:135|192:169|192:169|138:174,1,148.50000453186,6|2,3:2|3:3,0:0:0:0:
87,143,134394,1,8,0:0:0:0:
7,230,134815,1,2,0:0:0:0:
68,331,135238,2,0,P|102:359|154:358,1,99.0000030212403,2|4,0:0|3:0,0:0:0:0:
215,255,136084,2,0,P|239:248|261:256,1,49.5000015106202,10|2,0:0|0:0,0:0:0:0:
311,288,136506,1,2,0:0:0:0:
414,346,136929,6,0,P|456:283|435:216,1,148.50000453186,6|2,3:2|3:3,0:0:0:0:
402,168,137774,1,8,0:0:0:0:
301,104,138196,2,0,L|204:132,2,99.0000030212403,8|0|4,0:1|0:0|0:3,0:0:0:0:
406,49,139464,2,0,L|453:60,1,49.5000015106202,10|2,0:0|0:0,0:0:0:0:
512,76,139887,1,2,3:2:0:0:
511,194,140309,6,0,P|512:246|482:282,1,99.0000030212403,6|2,3:0|0:0,0:0:0:0:
393,358,141154,2,0,P|343:358|309:321,1,99.0000030212403,10|8,0:2|0:1,0:0:0:0:
202,274,141999,2,0,B|136:274|157:342|77:342,1,148.50000453186,0|2,0:0|0:3,0:0:0:0:
24,315,142844,1,10,0:0:0:0:
3,197,143267,1,2,0:0:0:0:
67,97,143689,6,0,P|123:65|196:93,1,148.50000453186,6|2,3:2|3:2,0:0:0:0:
224,146,144535,1,10,0:2:0:0:
276,251,144956,1,10,0:1:0:0:
346,346,145379,2,0,L|442:325,1,99.0000030212403,2|4,0:0|3:0,0:0:0:0:
501,221,146224,2,0,L|478:124,1,99.0000030212403,10|4,0:2|3:0,0:0:0:0:
409,26,147070,6,0,B|357:35|357:35|338:66|338:66|279:77,1,148.50000453186,6|2,3:2|3:3,0:0:0:0:
220,68,147915,1,10,0:0:0:0:
106,32,148337,1,8,0:1:0:0:
38,129,148760,2,0,L|67:274,1,148.50000453186,2|2,0:0|0:1,0:0:0:0:
83,331,149605,1,8,0:0:0:0:
199,355,150028,1,2,0:1:0:0:
303,298,150450,6,0,B|377:286|361:360|437:348,1,148.50000453186,4|2,3:0|3:3,0:0:0:0:
489,325,151295,1,10,0:0:0:0:
508,208,151717,1,10,0:1:0:0:
424,122,152140,2,0,P|379:104|334:120,1,99.0000030212403,2|4,0:0|3:0,0:0:0:0:
256,210,152985,2,0,P|210:227|164:212,1,99.0000030212403,10|4,3:2|3:0,0:0:0:0:
95,144,153830,6,0,P|119:45|309:45,1,323.999990112305,0|6,3:0|3:0,0:0:0:0:
460,344,169042,6,0,L|320:308,1,135,12|0,3:0|3:0,0:0:0:0:
172,340,170309,1,8,3:0:0:0:
68,300,170732,2,0,P|40:248|72:172,1,135,12|0,3:0|3:0,0:0:0:0:
220,148,171999,1,8,3:3:0:0:
272,244,172422,6,0,L|408:216,1,135,12|0,3:0|3:0,0:0:0:0:
440,60,173689,1,8,3:0:0:0:
340,20,174112,2,0,B|276:8|276:76|212:64,1,135,12|0,3:0|3:0,0:0:0:0:
56,60,175380,1,0,3:0:0:0:
24,164,175802,6,0,L|36:256,1,90,12|8,3:0|0:3,0:0:0:0:
128,308,176647,2,0,L|139:218,1,90,8|8,0:3|3:0,0:0:0:0:
228,160,177492,2,0,L|320:172,1,90,12|8,3:0|0:3,0:0:0:0:
368,266,178337,1,8,0:3:0:0:
475,259,178760,1,8,3:3:0:0:
488,151,179182,6,0,P|488:111|468:63,2,90,12|12|12,3:0|0:3|0:3,0:0:0:0:
475,259,180450,1,12,3:3:0:0:
394,330,180873,1,12,3:3:0:0:
295,286,181295,1,12,0:3:0:0:
191,318,181718,2,0,P|167:262|191:194,1,135,4|0,0:2|0:0,0:0:0:0:
248,183,182563,6,0,B|300:189|300:189|327:214|327:214|385:218,1,148.50000453186,4|2,3:0|3:3,0:0:0:0:
444,206,183408,1,8,0:0:0:0:
498,100,183830,1,2,0:0:0:0:
417,12,184253,2,0,L|320:35,1,99.0000030212403,2|4,0:0|3:0,0:0:0:0:
219,97,185098,2,0,L|172:82,1,49.5000015106202,10|2,0:0|0:0,0:0:0:0:
115,63,185520,1,2,0:0:0:0:
24,140,185943,6,0,P|9:186|25:232,1,99.0000030212403,4|0,3:2|0:0,0:0:0:0:
84,332,186788,2,0,L|181:313,1,99.0000030212403,8|8,0:0|0:1,0:0:0:0:
256,220,187633,2,0,L|245:172,1,49.5000015106202,0|2,0:0|3:2,0:0:0:0:
272,119,188056,1,4,0:3:0:0:
378,66,188478,2,0,L|475:88,1,99.0000030212403,10|2,0:0|3:2,0:0:0:0:
503,203,189323,6,0,P|502:280|448:321,1,148.50000453186,6|2,3:2|3:3,0:0:0:0:
392,333,190168,1,8,0:0:0:0:
302,255,190590,1,2,0:0:0:0:
218,338,191013,2,0,L|121:320,1,99.0000030212403,2|4,0:0|3:0,0:0:0:0:
92,203,191859,2,0,L|139:191,1,49.5000015106202,10|2,0:0|0:0,0:0:0:0:
198,184,192281,1,2,0:0:0:0:
291,110,192704,6,0,P|255:50|183:50,1,148.50000453186,6|2,3:2|3:3,0:0:0:0:
130,77,193549,1,8,0:0:0:0:
21,124,193971,2,0,L|4:26,2,99.0000030212403,8|0|4,0:1|0:0|0:3,0:0:0:0:
36,241,195239,1,10,0:0:0:0:
119,324,195661,1,2,3:2:0:0:
212,250,196083,6,0,L|306:278,1,99.0000030212403,6|2,3:0|0:0,0:0:0:0:
405,345,196929,2,0,L|500:316,1,99.0000030212403,10|8,0:2|0:1,0:0:0:0:
508,197,197774,2,0,B|437:197|456:134|380:134,1,148.50000453186,0|2,0:0|0:3,0:0:0:0:
321,145,198619,1,10,0:0:0:0:
222,78,199042,1,2,0:0:0:0:
110,118,199464,6,0,B|70:138|70:138|99:238,1,148.50000453186,6|2,3:2|3:2,0:0:0:0:
120,293,200309,1,10,0:2:0:0:
215,363,200731,1,10,0:1:0:0:
333,354,201154,2,0,L|428:329,1,99.0000030212403,2|4,0:0|3:0,0:0:0:0:
430,209,201999,2,0,L|332:191,1,99.0000030212403,10|4,0:2|3:0,0:0:0:0:
220,150,202844,6,0,P|187:91|224:25,1,148.50000453186,6|2,3:2|3:3,0:0:0:0:
281,16,203689,1,10,0:0:0:0:
386,70,204112,1,8,0:1:0:0:
504,61,204535,2,0,L|479:207,1,148.50000453186,2|2,0:0|0:1,0:0:0:0:
466,265,205380,1,8,0:0:0:0:
363,325,205802,1,2,0:1:0:0:
271,249,206225,6,0,B|211:235|211:316|138:294,1,148.50000453186,4|2,3:0|3:3,0:0:0:0:
87,263,207070,1,10,0:0:0:0:
20,164,207492,1,10,0:1:0:0:
60,52,207914,2,0,P|93:26|148:26,1,99.0000030212403,2|4,0:0|3:0,0:0:0:0:
226,116,208760,2,0,P|258:140|316:141,2,99.0000030212403,10|2|0,3:2|3:2|0:0,0:0:0:0:
