osu file format v14

[General]
AudioFilename: audio.mp3
AudioLeadIn: 0
PreviewTime: 30537
Countdown: 0
SampleSet: Normal
StackLeniency: 0.7
Mode: 1
LetterboxInBreaks: 0
WidescreenStoryboard: 0

[Editor]
Bookmarks: 11336,16822,22308,27794,33279,38765,44251,49737,55222,60708,66194,71679,77165,82651,88137,93622,99108,104594,110079,115565,121051,126537,132022,137508,142994,148479,153965,159451,164937,169051,171794,174537,193737,199222
DistanceSpacing: 0.5
BeatDivisor: 4
GridSize: 32
TimelineZoom: 1.6

[Metadata]
Title:DRUM GO DUM feat. Aluna, Wolftyla, Bekuh BOOM
TitleUnicode:DRUM GO DUM feat. Aluna, Wolftyla, Bekuh BOOM
Artist:K/DA
ArtistUnicode:K/DA
Creator:eiri-
Version:Futsuu
Source:League of Legends
Tags:Ayyri English Pop Video Game Electronic DUMB LoL Riot Games KDA Evelynn Kai'Sa KaiSa Ahri Akali
BeatmapID:3186105
BeatmapSetID:1348286

[Difficulty]
HPDrainRate:7
CircleSize:2
OverallDifficulty:4
ApproachRate:10
SliderMultiplier:1.4
SliderTickRate:1

[Events]
//Background and Video events
0,0,"Akali Evelynn 475.jpg",0,50
Video,90,"DRUM GO DUM.mp4"
//Break Periods
//Storyboard Layer 0 (Background)
//Storyboard Layer 1 (Fail)
//Storyboard Layer 2 (Pass)
//Storyboard Layer 3 (Foreground)
//Storyboard Layer 4 (Overlay)
//Storyboard Sound Samples

[TimingPoints]
11337,342.857142857143,4,1,0,40,1,0
11337,-100,4,1,0,50,0,0
22265,-100,4,1,0,60,0,0
33237,-100,4,1,0,50,0,0
44208,-100,4,1,0,75,0,0
56208,-100,4,1,0,30,0,0
66151,-100,4,1,0,40,0,0
71637,-100,4,1,0,50,0,0
77122,-100,4,1,0,60,0,0
87408,-100,4,1,0,50,0,0
88094,-100,4,1,0,60,0,0
99065,-100,4,1,0,50,0,0
110037,-100,4,1,0,75,0,0
121351,-100,4,1,0,40,0,0
124779,-100,4,1,0,45,0,0
126494,-100,4,1,0,50,0,0
136437,-100,4,1,0,60,0,0
137465,-100,4,1,0,75,0,0
149465,-100,4,1,0,30,0,0
159065,-100,4,1,0,35,0,0
159408,-100,4,1,0,40,0,0
164894,-100,4,1,0,50,0,0
171065,-100,4,1,0,60,0,0
171751,-100,4,1,0,40,0,0
173979,-100,4,1,0,60,0,0
174537,-100,4,1,0,80,0,1
193737,-100,4,1,0,60,0,0
198151,-100,4,1,0,40,0,0
199179,-100,4,1,0,30,0,0

[HitObjects]
256,192,10651,5,8,0:0:0:0:
256,192,10994,1,8,0:0:0:0:
256,192,11165,1,8,0:0:0:0:
256,192,11336,1,0,0:0:0:0:
256,192,11679,1,0,0:0:0:0:
256,192,12365,1,0,0:0:0:0:
256,192,12879,1,0,0:0:0:0:
256,192,13051,1,0,0:0:0:0:
256,192,13394,1,8,0:0:0:0:
256,192,14079,1,0,0:0:0:0:
256,192,14422,1,0,0:0:0:0:
256,192,15108,1,0,0:0:0:0:
256,192,15622,1,0,0:0:0:0:
256,192,15794,1,0,0:0:0:0:
256,192,16479,1,0,0:0:0:0:
256,192,16822,1,0,0:0:0:0:
256,192,16994,1,8,0:0:0:0:
256,192,17165,1,0,0:0:0:0:
256,192,17508,1,8,0:0:0:0:
256,192,17851,1,0,0:0:0:0:
256,192,18194,1,8,0:0:0:0:
256,192,18879,1,8,0:0:0:0:
256,192,19394,1,8,0:0:0:0:
256,192,19565,1,0,0:0:0:0:
256,192,19908,1,8,0:0:0:0:
256,192,20079,1,0,0:0:0:0:
256,192,20251,1,8,0:0:0:0:
256,192,20594,1,0,0:0:0:0:
256,192,20937,1,8,0:0:0:0:
256,192,21622,1,8,0:0:0:0:
256,192,21794,1,0,0:0:0:0:
256,192,21965,1,0,0:0:0:0:
256,192,22308,1,0,0:0:0:0:
256,192,22651,1,0,0:0:0:0:
256,192,22822,1,8,0:0:0:0:
256,192,22994,1,0,0:0:0:0:
256,192,23679,1,0,0:0:0:0:
256,192,24022,1,0,0:0:0:0:
256,192,24365,1,0,0:0:0:0:
256,192,24537,1,8,0:0:0:0:
256,192,24708,1,8,0:0:0:0:
256,192,25051,1,0,0:0:0:0:
256,192,25394,1,0,0:0:0:0:
256,192,25565,1,8,0:0:0:0:
256,192,25737,1,0,0:0:0:0:
256,192,26422,1,0,0:0:0:0:
256,192,26765,1,0,0:0:0:0:
256,192,26937,1,8,0:0:0:0:
256,192,27108,1,0,0:0:0:0:
256,192,27794,1,0,0:0:0:0:
256,192,28137,1,0,0:0:0:0:
256,192,28308,1,8,0:0:0:0:
256,192,28479,1,0,0:0:0:0:
256,192,28822,1,0,0:0:0:0:
256,192,29165,1,0,0:0:0:0:
256,192,29508,1,0,0:0:0:0:
256,192,29679,1,8,0:0:0:0:
256,192,29851,1,0,0:0:0:0:
256,192,30194,1,8,0:0:0:0:
256,192,30365,1,8,0:0:0:0:
256,192,30537,1,0,0:0:0:0:
256,192,30879,1,8,0:0:0:0:
256,192,31222,1,8,0:0:0:0:
256,192,31394,1,0,0:0:0:0:
256,192,31565,1,8,0:0:0:0:
256,192,31908,1,4,0:0:0:0:
256,192,32251,1,4,0:0:0:0:
256,192,32594,1,4,0:0:0:0:
256,192,33279,1,4,0:0:0:0:
256,192,33622,1,0,0:0:0:0:
256,192,33794,1,8,0:0:0:0:
256,192,33965,1,0,0:0:0:0:
256,192,34308,1,8,0:0:0:0:
256,192,34651,1,0,0:0:0:0:
256,192,34994,1,0,0:0:0:0:
256,192,35165,1,8,0:0:0:0:
256,192,35337,1,0,0:0:0:0:
256,192,36022,1,4,0:0:0:0:
256,192,36365,1,0,0:0:0:0:
256,192,36537,1,8,0:0:0:0:
256,192,36708,1,0,0:0:0:0:
256,192,37051,1,8,0:0:0:0:
256,192,37222,1,8,0:0:0:0:
256,192,37394,1,0,0:0:0:0:
256,192,37737,1,8,0:0:0:0:
256,192,38079,1,0,0:0:0:0:
256,192,38765,1,0,0:0:0:0:
256,192,39108,1,0,0:0:0:0:
256,192,39279,1,8,0:0:0:0:
256,192,39451,1,0,0:0:0:0:
256,192,39794,1,8,0:0:0:0:
256,192,40137,1,0,0:0:0:0:
256,192,40479,1,0,0:0:0:0:
256,192,40651,1,8,0:0:0:0:
256,192,40822,1,0,0:0:0:0:
256,192,41508,1,4,0:0:0:0:
256,192,41851,1,0,0:0:0:0:
256,192,42022,1,8,0:0:0:0:
256,192,42194,1,0,0:0:0:0:
256,192,42537,1,8,0:0:0:0:
256,192,42879,1,0,0:0:0:0:
256,192,43565,1,0,0:0:0:0:
256,192,43908,1,8,0:0:0:0:
256,192,44251,1,4,0:0:0:0:
256,192,44765,1,8,0:0:0:0:
256,192,44937,1,4,0:0:0:0:
256,192,45279,1,4,0:0:0:0:
256,192,45622,1,4,0:0:0:0:
256,192,46137,1,8,0:0:0:0:
256,192,46308,1,4,0:0:0:0:
256,192,46651,1,4,0:0:0:0:
256,192,46994,1,4,0:0:0:0:
256,192,47508,1,8,0:0:0:0:
256,192,47679,1,4,0:0:0:0:
256,192,48022,1,4,0:0:0:0:
256,192,48365,1,4,0:0:0:0:
256,192,49051,1,4,0:0:0:0:
256,192,49394,1,12,0:0:0:0:
256,192,49737,1,4,0:0:0:0:
256,192,50251,1,8,0:0:0:0:
256,192,50422,1,4,0:0:0:0:
256,192,50765,1,4,0:0:0:0:
256,192,51108,1,4,0:0:0:0:
256,192,51622,1,8,0:0:0:0:
256,192,51794,1,4,0:0:0:0:
256,192,52137,1,4,0:0:0:0:
256,192,52479,1,4,0:0:0:0:
256,192,52994,1,8,0:0:0:0:
256,192,53165,1,4,0:0:0:0:
256,192,53508,1,4,0:0:0:0:
256,192,53851,1,4,0:0:0:0:
256,192,54537,1,4,0:0:0:0:
256,192,54879,1,12,0:0:0:0:
256,192,55222,1,4,0:0:0:0:
256,192,56251,1,8,0:0:0:0:
256,192,56594,1,0,0:0:0:0:
256,192,56937,1,0,0:0:0:0:
256,192,57279,1,8,0:0:0:0:
256,192,58994,1,8,0:0:0:0:
256,192,59337,1,0,0:0:0:0:
256,192,59679,1,8,0:0:0:0:
256,192,60022,1,0,0:0:0:0:
256,192,60537,1,8,0:0:0:0:
256,192,60708,1,4,0:0:0:0:
256,192,61737,1,8,0:0:0:0:
256,192,62079,1,0,0:0:0:0:
256,192,62422,1,0,0:0:0:0:
256,192,62594,1,8,0:0:0:0:
256,192,63451,1,0,0:0:0:0:
256,192,64479,1,8,0:0:0:0:
256,192,64822,1,0,0:0:0:0:
256,192,65165,1,8,0:0:0:0:
256,192,65508,1,0,0:0:0:0:
256,192,66022,1,0,0:0:0:0:
256,192,66194,1,12,0:0:0:0:
256,192,66537,1,8,0:0:0:0:
256,192,66879,1,8,0:0:0:0:
256,192,67394,1,8,0:0:0:0:
256,192,67908,1,8,0:0:0:0:
256,192,68251,1,8,0:0:0:0:
256,192,68937,1,8,0:0:0:0:
256,192,69279,1,8,0:0:0:0:
256,192,69622,1,8,0:0:0:0:
256,192,69965,1,8,0:0:0:0:
256,192,70137,1,8,0:0:0:0:
256,192,70651,1,8,0:0:0:0:
256,192,70994,1,8,0:0:0:0:
256,192,71508,1,8,0:0:0:0:
256,192,71679,1,0,0:0:0:0:
256,192,72022,1,8,0:0:0:0:
256,192,72365,1,0,0:0:0:0:
256,192,72708,1,8,0:0:0:0:
256,192,73394,1,8,0:0:0:0:
256,192,73737,1,0,0:0:0:0:
256,192,74079,1,8,0:0:0:0:
256,192,74422,1,0,0:0:0:0:
256,192,74594,1,0,0:0:0:0:
256,192,74765,1,8,0:0:0:0:
256,192,75108,1,0,0:0:0:0:
256,192,75451,1,8,0:0:0:0:
256,192,75622,1,8,0:0:0:0:
256,192,75794,1,4,0:0:0:0:
256,192,76137,1,12,0:0:0:0:
256,192,76479,1,4,0:0:0:0:
256,192,77165,1,4,0:0:0:0:
256,192,77508,1,0,0:0:0:0:
256,192,77679,1,0,0:0:0:0:
256,192,77851,1,8,0:0:0:0:
256,192,78194,1,8,0:0:0:0:
256,192,78537,1,0,0:0:0:0:
256,192,78708,1,8,0:0:0:0:
256,192,78879,1,0,0:0:0:0:
256,192,79222,1,8,0:0:0:0:
256,192,79908,1,0,0:0:0:0:
256,192,80079,1,8,0:0:0:0:
256,192,80251,1,0,0:0:0:0:
256,192,80594,1,8,0:0:0:0:
256,192,80765,1,0,0:0:0:0:
256,192,80937,1,8,0:0:0:0:
256,192,81279,1,0,0:0:0:0:
256,192,81622,1,0,0:0:0:0:
256,192,81794,1,0,0:0:0:0:
256,192,81965,1,8,0:0:0:0:
256,192,82651,1,0,0:0:0:0:
256,192,82822,1,8,0:0:0:0:
256,192,82994,1,0,0:0:0:0:
256,192,83337,1,8,0:0:0:0:
256,192,84022,1,0,0:0:0:0:
256,192,84194,1,8,0:0:0:0:
256,192,84365,1,0,0:0:0:0:
256,192,84708,1,8,0:0:0:0:
256,192,85222,1,8,0:0:0:0:
256,192,85394,1,0,0:0:0:0:
256,192,85737,1,0,0:0:0:0:
256,192,86079,1,8,0:0:0:0:
256,192,86251,1,0,0:0:0:0:
256,192,86422,1,8,0:0:0:0:
256,192,86765,1,0,0:0:0:0:
256,192,87451,1,8,0:0:0:0:
256,192,87794,1,8,0:0:0:0:
256,192,87965,1,8,0:0:0:0:
256,192,88137,1,0,0:0:0:0:
256,192,88479,1,0,0:0:0:0:
256,192,88651,1,8,0:0:0:0:
256,192,88822,1,0,0:0:0:0:
256,192,89508,1,0,0:0:0:0:
256,192,89851,1,0,0:0:0:0:
256,192,90194,1,0,0:0:0:0:
256,192,90365,1,8,0:0:0:0:
256,192,90537,1,8,0:0:0:0:
256,192,90879,1,0,0:0:0:0:
256,192,91222,1,0,0:0:0:0:
256,192,91394,1,8,0:0:0:0:
256,192,91565,1,0,0:0:0:0:
256,192,92251,1,0,0:0:0:0:
256,192,92594,1,0,0:0:0:0:
256,192,92765,1,8,0:0:0:0:
256,192,92937,1,0,0:0:0:0:
256,192,93622,1,0,0:0:0:0:
256,192,93965,1,0,0:0:0:0:
256,192,94137,1,8,0:0:0:0:
256,192,94308,1,0,0:0:0:0:
256,192,94651,1,0,0:0:0:0:
256,192,94994,1,0,0:0:0:0:
256,192,95337,1,0,0:0:0:0:
256,192,95508,1,8,0:0:0:0:
256,192,95679,1,0,0:0:0:0:
256,192,96022,1,8,0:0:0:0:
256,192,96194,1,8,0:0:0:0:
256,192,96365,1,0,0:0:0:0:
256,192,96708,1,8,0:0:0:0:
256,192,97051,1,8,0:0:0:0:
256,192,97222,1,0,0:0:0:0:
256,192,97394,1,8,0:0:0:0:
256,192,97737,1,4,0:0:0:0:
256,192,98079,1,4,0:0:0:0:
256,192,98422,1,4,0:0:0:0:
256,192,99108,1,4,0:0:0:0:
256,192,99451,1,0,0:0:0:0:
256,192,99622,1,8,0:0:0:0:
256,192,99794,1,0,0:0:0:0:
256,192,100137,1,8,0:0:0:0:
256,192,100479,1,0,0:0:0:0:
256,192,100822,1,0,0:0:0:0:
256,192,100994,1,8,0:0:0:0:
256,192,101165,1,0,0:0:0:0:
256,192,101851,1,4,0:0:0:0:
256,192,102194,1,0,0:0:0:0:
256,192,102365,1,8,0:0:0:0:
256,192,102537,1,0,0:0:0:0:
256,192,102879,1,8,0:0:0:0:
256,192,103051,1,8,0:0:0:0:
256,192,103222,1,0,0:0:0:0:
256,192,103565,1,8,0:0:0:0:
256,192,103908,1,0,0:0:0:0:
256,192,104594,1,4,0:0:0:0:
256,192,104937,1,0,0:0:0:0:
256,192,105108,1,8,0:0:0:0:
256,192,105279,1,0,0:0:0:0:
256,192,105622,1,8,0:0:0:0:
256,192,105965,1,0,0:0:0:0:
256,192,106308,1,0,0:0:0:0:
256,192,106479,1,8,0:0:0:0:
256,192,106651,1,0,0:0:0:0:
256,192,107337,1,4,0:0:0:0:
256,192,107679,1,0,0:0:0:0:
256,192,107851,1,8,0:0:0:0:
256,192,108022,1,0,0:0:0:0:
256,192,108365,1,8,0:0:0:0:
256,192,108708,1,0,0:0:0:0:
256,192,109394,1,0,0:0:0:0:
256,192,109737,1,8,0:0:0:0:
256,192,110079,1,4,0:0:0:0:
256,192,110594,1,8,0:0:0:0:
256,192,110765,1,4,0:0:0:0:
256,192,111108,1,4,0:0:0:0:
256,192,111451,1,4,0:0:0:0:
256,192,111965,1,8,0:0:0:0:
256,192,112137,1,4,0:0:0:0:
256,192,112479,1,4,0:0:0:0:
256,192,112822,1,4,0:0:0:0:
256,192,113337,1,8,0:0:0:0:
256,192,113508,1,4,0:0:0:0:
256,192,113851,1,4,0:0:0:0:
256,192,114194,1,4,0:0:0:0:
256,192,114879,1,4,0:0:0:0:
256,192,115222,1,12,0:0:0:0:
256,192,115565,1,4,0:0:0:0:
256,192,116079,1,8,0:0:0:0:
256,192,116251,1,4,0:0:0:0:
256,192,116594,1,4,0:0:0:0:
256,192,116937,1,4,0:0:0:0:
256,192,117451,1,8,0:0:0:0:
256,192,117622,1,4,0:0:0:0:
256,192,117965,1,4,0:0:0:0:
256,192,118308,1,4,0:0:0:0:
256,192,118822,1,8,0:0:0:0:
256,192,118994,1,4,0:0:0:0:
256,192,119337,1,4,0:0:0:0:
256,192,119679,1,4,0:0:0:0:
256,192,120365,1,4,0:0:0:0:
256,192,120708,1,12,0:0:0:0:
256,192,121051,1,4,0:0:0:0:
256,192,122422,1,0,0:0:0:0:
256,192,123794,1,0,0:0:0:0:
256,192,124822,1,0,0:0:0:0:
256,192,125165,1,0,0:0:0:0:
256,192,125508,1,0,0:0:0:0:
256,192,126194,1,8,0:0:0:0:
256,192,126537,1,0,0:0:0:0:
256,192,126879,1,0,0:0:0:0:
256,192,127222,1,8,0:0:0:0:
256,192,127394,1,0,0:0:0:0:
256,192,127908,1,0,0:0:0:0:
256,192,128251,1,0,0:0:0:0:
256,192,128594,1,8,0:0:0:0:
256,192,128765,1,0,0:0:0:0:
256,192,129279,1,0,0:0:0:0:
256,192,129622,1,0,0:0:0:0:
256,192,129965,1,8,0:0:0:0:
256,192,130137,1,0,0:0:0:0:
256,192,130651,1,0,0:0:0:0:
256,192,131337,1,8,0:0:0:0:
256,192,131508,1,0,0:0:0:0:
256,192,132022,1,0,0:0:0:0:
256,192,132365,1,0,0:0:0:0:
256,192,132708,1,8,0:0:0:0:
256,192,132879,1,0,0:0:0:0:
256,192,133394,1,0,0:0:0:0:
256,192,133737,1,0,0:0:0:0:
256,192,134079,1,8,0:0:0:0:
256,192,134251,1,0,0:0:0:0:
256,192,134765,1,0,0:0:0:0:
256,192,135451,1,8,0:0:0:0:
256,192,135622,1,0,0:0:0:0:
256,192,135794,1,8,0:0:0:0:
256,192,136137,1,0,0:0:0:0:
256,192,136479,1,8,0:0:0:0:
256,192,136822,1,8,0:0:0:0:
256,192,136994,1,8,0:0:0:0:
256,192,137165,1,8,0:0:0:0:
256,192,137508,1,0,0:0:0:0:
256,192,137851,1,8,0:0:0:0:
256,192,138194,1,8,0:0:0:0:
256,192,138365,1,0,0:0:0:0:
256,192,138537,1,8,0:0:0:0:
256,192,138879,1,0,0:0:0:0:
256,192,139222,1,8,0:0:0:0:
256,192,139908,1,0,0:0:0:0:
256,192,140251,1,0,0:0:0:0:
256,192,140594,1,8,0:0:0:0:
256,192,140937,1,8,0:0:0:0:
256,192,141108,1,0,0:0:0:0:
256,192,141279,1,8,0:0:0:0:
256,192,141622,1,0,0:0:0:0:
256,192,141965,1,8,0:0:0:0:
256,192,142651,1,0,0:0:0:0:
256,192,142994,1,0,0:0:0:0:
256,192,143337,1,8,0:0:0:0:
256,192,143679,1,8,0:0:0:0:
256,192,143851,1,0,0:0:0:0:
256,192,144022,1,8,0:0:0:0:
256,192,144365,1,0,0:0:0:0:
256,192,144708,1,8,0:0:0:0:
256,192,145394,1,0,0:0:0:0:
256,192,145737,1,0,0:0:0:0:
256,192,146079,1,8,0:0:0:0:
256,192,146422,1,8,0:0:0:0:
256,192,146594,1,0,0:0:0:0:
256,192,146765,1,8,0:0:0:0:
256,192,147108,1,0,0:0:0:0:
256,192,147451,1,8,0:0:0:0:
256,192,147622,1,8,0:0:0:0:
256,192,147794,1,8,0:0:0:0:
256,192,148137,1,8,0:0:0:0:
256,192,148479,1,4,0:0:0:0:
256,192,149508,1,8,0:0:0:0:
256,192,149851,1,0,0:0:0:0:
256,192,150194,1,0,0:0:0:0:
256,192,150537,1,8,0:0:0:0:
256,192,151222,1,0,0:0:0:0:
256,192,152251,1,8,0:0:0:0:
256,192,152594,1,0,0:0:0:0:
256,192,152937,1,8,0:0:0:0:
256,192,153279,1,0,0:0:0:0:
256,192,153794,1,8,0:0:0:0:
256,192,153965,1,0,0:0:0:0:
256,192,154994,1,8,0:0:0:0:
256,192,155337,1,0,0:0:0:0:
256,192,155679,1,0,0:0:0:0:
256,192,155851,1,8,0:0:0:0:
256,192,156708,1,0,0:0:0:0:
256,192,157737,1,8,0:0:0:0:
256,192,158079,1,0,0:0:0:0:
256,192,158422,1,8,0:0:0:0:
256,192,158765,1,0,0:0:0:0:
256,192,159108,1,0,0:0:0:0:
256,192,159279,1,0,0:0:0:0:
256,192,159451,1,8,0:0:0:0:
256,192,159794,1,0,0:0:0:0:
256,192,160137,1,8,0:0:0:0:
256,192,160479,1,0,0:0:0:0:
256,192,161165,1,0,0:0:0:0:
256,192,161508,1,8,0:0:0:0:
256,192,161851,1,0,0:0:0:0:
256,192,162537,1,0,0:0:0:0:
256,192,162879,1,8,0:0:0:0:
256,192,163222,1,0,0:0:0:0:
256,192,163565,1,0,0:0:0:0:
256,192,164251,1,8,0:0:0:0:
256,192,164765,1,8,0:0:0:0:
256,192,164937,1,0,0:0:0:0:
256,192,165279,1,8,0:0:0:0:
256,192,165622,1,0,0:0:0:0:
256,192,165965,1,8,0:0:0:0:
256,192,166651,1,8,0:0:0:0:
256,192,166994,1,0,0:0:0:0:
256,192,167337,1,8,0:0:0:0:
256,192,167679,1,0,0:0:0:0:
256,192,167851,1,0,0:0:0:0:
256,192,168022,1,8,0:0:0:0:
256,192,168365,1,0,0:0:0:0:
256,192,168708,1,8,0:0:0:0:
256,192,168879,1,8,0:0:0:0:
256,192,169051,1,0,0:0:0:0:
256,192,169394,1,8,0:0:0:0:
256,192,169737,1,0,0:0:0:0:
256,192,170079,1,0,0:0:0:0:
256,192,170422,1,0,0:0:0:0:
256,192,170765,1,0,0:0:0:0:
256,192,171108,1,0,0:0:0:0:
256,192,171279,1,0,0:0:0:0:
256,192,171451,1,8,0:0:0:0:
256,192,171794,1,0,0:0:0:0:
256,192,172137,1,8,0:0:0:0:
256,192,172822,1,8,0:0:0:0:
256,192,173508,1,8,0:0:0:0:
256,192,174022,1,4,0:0:0:0:
256,192,174194,1,4,0:0:0:0:
256,192,174537,1,4,0:0:0:0:
256,192,174879,1,8,0:0:0:0:
256,192,175394,1,0,0:0:0:0:
256,192,175565,1,8,0:0:0:0:
256,192,175737,1,0,0:0:0:0:
256,192,176079,1,0,0:0:0:0:
256,192,176251,1,8,0:0:0:0:
256,192,176594,1,0,0:0:0:0:
256,192,177279,1,0,0:0:0:0:
256,192,177622,1,8,0:0:0:0:
256,192,178137,1,0,0:0:0:0:
256,192,178308,1,8,0:0:0:0:
256,192,178479,1,0,0:0:0:0:
256,192,178822,1,0,0:0:0:0:
256,192,178994,1,8,0:0:0:0:
256,192,179337,1,0,0:0:0:0:
256,192,180022,1,0,0:0:0:0:
256,192,180365,1,8,0:0:0:0:
256,192,180879,1,0,0:0:0:0:
256,192,181051,1,8,0:0:0:0:
256,192,181222,1,0,0:0:0:0:
256,192,181565,1,0,0:0:0:0:
256,192,181737,1,8,0:0:0:0:
256,192,182079,1,0,0:0:0:0:
256,192,182765,1,0,0:0:0:0:
256,192,183108,1,8,0:0:0:0:
256,192,183622,1,0,0:0:0:0:
256,192,183794,1,8,0:0:0:0:
256,192,183965,1,0,0:0:0:0:
256,192,184308,1,0,0:0:0:0:
256,192,184479,1,8,0:0:0:0:
256,192,184822,1,0,0:0:0:0:
256,192,185508,1,0,0:0:0:0:
256,192,185851,1,8,0:0:0:0:
256,192,186365,1,0,0:0:0:0:
256,192,186537,1,8,0:0:0:0:
256,192,186708,1,0,0:0:0:0:
256,192,187051,1,0,0:0:0:0:
256,192,187222,1,8,0:0:0:0:
256,192,187565,1,0,0:0:0:0:
256,192,188251,1,0,0:0:0:0:
256,192,188594,1,8,0:0:0:0:
256,192,188765,1,0,0:0:0:0:
256,192,189108,1,0,0:0:0:0:
256,192,189279,1,8,0:0:0:0:
256,192,189451,1,0,0:0:0:0:
256,192,189794,1,0,0:0:0:0:
256,192,189965,1,8,0:0:0:0:
256,192,190308,1,0,0:0:0:0:
256,192,190651,1,8,0:0:0:0:
256,192,190994,1,0,0:0:0:0:
256,192,191165,1,0,0:0:0:0:
256,192,191337,1,8,0:0:0:0:
256,192,191679,1,0,0:0:0:0:
256,192,191851,1,0,0:0:0:0:
256,192,192022,1,8,0:0:0:0:
256,192,192365,1,0,0:0:0:0:
256,192,192537,1,0,0:0:0:0:
256,192,192708,1,8,0:0:0:0:
256,192,193051,1,0,0:0:0:0:
256,192,193394,1,8,0:0:0:0:
256,192,193565,1,8,0:0:0:0:
256,192,193737,1,0,0:0:0:0:
256,192,195451,1,0,0:0:0:0:
256,192,196479,1,0,0:0:0:0:
256,192,198194,1,8,0:0:0:0:
256,192,198365,1,8,0:0:0:0:
256,192,198537,1,0,0:0:0:0:
256,192,198879,1,8,0:0:0:0:
256,192,199222,1,0,0:0:0:0:
