osu file format v14

[General]
AudioFilename: audio.mp3
AudioLeadIn: 0
PreviewTime: 33113
Countdown: 0
SampleSet: Soft
StackLeniency: 0.7
Mode: 0
LetterboxInBreaks: 0
WidescreenStoryboard: 1

[Editor]
DistanceSpacing: 0.5
BeatDivisor: 4
GridSize: 32
TimelineZoom: 2

[Metadata]
Title:DRUM GO DUM feat. Aluna, Wolftyla, Bekuh BOOM
TitleUnicode:DRUM GO DUM feat. Aluna, Wolftyla, Bekuh BOOM
Artist:K/DA
ArtistUnicode:K/DA
Creator:Asphyxia
Version:Flask's Insane
Source:League of Legends
Tags:riot games kda kaisa just dance unlimited 2021 all out akali seraphine evelynn kai'sa league of legends english electronic ahri pandahero kyshiro flask elinor [_eli_] eli
BeatmapID:2950921
BeatmapSetID:1309412

[Difficulty]
HPDrainRate:5
CircleSize:3.8
OverallDifficulty:7.5
ApproachRate:9
SliderMultiplier:1.6
SliderTickRate:1

[Events]
//Background and Video events
0,0,"kda bg .jpg",0,0
//Break Periods
2,56266,65609
2,149523,158523
//Storyboard Layer 0 (Background)
//Storyboard Layer 1 (Fail)
//Storyboard Layer 2 (Pass)
//Storyboard Layer 3 (Foreground)
//Storyboard Layer 4 (Overlay)
//Storyboard Sound Samples

[TimingPoints]
381,342.857142857143,4,2,1,75,1,0
11352,-100,4,2,1,50,0,0
11695,-100,4,2,1,50,0,0
11866,-100,4,2,1,50,0,0
12381,-100,4,2,1,50,0,0
12552,-100,4,2,1,50,0,0
13066,-100,4,2,1,50,0,0
13238,-100,4,2,1,50,0,0
13752,-100,4,2,1,50,0,0
14609,-100,4,2,1,50,0,0
15123,-100,4,2,1,50,0,0
15295,-100,4,2,1,50,0,0
15809,-100,4,2,1,50,0,0
16152,-100,4,2,1,50,0,0
21809,-100,4,2,1,50,0,0
22323,-125,4,2,1,50,0,0
24552,-125,4,2,1,50,0,0
25066,-125,4,2,1,50,0,0
26781,-100,4,2,1,50,0,0
27981,-111.111111111111,4,2,1,50,0,0
30038,-111.111111111111,4,2,1,50,0,0
31923,-83.3333333333333,4,2,1,50,0,0
32609,-71.4285714285714,4,2,1,50,0,0
32952,-100,4,2,1,50,0,0
33295,-83.3333333333333,4,2,1,75,0,1
38438,-71.4285714285714,4,2,1,75,0,1
39123,-83.3333333333333,4,2,1,75,0,1
44266,-83.3333333333333,4,2,1,75,0,1
55238,-100,4,2,1,60,0,0
57295,-100,4,2,1,60,0,0
58838,-100,4,2,1,60,0,0
62609,-100,4,2,1,60,0,0
63466,-100,4,2,1,60,0,0
63809,-100,4,2,1,60,0,0
64495,-125,4,2,1,60,0,0
75466,-100,4,2,1,60,0,0
75809,-71.4285714285714,4,2,1,60,0,0
76495,-95.2380952380952,4,2,1,60,0,0
77181,-100,4,2,3,60,0,0
86781,-125,4,2,3,60,0,0
88152,-125,4,2,1,60,0,0
92609,-100,4,2,1,60,0,0
93123,-100,4,2,1,60,0,0
93638,-111.111111111111,4,2,1,60,0,0
97752,-83.3333333333333,4,2,1,60,0,0
98438,-71.4285714285714,4,2,1,60,0,0
98781,-100,4,2,1,60,0,0
99123,-83.3333333333333,4,2,1,75,0,1
104266,-71.4285714285714,4,2,1,75,0,1
104952,-83.3333333333333,4,2,1,75,0,1
109409,-83.3333333333333,4,2,1,75,0,1
110095,-83.3333333333333,4,2,1,75,0,1
110609,-83.3333333333333,4,2,1,75,0,1
111466,-83.3333333333333,4,2,1,75,0,1
112152,-83.3333333333333,4,2,1,75,0,1
112838,-83.3333333333333,4,2,1,75,0,1
113523,-83.3333333333333,4,2,1,75,0,1
114209,-83.3333333333333,4,2,1,75,0,1
115581,-83.3333333333333,4,2,1,75,0,1
116266,-83.3333333333333,4,2,1,75,0,1
116952,-83.3333333333333,4,2,1,75,0,1
117638,-83.3333333333333,4,2,1,75,0,1
118323,-83.3333333333333,4,2,1,75,0,1
119009,-83.3333333333333,4,2,1,75,0,1
119695,-83.3333333333333,4,2,1,75,0,1
121066,-125,4,2,1,60,0,0
125866,-62.5,4,2,1,60,0,0
126552,-100,4,2,4,60,0,0
131009,-83.3333333333333,4,2,4,60,0,0
132038,-100,4,2,4,60,0,0
136152,-100,4,2,4,60,0,0
137523,-100,4,2,4,60,0,0
137866,-100,4,2,4,60,0,0
138552,-100,4,2,4,60,0,0
139923,-100,4,2,4,60,0,0
141981,-100,4,2,4,60,0,0
143352,-100,4,2,4,60,0,0
144038,-100,4,2,4,60,0,0
145409,-100,4,2,4,60,0,0
145752,-100,4,2,4,60,0,0
146095,-100,4,2,4,60,0,0
148495,-100,4,2,1,60,0,0
150209,-100,4,2,1,60,0,0
150552,-100,4,2,1,60,0,0
152266,-100,4,2,1,60,0,0
155695,-100,4,2,1,60,0,0
156038,-100,4,2,1,60,0,0
156723,-100,4,2,1,60,0,0
157066,-100,4,2,1,60,0,0
158095,-100,4,2,1,60,0,0
159466,-125,4,2,1,60,0,0
168723,-100,4,2,1,60,0,0
168895,-83.3333333333333,4,2,1,60,0,0
169066,-71.4285714285714,4,2,1,60,0,0
171466,-100,4,2,1,60,0,0
171638,-83.3333333333333,4,2,1,60,0,0
174038,-100,4,2,1,60,0,0
174209,-83.3333333333333,4,2,1,60,0,0
174552,-83.3333333333333,4,2,1,75,0,1
176781,-83.3333333333333,4,2,1,75,0,1
177295,-83.3333333333333,4,2,1,75,0,1
178152,-83.3333333333333,4,2,1,75,0,1
178666,-83.3333333333333,4,2,1,75,0,1
179523,-83.3333333333333,4,2,1,75,0,1
180038,-83.3333333333333,4,2,1,75,0,1
185009,-83.3333333333333,4,2,1,75,0,1
185352,-83.3333333333333,4,2,1,75,0,1
187752,-83.3333333333333,4,2,1,75,0,1
188266,-83.3333333333333,4,2,1,75,0,1
189123,-83.3333333333333,4,2,1,75,0,1
189638,-83.3333333333333,4,2,1,75,0,1
190495,-83.3333333333333,4,2,1,75,0,1
191009,-83.3333333333333,4,2,1,75,0,1
193752,-133.333333333333,4,2,1,60,0,0
195981,-100,4,2,1,60,0,0
196495,-100,4,2,1,60,0,0
199238,-100,4,2,1,30,0,0

[Colours]
Combo1 : 128,128,192
Combo2 : 217,203,196
Combo3 : 194,116,183
Combo4 : 253,201,23
Combo5 : 95,220,231

[HitObjects]
63,57,10666,5,0,0:0:0:0:
68,64,10838,1,0,0:0:0:0:
72,56,11009,1,0,0:0:0:0:
62,65,11181,1,0,0:0:0:0:
119,231,11352,5,4,3:3:0:0:
196,180,11523,2,0,P|235:193|286:208,2,80,0|2|2,0:0|3:2|0:0,0:0:0:0:
290,289,12038,2,0,P|303:218|354:144,1,160,8|2,0:1|3:2,0:0:0:0:
351,146,12552,1,2,0:0:0:0:
422,307,12723,2,0,P|441:269|441:219,1,80
209,358,13066,5,2,3:2:0:0:
337,324,13238,2,0,P|301:307|264:293,1,80,2|8,0:0|0:1,0:0:0:0:
198,362,13581,1,0,0:0:0:0:
144,221,13752,2,0,P|199:247|198:350,1,160,2|0,0:0|0:0,0:0:0:0:
207,337,14438,6,0,P|198:300|191:250,1,80,2|2,3:2|0:0,0:0:0:0:
32,263,14781,2,0,P|56:190|80:99,1,160,8|2,0:1|3:2,0:0:0:0:
168,118,15295,1,2,0:0:0:0:
39,31,15466,2,0,P|41:71|77:99,1,80
227,189,15809,5,2,3:2:0:0:
185,39,15981,2,0,L|165:129,1,80,0|8,0:0|0:1,0:0:0:0:
167,117,16323,1,0,0:0:0:0:
342,264,16495,2,0,P|319:197|310:96,1,160,2|0,3:2|0:0,0:0:0:0:
448,82,17009,5,0,0:0:0:0:
501,230,17181,1,0,3:0:0:0:
392,155,17352,1,0,0:0:0:0:
503,22,17523,2,0,P|507:68|516:109,1,80,8|0,0:1|0:0,0:0:0:0:
310,212,17866,2,0,P|306:166|297:125,1,80,0|0,3:0|0:0,0:0:0:0:
492,340,18209,5,0,0:0:0:0:
480,252,18381,2,0,P|442:271|400:289,1,80,0|0,3:0|3:0,0:0:0:0:
407,286,18723,1,0,0:0:0:0:
267,277,18895,2,0,B|318:275|337:317|332:322|349:361|394:365,1,160,8|0,0:1|0:0,0:0:0:0:
165,344,19409,1,0,0:0:0:0:
165,344,19495,1,0,0:0:0:0:
165,344,19581,6,0,P|170:301|172:247,1,80,0|0,3:0|0:0,0:0:0:0:
247,207,19923,1,0,0:0:0:0:
248,364,20095,1,0,3:0:0:0:
98,292,20266,2,0,P|70:262|55:221,1,80,8|0,0:1|0:0,0:0:0:0:
177,127,20609,2,0,P|205:157|220:198,1,80
29,120,20952,6,0,P|62:93|92:62,1,80,2|2,3:0|3:0,0:0:0:0:
94,62,21209,1,0,0:0:0:0:
100,54,21295,1,2,3:0:0:0:
243,122,21466,2,0,L|235:166,1,40,2|0,3:0|0:0,0:0:0:0:
192,280,21638,5,8,0:1:0:0:
271,269,21809,1,0,0:0:0:0:
350,258,21981,1,0,3:0:0:0:
429,247,22152,1,0,0:0:0:0:
497,293,22323,6,0,P|483:328|477:363,1,64,0|0,3:0|0:0,0:0:0:0:
429,247,22666,2,0,P|442:211|449:177,1,64,0|0,3:0|0:0,0:0:0:0:
384,96,23009,1,0,3:0:0:0:
384,96,23266,1,0,0:0:0:0:
384,96,23352,2,0,P|354:85|322:61,1,64,0|0,3:0|0:0,0:0:0:0:
269,149,23695,6,0,P|325:177|361:207,1,96,0|0,3:0|0:0,0:0:0:0:
357,206,24038,2,0,P|392:198|434:186,1,64,0|0,3:0|0:0,0:0:0:0:
482,133,24381,1,0,3:0:0:0:
334,290,24552,1,2,0:0:0:0:
334,290,24638,1,0,0:0:0:0:
334,290,24723,2,0,P|302:282|268:273,1,64,2|2,0:0|0:3,0:0:0:0:
77,347,25066,5,0,3:0:0:0:
77,347,25323,1,0,0:0:0:0:
77,347,25409,2,0,P|103:322|121:288,1,64,0|0,3:0|0:0,0:0:0:0:
45,144,25752,2,0,P|41:189|68:252,1,96,0|0,3:0|0:0,0:0:0:0:
56,236,26095,1,0,3:0:0:0:
157,150,26266,1,0,0:0:0:0:
219,295,26438,2,0,L|294:277,1,64,0|0,3:0|0:0,0:0:0:0:
422,153,26781,6,0,P|371:142|301:117,1,120,0|0,3:0|0:0,0:0:0:0:
284,46,27123,2,0,P|309:42|336:52,1,40,0|0,3:0|0:0,0:0:0:0:
356,169,27295,2,0,P|344:191|321:208,1,40,2|0,0:0|0:0,0:0:0:0:
177,151,27466,1,2,0:0:0:0:
356,169,27638,1,2,0:3:0:0:
356,169,27723,1,0,0:0:0:0:
356,169,27809,5,0,3:0:0:0:
429,209,27981,1,0,0:0:0:0:
413,290,28152,1,0,3:0:0:0:
331,299,28323,1,0,0:0:0:0:
296,224,28495,2,0,P|254:215|223:205,1,71.9999978027344,0|0,3:0|0:0,0:0:0:0:
215,215,28752,1,0,0:0:0:0:
200,222,28838,2,0,L|222:149,1,71.9999978027344,0|0,3:0|0:0,0:0:0:0:
235,80,29095,1,0,0:0:0:0:
229,64,29181,5,0,3:0:0:0:
140,93,29352,1,0,0:0:0:0:
79,164,29523,1,0,3:0:0:0:
50,75,29694,1,0,0:0:0:0:
181,178,29866,6,0,P|195:222|210:251,1,71.9999978027344,0|2,3:0|0:0,0:0:0:0:
217,263,30123,1,0,0:0:0:0:
228,278,30209,2,0,L|269:266,1,35.9999989013672,2|0,0:0|0:0,0:0:0:0:
149,343,30381,2,0,L|190:355,1,35.9999989013672,2|2,0:3|0:3,0:0:0:0:
359,380,30552,5,0,3:0:0:0:
376,374,30637,1,0,0:0:0:0:
392,366,30723,1,0,0:0:0:0:
406,355,30809,1,0,0:0:0:0:
418,342,30894,1,0,3:0:0:0:
427,327,30980,1,0,0:0:0:0:
434,310,31066,1,0,0:0:0:0:
437,292,31152,1,0,0:0:0:0:
438,275,31238,2,0,P|443:253|453:225,3,35.9999989013672,0|0|0|0,3:0|0:0|0:0|0:0,0:0:0:0:
337,238,31581,2,0,P|333:218|322:188,3,35.9999989013672,0|0|0|0,3:0|0:0|0:0|0:0,0:0:0:0:
431,34,31923,6,0,B|454:56|492:59|492:59|525:99|497:141,1,143.999995605469,4|0,3:0|0:0,0:0:0:0:
369,135,32266,2,0,B|376:103|359:69|359:69|378:20|428:23,1,143.999995605469,4|0,0:3|0:0,0:0:0:0:
438,190,32609,6,0,B|414:255|458:239|426:308,1,111.999996582031,2|2,0:0|0:3,0:0:0:0:
400,368,32866,1,2,0:3:0:0:
400,368,32952,2,0,P|383:359|366:339,1,40,0|0,1:0|0:0,0:0:0:0:
262,308,33123,2,0,P|261:288|270:264,1,40,0|0,1:0|0:0,0:0:0:0:
195,186,33295,6,0,P|231:126|253:32,1,143.999995605469,4|0,0:3|0:0,0:0:0:0:
250,55,33638,1,0,0:0:0:0:
250,55,33809,1,2,0:0:0:0:
157,0,33981,2,0,P|143:39|156:94,1,95.9999970703126,4|0,0:3|0:0,0:0:0:0:
314,176,34323,1,0,0:0:0:0:
250,55,34495,1,2,0:0:0:0:
104,177,34666,5,4,0:3:0:0:
104,177,34838,1,0,0:0:0:0:
226,262,35009,1,0,0:0:0:0:
226,262,35181,1,2,0:0:0:0:
120,365,35352,6,0,B|102:315|134:279|134:279|107:286|72:262,1,143.999995605469,4|0,0:3|0:0,0:0:0:0:
84,269,35695,1,0,0:0:0:0:
183,186,35866,1,2,0:0:0:0:
48,118,36038,6,0,B|22:122|0:113|0:113|89:178,1,143.999995605469,4|0,0:3|0:0,0:0:0:0:
76,169,36381,1,0,0:0:0:0:
12,327,36552,1,2,0:0:0:0:
213,369,36723,6,0,P|214:318|141:262,1,143.999995605469,4|0,0:3|0:0,0:0:0:0:
146,262,37066,2,0,P|172:248|192:229,1,47.9999985351563
307,129,37238,1,2,0:0:0:0:
350,215,37409,5,4,0:3:0:0:
216,133,37581,1,0,0:0:0:0:
341,43,37752,1,0,0:0:0:0:
264,211,37923,1,2,0:0:0:0:
455,270,38095,2,0,B|416:195|468:206|405:122,1,143.999995605469,4|0,0:3|0:0,0:0:0:0:
490,97,38438,6,0,B|463:226|402:135|365:287,1,223.999993164063,2|4,0:0|0:3,0:0:0:0:
368,274,39123,6,0,P|394:288|411:303,1,47.9999985351563
495,329,39295,1,2,0:0:0:0:
340,357,39466,1,4,0:3:0:0:
444,226,39638,1,0,0:0:0:0:
280,161,39809,2,0,P|273:217|260:271,1,95.9999970703126,0|2,0:0|0:0,0:0:0:0:
227,82,40152,5,4,0:3:0:0:
227,82,40323,1,0,0:0:0:0:
376,177,40495,1,0,0:0:0:0:
376,177,40666,1,2,0:0:0:0:
197,262,40838,6,0,P|255:268|312:353,1,143.999995605469,4|0,0:3|0:0,0:0:0:0:
308,330,41181,1,0,0:0:0:0:
277,180,41352,1,2,0:0:0:0:
181,353,41523,6,0,P|169:291|112:224,1,143.999995605469,4|0,0:3|0:0,0:0:0:0:
119,229,41866,1,0,0:0:0:0:
271,312,42038,1,2,0:0:0:0:
99,317,42209,6,0,P|163:309|210:230,1,143.999995605469,4|0,0:3|0:0,0:0:0:0:
208,248,42552,2,0,L|196:192,1,47.9999985351563
167,30,42723,1,2,0:3:0:0:
167,30,42809,1,2,0:3:0:0:
167,30,42895,5,0,3:0:0:0:
251,71,43066,1,0,0:0:0:0:
340,182,43238,1,0,1:0:0:0:
422,155,43409,1,0,0:0:0:0:
356,79,43581,5,4,0:3:0:0:
413,254,43752,1,0,0:0:0:0:
246,218,43923,1,0,0:0:0:0:
340,182,44095,1,0,0:0:0:0:
340,182,44181,1,0,0:0:0:0:
340,182,44266,6,0,P|369:271|371:382,1,191.999994140625,4|0,1:3|0:0,0:0:0:0:
290,277,44781,1,0,0:0:0:0:
417,189,44952,6,0,P|344:182|283:138,1,143.999995605469,0|0,1:0|0:0,0:0:0:0:
335,5,45295,2,0,P|408:12|469:56,1,143.999995605469,0|0,1:0|0:0,0:0:0:0:
473,131,45638,2,0,L|269:62,1,191.999994140625,4|0,1:3|0:0,0:0:0:0:
131,177,46152,1,0,0:0:0:0:
195,75,46323,6,0,P|203:125|241:223,1,143.999995605469,0|0,1:0|0:0,0:0:0:0:
86,329,46666,2,0,P|78:279|40:181,1,143.999995605469,0|0,1:0|0:0,0:0:0:0:
183,291,47009,2,0,P|235:264|376:276,1,191.999994140625,4|0,1:3|0:0,0:0:0:0:
160,376,47523,1,0,0:0:0:0:
217,203,47695,6,0,P|257:239|262:327,1,143.999995605469,0|0,1:0|0:0,0:0:0:0:
469,249,48038,2,0,P|429:213|424:125,1,143.999995605469,0|0,1:0|0:0,0:0:0:0:
332,154,48381,2,0,B|322:241|365:215|353:301,1,143.999995605469,4|0,1:3|0:0,0:0:0:0:
353,293,48723,5,0,0:0:0:0:
226,171,48895,1,0,0:0:0:0:
392,71,49066,5,0,1:0:0:0:
353,159,49238,1,0,0:0:0:0:
295,82,49409,1,0,1:0:0:0:
448,148,49581,1,0,0:0:0:0:
328,249,49752,6,0,B|236:216|236:216|178:296,1,191.999994140625,4|0,1:3|0:0,0:0:0:0:
101,358,50266,1,0,0:0:0:0:
41,246,50438,2,0,B|99:282|99:282|101:376,1,143.999995605469,0|0,1:0|0:0,0:0:0:0:
286,244,50781,2,0,B|228:208|228:208|225:113,1,143.999995605469,0|0,1:0|0:0,0:0:0:0:
92,187,51123,6,0,B|157:229|157:229|170:261|170:261|243:307,1,191.999994140625,4|0,1:3|0:0,0:0:0:0:
430,233,51638,1,0,0:0:0:0:
385,366,51809,2,0,B|363:339|363:339|413:234,1,143.999995605469,0|0,1:0|0:0,0:0:0:0:
502,213,52152,2,0,B|524:240|524:240|474:345,1,143.999995605469,0|0,1:0|0:0,0:0:0:0:
359,268,52495,6,0,B|309:248|309:248|297:164|297:164|243:144,1,191.999994140625,4|0,1:3|0:0,0:0:0:0:
123,198,53009,1,0,0:0:0:0:
107,25,53181,2,0,B|153:45|153:45|173:139,1,143.999995605469,0|0,1:0|0:0,0:0:0:0:
70,259,53523,2,0,B|24:239|24:239|4:145,1,143.999995605469,0|0,1:0|0:0,0:0:0:0:
172,136,53866,6,0,B|226:148|226:148|240:144|240:144|250:157|250:157|320:178,1,143.999995605469,4|0,1:3|0:0,0:0:0:0:
305,173,54209,1,0,0:0:0:0:
433,86,54381,1,0,0:0:0:0:
506,240,54552,1,0,1:0:0:0:
424,290,54723,1,0,0:0:0:0:
421,193,54895,2,0,L|405:160,4,23.9999992675781
350,359,55238,5,4,0:0:0:0:
74,54,66209,6,0,B|146:70|110:93|192:118,1,128,2|2,0:3|0:3,0:0:0:0:
189,125,66895,2,0,P|217:106|229:71,1,64,2|2,0:3|0:3,0:0:0:0:
73,151,67238,2,0,P|84:188|92:226,1,64,0|2,0:0|0:3,0:0:0:0:
183,312,67581,6,0,P|192:281|203:251,1,64,0|2,0:0|0:3,0:0:0:0:
202,251,67923,1,2,0:3:0:0:
226,375,68095,1,0,0:0:0:0:
226,375,68181,1,0,0:0:0:0:
226,375,68266,2,0,P|179:340|100:347,1,128,2|2,0:3|0:3,0:0:0:0:
383,304,68952,6,0,P|394:244|412:173,1,128,2|2,0:3|0:3,0:0:0:0:
410,179,69638,2,0,P|445:172|477:150,1,64,2|2,0:3|0:3,0:0:0:0:
429,36,69981,2,0,P|393:42|362:65,1,64,2|2,0:3|0:3,0:0:0:0:
249,101,70323,5,0,0:0:0:0:
328,134,70495,2,0,P|297:125|260:114,1,64,2|2,0:3|0:3,0:0:0:0:
113,188,70838,1,0,0:0:0:0:
113,188,70923,1,0,0:0:0:0:
113,188,71009,2,0,L|150:174,1,32,2|0,0:3|0:0,0:0:0:0:
183,202,71181,2,0,P|171:154|164:101,1,96,2|0,0:3|0:0,0:0:0:0:
117,49,71523,1,0,0:0:0:0:
81,52,71609,1,0,0:0:0:0:
49,36,71695,6,0,P|55:69|70:115,1,64,0|0,1:0|0:0,0:0:0:0:
19,177,72038,2,0,P|27:207|33:239,1,64,10|0,1:3|0:0,0:0:0:0:
208,362,72381,6,0,P|214:329|229:283,1,64
178,221,72724,2,0,P|186:190|192:158,1,64,2|0,1:3|0:0,0:0:0:0:
188,145,72981,1,0,0:0:0:0:
182,134,73066,6,0,P|217:146|257:155,1,64
312,244,73409,2,0,P|357:223|394:178,1,96,2|0,1:3|0:0,0:0:0:0:
405,195,73752,2,0,L|391:120,1,64,2|0,1:3|0:0,0:0:0:0:
323,65,74095,1,2,1:3:0:0:
495,91,74266,2,0,L|479:142,1,32
504,275,74438,5,0,1:0:0:0:
492,286,74523,1,0,0:0:0:0:
478,294,74609,1,0,0:0:0:0:
462,299,74695,1,0,0:0:0:0:
446,300,74781,1,2,1:3:0:0:
430,299,74866,1,0,0:0:0:0:
414,295,74952,1,0,0:0:0:0:
398,289,75038,1,0,0:0:0:0:
384,280,75123,2,0,L|342:289,3,32,0|0|0|0,1:0|0:0|0:0|0:0,0:0:0:0:
299,366,75466,6,0,P|279:358|253:353,1,40,2|0,1:3|0:0,0:0:0:0:
217,235,75638,2,0,P|196:244|171:248,1,40
66,366,75809,6,0,P|11:337|12:240,1,167.999994873047,2|0,0:3|0:0,0:0:0:0:
147,256,76152,6,0,P|149:318|64:365,1,167.999994873047,2|0,0:3|0:0,0:0:0:0:
11,240,76495,6,0,P|81:207|150:261,1,167.999994873047
147,255,77181,6,0,P|183:241|222:212,1,80,0|0,3:0|0:0,0:0:0:0:
375,240,77523,1,0,3:0:0:0:
375,240,77609,1,0,0:0:0:0:
375,240,77695,1,0,0:0:0:0:
318,103,77866,2,0,P|311:147|300:187,1,80,8|0,0:0|3:0,0:0:0:0:
438,319,78209,1,0,0:0:0:0:
411,159,78381,1,8,0:0:0:0:
325,291,78552,5,0,3:0:0:0:
469,231,78723,1,0,0:0:0:0:
345,136,78895,1,0,3:0:0:0:
325,291,79066,1,0,0:0:0:0:
439,148,79238,5,8,0:0:0:0:
295,209,79409,1,0,3:0:0:0:
420,304,79581,2,0,L|432:332,4,20,0|0|0|0|8,0:0|0:0|0:0|0:0|0:0,0:0:0:0:
261,361,79923,6,0,P|220:354|178:336,1,80,0|0,3:0|0:0,0:0:0:0:
45,278,80266,2,0,L|6:290,2,40,0|0|0,3:0|0:0|0:0,0:0:0:0:
161,227,80609,1,8,0:0:0:0:
96,366,80781,1,0,3:0:0:0:
62,177,80952,1,0,0:0:0:0:
62,177,81038,1,0,0:0:0:0:
62,177,81123,1,8,0:0:0:0:
223,305,81295,5,0,3:0:0:0:
178,146,81466,1,0,0:0:0:0:
89,287,81638,2,0,P|131:262|161:228,1,80,0|0,3:0|0:0,0:0:0:0:
225,214,81895,1,0,0:0:0:0:
242,220,81981,5,8,0:0:0:0:
98,97,82152,1,0,3:0:0:0:
260,26,82323,1,0,0:0:0:0:
196,95,82495,2,0,L|214:141,1,40,8|0,0:0|0:0,0:0:0:0:
310,324,82666,6,0,P|355:313|388:295,1,80,0|0,3:0|0:0,0:0:0:0:
221,272,83009,1,0,3:0:0:0:
221,272,83095,1,0,0:0:0:0:
221,272,83181,1,0,0:0:0:0:
335,155,83352,2,0,L|383:172,1,40,8|0,0:0|0:0,0:0:0:0:
445,218,83523,2,0,P|457:181|468:137,1,80,0|0,3:0|0:0,0:0:0:0:
471,50,83866,1,8,0:0:0:0:
260,190,84038,6,0,P|226:166|208:129,1,80,0|0,3:0|0:0,0:0:0:0:
238,49,84381,1,0,3:0:0:0:
135,177,84552,1,0,0:0:0:0:
323,241,84723,2,0,P|308:254|291:264,1,40,8|0,0:0|0:0,0:0:0:0:
246,331,84895,2,0,L|156:310,1,80,0|0,3:0|0:0,0:0:0:0:
23,360,85238,1,8,0:0:0:0:
75,214,85409,6,0,P|82:265|92:305,1,80,0|0,3:0|0:0,0:0:0:0:
230,170,85752,2,0,L|270:184,2,40,0|0|0,3:0|0:0|0:0,0:0:0:0:
137,58,86095,1,8,0:0:0:0:
19,148,86266,1,0,3:0:0:0:
135,267,86438,1,0,0:0:0:0:
140,247,86523,1,0,0:0:0:0:
128,230,86609,1,8,0:0:0:0:
136,211,86695,1,0,0:0:0:0:
126,192,86781,6,0,P|159:182|187:158,3,64
235,109,87381,1,0,0:0:0:0:
246,115,87466,5,2,0:3:0:0:
300,169,87638,1,2,0:3:0:0:
310,244,87809,1,2,0:3:0:0:
285,316,87981,1,2,0:3:0:0:
217,347,88152,6,0,P|184:340|147:322,1,64,0|0,3:0|0:0,0:0:0:0:
362,303,88495,2,0,P|394:309|432:328,1,64,0|0,3:0|0:0,0:0:0:0:
257,207,88838,1,0,3:0:0:0:
257,207,89095,1,0,0:0:0:0:
257,207,89181,2,0,P|250:177|238:135,1,64,0|0,3:0|0:0,0:0:0:0:
368,33,89523,6,0,P|356:84|350:145,1,96,0|0,3:0|0:0,0:0:0:0:
342,137,89866,2,0,P|377:144|414:158,1,64,0|0,3:0|0:0,0:0:0:0:
474,98,90209,1,0,3:0:0:0:
485,243,90381,1,2,0:0:0:0:
485,243,90466,1,0,0:0:0:0:
485,243,90552,2,0,P|452:255|417:280,1,64,2|2,0:0|0:3,0:0:0:0:
324,361,90895,5,0,3:0:0:0:
324,361,91152,1,0,0:0:0:0:
324,361,91238,2,0,P|314:334|304:299,1,64,0|0,3:0|0:0,0:0:0:0:
170,306,91581,2,0,P|184:265|197:199,1,96,0|0,3:0|0:0,0:0:0:0:
195,213,91923,1,0,3:0:0:0:
241,361,92095,1,0,0:0:0:0:
77,311,92266,2,0,P|41:317|5:326,1,64,0|0,3:0|0:0,0:0:0:0:
195,213,92609,6,0,P|254:206|317:189,1,120,0|0,3:0|0:0,0:0:0:0:
361,248,92952,2,0,P|377:228|386:203,1,40,0|0,3:0|0:0,0:0:0:0:
266,128,93123,2,0,P|250:148|241:173,1,40,2|0,0:0|0:0,0:0:0:0:
361,123,93295,1,2,0:0:0:0:
445,284,93466,1,2,0:3:0:0:
445,284,93552,1,2,0:3:0:0:
445,284,93638,5,0,3:0:0:0:
489,208,93809,1,0,0:0:0:0:
400,207,93981,1,0,3:0:0:0:
358,284,94152,1,0,0:0:0:0:
400,360,94323,2,0,P|386:324|377:283,1,71.9999978027344,0|0,3:0|0:0,0:0:0:0:
358,284,94581,1,0,0:0:0:0:
336,289,94666,2,0,P|342:251|354:210,1,71.9999978027344,0|0,3:0|0:0,0:0:0:0:
379,146,94923,1,0,0:0:0:0:
384,131,95009,5,0,3:0:0:0:
317,75,95181,1,0,0:0:0:0:
246,125,95352,1,0,3:0:0:0:
161,109,95523,1,0,0:0:0:0:
109,178,95695,6,0,P|70:173|35:164,1,71.9999978027344,0|2,0:0|0:0,0:0:0:0:
29,155,95952,1,0,0:0:0:0:
21,143,96038,2,0,P|16:162|10:180,1,35.9999989013672,2|0,0:0|0:0,0:0:0:0:
129,299,96209,2,0,P|133:279|139:262,1,35.9999989013672,2|2,0:3|0:3,0:0:0:0:
42,369,96381,5,0,3:0:0:0:
57,355,96466,1,0,0:0:0:0:
73,345,96552,1,0,0:0:0:0:
92,337,96638,1,0,0:0:0:0:
111,332,96723,1,0,3:0:0:0:
131,330,96809,1,0,0:0:0:0:
151,331,96895,1,0,0:0:0:0:
170,335,96981,1,0,0:0:0:0:
189,343,97066,2,0,P|211:340|233:329,3,35.9999989013672,0|0|0|0,3:0|0:0|0:0|0:0,0:0:0:0:
303,374,97409,2,0,P|309:358|313:334,3,35.9999989013672,0|0|0|0,3:0|0:0|0:0|0:0,0:0:0:0:
403,334,97752,6,0,P|386:261|384:188,1,143.999995605469,4|0,0:3|0:0,0:0:0:0:
408,114,98095,2,0,P|456:127|453:219,1,143.999995605469,4|0,0:3|0:0,0:0:0:0:
310,259,98438,6,0,B|248:265|268:231|196:237,1,111.999996582031,2|2,0:0|0:3,0:0:0:0:
138,284,98695,1,2,0:3:0:0:
138,284,98781,2,0,P|127:262|128:232,1,40,0|0,1:0|0:0,0:0:0:0:
70,172,98952,2,0,P|83:151|110:137,1,40,0|0,1:0|0:0,0:0:0:0:
134,44,99123,6,0,L|229:78,1,95.9999970703126,4|2,0:3|0:0,0:0:0:0:
385,129,99466,1,0,0:0:0:0:
385,129,99638,1,2,0:0:0:0:
452,201,99809,6,0,L|357:235,1,95.9999970703126,4|2,0:3|0:0,0:0:0:0:
201,286,100152,1,0,0:0:0:0:
201,286,100324,1,2,0:0:0:0:
317,363,100495,6,0,L|285:268,1,95.9999970703126,4|2,0:3|0:0,0:0:0:0:
245,151,100838,1,0,0:0:0:0:
286,272,101009,1,2,0:0:0:0:
157,369,101181,6,0,P|120:360|79:269,1,143.999995605469,4|0,0:3|0:0,0:0:0:0:
78,271,101523,1,0,0:0:0:0:
236,340,101695,1,2,0:0:0:0:
189,147,101866,6,0,P|178:225|158:295,1,143.999995605469,4|0,0:3|0:0,0:0:0:0:
160,287,102209,1,0,0:0:0:0:
91,159,102381,1,2,0:0:0:0:
275,120,102552,6,0,B|361:129|321:181|419:178,1,143.999995605469,4|0,0:3|0:0,0:0:0:0:
411,186,102895,2,0,P|423:164|429:137,1,47.9999985351563
440,47,103066,1,2,0:0:0:0:
489,247,103238,5,4,0:3:0:0:
354,133,103409,1,2,0:0:0:0:
499,153,103581,1,0,0:0:0:0:
357,275,103752,1,2,0:0:0:0:
503,365,103923,2,0,P|504:301|440:247,1,143.999995605469,4|0,0:3|0:0,0:0:0:0:
428,328,104266,6,0,B|348:338|348:338|337:348|337:348|199:365,1,223.999993164063,0|4,0:0|0:3,0:0:0:0:
209,363,104952,6,0,L|230:263,1,95.9999970703126
259,128,105295,1,4,0:3:0:0:
259,128,105466,1,2,0:0:0:0:
149,99,105638,2,0,B|134:150|134:150|161:195,1,95.9999970703126,0|2,0:0|0:0,0:0:0:0:
254,222,105981,5,4,0:3:0:0:
149,99,106152,1,2,0:0:0:0:
293,25,106323,1,0,0:0:0:0:
259,128,106495,1,2,0:0:0:0:
73,96,106666,6,0,B|44:74|44:74|159:101,1,143.999995605469,4|0,0:3|0:0,0:0:0:0:
149,99,107009,1,0,0:0:0:0:
223,237,107181,1,2,0:0:0:0:
393,194,107352,6,0,P|365:141|279:132,1,143.999995605469,4|0,0:3|0:0,0:0:0:0:
287,128,107695,1,0,0:0:0:0:
432,65,107866,1,2,0:0:0:0:
348,266,108038,6,4,P|403:222|488:221,1,143.999995605469,4|0,0:3|0:0,0:3:0:0:
474,216,108381,2,0,L|415:197,1,47.9999985351563
302,166,108552,1,2,0:0:0:0:
302,344,108723,5,0,3:0:0:0:
348,266,108895,1,2,0:0:0:0:
221,204,109066,1,0,0:0:0:0:
203,118,109238,1,2,0:0:0:0:
274,59,109409,5,4,0:3:0:0:
135,180,109581,1,0,1:0:0:0:
188,22,109752,1,0,1:0:0:0:
330,158,109923,1,0,1:0:0:0:
330,158,110009,1,0,0:0:0:0:
330,158,110095,6,0,P|376:135|392:2,1,191.999994140625,4|0,1:3|0:0,0:0:0:0:
453,207,110609,1,0,0:0:0:0:
336,65,110781,2,0,P|398:97|466:78,1,143.999995605469,0|0,1:0|0:0,0:0:0:0:
453,207,111123,2,0,P|433:147|467:76,1,143.999995605469,0|0,1:0|0:0,0:0:0:0:
350,178,111466,6,0,P|286:215|209:327,1,191.999994140625,4|0,1:3|0:0,0:0:0:0:
386,300,111981,1,0,0:0:0:0:
229,220,112152,2,0,P|192:159|195:84,1,143.999995605469,0|0,1:0|0:0,0:0:0:0:
97,255,112495,2,0,P|158:218|233:221,1,143.999995605469,0|0,1:0|0:0,0:0:0:0:
18,192,112838,6,0,P|65:241|87:378,1,191.999994140625,4|0,1:3|0:0,0:0:0:0:
104,118,113352,1,0,0:0:0:0:
12,307,113523,2,0,P|62:285|109:197,1,143.999995605469,0|0,1:0|0:0,0:0:0:0:
11,115,113866,2,0,P|33:165|121:212,1,143.999995605469,0|0,1:0|0:0,0:0:0:0:
161,280,114209,6,0,P|204:259|175:171,1,143.999995605469,4|0,1:3|0:0,0:0:0:0:
188,176,114552,1,0,0:0:0:0:
344,69,114723,1,0,0:0:0:0:
386,266,114895,1,4,1:3:0:0:
310,224,115066,1,0,0:0:0:0:
383,177,115238,1,0,0:0:0:0:
386,266,115409,1,0,0:0:0:0:
386,266,115495,1,0,0:0:0:0:
386,266,115581,6,0,B|405:193|405:193|401:183|401:183|432:68,1,191.999994140625,4|0,1:3|0:0,0:0:0:0:
336,153,116095,1,0,0:0:0:0:
475,194,116266,2,0,L|332:152,1,143.999995605469,0|0,1:0|0:0,0:0:0:0:
296,291,116609,2,0,L|338:148,1,143.999995605469,0|0,1:0|0:0,0:0:0:0:
353,36,116952,6,0,B|331:135|331:135|235:104,1,191.999994140625,4|0,1:3|0:0,0:0:0:0:
14,133,117466,1,0,0:0:0:0:
144,238,117638,2,0,B|169:171|169:171|129:109,1,143.999995605469,0|0,1:0|0:0,0:0:0:0:
16,252,117981,2,0,B|83:277|83:277|145:237,1,143.999995605469,0|0,1:0|0:0,0:0:0:0:
78,184,118323,6,0,B|163:239|163:239|168:250|168:250|239:298,1,191.999994140625,4|0,1:3|0:0,0:0:0:0:
453,270,118838,1,0,0:0:0:0:
359,336,119009,2,0,B|337:258|337:258|381:204,1,143.999995605469,0|0,1:0|0:0,0:0:0:0:
249,191,119352,2,0,B|327:169|327:169|381:213,1,143.999995605469,0|0,1:0|0:0,0:0:0:0:
502,162,119695,6,0,B|451:175|451:175|375:112,1,143.999995605469,4|0,1:3|0:0,0:0:0:0:
380,116,120038,1,0,0:0:0:0:
490,27,120209,1,0,0:0:0:0:
426,248,120381,1,0,1:0:0:0:
337,197,120552,1,0,0:0:0:0:
267,270,120723,2,0,L|276:303,4,23.9999992675781,0|0|0|0|0,1:0|0:0|0:0|0:0|0:0,0:0:0:0:
163,144,121066,6,0,P|169:111|178:80,1,64,4|0,0:3|0:0,0:0:0:0:
87,56,121409,2,0,P|80:88|72:120,1,64,2|0,0:0|0:0,0:0:0:0:
97,203,121752,1,2,0:0:0:0:
163,144,122438,6,0,P|199:132|236:126,1,64,2|0,0:0|0:0,0:0:0:0:
87,56,123123,2,0,P|51:68|14:74,1,64,2|0,0:0|0:0,0:0:0:0:
97,203,123466,2,0,L|104:229,4,16,2|0|0|0|0,0:0|0:0|0:0|0:0|0:0,0:0:0:0:
252,335,123809,6,0,P|261:305|270:273,1,64,2|0,0:0|0:0,0:0:0:0:
360,315,124152,2,0,P|350:344|342:377,1,64,2|0,0:0|0:0,0:0:0:0:
345,224,124495,1,2,0:0:0:0:
252,335,124838,6,0,B|220:324|220:324|250:313,1,64,2|0,0:3|0:0,0:0:0:0:
154,279,125181,2,0,B|122:268|122:268|152:257,1,64,2|0,0:3|0:0,0:0:0:0:
56,223,125523,2,0,B|24:212|24:212|54:201,1,64,2|0,0:3|0:0,0:0:0:0:
226,188,125866,6,0,B|285:165|285:165|223:139,2,128,8|0|10,0:3|0:0|0:3,0:0:0:0:
436,359,126552,6,0,P|443:314|478:231,1,120,0|0,3:0|0:0,0:0:0:0:
469,244,126895,2,0,L|456:199,1,40,0|0,3:0|0:0,0:0:0:0:
423,74,127066,1,0,0:0:0:0:
322,134,127238,2,0,B|397:113|355:86|432:71,1,120,8|0,0:0|0:0,0:0:0:0:
261,33,127581,2,0,B|282:108|309:66|324:143,1,120
304,266,127923,6,0,P|296:212|236:177,1,120,0|0,3:0|0:0,0:0:0:0:
244,177,128266,1,0,3:0:0:0:
71,229,128438,1,0,0:0:0:0:
166,311,128609,2,0,B|177:249|177:249|152:194,1,120,8|0,0:0|0:0,0:0:0:0:
86,58,128952,2,0,L|72:32,4,20
75,153,129295,6,0,P|131:123|199:82,1,120,0|0,3:0|0:0,0:0:0:0:
179,94,129638,2,0,L|210:134,1,40,0|0,3:0|0:0,0:0:0:0:
293,245,129809,1,0,0:0:0:0:
166,334,129981,2,0,P|156:288|207:221,1,120,8|0,0:0|0:0,0:0:0:0:
296,150,130323,2,0,P|317:160|339:164,1,40
475,92,130495,1,0,0:0:0:0:
296,150,130666,6,0,P|323:203|336:277,1,120,0|0,3:0|0:0,0:0:0:0:
253,313,131009,2,0,P|249:285|260:253,1,47.9999985351563,0|0,3:0|0:0,0:0:0:0:
396,371,131181,1,0,0:0:0:0:
396,371,131266,1,0,0:0:0:0:
396,371,131352,6,0,P|425:320|421:229,1,143.999995605469,8|0,0:0|0:0,0:0:0:0:
510,122,131695,2,0,P|486:123|465:114,1,47.9999985351563
388,123,131866,2,0,P|364:124|343:115,1,47.9999985351563
266,113,132038,6,0,P|205:113|141:83,1,120,0|0,3:0|0:0,0:0:0:0:
151,90,132381,2,0,P|176:84|199:69,1,40,0|0,3:0|0:0,0:0:0:0:
303,18,132552,1,0,0:0:0:0:
104,203,132723,2,0,P|89:147|51:98,1,120,8|0,0:0|0:0,0:0:0:0:
0,256,133066,2,0,P|56:241|105:203,1,120
209,228,133409,6,0,L|333:273,1,120,0|0,3:0|0:0,0:0:0:0:
321,268,133752,1,0,3:0:0:0:
157,308,133923,1,0,0:0:0:0:
300,171,134095,2,0,P|292:115|280:34,1,120,8|0,0:0|0:0,0:0:0:0:
207,17,134438,2,0,L|203:-10,4,20
469,85,134781,5,0,3:0:0:0:
469,85,134952,1,0,0:0:0:0:
373,195,135123,1,0,3:0:0:0:
373,195,135295,2,0,L|389:250,1,40
462,312,135466,6,0,P|486:280|489:237,1,80,8|0,0:0|3:0,0:0:0:0:
292,280,135809,2,0,L|251:272,2,40
143,363,136152,5,0,3:0:0:0:
92,294,136495,1,2,0:3:0:0:
145,229,136752,1,2,0:3:0:0:
145,229,136838,5,2,0:3:0:0:
96,164,137009,1,2,0:3:0:0:
137,97,137181,1,2,0:3:0:0:
152,79,137266,1,2,0:3:0:0:
175,73,137352,1,2,0:3:0:0:
199,73,137438,1,2,0:3:0:0:
220,82,137523,6,0,P|265:76|317:68,1,80,0|0,3:0|0:0,0:0:0:0:
468,135,137866,1,0,3:0:0:0:
468,135,137952,1,0,0:0:0:0:
468,135,138038,1,0,0:0:0:0:
277,155,138209,6,0,P|237:161|198:166,1,80,8|0,0:0|3:0,0:0:0:0:
446,219,138552,1,0,0:0:0:0:
446,219,138724,1,0,0:0:0:0:
175,249,138894,6,0,P|215:245|254:239,1,80,0|0,3:0|0:0,0:0:0:0:
424,303,139237,1,0,3:0:0:0:
424,303,139409,1,0,0:0:0:0:
287,383,139581,6,0,P|302:347|323:300,1,80,8|0,0:0|0:0,0:0:0:0:
372,88,139923,1,0,0:0:0:0:
372,88,140266,6,0,L|339:168,1,80,0|0,3:0|0:0,0:0:0:0:
273,329,140609,1,0,3:0:0:0:
273,329,140694,1,0,0:0:0:0:
273,329,140780,1,0,0:0:0:0:
250,150,140952,6,0,L|281:77,1,80,8|0,0:0|3:0,0:0:0:0:
182,318,141295,1,0,0:0:0:0:
182,318,141380,1,0,0:0:0:0:
182,318,141466,1,0,0:0:0:0:
189,64,141638,6,0,L|159:138,1,80,0|0,3:0|0:0,0:0:0:0:
91,306,141981,1,0,3:0:0:0:
91,306,142152,1,0,0:0:0:0:
15,168,142323,6,0,L|60:188,1,40,8|0,0:0|0:0,0:0:0:0:
132,218,142495,2,0,L|177:238,1,40,0|0,3:0|0:0,0:0:0:0:
377,308,142666,1,0,0:0:0:0:
377,308,143009,6,0,P|331:313|280:322,1,80,0|0,3:0|0:0,0:0:0:0:
129,255,143352,1,0,3:0:0:0:
129,255,143438,1,0,0:0:0:0:
129,255,143524,1,0,0:0:0:0:
319,234,143695,6,0,P|358:227|398:223,1,80,8|0,0:0|3:0,0:0:0:0:
151,171,144038,1,0,0:0:0:0:
151,171,144210,1,0,0:0:0:0:
421,140,144380,6,0,P|381:144|341:150,1,80,0|0,3:0|0:0,0:0:0:0:
173,87,144723,1,0,3:0:0:0:
173,87,144895,1,0,0:0:0:0:
309,3,145066,6,0,P|292:42|273:86,1,80,8|0,0:0|3:0,0:0:0:0:
202,292,145409,2,0,L|187:323,4,20
202,292,145752,6,0,P|218:252|238:209,1,80,0|0,3:0|0:0,0:0:0:0:
283,89,146095,1,0,3:0:0:0:
283,89,146181,1,0,0:0:0:0:
283,89,146266,1,0,0:0:0:0:
140,189,146438,6,0,P|123:225|109:263,1,80,8|0,0:0|3:0,0:0:0:0:
190,60,146781,1,0,0:0:0:0:
190,60,146867,1,0,0:0:0:0:
190,60,146952,1,0,0:0:0:0:
15,232,147124,6,0,P|30:195|47:159,1,80,0|0,3:0|0:0,0:0:0:0:
97,30,147467,1,0,3:0:0:0:
190,60,147638,1,2,0:3:0:0:
283,89,147809,1,2,0:3:0:0:
376,118,148152,5,2,0:3:0:0:
469,147,148495,5,0,0:3:0:0:
83,58,159123,5,0,0:0:0:0:
95,73,159209,1,0,0:0:0:0:
101,91,159295,1,2,0:0:0:0:
102,111,159381,1,0,0:0:0:0:
97,130,159466,6,0,P|115:192|128:264,1,128,2|2,0:3|0:3,0:0:0:0:
110,270,160152,2,0,P|77:266|55:245,1,64,2|2,0:3|0:3,0:0:0:0:
139,353,160495,1,2,0:3:0:0:
204,290,160666,1,2,0:3:0:0:
274,342,160838,6,0,P|310:335|349:322,1,64,0|2,0:0|0:3,0:0:0:0:
346,318,161181,1,2,0:3:0:0:
467,224,161438,1,0,0:0:0:0:
467,224,161523,2,0,P|450:268|444:357,1,128,2|2,0:3|0:3,0:0:0:0:
263,230,162209,6,0,P|280:186|286:97,1,128,2|2,0:3|0:3,0:0:0:0:
278,100,162895,2,0,P|242:87|221:68,1,64,2|2,0:3|0:3,0:0:0:0:
353,37,163238,1,2,0:3:0:0:
353,37,163409,1,2,0:3:0:0:
369,207,163581,5,0,0:0:0:0:
433,153,163752,2,0,P|466:169|507:186,1,64,2|2,0:3|0:3,0:0:0:0:
307,258,164095,1,0,0:0:0:0:
307,258,164181,1,0,0:0:0:0:
307,258,164266,2,0,P|288:247|266:240,1,32,2|0,0:3|0:0,0:0:0:0:
247,221,164438,2,0,L|219:294,1,64,2|0,0:3|0:0,0:0:0:0:
179,151,164781,1,0,0:0:0:0:
153,164,164866,1,0,0:0:0:0:
124,161,164952,6,0,P|90:149|54:140,1,64,2|0,1:3|0:0,0:0:0:0:
65,56,165295,2,0,P|34:47|3:37,1,64,2|0,1:3|0:0,0:0:0:0:
233,236,165638,6,0,P|199:247|163:257,1,64,2|2,1:3|0:3,0:0:0:0:
174,341,165981,2,0,P|143:349|112:359,1,64,2|0,1:3|0:0,0:0:0:0:
92,369,166238,1,0,0:0:0:0:
75,364,166323,6,0,P|66:333|55:300,1,64,2|0,1:3|0:0,0:0:0:0:
174,142,166666,2,0,P|158:180|161:252,1,96,2|0,1:3|0:0,0:0:0:0:
166,251,167009,2,0,L|237:234,1,64,2|0,1:3|0:0,0:0:0:0:
259,359,167352,1,2,1:3:0:0:
387,303,167523,2,0,L|373:266,1,32
445,184,167695,5,2,1:3:0:0:
446,168,167780,1,0,0:0:0:0:
446,152,167866,1,0,0:0:0:0:
446,136,167952,1,0,0:0:0:0:
446,120,168037,1,2,1:3:0:0:
445,104,168123,1,0,0:0:0:0:
443,88,168209,1,0,0:0:0:0:
440,72,168295,1,0,0:0:0:0:
437,57,168381,6,0,L|393:51,1,32,2|0,1:3|0:0,0:0:0:0:
336,98,168552,2,0,L|292:92,1,32
262,177,168723,6,0,L|218:188,1,40,2|0,1:3|0:0,0:0:0:0:
193,48,168895,6,0,L|143:38,1,47.9999985351563
17,137,169066,6,0,B|33:178|5:219|5:219|51:222|74:271,1,167.999994873047,2|0,0:3|0:0,0:0:0:0:
151,154,169409,6,0,B|107:147|85:102|85:102|60:140|6:136,1,167.999994873047,2|0,0:0|0:0,0:0:0:0:
68,262,169752,6,0,B|95:227|145:231|145:231|124:190|155:145,1,167.999994873047,2|0,0:0|0:0,0:0:0:0:
161,163,170095,2,0,B|135:200|156:241|156:241|106:237|79:272,1,167.999994873047,2|0,0:0|0:0,0:0:0:0:
89,280,170438,2,0,B|117:245|166:249|166:249|146:208|172:172,1,167.999994873047,2|0,0:0|0:0,0:0:0:0:
182,180,170781,2,0,B|156:216|176:257|176:257|127:253|99:288,1,167.999994873047,2|0,0:0|0:0,0:0:0:0:
196,355,171123,5,0,1:0:0:0:
235,359,171209,1,0,1:0:0:0:
270,342,171295,1,4,1:0:0:0:
284,305,171381,1,0,1:0:0:0:
274,271,171466,6,0,L|332:280,1,40,0|0,1:0|0:0,0:0:0:0:
397,361,171638,6,0,L|456:350,1,47.9999985351563,0|0,1:0|0:0,0:0:0:0:
256,192,171809,12,0,173866,0:0:0:0:
132,271,174038,6,0,P|137:251|141:226,1,40,2|0,1:2|0:0,0:0:0:0:
234,135,174209,2,0,P|223:112|218:88,1,47.9999985351563,2|0,1:2|0:0,0:0:0:0:
74,146,174381,1,2,0:3:0:0:
203,332,174552,6,0,P|251:314|302:308,1,95.9999970703126,0|0,3:0|0:0,0:0:0:0:
447,204,174895,1,8,1:0:0:0:
402,372,175066,1,0,0:0:0:0:
402,372,175152,1,0,0:0:0:0:
402,372,175238,2,0,P|395:324|384:272,1,95.9999970703126,0|0,0:0|3:0,0:0:0:0:
358,99,175581,1,8,1:0:0:0:
492,191,175752,2,0,P|467:202|439:203,1,47.9999985351563,0|0,3:0|0:0,0:0:0:0:
303,169,175923,5,0,0:0:0:0:
371,267,176095,1,0,3:0:0:0:
194,310,176266,1,8,1:0:0:0:
283,174,176438,2,0,P|255:160|238:141,1,47.9999985351563
139,37,176609,5,0,3:0:0:0:
139,37,176695,1,0,0:0:0:0:
139,37,176781,2,0,L|149:100,1,47.9999985351563,2|0,0:0|0:0,0:0:0:0:
22,33,176952,2,0,L|71:-7,1,47.9999985351563,10|0,1:2|0:0,0:0:0:0:
77,136,177123,2,0,L|17:113,1,47.9999985351563
109,284,177295,6,0,P|125:243|160:191,1,95.9999970703126,0|0,3:0|0:0,0:0:0:0:
28,338,177638,1,8,1:0:0:0:
282,336,177809,1,0,0:0:0:0:
282,336,177895,1,0,0:0:0:0:
282,336,177981,2,0,P|251:304|207:279,1,95.9999970703126,0|0,0:0|3:0,0:0:0:0:
193,113,178323,1,8,1:0:0:0:
96,214,178495,2,0,P|119:211|152:202,1,47.9999985351563,0|0,3:0|0:0,0:0:0:0:
281,173,178666,5,0,0:0:0:0:
422,240,178838,1,0,3:0:0:0:
298,339,179009,1,8,1:0:0:0:
331,256,179181,1,0,0:0:0:0:
331,256,179266,1,0,0:0:0:0:
331,256,179352,2,0,L|318:204,1,47.9999985351563,0|0,3:0|0:0,0:0:0:0:
424,24,179523,6,0,P|446:39|460:67,1,47.9999985351563,2|0,3:2|0:0,0:0:0:0:
425,133,179695,2,0,P|401:144|369:142,1,47.9999985351563,10|0,1:2|0:0,0:0:0:0:
330,79,179866,2,0,P|331:52|349:26,1,47.9999985351563
512,134,180038,6,0,P|506:187|479:232,1,95.9999970703126,0|0,3:0|0:0,0:0:0:0:
342,361,180381,1,8,1:0:0:0:
343,218,180552,1,0,0:0:0:0:
343,218,180638,1,0,0:0:0:0:
343,218,180723,2,0,P|386:247|413:290,1,95.9999970703126,0|0,0:0|3:0,0:0:0:0:
238,282,181066,1,8,1:0:0:0:
291,138,181238,2,0,P|297:110|297:87,1,47.9999985351563,0|0,3:0|0:0,0:0:0:0:
201,31,181409,5,0,0:0:0:0:
167,31,181495,1,0,0:0:0:0:
135,43,181581,1,0,3:0:0:0:
116,70,181666,1,0,0:0:0:0:
110,103,181752,2,0,P|86:91|65:84,1,47.9999985351563,8|0,1:0|0:0,0:0:0:0:
174,174,181923,2,0,P|196:164|219:155,1,47.9999985351563
53,220,182095,6,0,L|65:271,3,47.9999985351563,0|0|0|0,3:0|0:0|0:0|0:0,0:0:0:0:
152,346,182438,2,0,P|155:323|164:296,1,47.9999985351563,8|0,1:0|0:0,0:0:0:0:
258,251,182609,1,0,0:0:0:0:
258,251,182695,1,0,0:0:0:0:
258,251,182781,6,0,P|305:236|344:188,1,95.9999970703126,0|0,3:0|0:0,0:0:0:0:
344,183,183038,1,0,0:0:0:0:
348,161,183123,1,8,1:0:0:0:
257,112,183295,1,0,0:0:0:0:
442,82,183466,6,0,P|444:131|455:180,1,95.9999970703126,0|0,0:0|3:0,0:0:0:0:
465,197,183723,1,0,0:0:0:0:
468,220,183809,1,8,1:0:0:0:
299,331,183981,1,0,3:0:0:0:
399,357,184152,6,0,P|397:313|371:267,1,95.9999970703126,0|0,0:0|3:0,0:0:0:0:
356,254,184409,1,0,0:0:0:0:
334,248,184495,2,0,L|356:148,1,95.9999970703126,8|0,1:0|0:0,0:0:0:0:
185,26,184838,1,0,3:0:0:0:
169,140,185009,6,0,L|209:104,1,47.9999985351563,2|0,3:2|0:0,0:0:0:0:
79,69,185181,2,0,L|90:121,1,47.9999985351563,8|0,1:2|0:0,0:0:0:0:
185,26,185352,2,0,L|133:9,1,47.9999985351563
35,188,185523,6,0,P|82:201|126:239,1,95.9999970703126,0|0,3:0|0:0,0:0:0:0:
126,248,185781,1,0,0:0:0:0:
130,268,185866,2,0,P|177:281|221:319,1,95.9999970703126,8|0,1:0|0:0,0:0:0:0:
429,308,186209,5,0,0:0:0:0:
328,363,186381,1,0,3:0:0:0:
328,363,186466,1,0,0:0:0:0:
328,363,186552,2,0,P|328:314|316:255,1,95.9999970703126,8|0,1:0|3:0,0:0:0:0:
447,122,186895,6,0,P|447:171|459:230,1,95.9999970703126,0|0,0:0|3:0,0:0:0:0:
455,217,187152,1,0,0:0:0:0:
455,217,187238,1,8,1:0:0:0:
336,144,187409,2,0,P|311:149|289:153,1,47.9999985351563
94,228,187581,5,0,3:0:0:0:
94,228,187666,1,0,0:0:0:0:
94,228,187752,2,0,L|82:176,1,47.9999985351563,2|0,0:0|0:0,0:0:0:0:
162,61,187923,2,0,L|174:113,1,47.9999985351563,10|0,1:2|0:0,0:0:0:0:
262,233,188095,1,0,0:0:0:0:
258,266,188181,1,0,0:0:0:0:
255,299,188266,1,0,3:0:0:0:
369,134,188438,6,0,L|386:186,1,47.9999985351563
401,263,188609,2,0,B|452:262|452:262|498:219,1,95.9999970703126,8|0,1:0|0:0,0:0:0:0:
274,140,188952,1,0,0:0:0:0:
487,76,189123,6,0,L|438:63,1,47.9999985351563
373,13,189295,2,0,L|268:33,1,95.9999970703126,8|0,1:0|3:0,0:0:0:0:
278,30,189552,1,0,0:0:0:0:
278,30,189638,1,0,0:0:0:0:
115,184,189809,6,0,P|100:157|95:133,1,47.9999985351563,0|0,3:0|0:0,0:0:0:0:
177,85,189981,2,0,P|201:127|204:185,1,95.9999970703126,8|0,1:0|0:0,0:0:0:0:
103,330,190323,1,0,3:0:0:0:
205,173,190495,6,0,L|257:189,1,47.9999985351563,2|0,3:2|0:0,0:0:0:0:
307,282,190666,2,0,L|371:267,1,47.9999985351563,10|0,1:2|0:0,0:0:0:0:
436,173,190838,1,0,0:0:0:0:
468,181,190923,1,0,0:0:0:0:
489,206,191009,6,0,L|521:197,2,23.9999992675781,0|0|0,3:0|0:0|0:0,0:0:0:0:
450,295,191181,2,0,L|427:252,1,47.9999985351563
343,186,191352,2,0,L|357:86,1,95.9999970703126,8|0,1:0|0:0,0:0:0:0:
230,46,191695,6,0,L|237:13,2,23.9999992675781
170,103,191866,2,0,L|184:149,1,47.9999985351563,0|0,3:0|0:0,0:0:0:0:
241,208,192038,2,0,B|201:239|201:239|139:233,1,95.9999970703126,8|0,1:0|3:0,0:0:0:0:
18,321,192381,6,0,L|11:356,2,23.9999992675781
69,260,192552,2,0,L|62:225,2,23.9999992675781,0|0|0,3:0|0:0|0:0,0:0:0:0:
124,354,192723,6,0,L|117:389,2,23.9999992675781,8|0|0,1:0|0:0|0:0,0:0:0:0:
185,246,192895,2,0,L|178:211,2,23.9999992675781
284,343,193066,6,0,L|343:331,1,47.9999985351563,0|0,3:0|0:0,0:0:0:0:
385,270,193238,2,0,L|441:261,1,47.9999985351563,0|0,3:0|0:0,0:0:0:0:
452,180,193409,6,0,L|393:168,1,47.9999985351563,8|0,1:0|0:0,0:0:0:0:
343,98,193581,2,0,L|287:89,1,47.9999985351563,0|0,3:0|0:0,0:0:0:0:
152,68,193752,5,2,0:0:0:0:
152,68,194009,2,0,P|165:109|173:162,1,90.0000034332277,2|2,0:0|0:0,0:0:0:0:
43,361,194695,2,0,P|29:319|22:267,1,90.0000034332277,2|2,0:0|0:0,0:0:0:0:
273,284,195381,2,0,L|375:310,1,90.0000034332277,2|2,0:0|0:0,0:0:0:0:
360,306,195981,2,0,L|410:296,1,40,2|0,0:0|0:0,0:0:0:0:
473,262,196152,2,0,L|523:272,1,40,2|0,0:0|0:0,0:0:0:0:
466,350,196323,1,2,0:0:0:0:
395,221,196495,5,0,3:0:0:0:
395,221,196752,2,0,P|381:165|373:99,1,120,2|2,0:0|0:0,0:0:0:0:
149,320,197438,2,0,P|119:257|78:216,1,120,2|2,0:0|0:0,0:0:0:0:
215,36,198038,2,0,L|224:4,4,20,2|0|0|0|2,0:3|0:0|0:0|0:0|0:3,0:0:0:0:
156,101,198381,1,2,0:3:0:0:
79,62,198552,5,2,0:3:0:0:
79,62,198895,1,2,0:3:0:0:
79,62,199238,1,0,0:0:0:0:
