osu file format v14

[General]
AudioFilename: audio.mp3
AudioLeadIn: 0
PreviewTime: 33113
Countdown: 0
SampleSet: Soft
StackLeniency: 0.7
Mode: 0
LetterboxInBreaks: 0
WidescreenStoryboard: 1

[Editor]
Bookmarks: 11352,22323,27809,71695,77181,88152,93638,99123,121066,126552,137523,148495,159466,164952
DistanceSpacing: 0.8
BeatDivisor: 4
GridSize: 32
TimelineZoom: 2

[Metadata]
Title:DRUM GO DUM feat. Aluna, Wolftyla, Bekuh BOOM
TitleUnicode:DRUM GO DUM feat. Aluna, Wolftyla, Bekuh BOOM
Artist:K/DA
ArtistUnicode:K/DA
Creator:Asphyxia
Version:Eli's Insane
Source:League of Legends
Tags:riot games kda kaisa just dance unlimited 2021 all out akali seraphine evelynn kai'sa league of legends english electronic ahri pandahero kyshiro flask elinor [_eli_] eli
BeatmapID:2953077
BeatmapSetID:1309412

[Difficulty]
HPDrainRate:5
CircleSize:3.8
OverallDifficulty:7.3
ApproachRate:8.8
SliderMultiplier:1.6
SliderTickRate:1

[Events]
//Background and Video events
0,0,"kda bg .jpg",0,0
//Break Periods
2,56266,65066
2,121266,125923
2,149523,158494
//Storyboard Layer 0 (Background)
//Storyboard Layer 1 (Fail)
//Storyboard Layer 2 (Pass)
//Storyboard Layer 3 (Foreground)
//Storyboard Layer 4 (Overlay)
//Storyboard Sound Samples

[TimingPoints]
381,342.857142857143,4,2,1,60,1,0
11352,-125,4,2,1,50,0,0
11609,-125,4,2,1,50,0,0
11695,-125,4,2,1,50,0,0
22323,-111.111111111111,4,2,1,50,0,0
32181,-111.111111111111,4,2,1,5,0,0
32266,-111.111111111111,4,2,1,50,0,0
32523,-111.111111111111,4,2,1,5,0,0
32609,-111.111111111111,4,2,1,50,0,0
33295,-100,4,2,1,75,0,1
38695,-100,4,2,1,75,0,1
38781,-100,4,2,1,75,0,1
55238,-125,4,2,1,60,0,0
66466,-125,4,2,1,5,0,0
66552,-125,4,2,1,60,0,0
69209,-125,4,2,1,5,0,0
69295,-125,4,2,1,60,0,0
74438,-125,4,2,1,60,0,0
76066,-125,4,2,1,5,0,0
76152,-125,4,2,1,60,0,0
76409,-125,4,2,1,60,0,0
76495,-125,4,2,1,60,0,0
76752,-125,4,2,1,60,0,0
76838,-125,4,2,1,60,0,0
77181,-111.111111111111,4,2,3,60,0,0
88152,-111.111111111111,4,2,1,60,0,0
96381,-111.111111111111,4,2,1,60,0,0
97752,-111.111111111111,4,2,1,60,0,0
98009,-111.111111111111,4,2,1,5,0,0
98094,-125,4,2,1,60,0,0
98352,-125,4,2,1,5,0,0
98438,-83.3333333333333,4,2,1,60,0,0
99123,-99.9999999999999,4,2,1,75,0,1
104523,-99.9999999999999,4,2,1,75,0,1
104609,-99.9999999999999,4,2,1,75,0,1
121066,-111.111111111111,4,2,1,60,0,0
126552,-111.111111111111,4,2,4,60,0,0
148495,-200,4,2,1,60,0,0
159123,-125,4,2,1,60,0,0
159466,-125,4,2,1,60,0,0
159723,-125,4,2,1,5,0,0
159809,-125,4,2,1,60,0,0
162466,-125,4,2,1,5,0,0
162552,-125,4,2,1,60,0,0
167695,-111.111111111111,4,2,1,60,0,0
169323,-111.111111111111,4,2,1,5,0,0
169409,-111.111111111111,4,2,1,60,0,0
170009,-111.111111111111,4,2,1,5,0,0
170095,-111.111111111111,4,2,1,60,0,0
170695,-111.111111111111,4,2,1,5,0,0
170781,-111.111111111111,4,2,1,60,0,0
171809,-111.111111111111,4,2,1,60,0,0
171895,-111.111111111111,4,2,1,5,0,0
173523,-111.111111111111,4,2,1,60,0,0
174552,-99.9999999999999,4,2,1,75,0,1
193752,-99.9999999999999,4,2,1,60,0,0
199238,-99.9999999999999,4,2,1,30,0,0

[Colours]
Combo1 : 112,215,226
Combo2 : 249,197,119
Combo3 : 218,128,234
Combo4 : 255,128,192

[HitObjects]
121,94,10666,5,0,0:0:0:0:
121,94,10838,1,0,0:0:0:0:
196,168,11009,1,0,0:0:0:0:
196,168,11181,1,0,0:0:0:0:
298,38,11352,6,0,B|343:43|329:83|373:90,1,96,4|0,3:3|0:0,0:0:0:0:
422,120,11695,2,0,L|358:148,1,64,2|2,3:2|0:0,0:0:0:0:
300,232,12038,2,0,L|364:260,1,64,8|0,0:1|0:0,0:0:0:0:
476,272,12381,5,2,3:2:0:0:
476,272,12552,2,0,L|512:148,1,128,2|0,0:0|0:0,0:0:0:0:
496,48,13066,2,0,P|460:36|436:48,1,64,2|2,3:2|0:0,0:0:0:0:
370,124,13409,1,8,0:1:0:0:
256,348,13752,2,0,B|196:340|220:284|156:276,1,128,2|0,0:0|0:0,0:0:0:0:
24,96,14438,6,0,L|88:80,1,64,2|2,3:2|0:0,0:0:0:0:
184,56,14781,1,8,0:1:0:0:
300,192,15123,1,2,3:2:0:0:
300,192,15295,2,0,P|360:192|388:136,1,128,2|0,0:0|0:0,0:0:0:0:
368,36,15810,6,0,P|336:24|308:36,1,64,2|0,3:2|0:0,0:0:0:0:
240,108,16152,1,8,0:1:0:0:
456,232,16495,2,0,L|488:104,1,128,2|0,3:2|0:0,0:0:0:0:
425,8,17009,5,0,0:0:0:0:
425,8,17181,2,0,L|365:36,1,64,0|0,3:0|0:0,0:0:0:0:
296,112,17523,2,0,L|236:84,1,64,8|0,0:1|0:0,0:0:0:0:
156,20,17866,2,0,B|100:28|128:96|68:104,1,128,0|0,3:0|0:0,0:0:0:0:
32,216,18381,5,0,3:0:0:0:
32,216,18552,2,0,P|68:216|88:236,1,64,0|0,3:0|0:0,0:0:0:0:
104,336,18895,2,0,L|232:288,1,128,8|0,0:1|0:0,0:0:0:0:
380,284,19409,5,0,0:0:0:0:
380,284,19495,1,0,0:0:0:0:
380,284,19581,2,0,P|380:254|356:228,1,64,0|0,3:0|0:0,0:0:0:0:
223,291,19923,1,0,0:0:0:0:
304,336,20095,1,0,3:0:0:0:
244,180,20266,2,0,L|184:204,1,64,8|0,0:1|0:0,0:0:0:0:
108,136,20609,2,0,L|232:84,1,128,0|2,0:0|3:0,0:0:0:0:
344,28,21123,5,2,3:0:0:0:
344,28,21295,2,0,P|376:28|400:48,1,64,2|2,3:0|3:0,0:0:0:0:
484,132,21638,1,8,0:1:0:0:
484,132,21809,1,0,0:0:0:0:
388,204,21981,1,0,3:0:0:0:
388,204,22152,1,0,0:0:0:0:
476,317,22323,6,0,L|499:249,1,71.9999978027344,0|0,3:0|0:0,0:0:0:0:
376,132,22666,2,0,L|388:204,1,71.9999978027344,0|0,3:0|0:0,0:0:0:0:
360,320,23009,2,0,B|288:300|332:256|240:232,1,143.999995605469,0|0,3:0|3:0,0:0:0:0:
24,92,23695,6,0,P|44:64|80:64,1,71.9999978027344,0|0,3:0|0:0,0:0:0:0:
160,152,24038,2,0,P|224:152|260:88,1,143.999995605469,0|0,3:0|3:0,0:0:0:0:
160,36,24552,5,2,0:0:0:0:
160,36,24723,1,2,0:0:0:0:
300,268,25066,6,0,L|376:244,1,71.9999978027344,0|0,3:0|0:0,0:0:0:0:
440,152,25409,2,0,L|344:128,1,71.9999978027344,0|0,3:0|0:0,0:0:0:0:
259,88,25752,2,0,B|327:88|307:16|375:16,1,143.999995605469,0|0,3:0|3:0,0:0:0:0:
484,72,26266,5,0,0:0:0:0:
484,72,26437,2,0,L|460:144,1,71.9999978027344,0|0,3:0|0:0,0:0:0:0:
348,176,26781,2,0,B|316:236|316:236|352:304,1,143.999995605469,0|0,3:0|3:0,0:0:0:0:
460,348,27295,5,2,0:0:0:0:
460,348,27466,1,2,0:0:0:0:
292,240,27637,5,2,0:3:0:0:
292,240,27723,1,0,0:0:0:0:
292,240,27809,2,0,P|256:240|232:264,1,71.9999978027344,0|0,3:0|0:0,0:0:0:0:
132,348,28152,2,0,P|96:348|72:324,1,71.9999978027344,0|0,3:0|0:0,0:0:0:0:
24,196,28495,2,0,L|164:144,1,143.999995605469,0|0,3:0|3:0,0:0:0:0:
296,36,29009,5,0,0:0:0:0:
296,36,29094,1,0,0:0:0:0:
296,36,29180,2,0,L|364:64,1,71.9999978027344,0|0,3:0|0:0,0:0:0:0:
452,160,29523,2,0,P|382:159|338:213,1,143.999995605469,0|0,3:0|3:0,0:0:0:0:
417,318,30038,5,2,0:0:0:0:
417,318,30209,2,0,L|386:335,3,35.9999989013672,2|0|2|2,0:0|0:0|0:3|0:3,0:0:0:0:
283,353,30552,6,0,L|251:337,3,35.9999989013672,0|0|0|0,3:0|0:0|0:0|0:0,0:0:0:0:
175,248,30895,2,0,L|211:236,3,35.9999989013672,0|0|0|0,3:0|0:0|0:0|0:0,0:0:0:0:
312,176,31237,5,0,3:0:0:0:
312,176,31323,1,0,0:0:0:0:
312,176,31409,2,0,L|303:141,1,35.9999989013672
192,72,31580,1,0,3:0:0:0:
192,72,31666,1,0,0:0:0:0:
192,72,31752,2,0,L|182:107,1,35.9999989013672
304,264,31923,6,0,P|355:263|388:220,1,107.999996704102,4|0,3:0|0:0,0:0:0:0:
424,152,32266,2,0,L|392:48,1,107.999996704102,4|0,0:3|0:0,0:0:0:0:
320,8,32609,1,2,0:0:0:0:
224,180,32780,1,2,0:3:0:0:
224,180,32866,1,2,0:3:0:0:
224,180,32952,1,0,1:0:0:0:
304,36,33123,1,0,1:0:0:0:
116,20,33295,6,0,B|52:36|88:116|16:132,1,160,4|0,0:3|0:0,0:0:0:0:
40,304,33810,5,2,0:0:0:0:
136,172,33981,2,0,P|164:144|204:144,1,80,4|0,0:3|0:0,0:0:0:0:
276,320,34324,2,0,P|236:320|208:292,1,80,0|2,0:0|0:0,0:0:0:0:
384,120,34666,6,0,P|436:120|484:212,1,160,4|0,0:3|0:0,0:0:0:0:
384,352,35181,1,2,0:0:0:0:
264,224,35353,2,0,L|283:146,1,80,4|0,0:3|0:0,0:0:0:0:
352,16,35695,1,0,0:0:0:0:
484,120,35867,1,2,0:0:0:0:
324,0,36038,6,0,B|256:8|296:84|204:96,1,160,4|0,0:3|0:0,0:0:0:0:
60,0,36553,1,2,0:0:0:0:
8,168,36724,2,0,L|27:245,1,80,4|0,0:3|0:0,0:0:0:0:
128,348,37066,2,0,L|147:270,1,80,0|2,0:0|0:0,0:0:0:0:
260,152,37409,6,0,P|336:152|372:220,1,160,4|0,0:3|0:0,0:0:0:0:
224,360,37923,1,2,0:0:0:0:
292,224,38095,1,4,0:3:0:0:
292,224,38267,1,2,0:0:0:0:
452,352,38438,2,0,B|488:304|488:304|464:248,1,120,2|0,0:0|0:0,0:0:0:0:
427,175,38781,6,0,B|391:152|343:174|364:217|324:236|292:224,1,160,4|0,0:3|0:0,0:0:0:0:
144,320,39295,1,2,0:0:0:0:
64,176,39466,2,0,P|64:144|96:108,1,80,4|0,0:3|0:0,0:0:0:0:
252,152,39809,2,0,P|224:180|184:180,1,80,0|2,0:0|0:0,0:0:0:0:
256,32,40152,6,0,B|336:32|308:112|384:112,1,160,4|0,0:3|0:0,0:0:0:0:
404,16,40667,1,2,0:0:0:0:
272,229,40838,2,0,L|251:151,1,80,4|0,0:3|0:0,0:0:0:0:
192,312,41181,1,0,0:0:0:0:
356,200,41353,1,2,0:0:0:0:
136,108,41523,6,0,B|92:124|92:124|124:236,1,160,4|0,0:3|0:0,0:0:0:0:
272,344,42038,1,2,0:0:0:0:
422,228,42210,2,0,P|394:200|354:200,1,80,4|0,0:3|0:0,0:0:0:0:
192,312,42553,1,0,0:0:0:0:
356,280,42724,1,2,0:3:0:0:
280,112,42895,6,0,B|267:146|267:146|272:156|272:156|260:189,1,80,0|0,3:0|0:0,0:0:0:0:
160,328,43238,2,0,B|149:299|149:299|152:288|152:288|140:250,1,80,0|0,1:0|0:0,0:0:0:0:
76,52,43581,1,4,0:3:0:0:
196,144,43753,1,0,0:0:0:0:
48,228,43924,1,0,0:0:0:0:
224,52,44095,5,0,0:0:0:0:
224,52,44181,1,0,0:0:0:0:
224,52,44267,2,0,B|256:32|304:52|284:92|328:113|364:104,1,160,4|0,1:3|0:0,0:0:0:0:
484,32,44781,1,0,0:0:0:0:
472,224,44953,2,0,P|432:224|404:196,1,80,0|0,1:0|0:0,0:0:0:0:
484,32,45295,2,0,P|512:52|512:96,1,80,0|0,1:0|0:0,0:0:0:0:
316,256,45638,6,0,L|283:99,1,160,4|0,1:3|0:0,0:0:0:0:
164,28,46153,1,0,0:0:0:0:
128,184,46323,2,0,L|205:205,1,80,0|0,1:0|0:0,0:0:0:0:
164,28,46666,2,0,L|88:50,1,80,0|0,1:0|0:0,0:0:0:0:
32,104,46923,5,0,0:0:0:0:
32,104,47010,2,0,P|-4:176|32:240,1,160,4|0,1:3|0:0,0:0:0:0:
152,344,47524,1,0,0:0:0:0:
205,205,47695,2,0,P|233:177|273:177,1,80,0|0,1:0|0:0,0:0:0:0:
344,332,48038,2,0,P|304:332|280:304,1,80,0|0,1:0|0:0,0:0:0:0:
452,184,48381,6,0,B|500:220|500:220|456:312,1,160,4|0,1:3|0:0,0:0:0:0:
344,332,48895,1,0,0:0:0:0:
272,212,49067,2,0,L|349:191,1,80,0|0,1:0|0:0,0:0:0:0:
496,80,49409,2,0,L|418:59,1,80,0|0,1:0|0:0,0:0:0:0:
240,32,49752,6,0,P|176:32|144:120,1,160,4|0,1:3|0:0,0:0:0:0:
280,224,50267,1,0,0:0:0:0:
196,340,50438,2,0,P|156:340|128:312,1,80,0|0,1:0|0:0,0:0:0:0:
254,155,50781,2,0,P|278:179|278:227,1,80,0|0,1:0|0:0,0:0:0:0:
64,352,51123,6,0,B|24:284|24:284|64:212,1,160,4|0,1:3|0:0,0:0:0:0:
244,132,51638,1,0,0:0:0:0:
336,316,51810,2,0,L|256:296,1,80,0|0,1:0|0:0,0:0:0:0:
166,151,52153,2,0,L|246:131,1,80,0|0,1:0|0:0,0:0:0:0:
328,124,52409,5,0,0:0:0:0:
328,124,52495,2,0,B|363:109|407:137|381:173|420:202|455:199,1,160,4|0,1:3|0:0,0:0:0:0:
312,224,53010,1,0,0:0:0:0:
464,120,53181,2,0,L|481:42,1,80,0|0,1:0|0:0,0:0:0:0:
312,224,53523,2,0,L|329:302,1,80,0|0,1:0|0:0,0:0:0:0:
284,56,53866,6,0,B|249:41|205:69|231:105|192:134|157:131,1,160,4|0,1:3|0:0,0:0:0:0:
12,48,54381,1,0,0:0:0:0:
8,224,54553,2,0,L|85:204,1,80,0|0,1:0|0:0,0:0:0:0:
204,328,54895,2,0,L|126:308,1,80
256,192,55238,5,4,0:0:0:0:
228,320,65695,5,0,0:0:0:0:
160,264,65866,1,2,0:0:0:0:
160,264,66038,1,2,0:0:0:0:
256,192,66209,6,0,B|304:184|300:232|344:224,1,96,2|0,0:3|0:0,0:0:0:0:
416,220,66552,1,2,0:3:0:0:
348,0,66895,2,0,L|284:32,1,64,2|2,0:3|0:3,0:0:0:0:
176,16,67238,5,0,0:0:0:0:
176,16,67409,2,0,B|124:16|140:92|84:92,1,128,2|2,0:3|0:3,0:0:0:0:
16,188,67923,2,0,L|44:280,1,96,2|0,0:3|0:0,0:0:0:0:
80,352,68266,2,0,L|140:332,1,64,2|0,0:3|0:0,0:0:0:0:
164,232,68609,5,2,0:3:0:0:
252,8,68952,2,0,B|296:0|296:48|340:40,1,96,2|0,0:3|0:0,0:0:0:0:
416,32,69295,1,2,0:3:0:0:
512,248,69638,2,0,L|495:313,1,64,2|2,0:3|0:3,0:0:0:0:
392,360,69981,2,0,L|377:297,1,64,2|2,0:3|0:3,0:0:0:0:
360,180,70323,6,0,L|422:164,1,64,0|2,0:0|0:3,0:0:0:0:
416,32,70666,2,0,P|396:12|360:12,1,64,2|0,0:3|0:0,0:0:0:0:
292,52,70924,1,0,0:0:0:0:
292,52,71009,2,0,P|272:72|236:72,1,64,2|2,0:3|0:3,0:0:0:0:
148,24,71352,1,0,0:0:0:0:
288,160,71524,5,0,0:0:0:0:
288,160,71609,1,0,0:0:0:0:
288,160,71695,2,0,B|272:224,1,64,0|0,1:0|0:0,0:0:0:0:
184,300,72038,2,0,B|168:237,1,64,10|0,1:3|0:0,0:0:0:0:
224,100,72381,1,0,0:0:0:0:
224,100,72552,1,0,0:0:0:0:
348,248,72723,2,0,L|412:232,1,64,2|0,1:3|0:0,0:0:0:0:
456,164,72981,5,0,0:0:0:0:
456,164,73066,2,0,L|392:148,1,64
296,48,73409,2,0,P|316:24|347:25,1,64,2|0,1:3|0:0,0:0:0:0:
236,140,73752,2,0,P|205:140|185:116,1,64,2|0,1:3|0:0,0:0:0:0:
72,48,74095,2,0,P|91:24|122:24,1,64,2|0,1:3|0:0,0:0:0:0:
92,192,74438,6,0,L|99:223,3,32,0|0|0|0,1:0|0:0|0:0|0:0,0:0:0:0:
220,304,74781,2,0,L|227:272,3,32,2|0|0|0,1:3|0:0|0:0|0:0,0:0:0:0:
272,132,75124,2,0,L|303:139,3,32,0|0|0|0,1:0|0:0|0:0|0:0,0:0:0:0:
376,252,75466,2,0,L|344:244,3,32,2|0|0|0,1:3|0:0|0:0|0:0,0:0:0:0:
488,168,75809,6,0,B|516:128|516:128|488:88,1,96,2|0,0:3|0:0,0:0:0:0:
434,31,76152,2,0,B|394:31|406:79|354:79,1,96,2|0,0:3|0:0,0:0:0:0:
303,139,76495,2,0,L|395:171,1,96
467,201,76838,1,0,0:0:0:0:
192,352,77181,6,0,P|168:328|168:288,1,71.9999978027344,0|0,3:0|0:0,0:0:0:0:
296,216,77524,2,0,L|319:210,3,23.9999992675781,0|0|0|0,3:0|0:0|0:0|0:0,0:0:0:0:
192,104,77867,1,8,0:0:0:0:
192,104,78039,1,0,3:0:0:0:
316,24,78209,2,0,L|389:42,1,71.9999978027344,0|8,0:0|0:0,0:0:0:0:
472,160,78552,6,0,L|402:177,1,71.9999978027344,0|0,3:0|0:0,0:0:0:0:
296,280,78895,1,0,3:0:0:0:
296,280,79066,1,0,0:0:0:0:
428,352,79238,2,0,L|445:282,1,71.9999978027344,8|0,0:0|3:0,0:0:0:0:
368,156,79581,2,0,L|344:160,4,17.9999994506836,0|0|0|0|8,0:0|0:0|0:0|0:0|0:0,0:0:0:0:
504,92,79923,5,0,3:0:0:0:
504,92,80095,1,0,0:0:0:0:
368,28,80266,2,0,L|362:51,3,23.9999992675781,0|0|0|0,3:0|0:0|0:0|0:0,0:0:0:0:
224,12,80609,2,0,L|154:29,1,71.9999978027344,8|0,0:0|3:0,0:0:0:0:
56,136,80952,2,0,L|33:130,3,23.9999992675781,0|0|0|8,0:0|0:0|0:0|0:0,0:0:0:0:
184,216,81295,6,0,L|165:289,1,71.9999978027344,0|0,3:0|0:0,0:0:0:0:
36,352,81638,2,0,L|18:282,1,71.9999978027344,0|0,3:0|0:0,0:0:0:0:
32,232,81895,1,0,0:0:0:0:
32,232,81981,2,0,L|101:214,1,71.9999978027344,8|0,0:0|3:0,0:0:0:0:
240,272,82323,1,0,0:0:0:0:
240,272,82495,1,8,0:0:0:0:
352,176,82666,6,0,L|334:106,1,71.9999978027344,0|0,3:0|0:0,0:0:0:0:
200,48,83009,2,0,L|195:71,3,23.9999992675781,0|0|0|0,3:0|0:0|0:0|0:0,0:0:0:0:
336,0,83352,1,8,0:0:0:0:
336,0,83523,2,0,B|369:-16|409:3|394:35|430:52|464:46,1,143.999995605469,0|8,3:0|0:0,0:0:0:0:
512,184,84038,6,0,L|494:253,1,71.9999978027344,0|0,3:0|0:0,0:0:0:0:
380,348,84381,2,0,L|361:274,1,71.9999978027344,0|0,3:0|0:0,0:0:0:0:
288,152,84723,1,8,0:0:0:0:
288,152,84895,2,0,B|254:136|214:155|229:187|193:204|159:198,1,143.999995605469,0|8,3:0|0:0,0:0:0:0:
36,124,85409,5,0,3:0:0:0:
36,124,85581,1,0,0:0:0:0:
161,46,85752,2,0,L|183:51,3,23.9999992675781,0|0|0|0,3:0|0:0|0:0|0:0,0:0:0:0:
40,140,86095,2,0,L|56:212,1,71.9999978027344,8|0,0:0|3:0,0:0:0:0:
168,304,86438,2,0,L|176:269,3,35.9999989013672,0|0|8|0,0:0|0:0|0:0|0:0,0:0:0:0:
188,220,86781,6,0,P|215:201|252:201,1,71.9999978027344
324,296,87123,2,0,P|350:318|386:318,1,71.9999978027344
484,228,87466,1,2,0:3:0:0:
484,228,87638,1,2,0:3:0:0:
376,156,87809,1,2,0:3:0:0:
376,156,87981,1,2,0:3:0:0:
488,32,88152,6,0,L|476:104,1,71.9999978027344,0|0,3:0|0:0,0:0:0:0:
387,227,88495,2,0,L|375:155,1,71.9999978027344,0|0,3:0|0:0,0:0:0:0:
304,40,88838,2,0,B|270:24|230:43|245:75|209:92|175:86,1,143.999995605469,0|0,3:0|3:0,0:0:0:0:
48,344,89523,6,0,L|120:328,1,71.9999978027344,0|0,3:0|0:0,0:0:0:0:
204,248,89866,2,0,B|132:248|164:180|84:180,1,143.999995605469,0|0,3:0|3:0,0:0:0:0:
12,272,90381,5,2,0:0:0:0:
12,272,90552,1,2,0:0:0:0:
272,348,90895,6,0,P|308:336|344:328,1,71.9999978027344,0|0,3:0|0:0,0:0:0:0:
420,244,91238,2,0,P|384:235|350:224,1,71.9999978027344,0|0,3:0|0:0,0:0:0:0:
284,124,91581,2,0,P|312:72|388:80,1,143.999995605469,0|0,3:0|3:0,0:0:0:0:
476,160,92095,5,0,0:0:0:0:
476,160,92266,2,0,L|456:232,1,71.9999978027344,0|0,3:0|0:0,0:0:0:0:
400,332,92609,2,0,B|336:320|360:256|288:248,1,143.999995605469,0|0,3:0|3:0,0:0:0:0:
196,320,93123,5,2,0:0:0:0:
196,320,93295,1,2,0:0:0:0:
80,244,93466,5,2,0:3:0:0:
80,244,93552,1,2,0:3:0:0:
80,244,93638,2,0,P|88:200|92:172,1,71.9999978027344,0|0,3:0|0:0,0:0:0:0:
200,96,93981,2,0,P|205:131|211:166,1,71.9999978027344,0|0,3:0|0:0,0:0:0:0:
296,268,94323,2,0,B|330:252|370:271|355:303|391:320|425:314,1,143.999995605469,0|0,3:0|3:0,0:0:0:0:
480,196,94838,5,0,0:0:0:0:
480,196,94923,1,0,0:0:0:0:
480,196,95009,2,0,L|408:176,1,71.9999978027344,0|0,3:0|0:0,0:0:0:0:
320,80,95352,2,0,P|372:36|432:72,1,143.999995605469,0|0,3:0|0:0,0:0:0:0:
480,196,95866,5,2,0:0:0:0:
480,196,96038,2,0,L|471:230,3,35.9999989013672,2|0|2|2,0:0|0:0|0:3|0:3,0:0:0:0:
332,160,96381,6,0,L|297:168,3,35.9999989013672,0|0|0|0,3:0|0:0|0:0|0:0,0:0:0:0:
225,280,96723,2,0,L|260:292,3,35.9999989013672,0|0|0|0,3:0|0:0|0:0|0:0,0:0:0:0:
152,156,97066,5,0,3:0:0:0:
152,156,97152,1,0,0:0:0:0:
152,156,97238,2,0,L|147:193,1,35.9999989013672
56,288,97409,1,0,3:0:0:0:
56,288,97495,1,0,0:0:0:0:
56,288,97581,2,0,L|48:252,1,35.9999989013672
20,96,97752,6,0,L|117:47,1,107.999996704102,4|0,0:3|0:0,0:0:0:0:
189,14,98095,2,0,B|234:15|219:60|267:60,1,96,4|0,0:3|0:0,0:0:0:0:
342,40,98438,1,2,0:0:0:0:
280,216,98609,1,2,0:3:0:0:
280,216,98695,1,2,0:3:0:0:
280,216,98781,1,0,1:0:0:0:
404,160,98952,1,0,1:0:0:0:
196,92,99123,6,0,B|152:116|152:116|180:228,1,160,4|0,0:3|0:0,0:0:0:0:
232,348,99638,1,2,0:0:0:0:
296,248,99809,2,0,P|328:224|368:224,1,80,4|2,0:3|0:0,0:0:0:0:
472,356,100152,2,0,P|432:356|400:328,1,80,0|2,0:0|0:0,0:0:0:0:
452,112,100495,6,0,P|512:144|512:228,1,160,4|0,0:3|0:0,0:0:0:0:
402,331,101009,1,2,0:0:0:0:
248,348,101181,2,0,L|168:332,1,80,4|0,0:3|0:0,0:0:0:0:
112,144,101523,1,0,0:0:0:0:
256,268,101695,1,2,0:0:0:0:
64,348,101866,6,0,B|24:324|24:324|48:212,1,160,4|0,0:3|0:0,0:0:0:0:
160,76,102381,1,2,0:0:0:0:
240,216,102552,2,0,L|320:232,1,80,4|2,0:3|0:0,0:0:0:0:
392,68,102895,2,0,L|312:84,1,80,0|2,0:0|0:0,0:0:0:0:
444,296,103238,6,0,L|468:136,1,160,4|0,0:3|0:0,0:0:0:0:
336,12,103752,1,2,0:0:0:0:
272,184,103923,1,4,0:3:0:0:
272,184,104095,1,2,0:0:0:0:
152,20,104266,2,0,L|36:60,1,120
12,104,104609,6,0,B|48:81|96:103|75:146|115:165|147:153,1,160,4|0,0:3|0:0,0:0:0:0:
320,104,105123,1,0,0:0:0:0:
192,16,105295,2,0,L|208:96,1,80,4|2,0:3|0:0,0:0:0:0:
288,260,105638,2,0,L|303:181,1,80,0|2,0:0|0:0,0:0:0:0:
388,32,105981,6,0,P|460:32|488:108,1,160,4|0,0:3|0:0,0:0:0:0:
476,248,106495,1,2,0:0:0:0:
384,352,106666,2,0,L|368:272,1,80,4|0,0:3|0:0,0:0:0:0:
332,112,107009,1,0,0:0:0:0:
232,288,107181,1,2,0:0:0:0:
164,108,107352,6,0,B|132:88|84:108|104:148|60:169|24:160,1,160,4|0,0:3|0:0,0:0:0:0:
16,56,107866,1,2,0:0:0:0:
152,188,108038,2,0,L|132:265,1,80,4|0,0:3|0:0,0:0:0:0:
8,356,108381,1,0,0:0:0:0:
36,188,108552,1,2,0:0:0:0:
188,352,108723,6,0,B|220:348|220:348|232:340|232:340|268:336,1,80,0|2,3:0|0:0,0:0:0:0:
376,240,109066,2,0,B|344:236|344:236|331:227|331:227|296:224,1,80,0|2,0:0|0:0,0:0:0:0:
212,28,109409,1,4,0:3:0:0:
380,148,109581,1,0,1:0:0:0:
185,187,109752,1,0,1:0:0:0:
352,32,109923,5,0,1:0:0:0:
352,32,110009,1,0,0:0:0:0:
352,32,110095,2,0,B|384:12|432:32|412:72|456:93|492:84,1,160,4|0,1:3|0:0,0:0:0:0:
512,228,110609,1,0,0:0:0:0:
416,332,110781,2,0,P|380:348|344:332,1,80,0|0,1:0|0:0,0:0:0:0:
292,172,111123,2,0,P|328:172|360:200,1,80,0|0,1:0|0:0,0:0:0:0:
204,348,111466,6,0,B|164:320|164:320|192:212,1,160,4|0,1:3|0:0,0:0:0:0:
296,92,111981,1,0,0:0:0:0:
164,28,112152,2,0,P|126:40|88:50,1,80,0|0,1:0|0:0,0:0:0:0:
20,180,112495,2,0,P|58:189|97:201,1,80,0|0,1:0|0:0,0:0:0:0:
264,20,112838,6,0,L|240:180,1,160,4|0,1:3|0:0,0:0:0:0:
280,360,113352,1,0,0:0:0:0:
456,296,113523,2,0,P|419:287|378:278,1,80,0|0,1:0|0:0,0:0:0:0:
276,192,113866,2,0,P|315:183|354:174,1,80,0|0,1:0|0:0,0:0:0:0:
488,40,114209,6,0,B|456:20|408:40|428:80|384:101|350:92,1,160,4|0,1:3|0:0,0:0:0:0:
240,20,114723,1,0,0:0:0:0:
200,180,114895,2,0,L|187:261,1,80,4|0,1:3|0:0,0:0:0:0:
64,319,115238,2,0,L|51:238,1,80
44,112,115581,6,0,B|76:72|76:72|184:104,1,160,4|0,1:3|0:0,0:0:0:0:
348,216,116095,1,0,0:0:0:0:
208,308,116266,2,0,L|220:224,1,80,0|0,1:0|0:0,0:0:0:0:
312,64,116609,2,0,L|328:144,1,80,0|0,1:0|0:0,0:0:0:0:
388,312,116952,6,0,P|460:312|496:240,1,160,4|0,1:3|0:0,0:0:0:0:
512,112,117466,1,0,0:0:0:0:
412,24,117638,2,0,L|332:44,1,80,0|0,1:0|0:0,0:0:0:0:
224,156,117981,2,0,L|304:176,1,80,0|0,1:0|0:0,0:0:0:0:
188,36,118323,6,0,B|153:21|109:49|135:85|96:114|61:111,1,160,4|0,1:3|0:0,0:0:0:0:
36,12,118838,1,0,0:0:0:0:
24,188,119009,2,0,L|41:268,1,80,0|0,1:0|0:0,0:0:0:0:
140,360,119352,2,0,L|156:281,1,80,0|0,1:0|0:0,0:0:0:0:
188,140,119695,6,0,B|243:149|243:149|268:190|268:190|323:200,1,160,4|0,1:3|0:0,0:0:0:0:
436,124,120209,1,0,0:0:0:0:
304,32,120381,2,0,P|316:80|324:112,1,80,0|0,1:0|0:0,0:0:0:0:
400,288,120723,2,0,P|412:240|420:208,1,80,0|0,1:0|0:0,0:0:0:0:
464,32,121066,5,4,0:3:0:0:
464,32,126552,6,0,B|504:56|504:56|476:156,1,143.999995605469,0|0,3:0|3:0,0:0:0:0:
471,166,126981,1,0,0:0:0:0:
465,182,127066,1,0,0:0:0:0:
344,104,127238,2,0,P|316:84|280:84,1,71.9999978027344,8|0,0:0|3:0,0:0:0:0:
200,228,127581,2,0,P|236:228|264:204,1,71.9999978027344
184,56,127923,6,0,L|104:80,1,71.9999978027344,0|0,3:0|0:0,0:0:0:0:
20,176,128266,1,0,3:0:0:0:
20,176,128438,1,0,0:0:0:0:
108,292,128609,2,0,L|124:216,1,71.9999978027344,8|0,0:0|3:0,0:0:0:0:
216,128,128952,2,0,L|231:198,1,71.9999978027344
296,336,129295,6,0,L|368:320,1,71.9999978027344,0|0,3:0|0:0,0:0:0:0:
492,292,129638,1,0,3:0:0:0:
492,292,129723,1,0,0:0:0:0:
492,292,129809,1,0,0:0:0:0:
452,168,129981,2,0,P|428:152|384:152,1,71.9999978027344,8|0,0:0|3:0,0:0:0:0:
296,240,130323,2,0,P|272:260|232:260,1,71.9999978027344
124,212,130666,6,0,B|116:136,1,71.9999978027344,0|0,3:0|0:0,0:0:0:0:
216,36,131009,1,0,3:0:0:0:
276,164,131181,1,0,0:0:0:0:
276,164,131266,1,0,0:0:0:0:
276,164,131352,2,0,L|344:140,1,71.9999978027344,8|0,0:0|3:0,0:0:0:0:
480,64,131695,2,0,L|411:40,1,71.9999978027344
280,19,132038,6,0,B|247:3|207:22|222:54|186:71|152:65,1,143.999995605469,0|0,3:0|3:0,0:0:0:0:
138,61,132466,1,0,0:0:0:0:
123,54,132552,1,0,0:0:0:0:
36,166,132723,2,0,L|52:238,1,71.9999978027344,8|0,0:0|3:0,0:0:0:0:
153,337,133066,2,0,L|168:266,1,71.9999978027344
260,157,133409,6,0,P|289:143|325:156,1,71.9999978027344,0|0,3:0|0:0,0:0:0:0:
422,261,133752,1,0,3:0:0:0:
422,261,133923,1,0,0:0:0:0:
312,348,134095,2,0,L|296:278,1,71.9999978027344,8|0,0:0|3:0,0:0:0:0:
466,111,134438,2,0,L|447:181,1,71.9999978027344
248,60,134781,6,0,B|301:70|301:15|347:28,1,107.999996704102,0|0,3:0|0:0,0:0:0:0:
376,68,135123,2,0,L|364:140,1,71.9999978027344,0|0,3:0|0:0,0:0:0:0:
280,268,135466,1,8,0:0:0:0:
280,268,135638,1,0,3:0:0:0:
184,140,135809,2,0,P|149:151|115:160,1,71.9999978027344
20,260,136152,6,0,P|55:270|89:281,1,71.9999978027344,0|0,3:0|0:0,0:0:0:0:
184,140,136495,1,2,0:3:0:0:
240,312,136666,1,0,0:0:0:0:
240,312,136752,1,2,0:3:0:0:
240,312,136838,2,0,L|273:303,1,35.9999989013672,2|0,0:3|0:0,0:0:0:0:
368,184,137009,1,2,0:3:0:0:
368,184,137095,1,0,0:0:0:0:
368,184,137181,2,0,L|333:175,3,35.9999989013672,2|2|2|2,0:3|0:3|0:3|0:3,0:0:0:0:
512,108,137523,6,0,P|512:68|484:48,1,71.9999978027344,0|0,3:0|0:0,0:0:0:0:
356,12,137866,2,0,L|332:20,3,23.9999992675781,0|0|0|0,3:0|0:0|0:0|0:0,0:0:0:0:
432,112,138209,1,8,0:0:0:0:
432,112,138381,1,0,3:0:0:0:
368,228,138552,6,0,B|300:220|328:152|260:144,1,143.999995605469,0|0,0:0|3:0,0:0:0:0:
260,144,139066,1,0,0:0:0:0:
168,240,139238,2,0,P|108:240|76:168,1,143.999995605469,0|8,3:0|0:0,0:0:0:0:
132,52,139752,1,0,0:0:0:0:
132,52,139923,1,0,0:0:0:0:
484,36,140266,6,0,L|466:105,1,71.9999978027344,0|0,3:0|0:0,0:0:0:0:
364,192,140609,2,0,L|355:157,3,23.9999992675781,0|0|0|0,3:0|0:0|0:0|0:0,0:0:0:0:
456,288,140952,1,8,0:0:0:0:
456,288,141123,1,0,3:0:0:0:
336,348,141295,6,0,L|196:300,1,143.999995605469,0|0,0:0|3:0,0:0:0:0:
200,302,141809,1,0,0:0:0:0:
232,172,141981,2,0,P|300:156|336:216,1,143.999995605469,0|8,3:0|0:0,0:0:0:0:
332,344,142495,1,0,3:0:0:0:
332,344,142666,1,0,0:0:0:0:
32,176,143009,6,0,L|14:106,1,71.9999978027344,0|0,3:0|0:0,0:0:0:0:
104,36,143352,2,0,L|136:44,3,23.9999992675781,0|0|0|0,3:0|0:0|0:0|0:0,0:0:0:0:
144,172,143695,1,8,0:0:0:0:
144,172,143866,1,0,3:0:0:0:
252,92,144038,6,0,B|324:92|304:164|368:164,1,143.999995605469,0|0,0:0|3:0,0:0:0:0:
367,163,144552,1,0,0:0:0:0:
240,188,144723,2,0,B|208:248|208:248|239:319,1,143.999995605469,0|8,3:0|0:0,0:0:0:0:
368,352,145238,1,0,3:0:0:0:
368,352,145409,2,0,L|392:344,3,23.9999992675781
472,240,145752,6,0,L|402:222,1,71.9999978027344,0|0,3:0|0:0,0:0:0:0:
316,120,146095,2,0,L|340:112,3,23.9999992675781,0|0|0|0,3:0|0:0|0:0|0:0,0:0:0:0:
456,160,146438,1,8,0:0:0:0:
456,160,146609,1,0,3:0:0:0:
339,273,146781,2,0,B|279:261|307:197|235:185,1,143.999995605469,0|0,0:0|3:0,0:0:0:0:
126,84,147295,6,0,L|106:92,4,17.9999994506836,0|0|0|0|0,0:0|0:0|0:0|0:0|3:0,0:0:0:0:
220,16,147638,1,2,0:3:0:0:
220,16,147809,2,0,L|292:40,1,71.9999978027344,2|0,0:3|0:0,0:0:0:0:
328,168,148152,2,0,L|396:144,1,71.9999978027344,2|0,0:3|0:0,0:0:0:0:
492,32,148495,5,0,0:3:0:0:
72,216,159123,6,0,L|104:200,3,32,0|0|2|0,0:0|0:0|0:0|0:0,0:0:0:0:
8,160,159466,6,0,P|-8:120|20:76,1,96,2|0,0:3|0:0,0:0:0:0:
76,24,159809,1,2,0:3:0:0:
224,184,160152,2,0,L|284:164,1,64,2|2,0:3|0:3,0:0:0:0:
352,64,160495,1,2,0:3:0:0:
352,64,160666,2,0,B|408:64|396:132|456:132,1,128,2|2,0:3|0:3,0:0:0:0:
416,248,161181,6,0,L|392:344,1,96,2|0,0:3|0:0,0:0:0:0:
316,352,161523,2,0,L|253:336,1,64,2|0,0:3|0:0,0:0:0:0:
156,304,161866,1,2,0:3:0:0:
76,104,162209,2,0,P|104:68|152:68,1,96,2|0,0:3|0:0,0:0:0:0:
208,120,162552,1,2,0:3:0:0:
304,308,162895,2,0,L|367:292,1,64,2|2,0:3|0:3,0:0:0:0:
404,184,163238,2,0,L|341:168,1,64,2|2,0:3|0:3,0:0:0:0:
272,72,163581,6,0,L|334:56,1,64,0|2,0:0|0:3,0:0:0:0:
448,28,163923,2,0,L|464:93,1,64,2|0,0:3|0:0,0:0:0:0:
500,160,164181,1,0,0:0:0:0:
500,160,164266,2,0,L|483:225,1,64,2|2,0:3|0:3,0:0:0:0:
440,332,164609,1,0,0:0:0:0:
320,272,164781,5,0,0:0:0:0:
320,272,164866,1,0,0:0:0:0:
320,272,164952,2,0,B|280:272|280:316|236:316,1,96,2|0,1:3|0:0,0:0:0:0:
168,348,165295,2,0,L|108:328,1,64,2|0,1:3|0:0,0:0:0:0:
12,232,165638,1,2,1:3:0:0:
12,232,165809,1,2,0:3:0:0:
128,148,165981,2,0,L|143:210,1,64,2|0,1:3|0:0,0:0:0:0:
212,252,166238,5,0,0:0:0:0:
212,252,166323,2,0,L|227:189,1,64,2|0,1:3|0:0,0:0:0:0:
256,56,166666,2,0,P|280:36|312:36,1,64,2|0,1:3|0:0,0:0:0:0:
407,180,167009,2,0,P|376:180|352:160,1,64,2|0,1:3|0:0,0:0:0:0:
252,52,167352,2,0,P|276:32|308:32,1,64,2|0,1:3|0:0,0:0:0:0:
420,64,167695,6,0,L|408:100,3,35.9999989013672,2|0|0|0,1:3|0:0|0:0|0:0,0:0:0:0:
284,144,168038,2,0,L|292:180,3,35.9999989013672,2|0|0|0,1:3|0:0|0:0|0:0,0:0:0:0:
448,208,168381,2,0,L|484:196,3,35.9999989013672,2|0|0|0,1:3|0:0|0:0|0:0,0:0:0:0:
400,336,168723,2,0,L|367:324,3,35.9999989013672,2|0|0|0,1:3|0:0|0:0|0:0,0:0:0:0:
280,288,169066,6,0,B|228:288|252:348|196:348,1,107.999996704102,2|0,0:3|0:0,0:0:0:0:
128,312,169409,1,2,0:0:0:0:
0,116,169752,6,0,L|116:72,1,107.999996704102,2|0,0:0|0:0,0:0:0:0:
176,52,170095,1,2,0:0:0:0:
420,16,170438,6,0,P|472:16|500:60,1,107.999996704102,2|0,0:0|0:0,0:0:0:0:
500,136,170781,1,2,0:0:0:0:
304,284,171123,5,0,1:0:0:0:
304,284,171209,1,0,1:0:0:0:
304,284,171294,1,4,1:0:0:0:
204,96,171466,1,0,1:0:0:0:
159,240,171637,1,0,1:0:0:0:
348,140,171809,1,0,3:0:0:0:
256,192,171895,12,2,173523,0:0:0:0:
348,140,174038,5,2,1:2:0:0:
159,240,174209,1,2,1:2:0:0:
304,284,174381,1,2,0:3:0:0:
204,96,174552,6,0,L|128:124,1,80,0|0,3:0|0:0,0:0:0:0:
56,276,174895,2,0,P|100:344|172:344,1,160,8|0,1:0|0:0,0:0:0:0:
264,152,175409,1,0,3:0:0:0:
144,256,175581,1,8,1:0:0:0:
304,344,175752,2,0,L|323:266,1,80,0|0,3:0|0:0,0:0:0:0:
428,116,176095,5,0,3:0:0:0:
511,336,176266,2,0,L|434:311,1,80,8|0,1:0|0:0,0:0:0:0:
422,305,176523,1,0,0:0:0:0:
410,300,176609,1,0,3:0:0:0:
456,139,176781,1,2,0:0:0:0:
268,295,176952,2,0,P|252:261|268:225,1,80,10|0,1:2|0:0,0:0:0:0:
356,201,177209,5,0,0:0:0:0:
356,201,177295,2,0,L|436:221,1,80,0|0,3:0|0:0,0:0:0:0:
428,64,177638,2,0,B|400:44|352:64|364:100|324:120|286:99,1,160,8|0,1:0|0:0,0:0:0:0:
308,28,178152,1,0,3:0:0:0:
356,239,178323,2,0,L|436:219,1,80,8|0,1:0|3:0,0:0:0:0:
308,28,178666,5,0,0:0:0:0:
280,216,178838,1,0,3:0:0:0:
504,132,179009,2,0,P|504:90|480:63,1,80,8|0,1:0|0:0,0:0:0:0:
296,120,179352,1,0,3:0:0:0:
457,208,179523,1,2,3:2:0:0:
384,6,179695,2,0,L|306:28,1,80,10|0,1:2|0:0,0:0:0:0:
168,160,180038,6,0,L|243:187,1,80,0|0,3:0|0:0,0:0:0:0:
60,24,180381,2,0,B|12:48|12:48|36:152,1,160,8|0,1:0|0:0,0:0:0:0:
96,316,180895,1,0,3:0:0:0:
168,160,181066,2,0,P|195:136|238:136,1,80,8|0,1:0|3:0,0:0:0:0:
324,320,181409,6,0,P|284:320|254:293,1,80,0|0,0:0|3:0,0:0:0:0:
352,128,181752,2,0,L|360:168,3,40,8|0|0|0,1:0|0:0|0:0|0:0,0:0:0:0:
456,264,182095,1,0,3:0:0:0:
456,264,182181,1,0,0:0:0:0:
456,264,182266,2,0,L|468:226,1,40
488,76,182438,1,8,1:0:0:0:
488,76,182523,1,0,0:0:0:0:
488,76,182609,2,0,L|450:65,1,40
291,32,182781,6,0,L|278:113,1,80,0|0,3:0|0:0,0:0:0:0:
248,292,183123,2,0,B|176:268|176:372|108:344,1,160,8|0,1:0|0:0,0:0:0:0:
72,124,183638,1,0,3:0:0:0:
220,212,183810,1,8,1:0:0:0:
40,296,183981,2,0,L|20:218,1,80,0|0,3:0|0:0,0:0:0:0:
98,46,184324,5,0,3:0:0:0:
220,212,184495,2,0,L|297:192,1,80,8|0,1:0|0:0,0:0:0:0:
416,64,184838,1,0,3:0:0:0:
244,104,185010,1,2,3:2:0:0:
400,272,185181,2,0,L|419:194,1,80,8|0,1:2|0:0,0:0:0:0:
424,24,185524,6,0,P|388:8|348:20,1,80,0|0,3:0|0:0,0:0:0:0:
224,80,185866,2,0,B|180:116|180:116|220:212,1,160,8|0,1:0|0:0,0:0:0:0:
336,344,186381,1,0,3:0:0:0:
488,188,186552,2,0,P|462:161|422:161,1,80,8|0,1:0|3:0,0:0:0:0:
308,324,186895,5,0,0:0:0:0:
476,268,187067,1,0,3:0:0:0:
328,130,187238,2,0,L|308:212,1,80,8|0,1:0|0:0,0:0:0:0:
284,352,187581,1,0,3:0:0:0:
200,160,187752,1,2,0:0:0:0:
96,352,187924,2,0,L|18:329,1,80,10|0,1:2|0:0,0:0:0:0:
0,250,188181,5,0,0:0:0:0:
0,250,188267,2,0,L|77:225,1,80,0|0,3:0|0:0,0:0:0:0:
280,104,188609,2,0,P|224:56|148:80,1,160,8|0,1:0|0:0,0:0:0:0:
204,188,189124,1,0,0:0:0:0:
73,11,189295,2,0,P|50:35|50:81,1,80,8|0,1:0|3:0,0:0:0:0:
57,94,189552,1,0,0:0:0:0:
65,107,189638,1,0,0:0:0:0:
149,281,189809,5,0,3:0:0:0:
344,270,189981,2,0,L|420:245,1,80,8|0,1:0|0:0,0:0:0:0:
324,30,190323,1,0,3:0:0:0:
285,210,190495,1,2,3:2:0:0:
481,154,190666,2,0,P|481:115|454:87,1,80,10|0,1:2|0:0,0:0:0:0:
324,30,191009,6,0,L|311:67,2,40,0|0|0,3:0|0:0|0:0,0:0:0:0:
216,208,191352,2,0,L|139:186,1,80,8|0,1:0|0:0,0:0:0:0:
92,57,191695,2,0,L|128:40,2,40,0|0|0,0:0|0:0|3:0,0:0:0:0:
24,192,192038,2,0,P|35:233|44:270,1,80,8|0,1:0|3:0,0:0:0:0:
150,357,192381,6,0,P|155:340|163:320,2,40,0|0|0,0:0|0:0|3:0,0:0:0:0:
248,120,192723,1,8,1:0:0:0:
400,304,192895,1,0,0:0:0:0:
240,108,193066,5,0,3:0:0:0:
260,348,193238,1,0,3:0:0:0:
384,144,193409,1,8,1:0:0:0:
168,228,193581,1,0,3:0:0:0:
412,316,193752,5,2,0:0:0:0:
