osu file format v14

[General]
AudioFilename: audio.mp3
AudioLeadIn: 0
PreviewTime: -1
Countdown: 0
SampleSet: Soft
StackLeniency: 0.7
Mode: 2
LetterboxInBreaks: 0
WidescreenStoryboard: 0

[Editor]
DistanceSpacing: 1.3
BeatDivisor: 4
GridSize: 8
TimelineZoom: 2.799999

[Metadata]
Title:POP/STARS
TitleUnicode:POP/STARS
Artist:K/DA (feat. Madison Beer & (G)I-DLE & Jaira Burns)
ArtistUnicode:K/DA (feat. Madison Beer & (G)I-DLE & Jaira Burns)
Creator:[-naniwa-]
Version:Overdose
Source:League of Legends
Tags:lol 2018 worlds Soyeon Miyeon Riot Game K pop Harloe Ahri Evelynn Kai’Sa Akali naniwa
BeatmapID:1841453
BeatmapSetID:880623

[Difficulty]
HPDrainRate:7
CircleSize:4
OverallDifficulty:9.6
ApproachRate:9.6
SliderMultiplier:1.8
SliderTickRate:1

[Events]
//Background and Video events
Video,0,"videoplayback (1).mp4"
0,0,"DpFb-PtX4AAE5hU-e1541232486151.jpg",0,0
//Break Periods
//Storyboard Layer 0 (Background)
//Storyboard Layer 1 (Fail)
//Storyboard Layer 2 (Pass)
//Storyboard Layer 3 (Foreground)
//Storyboard Sound Samples

[TimingPoints]
6050,352.941176470588,4,2,1,50,1,0
10285,-100,4,2,1,70,0,0
11697,-83.3333333333333,4,2,1,60,0,0
34285,-83.3333333333333,4,2,1,40,0,0
45579,-83.3333333333333,4,2,1,50,0,0
46991,-83.3333333333333,4,2,1,55,0,0
48402,-83.3333333333333,4,2,1,60,0,0
49814,-83.3333333333333,4,2,1,65,0,0
51226,-83.3333333333333,4,2,1,70,0,0
52638,-83.3333333333333,4,2,1,80,0,0
55461,-83.3333333333333,4,2,1,60,0,0
55814,-83.3333333333333,4,2,1,70,0,0
56873,-83.3333333333333,4,2,1,90,0,1
79461,-83.3333333333333,4,2,1,70,0,0
79814,-83.3333333333333,4,2,1,60,0,0
82285,-83.3333333333333,4,2,1,70,0,0
104873,-83.3333333333333,4,2,1,50,0,0
110520,-83.3333333333333,4,2,1,60,0,0
111932,-83.3333333333333,4,2,1,70,0,0
113344,-83.3333333333333,4,2,1,80,0,0
114755,-83.3333333333333,4,2,1,60,0,0
115108,-83.3333333333333,4,2,1,70,0,0
116167,-83.3333333333333,4,2,1,90,0,1
138755,-133.333333333333,4,2,1,40,0,0
150049,-100,4,2,1,50,0,0
151461,-100,4,2,1,55,0,0
152873,-100,4,2,1,60,0,0
154285,-100,4,2,1,65,0,0
155697,-100,4,2,1,70,0,0
158520,-100,4,2,1,75,0,0
159932,-100,4,2,1,80,0,0
160638,-76.9230769230769,4,2,1,80,0,0
161344,-76.9230769230769,4,2,1,60,0,0
163108,-76.9230769230769,4,2,1,70,0,0
164167,-66.6666666666667,4,2,1,100,0,1
164520,-76.9230769230769,4,2,1,100,0,1
169814,-66.6666666666667,4,2,1,100,0,1
170167,-76.9230769230769,4,2,1,100,0,1
185697,-76.9230769230769,4,2,1,90,0,1
186049,-76.9230769230769,4,2,1,80,0,1
186402,-76.9230769230769,4,2,1,70,0,1
186755,-66.6666666666667,4,2,1,60,0,0

[Colours]
Combo1 : 255,0,0
Combo2 : 255,255,0
Combo3 : 255,0,255
Combo4 : 128,0,255
Combo5 : 0,128,255

[HitObjects]
176,64,6049,5,2,0:0:0:0:
80,104,6226,1,0,0:0:0:0:
64,208,6402,1,2,0:0:0:0:
144,280,6579,1,0,0:0:0:0:
328,224,6755,1,2,0:0:0:0:
272,224,6844,1,0,0:0:0:0:
216,224,6932,1,2,0:0:0:0:
64,216,7108,2,0,L|192:216,1,90,2|0,0:0|0:0,0:0:0:0:
288,64,7461,5,2,0:0:0:0:
384,104,7638,1,0,0:0:0:0:
392,208,7814,1,2,0:0:0:0:
296,256,7991,1,0,0:0:0:0:
160,256,8167,1,2,0:0:0:0:
118,240,8255,1,0,0:0:0:0:
95,202,8343,1,2,0:0:0:0:
100,159,8431,1,0,0:0:0:0:
130,127,8519,1,2,0:0:0:0:
272,112,8697,1,2,0:0:0:0:
390,192,8873,6,0,L|480:192,1,90,2|0,0:0|0:0,0:0:0:0:
344,192,9226,2,0,L|254:192,1,90,2|0,0:0|0:0,0:0:0:0:
480,128,9579,2,0,L|376:128,1,90,2|0,0:0|0:0,0:0:0:0:
200,192,9932,2,0,L|320:192,1,90,2|0,0:0|0:0,0:0:0:0:
424,144,10285,6,0,L|320:144,1,90,2|0,0:3|0:0,0:0:0:0:
496,216,10638,2,0,L|496:336,1,90,2|0,0:0|0:0,0:0:0:0:
200,232,10991,1,2,0:1:0:0:
496,176,11344,1,4,0:1:0:0:
80,312,11697,6,0,P|16:264|88:208,1,161.999995056153,4|0,0:3|0:0,0:0:0:0:
144,176,12049,2,0,L|36:176,1,107.999996704102,2|0,0:0|0:0,0:0:0:0:
336,232,12402,2,0,L|216:232,1,107.999996704102,8|0,0:1|0:0,0:0:0:0:
400,176,12755,2,0,L|424:56,1,107.999996704102,2|0,0:0|0:0,0:0:0:0:
160,112,13108,5,12,0:3:0:0:
352,112,13285,1,0,0:0:0:0:
104,112,13461,2,0,P|96:168|192:208,1,161.999995056153,2|0,0:0|0:0,0:0:0:0:
304,80,13814,1,2,0:0:0:0:
424,80,13991,1,2,0:0:0:0:
256,152,14167,2,0,L|128:152,1,107.999996704102,2|0,0:0|0:0,0:0:0:0:
408,64,14520,6,0,P|464:64|480:168,1,161.999995056153,4|0,0:3|0:0,0:0:0:0:
368,208,14873,2,0,L|480:208,1,107.999996704102,2|0,0:0|0:0,0:0:0:0:
184,176,15226,1,8,0:1:0:0:
320,176,15402,1,0,0:0:0:0:
80,176,15579,2,0,L|48:64,1,107.999996704102,2|0,0:0|0:0,0:0:0:0:
224,112,15932,5,2,0:3:0:0:
40,200,16108,1,4,0:3:0:0:
304,240,16285,2,4,P|368:248|440:136,1,161.999995056153,4|0,0:3|0:1,0:1:0:0:
208,240,16638,2,0,P|144:248|72:136,1,161.999995056153,2|0,0:3|0:0,0:0:0:0:
328,128,16991,2,0,L|456:128,1,107.999996704102,2|0,0:3|0:0,0:0:0:0:
120,96,17344,5,4,0:3:0:0:
272,160,17520,1,0,0:0:0:0:
184,160,17697,1,2,0:0:0:0:
80,160,17873,1,0,0:0:0:0:
432,56,18049,2,0,P|480:120|416:200,1,161.999995056153,8|0,0:1|0:0,0:0:0:0:
240,240,18402,1,2,0:0:0:0:
376,280,18579,1,0,0:0:0:0:
128,240,18755,5,2,0:3:0:0:
272,192,18932,1,4,0:3:0:0:
32,104,19108,2,0,P|32:144|144:184,1,161.999995056153,8|0,0:3|0:0,0:0:0:0:
336,152,19461,1,6,0:3:0:0:
432,64,19638,2,0,L|288:64,2,107.999996704102,8|2|0,0:3|0:0|0:0,0:0:0:0:
96,232,20167,5,4,0:3:0:0:
232,240,20344,1,2,0:0:0:0:
286,240,20432,1,0,0:0:0:0:
176,240,20520,1,2,0:3:0:0:
344,240,20697,1,2,0:0:0:0:
104,192,20873,2,0,L|232:192,1,107.999996704102,8|0,0:1|0:0,0:0:0:0:
48,200,21226,2,0,L|32:88,1,107.999996704102,4|0,0:3|0:0,0:0:0:0:
320,200,21579,5,2,0:3:0:0:
184,168,21755,1,4,0:3:0:0:
432,112,21932,2,0,P|456:200|360:240,1,161.999995056153,8|0,0:3|0:0,0:0:0:0:
208,240,22285,2,0,L|88:240,1,107.999996704102,2|0,0:3|0:0,0:0:0:0:
352,80,22638,2,0,L|460:80,1,107.999996704102,2|0,0:3|0:0,0:0:0:0:
176,272,22991,5,4,0:3:0:0:
72,232,23167,1,0,0:0:0:0:
72,120,23344,1,2,0:0:0:0:
168,64,23520,1,2,0:0:0:0:
416,56,23697,2,0,P|472:144|440:208,1,161.999995056153,8|0,0:1|0:0,0:0:0:0:
360,248,24049,2,0,L|248:248,1,107.999996704102,4|0,0:3|0:0,0:0:0:0:
440,224,24402,6,0,L|480:104,1,107.999996704102,2|4,0:0|0:3,0:0:0:0:
224,176,24755,2,0,P|176:200|192:304,1,161.999995056153,8|0,0:3|0:0,0:0:0:0:
304,296,25108,1,4,0:3:0:0:
408,264,25285,1,8,0:3:0:0:
472,176,25461,1,2,0:0:0:0:
472,64,25638,1,0,0:0:0:0:
216,296,25814,6,0,P|176:288|192:192,1,161.999995056153,4|0,0:3|0:0,0:0:0:0:
312,176,26167,1,2,0:0:0:0:
432,176,26344,1,0,0:0:0:0:
176,264,26520,2,0,P|96:232|112:144,1,161.999995056153,8|0,0:1|0:0,0:0:0:0:
192,136,26873,2,0,L|320:136,1,107.999996704102,4|0,0:3|0:0,0:0:0:0:
112,160,27226,6,0,L|80:40,1,107.999996704102,2|0,0:0|0:0,0:0:0:0:
344,64,27579,2,0,P|408:104|360:208,1,161.999995056153,4|0,0:3|0:0,0:0:0:0:
224,192,27932,2,0,L|128:288,1,107.999996704102,8|0,0:3|0:0,0:0:0:0:
304,256,28285,2,0,L|448:256,1,107.999996704102,2|0,0:3|0:0,0:0:0:0:
168,192,28638,5,4,0:3:0:0:
328,160,28814,2,0,L|440:160,2,107.999996704102,0|2|0,0:0|0:0|0:0,0:0:0:0:
90,214,29344,2,0,P|24:173|56:104,1,161.999995056153,8|0,0:1|0:0,0:0:0:0:
144,144,29697,2,0,L|252:144,1,107.999996704102,4|0,0:3|0:0,0:0:0:0:
96,80,30049,5,2,0:0:0:0:
24,184,30226,1,0,0:0:0:0:
296,176,30402,2,0,L|432:176,1,107.999996704102,4|0,0:3|0:0,0:0:0:0:
160,112,30755,2,0,L|40:112,1,107.999996704102,8|0,0:3|0:0,0:0:0:0:
200,232,31108,2,0,L|312:232,1,107.999996704102,2|0,0:0|0:0,0:0:0:0:
72,160,31461,6,0,L|8:160,2,53.9999983520508,4|0|0,0:3|0:0|0:0,0:0:0:0:
264,208,31814,1,2,0:0:0:0:
128,160,31991,1,2,0:0:0:0:
368,160,32167,2,0,L|488:160,1,107.999996704102,8|0,0:1|0:0,0:0:0:0:
280,144,32520,2,0,L|216:56,1,107.999996704102,8|0,0:3|0:0,0:0:0:0:
456,288,32873,6,0,P|432:256|312:224,1,161.999995056153,2|0,0:3|0:0,0:0:0:0:
56,288,33226,2,0,P|80:256|200:224,1,161.999995056153,2|0,0:3|0:0,0:0:0:0:
368,176,33579,2,0,L|480:176,1,107.999996704102,2|2,0:3|0:0,0:0:0:0:
144,176,33932,2,0,L|32:176,1,107.999996704102,2|0,0:3|0:0,0:0:0:0:
320,264,34285,5,2,0:3:0:0:
384,208,34461,1,0,0:0:0:0:
344,128,34638,1,0,0:0:0:0:
264,104,34814,1,0,0:0:0:0:
152,104,34991,1,0,0:0:0:0:
296,96,35167,2,0,L|184:96,2,107.999996704102,2|2|2,0:0|0:0|0:0,0:0:0:0:
136,304,35697,6,0,P|88:264|176:136,1,215.999993408203,2|2,0:0|0:0,0:0:0:0:
272,128,36226,1,0,0:0:0:0:
168,48,36402,1,2,0:0:0:0:
96,96,36579,1,0,0:0:0:0:
72,176,36755,1,2,0:0:0:0:
112,256,36932,1,0,0:0:0:0:
272,256,37108,5,2,0:0:0:0:
352,224,37285,1,0,0:0:0:0:
416,160,37461,1,0,0:0:0:0:
400,72,37638,1,0,0:0:0:0:
288,72,37814,1,0,0:0:0:0:
176,72,37991,2,0,L|48:72,2,107.999996704102,2|2|2,0:0|0:0|0:0,0:0:0:0:
312,72,38520,6,0,L|400:184,1,107.999996704102,2|2,0:0|0:0,0:0:0:0:
240,176,38873,2,0,L|152:280,1,107.999996704102,2|2,0:0|0:0,0:0:0:0:
336,304,39226,2,0,P|384:264|352:120,1,215.999993408203,2|2,0:0|0:0,0:0:0:0:
224,120,39755,1,0,0:0:0:0:
360,120,39932,5,2,0:0:0:0:
424,176,40108,1,0,0:0:0:0:
432,264,40285,1,0,0:0:0:0:
368,320,40461,1,0,0:0:0:0:
256,320,40638,1,0,0:0:0:0:
400,248,40814,2,0,L|280:248,2,107.999996704102,2|2|2,0:0|0:0|0:0,0:0:0:0:
248,312,41344,6,0,P|176:264|200:144,1,215.999993408203,2|2,0:0|0:0,0:0:0:0:
304,152,41873,1,0,0:0:0:0:
408,312,42049,2,0,P|480:264|456:144,1,215.999993408203,2|2,0:0|0:0,0:0:0:0:
352,152,42578,1,0,0:0:0:0:
216,48,42755,5,2,0:0:0:0:
136,80,42932,1,0,0:0:0:0:
104,160,43108,1,0,0:0:0:0:
152,232,43285,1,0,0:0:0:0:
264,248,43461,1,0,0:0:0:0:
376,248,43638,2,0,L|496:248,2,107.999996704102,2|2|2,0:0|0:0|0:0,0:0:0:0:
248,248,44167,6,0,L|360:248,1,107.999996704102,2|2,0:0|0:0,0:0:0:0:
488,160,44520,2,0,L|368:160,1,107.999996704102,2|2,0:0|0:0,0:0:0:0:
208,72,44873,2,0,P|144:144|240:224,1,215.999993408203,2|2,0:0|0:0,0:0:0:0:
320,224,45402,1,0,0:0:0:0:
448,280,45579,6,0,P|480:240|408:112,1,215.999993408203,2|0,0:3|0:0,0:0:0:0:
288,240,46108,2,0,P|200:208|216:80,1,215.999993408203,2|0,0:3|0:0,0:0:0:0:
328,80,46638,2,0,L|408:176,1,107.999996704102,2|2,0:0|0:0,0:0:0:0:
216,80,46991,6,0,P|160:152|248:256,1,215.999993408203,2|0,0:3|0:0,0:0:0:0:
352,248,47520,2,0,P|424:192|400:64,1,215.999993408203,2|0,0:3|0:0,0:0:0:0:
288,80,48049,2,0,L|160:80,1,107.999996704102,2|2,0:0|0:0,0:0:0:0:
336,80,48402,6,0,P|400:176|320:256,1,215.999993408203,2|0,0:3|0:0,0:0:0:0:
216,224,48932,2,0,P|104:144|128:80,1,215.999993408203,2|0,0:3|0:0,0:0:0:0:
256,144,49461,2,0,L|408:144,1,107.999996704102,2|2,0:0|0:0,0:0:0:0:
128,232,49814,6,0,L|32:152,1,107.999996704102,2|2,0:3|0:0,0:0:0:0:
128,232,50079,1,0,0:0:0:0:
296,208,50167,2,0,L|384:120,1,107.999996704102,2|0,0:0|0:0,0:0:0:0:
192,280,50520,2,0,P|168:192|224:144,1,161.999995056153,2|0,0:3|0:0,0:0:0:0:
368,144,50873,2,0,L|488:144,1,107.999996704102,2|0,0:0|0:0,0:0:0:0:
104,160,51226,6,0,L|40:64,1,107.999996704102,2|0,0:3|0:0,0:0:0:0:
224,224,51579,2,0,L|332:224,1,107.999996704102,2|0,0:0|0:0,0:0:0:0:
184,160,51932,2,0,L|64:160,1,107.999996704102,2|0,0:3|0:0,0:0:0:0:
224,160,52285,2,0,L|312:272,1,107.999996704102,2|0,0:0|0:0,0:0:0:0:
40,168,52638,6,0,L|152:168,1,107.999996704102,2|0,0:3|0:0,0:0:0:0:
288,136,52991,2,0,L|168:136,1,107.999996704102,2|0,0:0|0:0,0:0:0:0:
344,80,53344,2,0,L|424:192,1,107.999996704102,2|0,0:3|0:0,0:0:0:0:
224,80,53697,2,0,L|136:168,1,107.999996704102,2|0,0:0|0:0,0:0:0:0:
416,128,54049,5,2,0:3:0:0:
455,179,54137,1,0,0:0:0:0:
434,240,54225,1,2,0:3:0:0:
372,257,54313,1,0,0:0:0:0:
144,120,54402,1,2,0:3:0:0:
119,179,54490,1,0,0:0:0:0:
157,231,54578,1,2,0:3:0:0:
221,226,54666,1,0,0:0:0:0:
376,128,54755,2,0,L|440:128,1,53.9999983520508,2|0,0:3|0:0,0:0:0:0:
224,128,54932,2,0,L|120:128,1,53.9999983520508,2|0,0:3|0:0,0:0:0:0:
416,80,55108,2,0,L|496:80,1,53.9999983520508,2|0,0:3|0:0,0:0:0:0:
168,72,55285,2,0,L|80:72,1,53.9999983520508,2|0,0:3|0:0,0:0:0:0:
416,80,55461,5,2,0:1:0:0:
232,192,55814,2,0,L|112:192,1,107.999996704102,2|0,0:0|0:0,0:0:0:0:
360,152,56167,2,0,L|480:152,1,107.999996704102,2|0,0:0|0:0,0:0:0:0:
144,128,56520,2,0,L|8:128,1,107.999996704102,2|0,0:0|0:0,0:0:0:0:
432,264,56873,6,0,L|472:144,1,107.999996704102,4|0,0:0|0:0,0:0:0:0:
200,224,57226,2,0,L|344:224,1,107.999996704102,2|0,0:3|0:0,0:0:0:0:
200,224,57491,1,0,0:0:0:0:
64,224,57579,2,0,L|32:96,1,107.999996704102,8|0,0:3|0:0,0:0:0:0:
144,96,57844,1,0,0:0:0:0:
280,96,57932,2,0,L|424:96,1,107.999996704102,2|0,0:3|0:0,0:0:0:0:
280,96,58197,1,0,0:0:0:0:
144,96,58285,6,0,P|88:144|104:232,1,161.999995056153,2|0,0:3|0:0,0:0:0:0:
368,96,58638,2,0,P|424:144|408:232,1,161.999995056153,2|0,0:3|0:0,0:0:0:0:
168,216,58991,2,0,L|312:216,1,107.999996704102,8|0,0:3|0:0,0:0:0:0:
88,208,59344,2,0,L|48:80,1,107.999996704102,2|0,0:0|0:0,0:0:0:0:
328,80,59697,6,0,P|384:104|384:232,1,161.999995056153,4|0,0:0|0:0,0:0:0:0:
296,208,60049,2,0,L|168:208,1,107.999996704102,2|0,0:0|0:0,0:0:0:0:
440,208,60402,2,0,L|480:88,1,107.999996704102,8|0,0:3|0:0,0:0:0:0:
312,152,60755,2,0,L|176:152,1,107.999996704102,2|0,0:0|0:0,0:0:0:0:
384,88,61108,6,0,P|424:120|376:232,1,161.999995056153,8|0,0:1|0:0,0:0:0:0:
240,240,61461,1,2,0:0:0:0:
112,192,61638,1,2,0:0:0:0:
364,152,61814,2,0,L|472:152,1,107.999996704102,2|0,0:0|0:0,0:0:0:0:
148,152,62167,2,0,L|40:152,1,107.999996704102,2|0,0:0|0:0,0:0:0:0:
328,152,62520,5,4,0:0:0:0:
384,152,62608,1,0,0:0:0:0:
440,152,62697,1,0,0:0:0:0:
200,160,62873,2,0,L|56:160,1,107.999996704102,2|0,0:3|0:0,0:0:0:0:
200,160,63138,1,0,0:0:0:0:
336,160,63226,2,0,L|392:288,1,107.999996704102,8|0,0:3|0:0,0:0:0:0:
256,264,63491,1,0,0:0:0:0:
120,264,63579,2,0,L|0:264,1,107.999996704102,2|0,0:3|0:0,0:0:0:0:
120,264,63844,1,0,0:0:0:0:
312,272,63932,6,0,P|408:272|464:208,1,161.999995056153,2|0,0:3|0:0,0:0:0:0:
200,272,64285,2,0,P|104:272|48:208,1,161.999995056153,2|0,0:3|0:0,0:0:0:0:
352,192,64638,2,0,L|224:192,1,107.999996704102,8|0,0:3|0:0,0:0:0:0:
384,120,64991,2,0,L|496:120,1,107.999996704102,2|0,0:0|0:0,0:0:0:0:
256,72,65344,6,0,P|176:96|176:200,1,161.999995056153,4|0,0:0|0:0,0:0:0:0:
288,184,65697,2,0,L|400:184,1,107.999996704102,2|0,0:0|0:0,0:0:0:0:
128,160,66049,2,0,L|32:256,1,107.999996704102,8|0,0:3|0:0,0:0:0:0:
200,160,66402,2,0,L|320:160,1,107.999996704102,2|0,0:0|0:0,0:0:0:0:
128,160,66755,5,2,0:3:0:0:
264,160,66932,1,2,0:0:0:0:
72,88,67108,2,0,P|16:136|72:208,1,161.999995056153,2|0,0:0|0:0,0:0:0:0:
312,248,67461,1,8,0:3:0:0:
168,224,67638,1,0,0:0:0:0:
432,160,67814,1,2,0:0:0:0:
296,144,67991,2,0,L|224:144,1,53.9999983520508
408,48,68167,5,2,0:0:0:0:
450,80,68255,1,0,0:0:0:0:
479,125,68343,1,2,0:0:0:0:
488,178,68431,1,0,0:0:0:0:
477,231,68519,1,2,0:0:0:0:
448,276,68608,1,0,0:0:0:0:
404,307,68696,1,2,0:0:0:0:
352,319,68784,1,0,0:0:0:0:
112,304,68873,1,8,0:3:0:0:
280,240,69049,2,0,L|280:184,1,53.9999983520508
88,144,69226,2,0,L|184:72,1,107.999996704102,2|0,0:0|0:0,0:0:0:0:
424,152,69579,6,0,L|304:152,2,107.999996704102,8|0|2,0:1|0:0|0:0,0:0:0:0:
88,152,70108,2,0,L|208:152,2,107.999996704102,8|0|2,0:1|0:0|0:0,0:0:0:0:
368,208,70638,2,0,L|496:208,1,107.999996704102,8|2,0:1|0:0,0:0:0:0:
104,48,70991,5,2,0:0:0:0:
62,80,71079,1,0,0:0:0:0:
33,125,71167,1,2,0:0:0:0:
24,178,71255,1,0,0:0:0:0:
35,231,71343,1,2,0:0:0:0:
64,276,71432,1,0,0:0:0:0:
108,307,71520,1,2,0:0:0:0:
160,319,71608,1,0,0:0:0:0:
400,304,71697,2,0,L|456:184,1,107.999996704102,8|0,0:3|0:0,0:0:0:0:
272,216,72049,2,0,L|384:216,1,107.999996704102,2|0,0:0|0:0,0:0:0:0:
56,184,72402,6,0,L|164:184,2,107.999996704102,8|0|2,0:1|0:0|0:0,0:0:0:0:
456,184,72932,2,0,L|348:184,2,107.999996704102,8|0|2,0:1|0:0|0:0,0:0:0:0:
200,184,73461,1,8,0:1:0:0:
488,264,73814,5,4,0:3:0:0:
200,272,73991,2,0,L|128:272,1,53.9999983520508,2|0,0:3|0:0,0:0:0:0:
264,272,74167,2,0,L|328:272,1,53.9999983520508,2|0,0:3|0:0,0:0:0:0:
144,200,74344,1,2,0:0:0:0:
392,304,74520,2,0,P|456:256|408:184,1,161.999995056153,8|0,0:3|0:0,0:0:0:0:
320,176,74873,2,0,L|200:176,1,107.999996704102,2|0,0:0|0:0,0:0:0:0:
472,144,75226,6,0,L|296:248,2,161.999995056153,8|0|2,0:1|0:0|0:0,0:0:0:0:
344,136,75932,2,0,L|192:136,1,107.999996704102,8|0,0:1|0:0,0:0:0:0:
408,128,76285,2,0,L|456:272,1,107.999996704102,8|0,0:1|0:0,0:0:0:0:
120,208,76638,6,0,L|48:208,2,53.9999983520508,4|0|2,0:3|0:0|0:0,0:0:0:0:
360,192,76991,1,2,0:0:0:0:
216,144,77167,1,2,0:0:0:0:
464,208,77344,2,0,L|504:80,1,107.999996704102,2|0,0:0|0:0,0:0:0:0:
240,208,77697,2,0,L|104:208,1,107.999996704102,2|0,0:0|0:0,0:0:0:0:
368,160,78049,6,0,L|488:160,1,107.999996704102,2|0,0:1|0:0,0:0:0:0:
96,272,78402,2,0,P|56:192|120:152,1,161.999995056153,2|0,0:3|0:0,0:0:0:0:
184,272,78755,2,0,P|224:192|160:152,1,161.999995056153,2|0,0:3|0:0,0:0:0:0:
56,272,79108,2,0,P|16:192|80:152,1,161.999995056153,2|0,0:3|0:0,0:0:0:0:
248,152,79461,5,2,0:0:0:0:
440,160,79814,1,0,0:0:0:0:
168,160,79991,1,2,0:0:0:0:
80,160,80344,1,0,0:0:0:0:
352,160,80520,1,2,0:0:0:0:
128,160,80873,5,2,0:0:0:0:
240,240,81049,2,0,L|120:304,2,107.999996704102,2|0|2,0:0|0:0|0:0,0:0:0:0:
480,216,81579,2,0,L|384:216,1,53.9999983520508,2|0,0:3|0:0,0:0:0:0:
232,192,81755,2,0,L|168:192,1,53.9999983520508
370,144,81932,2,0,L|424:144,1,53.9999983520508,2|0,0:3|0:0,0:0:0:0:
128,128,82108,2,0,L|48:128,1,53.9999983520508
384,288,82285,6,0,P|312:272|296:184,1,161.999995056153,8|0,0:1|0:0,0:0:0:0:
384,168,82638,2,0,L|472:96,1,107.999996704102,2|0,0:0|0:0,0:0:0:0:
200,128,83167,1,2,0:0:0:0:
464,160,83344,2,0,L|336:160,1,107.999996704102,8|0,0:3|0:0,0:0:0:0:
488,200,83697,5,2,0:0:0:0:
216,232,83873,1,4,0:3:0:0:
368,256,84049,2,0,L|432:160,1,107.999996704102,8|0,0:3|0:0,0:0:0:0:
256,176,84402,2,0,L|160:96,1,107.999996704102,8|0,0:1|0:0,0:0:0:0:
376,64,84755,2,0,L|488:64,1,107.999996704102,2|0,0:0|0:0,0:0:0:0:
144,168,85108,5,4,0:3:0:0:
272,184,85285,2,0,L|344:184,2,53.9999983520508,2|0|2,0:0|0:0|0:0,0:0:0:0:
120,160,85638,2,0,L|56:200,1,53.9999983520508,2|0,0:0|0:0,0:0:0:0:
304,144,85814,2,0,L|400:80,1,107.999996704102,8|0,0:1|0:0,0:0:0:0:
264,88,86167,2,0,L|168:144,1,107.999996704102,8|0,0:3|0:0,0:0:0:0:
344,208,86520,5,2,0:0:0:0:
104,176,86697,1,4,0:3:0:0:
440,104,86873,1,8,0:3:0:0:
280,192,87049,2,0,L|168:128,2,107.999996704102,0|8|0,0:0|0:1|0:0,0:0:0:0:
440,216,87579,1,2,0:0:0:0:
461,199,87623,1,0,0:0:0:0:
475,176,87667,1,0,0:0:0:0:
480,150,87711,1,0,0:0:0:0:
476,123,87755,1,2,0:0:0:0:
463,100,87799,1,0,0:0:0:0:
443,82,87843,1,0,0:0:0:0:
240,200,87932,5,2,0:3:0:0:
96,192,88108,2,0,L|8:192,1,53.9999983520508,2|0,0:3|0:0,0:0:0:0:
224,152,88285,2,0,L|296:152,1,53.9999983520508,2|0,0:3|0:0,0:0:0:0:
168,120,88461,2,0,L|114:120,1,53.9999983520508,2|2,0:3|0:0,0:0:0:0:
344,176,88638,2,0,L|208:176,1,107.999996704102,8|2,0:1|0:3,0:0:0:0:
480,224,88991,1,8,0:3:0:0:
320,208,89167,1,0,0:0:0:0:
440,144,89344,5,2,0:0:0:0:
184,200,89520,2,0,L|120:200,1,53.9999983520508,4|0,0:3|0:0,0:0:0:0:
280,240,89697,2,0,L|392:168,1,107.999996704102,8|2,0:3|0:3,0:0:0:0:
280,240,89961,1,0,0:0:0:0:
120,152,90049,2,0,L|64:40,1,107.999996704102,8|2,0:1|0:3,0:0:0:0:
200,32,90402,1,2,0:3:0:0:
32,96,90579,1,0,0:0:0:0:
144,184,90755,5,4,0:3:0:0:
306,208,90932,2,0,L|360:208,1,53.9999983520508,2|0,0:3|0:0,0:0:0:0:
262,160,91108,2,0,L|208:160,1,53.9999983520508,2|0,0:3|0:0,0:0:0:0:
336,120,91285,2,0,L|416:120,1,53.9999983520508,2|0,0:3|0:0,0:0:0:0:
112,128,91461,2,0,L|248:128,1,107.999996704102,8|2,0:1|0:0,0:0:0:0:
56,264,91814,2,0,L|24:128,1,107.999996704102,4|2,0:3|0:0,0:0:0:0:
336,232,92167,6,0,L|472:232,1,107.999996704102,2|0,0:0|0:0,0:0:0:0:
256,264,92520,2,0,L|192:152,1,107.999996704102,4|0,0:3|0:0,0:0:0:0:
352,216,92873,2,0,L|432:112,1,107.999996704102,2|2,0:3|0:3,0:0:0:0:
168,184,93226,1,2,0:3:0:0:
40,128,93402,2,0,L|96:128,1,53.9999983520508,2|0,0:3|0:0,0:0:0:0:
320,112,93579,5,4,0:3:0:0:
176,224,93755,2,0,L|296:224,2,107.999996704102,0|2|0,0:0|0:0|0:0,0:0:0:0:
424,280,94285,2,0,L|464:160,1,107.999996704102,8|0,0:1|0:0,0:0:0:0:
352,160,94549,1,0,0:0:0:0:
224,160,94638,2,0,L|112:160,1,107.999996704102,4|0,0:3|0:0,0:0:0:0:
288,296,94991,6,0,L|360:208,1,107.999996704102,2|4,0:0|0:3,0:0:0:0:
320,160,95255,1,0,0:0:0:0:
264,160,95344,1,8,0:3:0:0:
160,200,95520,2,0,L|96:200,1,53.9999983520508,2|0,0:0|0:0,0:0:0:0:
320,128,95697,1,8,0:1:0:0:
456,96,95873,2,0,L|368:160,2,107.999996704102,0|2|0,0:0|0:0|0:0,0:0:0:0:
192,160,96402,5,4,0:3:0:0:
344,128,96579,1,0,0:0:0:0:
160,64,96755,1,2,0:0:0:0:
136,77,96799,1,0,0:0:0:0:
121,99,96843,1,0,0:0:0:0:
118,125,96887,1,0,0:0:0:0:
127,150,96931,1,2,0:0:0:0:
146,169,96975,1,0,0:0:0:0:
171,177,97019,1,0,0:0:0:0:
400,136,97108,1,8,0:1:0:0:
248,152,97285,2,0,L|160:152,1,53.9999983520508,2|0,0:0|0:0,0:0:0:0:
376,112,97461,2,0,L|464:232,1,107.999996704102,8|2,0:3|0:0,0:0:0:0:
344,232,97726,1,0,0:0:0:0:
144,224,97814,6,0,P|128:184|200:112,1,107.999996704102,2|4,0:0|0:3,0:0:0:0:
224,96,98079,1,0,0:0:0:0:
304,96,98167,1,8,0:3:0:0:
440,256,98344,2,0,L|352:256,1,53.9999983520508,2|0,0:0|0:0,0:0:0:0:
96,224,98520,1,8,0:1:0:0:
216,176,98697,2,0,L|296:176,1,53.9999983520508
176,104,98873,2,0,L|56:184,1,107.999996704102,2|0,0:1|0:0,0:0:0:0:
336,88,99226,5,4,0:3:0:0:
184,208,99402,2,0,L|72:208,2,107.999996704102,2|2|2,0:0|0:0|0:0,0:0:0:0:
432,216,99932,2,0,L|496:112,1,107.999996704102,8|0,0:1|0:0,0:0:0:0:
392,176,100197,1,0,0:0:0:0:
224,160,100285,2,0,L|96:160,1,107.999996704102,4|2,0:3|0:0,0:0:0:0:
432,168,100638,5,2,0:3:0:0:
280,144,100814,1,4,0:3:0:0:
384,80,100991,1,8,0:3:0:0:
488,200,101167,1,0,0:0:0:0:
432,200,101255,1,0,0:0:0:0:
144,176,101344,2,0,L|280:176,1,107.999996704102,8|0,0:1|0:0,0:0:0:0:
64,216,101697,1,2,0:0:0:0:
24,112,101873,1,2,0:0:0:0:
280,192,102049,6,0,L|432:192,1,107.999996704102,4|0,0:3|0:0,0:0:0:0:
208,160,102402,2,0,L|160:48,1,107.999996704102,2|2,0:0|0:0,0:0:0:0:
448,112,102755,1,8,0:1:0:0:
304,184,102932,2,0,L|240:184,1,53.9999983520508,2|0,0:0|0:0,0:0:0:0:
336,128,103108,2,0,L|472:128,1,107.999996704102,4|2,0:3|0:0,0:0:0:0:
68,128,103461,5,2,0:0:0:0:
240,208,103638,2,0,L|296:208,2,53.9999983520508,4|0|8,0:3|0:0|0:3,0:0:0:0:
104,176,103991,2,0,L|32:176,1,53.9999983520508
328,176,104167,2,0,L|416:96,1,107.999996704102,8|0,0:1|0:0,0:0:0:0:
160,176,104520,2,0,L|48:176,1,107.999996704102,2|0,0:0|0:0,0:0:0:0:
368,280,104873,6,0,P|440:216|304:72,1,323.999990112305,4|0,0:1|0:0,0:0:0:0:
96,184,105755,1,2,0:0:0:0:
224,152,105932,2,0,L|144:72,1,107.999996704102,2|2,0:0|0:0,0:0:0:0:
328,72,106285,6,0,P|376:136|360:288,1,215.999993408203,2|2,0:0|0:0,0:0:0:0:
208,216,106991,2,0,L|376:64,1,215.999993408203,2|2,0:0|0:0,0:0:0:0:
256,280,107697,6,0,P|152:240|192:48,1,323.999990112305,2|0,0:0|0:0,0:0:0:0:
320,232,108579,1,2,0:0:0:0:
176,216,108756,2,0,L|144:96,1,107.999996704102,2|2,0:0|0:0,0:0:0:0:
320,168,109108,6,0,L|424:208,1,107.999996704102,2|2,0:0|0:0,0:0:0:0:
264,128,109461,2,0,L|192:232,1,107.999996704102,2|2,0:0|0:0,0:0:0:0:
392,80,109814,2,0,P|456:152|384:272,1,215.999993408203,2|2,0:0|0:0,0:0:0:0:
288,272,110344,1,0,0:0:0:0:
48,264,110520,6,0,L|16:128,1,107.999996704102,2|0,0:3|0:0,0:0:0:0:
184,216,110873,2,0,L|256:112,1,107.999996704102,2|0,0:0|0:0,0:0:0:0:
72,280,111226,2,0,L|192:280,1,107.999996704102,2|0,0:3|0:0,0:0:0:0:
312,208,111579,2,0,L|184:208,1,107.999996704102,2|0,0:0|0:0,0:0:0:0:
440,216,111932,6,0,L|504:120,1,107.999996704102,2|0,0:3|0:0,0:0:0:0:
304,184,112285,2,0,L|240:88,1,107.999996704102,2|0,0:0|0:0,0:0:0:0:
448,144,112638,2,0,L|340:144,1,107.999996704102,2|0,0:3|0:0,0:0:0:0:
192,240,112991,2,0,L|300:240,1,107.999996704102,2|0,0:0|0:0,0:0:0:0:
64,248,113344,5,2,0:3:0:0:
66,195,113432,1,0,0:0:0:0:
101,155,113520,1,2,0:3:0:0:
153,145,113608,1,0,0:0:0:0:
448,248,113697,1,2,0:3:0:0:
446,195,113785,1,0,0:0:0:0:
411,155,113873,1,2,0:3:0:0:
359,145,113961,1,0,0:0:0:0:
136,176,114049,2,0,L|216:176,1,53.9999983520508,2|0,0:3|0:0,0:0:0:0:
376,176,114226,2,0,L|296:176,1,53.9999983520508,2|0,0:3|0:0,0:0:0:0:
66,128,114402,2,0,L|120:128,1,53.9999983520508,2|0,0:3|0:0,0:0:0:0:
446,128,114579,2,0,L|392:128,1,53.9999983520508,2|0,0:3|0:0,0:0:0:0:
168,128,114755,5,2,0:1:0:0:
364,192,115108,2,0,L|256:192,1,107.999996704102,2|0,0:0|0:0,0:0:0:0:
20,152,115461,2,0,L|128:152,1,107.999996704102,2|0,0:0|0:0,0:0:0:0:
452,128,115814,2,0,L|344:128,1,107.999996704102,2|0,0:0|0:0,0:0:0:0:
80,264,116167,6,0,L|48:112,1,107.999996704102,4|0,0:0|0:0,0:0:0:0:
312,264,116520,2,0,L|176:264,1,107.999996704102,2|0,0:3|0:0,0:0:0:0:
312,264,116785,1,0,0:0:0:0:
440,256,116873,2,0,L|496:136,1,107.999996704102,8|0,0:3|0:0,0:0:0:0:
360,120,117138,1,0,0:0:0:0:
216,176,117226,2,0,L|160:72,1,107.999996704102,2|0,0:3|0:0,0:0:0:0:
288,40,117491,1,0,0:0:0:0:
448,136,117579,6,0,P|480:224|416:256,1,161.999995056153,2|0,0:3|0:0,0:0:0:0:
272,264,117932,2,0,P|208:240|184:144,1,161.999995056153,2|0,0:3|0:0,0:0:0:0:
336,168,118285,2,0,L|464:168,1,107.999996704102,8|0,0:3|0:0,0:0:0:0:
296,120,118638,2,0,L|144:120,1,107.999996704102,2|0,0:0|0:0,0:0:0:0:
448,296,118991,6,0,P|464:232|360:200,1,161.999995056153,4|0,0:0|0:0,0:0:0:0:
312,144,119344,2,0,L|440:144,1,107.999996704102,2|0,0:0|0:0,0:0:0:0:
152,224,119697,2,0,L|288:224,1,107.999996704102,8|0,0:3|0:0,0:0:0:0:
72,216,120049,2,0,L|32:96,1,107.999996704102,2|0,0:0|0:0,0:0:0:0:
336,96,120402,6,0,P|400:136|360:216,1,161.999995056153,8|0,0:1|0:0,0:0:0:0:
224,224,120755,1,2,0:0:0:0:
416,256,120932,1,2,0:0:0:0:
168,256,121108,2,0,L|60:256,1,107.999996704102,2|0,0:0|0:0,0:0:0:0:
344,256,121461,2,0,L|452:256,1,107.999996704102,2|0,0:0|0:0,0:0:0:0:
216,240,121814,5,4,0:0:0:0:
160,240,121902,1,0,0:0:0:0:
104,240,121991,1,0,0:0:0:0:
368,240,122167,2,0,L|480:240,1,107.999996704102,2|0,0:3|0:0,0:0:0:0:
368,240,122432,1,0,0:0:0:0:
224,184,122520,2,0,L|104:184,1,107.999996704102,8|0,0:3|0:0,0:0:0:0:
224,184,122785,1,0,0:0:0:0:
384,184,122873,2,0,L|464:88,1,107.999996704102,2|0,0:3|0:0,0:0:0:0:
336,48,123138,1,0,0:0:0:0:
160,272,123226,6,0,P|96:232|144:144,1,161.999995056153,2|0,0:3|0:0,0:0:0:0:
280,224,123579,2,0,P|360:192|352:104,1,161.999995056153,2|0,0:3|0:0,0:0:0:0:
184,168,123932,2,0,L|292:168,1,107.999996704102,8|0,0:3|0:0,0:0:0:0:
152,136,124285,2,0,L|0:136,1,107.999996704102,2|0,0:0|0:0,0:0:0:0:
320,248,124638,6,0,P|256:200|264:112,1,161.999995056153,4|0,0:0|0:0,0:0:0:0:
360,112,124991,2,0,L|480:112,1,107.999996704102,2|0,0:0|0:0,0:0:0:0:
152,176,125344,2,0,L|272:176,1,107.999996704102,8|0,0:3|0:0,0:0:0:0:
72,160,125697,2,0,L|32:40,1,107.999996704102,2|0,0:0|0:0,0:0:0:0:
304,176,126049,5,2,0:3:0:0:
160,128,126226,1,2,0:0:0:0:
344,80,126402,2,0,L|456:80,1,107.999996704102,2|0,0:0|0:0,0:0:0:0:
160,176,126755,2,0,L|8:136,1,107.999996704102,8|0,0:3|0:0,0:0:0:0:
296,96,127108,1,2,0:0:0:0:
424,80,127285,2,0,L|496:80,1,53.9999983520508
176,96,127461,5,2,0:0:0:0:
128,136,127549,1,0,0:0:0:0:
133,189,127637,1,2,0:0:0:0:
190,228,127725,1,0,0:0:0:0:
272,232,127814,1,2,0:0:0:0:
344,232,127902,1,0,0:0:0:0:
272,168,127991,1,2,0:0:0:0:
200,168,128079,1,0,0:0:0:0:
48,288,128167,2,0,L|24:160,1,107.999996704102,8|0,0:3|0:0,0:0:0:0:
208,200,128520,1,2,0:0:0:0:
96,144,128697,1,0,0:0:0:0:
424,224,128873,5,8,0:1:0:0:
288,112,129049,2,0,L|404:112,1,107.999996704102,0|2,0:0|0:0,0:0:0:0:
144,224,129402,1,8,0:1:0:0:
272,112,129579,2,0,L|400:112,1,107.999996704102,0|2,0:0|0:0,0:0:0:0:
144,88,129932,2,0,L|56:176,1,107.999996704102,8|2,0:1|0:0,0:0:0:0:
336,96,130285,5,2,0:0:0:0:
384,136,130373,1,0,0:0:0:0:
379,189,130461,1,2,0:0:0:0:
322,228,130549,1,0,0:0:0:0:
240,232,130638,1,2,0:0:0:0:
168,232,130726,1,0,0:0:0:0:
240,168,130815,1,2,0:0:0:0:
312,168,130903,1,0,0:0:0:0:
464,288,130991,2,0,L|488:160,1,107.999996704102,8|0,0:3|0:0,0:0:0:0:
304,200,131344,1,2,0:0:0:0:
416,144,131521,1,0,0:0:0:0:
72,224,131697,5,8,0:1:0:0:
224,112,131873,2,0,L|108:112,1,107.999996704102,0|2,0:0|0:0,0:0:0:0:
440,224,132226,1,8,0:1:0:0:
288,112,132402,2,0,L|404:112,1,107.999996704102,0|2,0:0|0:0,0:0:0:0:
152,112,132755,1,8,0:1:0:0:
424,72,133108,5,4,0:3:0:0:
168,160,133285,1,2,0:3:0:0:
272,160,133461,1,2,0:3:0:0:
32,160,133638,1,2,0:0:0:0:
288,264,133814,2,0,P|232:232|192:112,1,161.999995056153,8|0,0:3|0:0,0:0:0:0:
296,128,134167,2,0,L|416:128,1,107.999996704102,2|0,0:0|0:0,0:0:0:0:
96,112,134520,6,0,L|256:184,2,161.999995056153,8|0|2,0:1|0:0|0:0,0:0:0:0:
216,88,135226,2,0,L|328:88,1,107.999996704102,8|2,0:1|0:0,0:0:0:0:
144,232,135579,2,0,L|104:120,1,107.999996704102,8|2,0:1|0:0,0:0:0:0:
408,200,135932,6,0,L|464:200,2,53.9999983520508,4|0|2,0:3|0:0|0:0,0:0:0:0:
152,176,136285,1,2,0:0:0:0:
320,128,136461,1,2,0:0:0:0:
80,192,136638,2,0,L|16:64,1,107.999996704102,2|0,0:0|0:0,0:0:0:0:
288,136,136991,2,0,L|416:136,1,107.999996704102,2|0,0:0|0:0,0:0:0:0:
152,144,137344,6,0,L|32:144,1,107.999996704102,2|0,0:1|0:0,0:0:0:0:
392,280,137697,2,0,L|456:120,1,161.999995056153,2|0,0:3|0:0,0:0:0:0:
360,280,138049,2,0,L|304:112,1,161.999995056153,2|0,0:3|0:0,0:0:0:0:
432,280,138402,2,0,L|496:112,1,161.999995056153,2|0,0:3|0:0,0:0:0:0:
152,64,138755,6,0,P|96:112|272:296,1,405.000015449525,2|0,0:0|0:0,0:0:0:0:
360,64,140167,6,0,P|416:112|240:296,1,405.000015449525,2|0,0:0|0:0,0:0:0:0:
176,320,141579,6,0,P|144:264|368:144,1,405.000015449525,2|0,0:0|0:0,0:0:0:0:
232,240,142991,6,0,P|160:208|176:80,1,202.500007724762,2|0,0:0|0:0,0:0:0:0:
304,160,143697,2,0,L|400:160,1,67.5000025749208,2|0,0:0|0:0,0:0:0:0:
208,120,144049,2,0,L|112:120,1,67.5000025749208,2|0,0:0|0:0,0:0:0:0:
272,296,144402,6,0,P|368:272|312:32,1,405.000015449525,2|0,0:0|0:0,0:0:0:0:
240,296,145814,6,0,P|144:272|200:32,1,405.000015449525,2|0,0:0|0:0,0:0:0:0:
320,192,147226,6,0,L|232:192,1,67.5000025749208,2|2,0:3|0:0,0:0:0:0:
384,152,147579,2,0,L|448:152,2,33.7500012874604,2|0|2,0:3|0:0|0:3,0:0:0:0:
184,136,147932,1,2,0:0:0:0:
416,152,148285,2,0,L|416:56,1,67.5000025749208,2|2,0:3|0:0,0:0:0:0:
176,176,148638,5,4,0:3:0:0:
296,176,148814,1,2,0:0:0:0:
64,192,149167,1,2,0:3:0:0:
176,192,149344,2,0,L|192:168,4,16.8750006437302,2|0|0|0|2,0:0|0:0|0:0|0:0|0:0,0:0:0:0:
32,144,149873,1,2,0:0:0:0:
344,296,150049,6,0,P|416:256|408:144,1,180,2|0,0:3|0:0,0:0:0:0:
288,224,150579,2,0,P|232:200|240:80,1,180,2|0,0:3|0:0,0:0:0:0:
376,64,151108,1,2,0:0:0:0:
224,264,151461,6,0,P|144:232|136:144,1,180,2|0,0:3|0:0,0:0:0:0:
272,232,151991,2,0,P|320:208|328:80,1,180,2|0,0:3|0:0,0:0:0:0:
184,104,152520,2,0,L|80:104,1,90,2|2,0:0|0:0,0:0:0:0:
232,64,152873,6,0,P|304:80|344:208,1,180,2|0,0:3|0:0,0:0:0:0:
176,80,153402,2,0,P|144:160|248:192,1,180,2|0,0:3|0:0,0:0:0:0:
328,208,153932,1,2,0:0:0:0:
240,264,154285,6,0,P|152:216|168:152,1,180,2|0,0:3|0:0,0:0:0:0:
288,232,154814,2,0,P|328:200|256:112,1,180,2|0,0:3|0:0,0:0:0:0:
136,112,155344,1,2,0:0:0:0:
304,72,155520,1,2,0:0:0:0:
48,200,155697,5,2,0:3:0:0:
224,200,156049,1,2,0:0:0:0:
96,328,156402,1,2,0:3:0:0:
272,336,156755,1,2,0:0:0:0:
464,200,157108,5,2,0:3:0:0:
288,200,157460,1,2,0:0:0:0:
416,328,157813,1,2,0:3:0:0:
240,336,158167,2,0,L|336:336,1,90,2|0,0:0|0:0,0:0:0:0:
88,248,158520,6,0,L|24:160,1,90,2|0,0:3|0:0,0:0:0:0:
432,224,158873,2,0,L|328:224,1,90,2|0,0:0|0:0,0:0:0:0:
80,224,159226,2,0,L|184:224,1,90,2|0,0:3|0:0,0:0:0:0:
424,248,159579,2,0,L|488:160,1,90,2|0,0:0|0:0,0:0:0:0:
168,176,159932,6,0,L|56:176,1,90,2|0,0:3|0:0,0:0:0:0:
344,176,160285,2,0,L|434:176,1,90,2|0,0:0|0:0,0:0:0:0:
136,88,160638,1,2,0:3:0:0:
80,95,160726,1,0,0:0:0:0:
53,144,160814,1,2,0:3:0:0:
77,195,160902,1,0,0:0:0:0:
376,88,160991,1,2,0:3:0:0:
432,95,161079,1,0,0:0:0:0:
459,144,161167,1,2,0:3:0:0:
435,195,161255,1,0,0:0:0:0:
176,192,161344,5,2,0:1:0:0:
256,192,161697,12,0,163814,0:0:0:0:
304,288,164167,6,0,P|376:200|328:112,1,202.500007724762,4|0,0:0|0:0,0:0:0:0:
176,192,164520,2,0,L|48:192,1,116.999994644165,2|0,0:3|0:0,0:0:0:0:
152,192,164785,1,0,0:0:0:0:
336,192,164873,2,0,L|472:192,1,116.999994644165,8|0,0:3|0:0,0:0:0:0:
360,192,165138,1,0,0:0:0:0:
136,128,165226,2,0,L|72:256,1,116.999994644165,2|0,0:3|0:0,0:0:0:0:
184,248,165491,1,0,0:0:0:0:
368,248,165579,6,0,L|480:248,1,58.4999973220826,2|0,0:3|0:0,0:0:0:0:
240,168,165755,2,0,L|144:168,1,58.4999973220826,2|0,0:0|0:0,0:0:0:0:
408,192,165932,2,0,L|472:80,1,116.999994644165,2|0,0:3|0:0,0:0:0:0:
368,56,166197,1,0,0:0:0:0:
104,184,166285,1,8,0:3:0:0:
32,184,166373,1,0,0:0:0:0:
104,184,166461,1,2,0:0:0:0:
176,184,166549,1,0,0:0:0:0:
328,192,166638,2,0,L|200:192,1,116.999994644165,2|0,0:0|0:0,0:0:0:0:
448,96,166991,6,0,P|480:152|416:264,1,175.499991966248,4|0,0:0|0:0,0:0:0:0:
360,104,167344,2,0,L|488:104,1,116.999994644165,2|0,0:0|0:0,0:0:0:0:
208,216,167697,2,0,L|328:216,1,116.999994644165,8|0,0:3|0:0,0:0:0:0:
176,136,168049,2,0,L|120:240,1,116.999994644165,2|0,0:0|0:0,0:0:0:0:
384,272,168402,6,0,P|440:240|400:104,1,175.499991966248,8|0,0:1|0:0,0:0:0:0:
264,216,168755,1,2,0:0:0:0:
147,216,168931,1,2,0:0:0:0:
400,192,169108,2,0,L|488:112,1,116.999994644165,2|0,0:0|0:0,0:0:0:0:
248,120,169461,2,0,L|339:194,1,116.999994644165,2|0,0:0|0:0,0:0:0:0:
104,288,169814,6,0,P|32:200|80:112,1,202.500007724762,4|0,0:0|0:0,0:0:0:0:
232,128,170167,2,0,L|384:128,1,116.999994644165,2|0,0:3|0:0,0:0:0:0:
256,128,170432,1,0,0:0:0:0:
112,136,170520,2,0,L|32:240,1,116.999994644165,8|0,0:3|0:0,0:0:0:0:
152,136,170785,1,0,0:0:0:0:
288,184,170873,2,0,L|168:184,1,116.999994644165,2|0,0:3|0:0,0:0:0:0:
264,184,171138,1,0,0:0:0:0:
408,176,171226,6,0,L|480:176,1,58.4999973220826,2|0,0:3|0:0,0:0:0:0:
264,160,171402,2,0,L|152:160,1,58.4999973220826,2|0,0:0|0:0,0:0:0:0:
384,96,171579,2,0,L|464:216,1,116.999994644165,8|0,0:3|0:0,0:0:0:0:
344,192,171844,1,0,0:0:0:0:
144,177,171932,1,2,0:3:0:0:
81,136,172020,1,0,0:0:0:0:
112,80,172108,1,2,0:0:0:0:
192,56,172196,1,0,0:0:0:0:
424,264,172285,2,0,L|464:144,1,116.999994644165,2|0,0:0|0:0,0:0:0:0:
208,248,172638,6,0,P|144:232|112:128,1,175.499991966248,4|0,0:0|0:0,0:0:0:0:
232,88,172991,2,0,P|309:88|349:88,1,116.999994644165,2|0,0:0|0:0,0:0:0:0:
104,280,173344,1,8,0:3:0:0:
67,169,173520,1,0,0:0:0:0:
320,224,173697,1,2,0:0:0:0:
168,144,173873,6,0,P|136:200|256:272,1,233.999989288331,2|4,0:0|0:3,0:0:0:0:
368,272,174402,2,0,L|464:144,1,116.999994644165,8|0,0:3|0:0,0:0:0:0:
192,224,174755,2,0,L|104:128,1,116.999994644165,2|0,0:0|0:0,0:0:0:0:
352,160,175108,1,2,0:0:0:0:
448,112,175285,2,0,L|376:112,1,58.4999973220826
120,72,175461,5,2,0:0:0:0:
177,86,175549,1,0,0:0:0:0:
220,124,175637,1,2,0:0:0:0:
241,178,175725,1,0,0:0:0:0:
235,236,175813,1,2,0:0:0:0:
203,284,175902,1,0,0:0:0:0:
152,312,175990,1,2,0:0:0:0:
94,314,176078,1,0,0:0:0:0:
352,168,176167,2,0,L|224:168,1,116.999994644165,8|0,0:3|0:0,0:0:0:0:
392,160,176520,2,0,L|448:48,1,116.999994644165,2|0,0:0|0:0,0:0:0:0:
64,176,176873,6,0,L|192:176,2,116.999994644165,8|0|2,0:1|0:0|0:0,0:0:0:0:
448,176,177402,2,0,L|320:176,2,116.999994644165,8|0|2,0:1|0:0|0:0,0:0:0:0:
184,144,177932,2,0,L|40:144,1,116.999994644165,8|2,0:1|0:0,0:0:0:0:
368,96,178285,5,2,0:0:0:0:
416,136,178373,1,0,0:0:0:0:
411,189,178461,1,2,0:0:0:0:
354,228,178549,1,0,0:0:0:0:
272,232,178638,1,2,0:0:0:0:
200,232,178726,1,0,0:0:0:0:
272,168,178814,1,2,0:0:0:0:
344,168,178903,1,0,0:0:0:0:
152,128,178991,2,0,L|269:128,1,116.999994644165,4|0,0:3|0:0,0:0:0:0:
112,112,179344,2,0,L|40:224,1,116.999994644165,2|0,0:0|0:0,0:0:0:0:
424,192,179697,5,8,0:1:0:0:
256,104,179873,2,0,L|384:104,1,116.999994644165,0|2,0:0|0:0,0:0:0:0:
88,192,180226,1,8,0:1:0:0:
256,104,180402,2,0,L|128:104,1,116.999994644165,0|2,0:0|0:0,0:0:0:0:
464,120,180755,1,2,0:0:0:0:
176,224,181108,6,0,L|80:224,1,58.4999973220826,4|0,0:3|0:0,0:0:0:0:
264,168,181285,2,0,L|344:168,1,58.4999973220826,2|0,0:3|0:0,0:0:0:0:
56,144,181461,2,0,L|115:144,1,58.4999973220826,2|0,0:3|0:0,0:0:0:0:
344,104,181638,1,2,0:0:0:0:
88,56,181814,2,0,P|48:128|136:192,1,175.499991966248,8|0,0:3|0:0,0:0:0:0:
208,208,182167,1,2,0:0:0:0:
40,232,182344,1,0,0:0:0:0:
424,112,182520,6,0,L|290:226,2,175.499991966248,8|2|8,0:1|0:0|0:1,0:0:0:0:
184,208,183226,1,8,0:1:0:0:
336,208,183402,1,0,0:0:0:0:
144,256,183579,1,8,0:1:0:0:
113,208,183667,1,0,0:0:0:0:
126,152,183755,1,2,0:0:0:0:
175,124,183843,1,0,0:0:0:0:
400,144,183932,5,2,0:0:0:0:
458,144,184020,1,0,0:0:0:0:
400,144,184108,1,2,0:0:0:0:
152,152,184285,2,0,L|8:152,1,116.999994644165,2|0,0:0|0:0,0:0:0:0:
368,136,184638,2,0,L|496:136,1,116.999994644165,8|0,0:3|0:0,0:0:0:0:
392,136,184902,1,0,0:0:0:0:
184,128,184991,2,0,L|312:128,1,116.999994644165,2|0,0:0|0:0,0:0:0:0:
64,64,185344,6,0,P|32:112|96:184,1,116.999994644165,2|0,0:1|0:0,0:0:0:0:
304,304,185697,2,0,L|304:104,1,175.499991966248,2|0,0:3|0:0,0:0:0:0:
368,304,186049,2,0,L|368:120,1,175.499991966248,2|0,0:3|0:0,0:0:0:0:
240,304,186402,2,0,L|240:112,1,175.499991966248,2|0,0:3|0:0,0:0:0:0:
432,128,186755,5,4,0:1:0:0:
