osu file format v14

[General]
AudioFilename: KAWAYAH - Backbone.mp3
AudioLeadIn: 0
PreviewTime: 131263
Countdown: 0
SampleSet: Normal
StackLeniency: 0.7
Mode: 3
LetterboxInBreaks: 0
SpecialStyle: 0
WidescreenStoryboard: 1

[Editor]
DistanceSpacing: 1.6
BeatDivisor: 4
GridSize: 4
TimelineZoom: 1

[Metadata]
Title:Backbone
TitleUnicode:Backbone
Artist:KAWAYAH
ArtistUnicode:KAWAYAH
Creator:jukkaduei
Version:HD
Source:Thapster
Tags:Electronic DJ
BeatmapID:984473
BeatmapSetID:459551

[Difficulty]
HPDrainRate:7.5
CircleSize:4
OverallDifficulty:8
ApproachRate:5
SliderMultiplier:1.4
SliderTickRate:1

[Events]
//Background and Video events
0,0,"clinkz-bone-fletcher-dota-2.jpg",0,0
//Break Periods
//Storyboard Layer 0 (Background)
//Storyboard Layer 1 (Fail)
//Storyboard Layer 2 (Pass)
//Storyboard Layer 3 (Foreground)
//Storyboard Sound Samples

[TimingPoints]
9388,468.75,4,1,1,50,1,0
46888,-100,4,1,1,50,0,1
76888,-100,4,1,1,50,0,0
133138,-100,4,1,1,50,0,1
163138,-100,4,1,1,50,0,0

[HitObjects]
64,192,9388,5,2,0:0:0:0:
448,192,9856,1,2,0:0:0:0:
320,192,9973,1,0,0:0:0:0:
192,192,10091,1,0,0:0:0:0:
320,192,10325,1,2,0:0:0:0:
448,192,10794,1,2,0:0:0:0:
320,192,11028,1,0,0:0:0:0:
192,192,11263,1,2,0:0:0:0:
320,192,11497,1,0,0:0:0:0:
192,192,11614,1,0,0:0:0:0:
64,192,11731,1,2,0:0:0:0:
192,192,12200,1,2,0:0:0:0:
448,192,12552,1,0,0:0:0:0:
64,192,12903,1,0,0:0:0:0:
320,192,13138,1,2,0:0:0:0:
320,192,13606,1,2,0:0:0:0:
192,192,13723,1,0,0:0:0:0:
64,192,13841,1,0,0:0:0:0:
448,192,14075,1,2,0:0:0:0:
64,192,14544,1,2,0:0:0:0:
320,192,14778,1,0,0:0:0:0:
192,192,15013,1,2,0:0:0:0:
448,192,15247,1,0,0:0:0:0:
320,192,15364,1,0,0:0:0:0:
64,192,15481,1,2,0:0:0:0:
448,192,15950,1,2,0:0:0:0:
320,192,16184,1,0,0:0:0:0:
192,192,16302,1,0,0:0:0:0:
64,192,16653,1,0,0:0:0:0:
64,192,16888,1,2,0:0:0:0:
320,192,17356,1,2,0:0:0:0:
192,192,17473,1,0,0:0:0:0:
64,192,17591,1,0,0:0:0:0:
448,192,17825,1,2,0:0:0:0:
320,192,18294,1,2,0:0:0:0:
192,192,18528,1,0,0:0:0:0:
448,192,18763,1,2,0:0:0:0:
64,192,18997,1,0,0:0:0:0:
192,192,19114,1,0,0:0:0:0:
320,192,19231,1,2,0:0:0:0:
192,192,19700,1,2,0:0:0:0:
448,192,20052,1,0,0:0:0:0:
64,192,20403,1,0,0:0:0:0:
192,192,20638,1,2,0:0:0:0:
320,192,21106,1,2,0:0:0:0:
192,192,21223,1,0,0:0:0:0:
64,192,21341,1,0,0:0:0:0:
448,192,21575,1,2,0:0:0:0:
320,192,22044,1,2,0:0:0:0:
192,192,22278,1,0,0:0:0:0:
64,192,22513,1,2,0:0:0:0:
448,192,22747,1,0,0:0:0:0:
320,192,22864,1,0,0:0:0:0:
192,192,22981,1,2,0:0:0:0:
320,192,23450,1,2,0:0:0:0:
192,192,23684,1,0,0:0:0:0:
64,192,23802,1,0,0:0:0:0:
448,192,23919,1,0,0:0:0:0:
320,192,23919,1,8,0:0:0:0:
192,192,24153,1,0,0:0:0:0:
64,192,24388,1,0,0:0:0:0:
448,192,24388,1,12,0:0:0:0:
320,192,24856,1,0,0:0:0:0:
448,192,24856,1,8,0:0:0:0:
192,192,24973,1,0,0:0:0:0:
64,192,25091,1,0,0:0:0:0:
448,192,25325,128,0,25794:0:0:0:0:
320,192,25325,1,8,0:0:0:0:
192,192,25794,1,0,0:0:0:0:
64,192,25794,1,8,0:0:0:0:
448,192,26028,1,0,0:0:0:0:
320,192,26263,1,8,0:0:0:0:
192,192,26263,1,0,0:0:0:0:
448,192,26497,1,0,0:0:0:0:
320,192,26614,1,0,0:0:0:0:
192,192,26731,1,0,0:0:0:0:
64,192,26731,1,8,0:0:0:0:
64,192,27200,1,8,0:0:0:0:
320,192,27200,1,0,0:0:0:0:
448,192,27552,1,0,0:0:0:0:
192,192,27669,1,8,0:0:0:0:
64,192,27903,1,0,0:0:0:0:
320,192,28138,1,8,0:0:0:0:
192,192,28138,1,0,0:0:0:0:
192,192,28606,1,0,0:0:0:0:
448,192,28606,1,8,0:0:0:0:
320,192,28723,1,0,0:0:0:0:
64,192,28841,1,0,0:0:0:0:
448,192,29075,128,0,29544:0:0:0:0:
192,192,29075,1,8,0:0:0:0:
192,192,29544,1,0,0:0:0:0:
320,192,29544,1,8,0:0:0:0:
64,192,29778,1,0,0:0:0:0:
320,192,30013,1,0,0:0:0:0:
448,192,30013,1,8,0:0:0:0:
192,192,30247,1,0,0:0:0:0:
320,192,30364,1,0,0:0:0:0:
64,192,30481,1,8,0:0:0:0:
448,192,30481,1,0,0:0:0:0:
64,192,30950,1,0,0:0:0:0:
320,192,30950,1,8,0:0:0:0:
192,192,31184,1,0,0:0:0:0:
448,192,31302,1,0,0:0:0:0:
320,192,31419,1,8,0:0:0:0:
192,192,31653,1,0,0:0:0:0:
64,192,31888,1,0,0:0:0:0:
448,192,31888,1,12,0:0:0:0:
192,192,32122,1,0,0:0:0:0:
320,192,32356,1,8,0:0:0:0:
448,192,32356,1,0,0:0:0:0:
192,192,32591,1,0,0:0:0:0:
320,192,32825,1,8,0:0:0:0:
64,192,32825,1,0,0:0:0:0:
448,192,33059,1,0,0:0:0:0:
320,192,33294,1,8,0:0:0:0:
192,192,33294,1,0,0:0:0:0:
64,192,33528,1,0,0:0:0:0:
192,192,33763,1,8,0:0:0:0:
320,192,33763,1,0,0:0:0:0:
448,192,33997,1,0,0:0:0:0:
320,192,34231,1,8,0:0:0:0:
64,192,34231,1,0,0:0:0:0:
192,192,34466,1,0,0:0:0:0:
448,192,34700,1,8,0:0:0:0:
64,192,34700,1,0,0:0:0:0:
320,192,34934,1,0,0:0:0:0:
192,192,35169,1,8,0:0:0:0:
64,192,35169,1,0,0:0:0:0:
320,192,35403,1,0,0:0:0:0:
64,192,35638,1,0,0:0:0:0:
448,192,35638,1,12,0:0:0:0:
320,192,35872,1,0,0:0:0:0:
192,192,36106,1,8,0:0:0:0:
448,192,36106,1,0,0:0:0:0:
64,192,36341,1,0,0:0:0:0:
320,192,36575,1,8,0:0:0:0:
448,192,36575,1,0,0:0:0:0:
192,192,36809,1,0,0:0:0:0:
448,192,37044,1,8,0:0:0:0:
64,192,37044,1,0,0:0:0:0:
320,192,37278,1,0,0:0:0:0:
192,192,37513,1,8,0:0:0:0:
448,192,37513,1,0,0:0:0:0:
64,192,37747,1,0,0:0:0:0:
320,192,37981,1,8,0:0:0:0:
192,192,37981,1,0,0:0:0:0:
448,192,38216,1,0,0:0:0:0:
192,192,38450,1,8,0:0:0:0:
64,192,38450,1,0,0:0:0:0:
320,192,38684,1,0,0:0:0:0:
64,192,38919,1,8,0:0:0:0:
448,192,38919,1,0,0:0:0:0:
192,192,39153,1,0,0:0:0:0:
320,192,39388,1,12,0:0:0:0:
64,192,39388,1,0,0:0:0:0:
448,192,39622,1,8,0:0:0:0:
320,192,39622,1,0,0:0:0:0:
192,192,39856,1,8,0:0:0:0:
64,192,39856,1,0,0:0:0:0:
320,192,40091,1,8,0:0:0:0:
192,192,40091,1,0,0:0:0:0:
448,192,40325,1,8,0:0:0:0:
64,192,40325,1,0,0:0:0:0:
192,192,40559,1,8,0:0:0:0:
320,192,40559,1,0,0:0:0:0:
64,192,40794,1,8,0:0:0:0:
320,192,40794,1,0,0:0:0:0:
192,192,41028,1,8,0:0:0:0:
448,192,41028,1,0,0:0:0:0:
448,192,41263,1,8,0:0:0:0:
64,192,41263,1,0,0:0:0:0:
320,192,41497,1,8,0:0:0:0:
192,192,41497,1,0,0:0:0:0:
192,192,41731,1,8,0:0:0:0:
448,192,41731,1,0,0:0:0:0:
64,192,41966,1,8,0:0:0:0:
320,192,41966,1,0,0:0:0:0:
192,192,42200,1,8,0:0:0:0:
320,192,42200,1,0,0:0:0:0:
448,192,42434,1,8,0:0:0:0:
64,192,42434,1,0,0:0:0:0:
192,192,42669,1,8,0:0:0:0:
64,192,42669,1,0,0:0:0:0:
320,192,42903,1,8,0:0:0:0:
192,192,42903,1,0,0:0:0:0:
64,192,43138,1,0,0:0:0:0:
448,192,43138,1,8,0:0:0:0:
320,192,43255,1,8,0:0:0:0:
192,192,43372,1,8,0:0:0:0:
64,192,43489,1,8,0:0:0:0:
448,192,43606,1,8,0:0:0:0:
320,192,43723,1,8,0:0:0:0:
64,192,43841,1,8,0:0:0:0:
192,192,43958,1,8,0:0:0:0:
448,192,44075,1,8,0:0:0:0:
320,192,44192,1,8,0:0:0:0:
192,192,44309,1,8,0:0:0:0:
64,192,44427,1,8,0:0:0:0:
448,192,44544,1,8,0:0:0:0:
320,192,44661,1,8,0:0:0:0:
64,192,44778,1,8,0:0:0:0:
192,192,44895,1,8,0:0:0:0:
320,192,46184,128,0,46419:0:0:0:0:
448,192,46419,1,8,0:0:0:0:
192,192,46419,1,0,0:0:0:0:
64,192,46419,128,0,46888:0:0:0:0:
320,192,46888,1,4,0:0:0:0:
448,192,46888,1,0,0:0:0:0:
192,192,47239,1,0,0:0:0:0:
320,192,47356,128,8,47591:0:0:0:0:
192,192,47708,1,0,0:0:0:0:
64,192,47825,128,0,48059:0:0:0:0:
192,192,48059,1,0,0:0:0:0:
448,192,48294,128,8,48763:0:0:0:0:
320,192,48294,1,0,0:0:0:0:
64,192,48763,128,0,49231:0:0:0:0:
192,192,48763,1,0,0:0:0:0:
448,192,49114,1,0,0:0:0:0:
320,192,49231,1,0,0:0:0:0:
192,192,49231,128,8,49466:0:0:0:0:
448,192,49466,128,0,49700:0:0:0:0:
320,192,49700,1,0,0:0:0:0:
64,192,49934,128,0,50169:0:0:0:0:
192,192,50169,128,8,50403:0:0:0:0:
448,192,50169,1,0,0:0:0:0:
320,192,50403,128,0,50638:0:0:0:0:
64,192,50638,1,0,0:0:0:0:
448,192,50638,1,0,0:0:0:0:
320,192,50989,1,0,0:0:0:0:
192,192,51106,128,8,51341:0:0:0:0:
448,192,51458,1,0,0:0:0:0:
320,192,51575,128,0,51809:0:0:0:0:
64,192,51809,1,0,0:0:0:0:
192,192,52044,128,8,52513:0:0:0:0:
448,192,52044,1,0,0:0:0:0:
320,192,52513,128,0,52864:0:0:0:0:
448,192,52513,1,0,0:0:0:0:
64,192,52864,1,0,0:0:0:0:
192,192,52981,128,8,53216:0:0:0:0:
448,192,53216,128,0,53450:0:0:0:0:
320,192,53450,1,0,0:0:0:0:
64,192,53684,128,0,53919:0:0:0:0:
320,192,53919,128,8,54153:0:0:0:0:
448,192,53919,1,0,0:0:0:0:
192,192,54153,128,0,54388:0:0:0:0:
64,192,54388,1,0,0:0:0:0:
448,192,54388,1,0,0:0:0:0:
64,192,54739,1,0,0:0:0:0:
192,192,54856,128,8,55091:0:0:0:0:
448,192,55208,1,0,0:0:0:0:
320,192,55325,128,0,55559:0:0:0:0:
192,192,55559,1,0,0:0:0:0:
320,192,55794,128,8,56263:0:0:0:0:
64,192,55794,1,0,0:0:0:0:
192,192,56263,128,0,56614:0:0:0:0:
448,192,56263,1,0,0:0:0:0:
64,192,56614,1,0,0:0:0:0:
448,192,56731,128,8,56966:0:0:0:0:
320,192,56731,1,0,0:0:0:0:
192,192,56966,128,0,57200:0:0:0:0:
64,192,57200,1,0,0:0:0:0:
448,192,57434,128,0,57669:0:0:0:0:
320,192,57669,128,8,57903:0:0:0:0:
64,192,57669,1,0,0:0:0:0:
192,192,57903,128,0,58138:0:0:0:0:
64,192,58138,1,0,0:0:0:0:
448,192,58138,1,0,0:0:0:0:
448,192,58606,128,8,58841:0:0:0:0:
192,192,58606,1,0,0:0:0:0:
64,192,58841,128,0,59075:0:0:0:0:
192,192,59075,128,0,59544:0:0:0:0:
320,192,59075,1,0,0:0:0:0:
320,192,59427,1,0,0:0:0:0:
64,192,59544,128,8,60013:0:0:0:0:
448,192,59544,1,0,0:0:0:0:
320,192,60013,1,0,0:0:0:0:
448,192,60130,1,0,0:0:0:0:
192,192,60247,1,0,0:0:0:0:
320,192,60364,1,0,0:0:0:0:
64,192,60481,1,0,0:0:0:0:
192,192,60598,1,0,0:0:0:0:
448,192,60716,1,0,0:0:0:0:
320,192,60833,1,0,0:0:0:0:
192,192,60950,1,0,0:0:0:0:
64,192,61184,1,0,0:0:0:0:
320,192,61419,1,0,0:0:0:0:
192,192,61653,1,8,0:0:0:0:
64,192,61888,1,4,0:0:0:0:
448,192,61888,1,0,0:0:0:0:
192,192,62239,1,0,0:0:0:0:
64,192,62356,128,8,62591:0:0:0:0:
320,192,62708,1,0,0:0:0:0:
448,192,62825,128,0,63059:0:0:0:0:
192,192,63059,1,0,0:0:0:0:
64,192,63294,128,8,63763:0:0:0:0:
320,192,63528,1,0,0:0:0:0:
448,192,63763,128,0,64231:0:0:0:0:
320,192,64114,1,0,0:0:0:0:
64,192,64231,128,8,64466:0:0:0:0:
192,192,64466,128,0,64700:0:0:0:0:
448,192,64700,1,0,0:0:0:0:
64,192,64934,128,0,65169:0:0:0:0:
320,192,64934,1,0,0:0:0:0:
192,192,65169,128,8,65403:0:0:0:0:
448,192,65169,1,0,0:0:0:0:
320,192,65403,128,0,65638:0:0:0:0:
64,192,65638,1,0,0:0:0:0:
448,192,65638,1,0,0:0:0:0:
320,192,65989,1,0,0:0:0:0:
448,192,66106,128,8,66341:0:0:0:0:
192,192,66458,1,0,0:0:0:0:
64,192,66575,128,0,66809:0:0:0:0:
320,192,66809,1,0,0:0:0:0:
448,192,67044,128,8,67513:0:0:0:0:
64,192,67278,1,0,0:0:0:0:
192,192,67513,128,0,67981:0:0:0:0:
64,192,67864,1,0,0:0:0:0:
448,192,67981,128,8,68216:0:0:0:0:
64,192,68216,128,0,68450:0:0:0:0:
320,192,68450,1,0,0:0:0:0:
448,192,68684,128,0,68919:0:0:0:0:
192,192,68684,1,0,0:0:0:0:
320,192,68919,128,8,69153:0:0:0:0:
64,192,68919,1,0,0:0:0:0:
192,192,69153,128,0,69388:0:0:0:0:
320,192,69388,1,0,0:0:0:0:
64,192,69388,1,0,0:0:0:0:
448,192,69739,1,0,0:0:0:0:
192,192,69856,128,8,70091:0:0:0:0:
320,192,70208,1,0,0:0:0:0:
448,192,70325,128,0,70559:0:0:0:0:
192,192,70559,1,0,0:0:0:0:
64,192,70794,128,8,71263:0:0:0:0:
192,192,71028,1,0,0:0:0:0:
320,192,71263,128,0,71731:0:0:0:0:
448,192,71614,1,0,0:0:0:0:
192,192,71731,128,8,71966:0:0:0:0:
320,192,71966,128,0,72200:0:0:0:0:
64,192,72200,1,0,0:0:0:0:
192,192,72434,128,0,72669:0:0:0:0:
320,192,72434,1,0,0:0:0:0:
64,192,72669,128,8,72903:0:0:0:0:
448,192,72669,1,0,0:0:0:0:
320,192,72903,128,0,73138:0:0:0:0:
192,192,73138,1,0,0:0:0:0:
448,192,73138,1,0,0:0:0:0:
448,192,73606,128,8,73841:0:0:0:0:
64,192,73606,1,0,0:0:0:0:
320,192,73841,128,0,74075:0:0:0:0:
192,192,74075,128,0,74544:0:0:0:0:
64,192,74075,1,0,0:0:0:0:
448,192,74309,1,0,0:0:0:0:
64,192,74544,128,8,75013:0:0:0:0:
320,192,74544,1,0,0:0:0:0:
192,192,74778,1,0,0:0:0:0:
448,192,75013,1,0,0:0:0:0:
320,192,75130,1,0,0:0:0:0:
64,192,75247,1,0,0:0:0:0:
192,192,75364,1,0,0:0:0:0:
320,192,75481,1,0,0:0:0:0:
448,192,75598,1,0,0:0:0:0:
192,192,75716,1,0,0:0:0:0:
64,192,75833,1,0,0:0:0:0:
448,192,75950,1,0,0:0:0:0:
320,192,76067,1,0,0:0:0:0:
64,192,76184,1,0,0:0:0:0:
192,192,76302,1,0,0:0:0:0:
320,192,76419,1,0,0:0:0:0:
448,192,76536,1,0,0:0:0:0:
192,192,76653,1,8,0:0:0:0:
64,192,76888,128,4,80638:0:0:0:0:
448,192,80169,128,0,80638:0:0:0:0:
320,192,80638,1,0,0:0:0:0:
320,192,81106,1,0,0:0:0:0:
64,192,81458,1,0,0:0:0:0:
192,192,81692,1,0,0:0:0:0:
448,192,82044,1,0,0:0:0:0:
192,192,82278,1,0,0:0:0:0:
64,192,82513,1,0,0:0:0:0:
64,192,82981,1,0,0:0:0:0:
320,192,83333,1,0,0:0:0:0:
320,192,83684,1,0,0:0:0:0:
192,192,83919,1,0,0:0:0:0:
320,192,84153,1,0,0:0:0:0:
448,192,84388,1,0,0:0:0:0:
448,192,84856,1,0,0:0:0:0:
64,192,85208,1,0,0:0:0:0:
192,192,85442,1,0,0:0:0:0:
448,192,85794,1,0,0:0:0:0:
320,192,86028,1,0,0:0:0:0:
64,192,86263,1,0,0:0:0:0:
64,192,86731,1,0,0:0:0:0:
448,192,87083,1,0,0:0:0:0:
448,192,87434,1,0,0:0:0:0:
192,192,87669,1,0,0:0:0:0:
64,192,87903,1,0,0:0:0:0:
320,192,88138,1,0,0:0:0:0:
320,192,88606,1,0,0:0:0:0:
64,192,88958,1,0,0:0:0:0:
192,192,89192,1,0,0:0:0:0:
448,192,89544,1,0,0:0:0:0:
320,192,89778,1,0,0:0:0:0:
192,192,90013,1,0,0:0:0:0:
192,192,90481,1,0,0:0:0:0:
320,192,90833,1,0,0:0:0:0:
320,192,91184,1,0,0:0:0:0:
64,192,91419,1,0,0:0:0:0:
320,192,91653,1,0,0:0:0:0:
448,192,91888,1,0,0:0:0:0:
448,192,92356,1,0,0:0:0:0:
64,192,92708,1,0,0:0:0:0:
192,192,92942,1,0,0:0:0:0:
448,192,93294,1,0,0:0:0:0:
192,192,93528,1,0,0:0:0:0:
320,192,93763,1,0,0:0:0:0:
320,192,94231,128,0,94466:0:0:0:0:
192,192,94583,128,0,94817:0:0:0:0:
448,192,94583,128,0,94817:0:0:0:0:
192,192,94934,128,0,95169:0:0:0:0:
448,192,94934,128,0,95169:0:0:0:0:
192,192,95638,1,8,0:0:0:0:
64,192,95638,128,0,95989:0:0:0:0:
192,192,96106,1,8,0:0:0:0:
320,192,96106,128,0,96341:0:0:0:0:
448,192,96458,128,0,96692:0:0:0:0:
64,192,96575,1,8,0:0:0:0:
192,192,96692,128,0,96927:0:0:0:0:
320,192,97044,1,8,0:0:0:0:
64,192,97044,128,0,97278:0:0:0:0:
192,192,97278,128,0,97513:0:0:0:0:
320,192,97513,1,8,0:0:0:0:
448,192,97513,128,0,97864:0:0:0:0:
64,192,97981,1,8,0:0:0:0:
192,192,97981,128,0,98216:0:0:0:0:
320,192,98333,128,0,98567:0:0:0:0:
64,192,98450,1,8,0:0:0:0:
448,192,98684,128,0,98919:0:0:0:0:
64,192,98919,1,8,0:0:0:0:
320,192,98919,128,0,99153:0:0:0:0:
192,192,99153,128,0,99388:0:0:0:0:
320,192,99388,1,8,0:0:0:0:
64,192,99388,128,0,99739:0:0:0:0:
192,192,99856,1,8,0:0:0:0:
320,192,99856,128,0,100091:0:0:0:0:
64,192,100208,128,0,100442:0:0:0:0:
448,192,100325,1,8,0:0:0:0:
192,192,100442,128,0,100677:0:0:0:0:
64,192,100794,1,8,0:0:0:0:
448,192,100794,128,0,101028:0:0:0:0:
320,192,101028,128,0,101263:0:0:0:0:
64,192,101263,1,8,0:0:0:0:
192,192,101263,128,0,101614:0:0:0:0:
64,192,101731,1,8,0:0:0:0:
320,192,101731,128,0,101966:0:0:0:0:
448,192,102083,128,0,102317:0:0:0:0:
64,192,102200,1,8,0:0:0:0:
192,192,102434,128,0,102669:0:0:0:0:
320,192,102669,1,8,0:0:0:0:
448,192,102669,128,0,102903:0:0:0:0:
64,192,102903,128,0,103138:0:0:0:0:
192,192,103138,1,8,0:0:0:0:
320,192,103138,128,0,103489:0:0:0:0:
64,192,103606,1,8,0:0:0:0:
192,192,103606,128,0,103841:0:0:0:0:
64,192,103958,128,0,104192:0:0:0:0:
320,192,104075,1,8,0:0:0:0:
448,192,104075,1,0,0:0:0:0:
192,192,104192,128,0,104427:0:0:0:0:
64,192,104544,1,8,0:0:0:0:
448,192,104544,128,0,104778:0:0:0:0:
320,192,104778,128,0,105013:0:0:0:0:
192,192,105013,1,8,0:0:0:0:
64,192,105013,128,0,105364:0:0:0:0:
320,192,105481,1,8,0:0:0:0:
192,192,105481,128,0,105716:0:0:0:0:
448,192,105833,128,0,106067:0:0:0:0:
64,192,105950,1,8,0:0:0:0:
320,192,105950,1,0,0:0:0:0:
192,192,106184,128,0,106419:0:0:0:0:
320,192,106419,1,8,0:0:0:0:
448,192,106419,128,0,106653:0:0:0:0:
64,192,106653,128,0,106888:0:0:0:0:
192,192,106888,1,8,0:0:0:0:
320,192,106888,128,0,107239:0:0:0:0:
448,192,107356,1,8,0:0:0:0:
192,192,107356,128,0,107591:0:0:0:0:
64,192,107708,128,0,107942:0:0:0:0:
320,192,107825,1,8,0:0:0:0:
448,192,107825,1,0,0:0:0:0:
192,192,107942,128,0,108177:0:0:0:0:
64,192,108294,1,8,0:0:0:0:
448,192,108294,128,0,108528:0:0:0:0:
320,192,108528,128,0,108763:0:0:0:0:
192,192,108763,1,8,0:0:0:0:
64,192,108763,128,0,109114:0:0:0:0:
320,192,109231,1,8,0:0:0:0:
192,192,109231,128,0,109466:0:0:0:0:
448,192,109583,128,0,109817:0:0:0:0:
320,192,109700,1,8,0:0:0:0:
64,192,109700,1,0,0:0:0:0:
192,192,109934,128,0,110169:0:0:0:0:
448,192,110169,1,8,0:0:0:0:
64,192,110169,128,0,110403:0:0:0:0:
320,192,110403,128,0,110638:0:0:0:0:
192,192,110638,1,8,0:0:0:0:
448,192,110638,128,0,110989:0:0:0:0:
320,192,111106,1,8,0:0:0:0:
64,192,111106,128,0,111341:0:0:0:0:
320,192,111458,128,0,111692:0:0:0:0:
192,192,111575,1,8,0:0:0:0:
448,192,111692,128,0,111927:0:0:0:0:
64,192,112044,1,8,0:0:0:0:
320,192,112044,128,0,112278:0:0:0:0:
192,192,112278,128,0,112513:0:0:0:0:
448,192,112513,1,8,0:0:0:0:
64,192,112513,128,0,112864:0:0:0:0:
192,192,112981,1,8,0:0:0:0:
448,192,112981,128,0,113216:0:0:0:0:
320,192,113333,128,0,113567:0:0:0:0:
64,192,113450,1,0,0:0:0:0:
192,192,113450,1,8,0:0:0:0:
192,192,113684,128,0,113919:0:0:0:0:
448,192,113919,1,8,0:0:0:0:
64,192,113919,128,0,114153:0:0:0:0:
320,192,114153,128,0,114388:0:0:0:0:
192,192,114388,1,8,0:0:0:0:
448,192,114388,128,0,114739:0:0:0:0:
192,192,114856,1,8,0:0:0:0:
64,192,114856,128,0,115091:0:0:0:0:
448,192,115208,128,0,115442:0:0:0:0:
192,192,115325,1,8,0:0:0:0:
320,192,115442,128,0,115677:0:0:0:0:
192,192,115794,1,8,0:0:0:0:
64,192,115794,128,0,116028:0:0:0:0:
320,192,116028,128,0,116263:0:0:0:0:
448,192,116263,1,8,0:0:0:0:
192,192,116263,128,0,116614:0:0:0:0:
448,192,116731,1,8,0:0:0:0:
320,192,116731,128,0,116966:0:0:0:0:
64,192,117083,128,0,117317:0:0:0:0:
448,192,117200,1,8,0:0:0:0:
192,192,117434,128,0,117669:0:0:0:0:
448,192,117669,1,0,0:0:0:0:
320,192,117669,1,8,0:0:0:0:
320,192,117903,1,8,0:0:0:0:
448,192,117903,1,0,0:0:0:0:
192,192,118138,1,12,0:0:0:0:
64,192,118138,1,0,0:0:0:0:
448,192,118372,1,0,0:0:0:0:
320,192,118489,1,8,0:0:0:0:
64,192,118723,1,0,0:0:0:0:
192,192,118841,1,8,0:0:0:0:
320,192,118958,1,0,0:0:0:0:
64,192,119075,1,8,0:0:0:0:
448,192,119075,1,0,0:0:0:0:
192,192,119309,1,0,0:0:0:0:
320,192,119427,1,8,0:0:0:0:
448,192,119661,1,0,0:0:0:0:
320,192,119778,1,8,0:0:0:0:
192,192,119895,1,0,0:0:0:0:
448,192,120013,1,0,0:0:0:0:
64,192,120013,1,8,0:0:0:0:
320,192,120247,1,0,0:0:0:0:
192,192,120364,1,8,0:0:0:0:
64,192,120598,1,0,0:0:0:0:
192,192,120716,1,8,0:0:0:0:
320,192,120833,1,0,0:0:0:0:
448,192,120950,1,0,0:0:0:0:
64,192,120950,1,8,0:0:0:0:
192,192,121184,1,0,0:0:0:0:
320,192,121302,1,8,0:0:0:0:
64,192,121536,1,0,0:0:0:0:
192,192,121653,1,8,0:0:0:0:
448,192,121770,1,0,0:0:0:0:
64,192,121888,1,8,0:0:0:0:
320,192,121888,1,0,0:0:0:0:
192,192,122122,1,0,0:0:0:0:
320,192,122239,1,8,0:0:0:0:
448,192,122473,1,0,0:0:0:0:
192,192,122591,1,8,0:0:0:0:
320,192,122708,1,0,0:0:0:0:
448,192,122825,1,8,0:0:0:0:
64,192,122825,1,0,0:0:0:0:
192,192,123059,1,0,0:0:0:0:
320,192,123177,1,8,0:0:0:0:
64,192,123411,1,0,0:0:0:0:
320,192,123528,1,8,0:0:0:0:
192,192,123645,1,0,0:0:0:0:
448,192,123763,1,8,0:0:0:0:
64,192,123763,1,0,0:0:0:0:
320,192,123997,1,0,0:0:0:0:
192,192,124114,1,8,0:0:0:0:
64,192,124348,1,0,0:0:0:0:
192,192,124466,1,8,0:0:0:0:
448,192,124583,1,0,0:0:0:0:
320,192,124700,1,8,0:0:0:0:
192,192,124700,1,0,0:0:0:0:
64,192,124934,1,0,0:0:0:0:
320,192,125052,1,8,0:0:0:0:
448,192,125286,1,0,0:0:0:0:
64,192,125403,1,8,0:0:0:0:
192,192,125520,1,0,0:0:0:0:
320,192,125638,1,8,0:0:0:0:
448,192,125638,1,0,0:0:0:0:
64,192,125872,1,2,0:0:0:0:
320,192,125989,1,8,0:0:0:0:
448,192,126223,1,0,0:0:0:0:
192,192,126341,1,10,0:0:0:0:
320,192,126458,1,0,0:0:0:0:
448,192,126575,1,0,0:0:0:0:
64,192,126575,1,8,0:0:0:0:
192,192,126809,1,2,0:0:0:0:
448,192,126927,1,8,0:0:0:0:
320,192,127161,1,0,0:0:0:0:
64,192,127278,1,10,0:0:0:0:
192,192,127395,1,0,0:0:0:0:
320,192,127513,1,8,0:0:0:0:
448,192,127513,1,0,0:0:0:0:
64,192,127747,1,2,0:0:0:0:
192,192,127864,1,8,0:0:0:0:
448,192,128098,1,0,0:0:0:0:
320,192,128216,1,10,0:0:0:0:
192,192,128333,1,0,0:0:0:0:
448,192,128450,1,0,0:0:0:0:
64,192,128450,1,8,0:0:0:0:
320,192,128684,1,2,0:0:0:0:
192,192,128802,1,8,0:0:0:0:
448,192,129036,1,0,0:0:0:0:
64,192,129153,1,10,0:0:0:0:
192,192,129270,1,0,0:0:0:0:
320,192,129388,1,8,0:0:0:0:
448,192,129388,1,0,0:0:0:0:
192,192,129622,1,2,0:0:0:0:
320,192,129739,1,8,0:0:0:0:
64,192,129973,1,0,0:0:0:0:
448,192,130091,1,10,0:0:0:0:
320,192,130208,1,0,0:0:0:0:
192,192,130325,1,8,0:0:0:0:
64,192,130325,1,0,0:0:0:0:
320,192,130559,1,2,0:0:0:0:
448,192,130677,1,8,0:0:0:0:
192,192,130911,1,0,0:0:0:0:
64,192,131028,1,10,0:0:0:0:
320,192,131145,1,0,0:0:0:0:
64,192,132669,1,8,0:0:0:0:
192,192,132669,1,0,0:0:0:0:
448,192,132669,1,0,0:0:0:0:
448,192,133138,1,0,0:0:0:0:
320,192,133138,1,4,0:0:0:0:
192,192,133372,1,0,0:0:0:0:
320,192,133606,128,0,134075:0:0:0:0:
192,192,133841,1,0,0:0:0:0:
448,192,134075,128,0,134544:0:0:0:0:
64,192,134075,1,8,0:0:0:0:
192,192,134309,1,0,0:0:0:0:
64,192,134544,128,0,135013:0:0:0:0:
320,192,134544,1,0,0:0:0:0:
192,192,134778,1,0,0:0:0:0:
320,192,135013,128,0,135481:0:0:0:0:
448,192,135247,1,0,0:0:0:0:
192,192,135481,128,0,135716:0:0:0:0:
64,192,135481,1,0,0:0:0:0:
448,192,135716,128,0,135950:0:0:0:0:
320,192,135716,1,0,0:0:0:0:
64,192,135950,1,0,0:0:0:0:
192,192,135950,1,8,0:0:0:0:
320,192,136184,1,0,0:0:0:0:
64,192,136419,1,0,0:0:0:0:
448,192,136653,1,0,0:0:0:0:
320,192,136888,1,0,0:0:0:0:
192,192,136888,1,0,0:0:0:0:
64,192,137122,1,0,0:0:0:0:
448,192,137356,128,0,137825:0:0:0:0:
192,192,137591,1,0,0:0:0:0:
64,192,137825,128,0,138294:0:0:0:0:
320,192,137825,1,8,0:0:0:0:
192,192,138059,1,0,0:0:0:0:
448,192,138294,128,0,138763:0:0:0:0:
320,192,138294,1,0,0:0:0:0:
64,192,138763,128,0,139231:0:0:0:0:
192,192,138997,1,0,0:0:0:0:
320,192,139231,128,0,139466:0:0:0:0:
448,192,139231,1,0,0:0:0:0:
448,192,139466,128,0,139700:0:0:0:0:
192,192,139466,1,0,0:0:0:0:
64,192,139700,1,8,0:0:0:0:
320,192,139700,1,0,0:0:0:0:
192,192,139817,1,0,0:0:0:0:
320,192,139934,1,0,0:0:0:0:
448,192,140169,1,0,0:0:0:0:
192,192,140403,1,0,0:0:0:0:
320,192,140520,1,0,0:0:0:0:
64,192,140638,1,0,0:0:0:0:
448,192,140638,1,0,0:0:0:0:
192,192,140638,1,0,0:0:0:0:
320,192,140989,1,0,0:0:0:0:
192,192,141106,128,0,141575:0:0:0:0:
64,192,141341,1,0,0:0:0:0:
320,192,141575,128,0,142044:0:0:0:0:
448,192,141575,1,8,0:0:0:0:
192,192,141809,1,0,0:0:0:0:
64,192,142044,128,0,142513:0:0:0:0:
448,192,142044,1,0,0:0:0:0:
320,192,142278,1,0,0:0:0:0:
448,192,142513,128,0,142981:0:0:0:0:
64,192,142747,1,0,0:0:0:0:
192,192,142981,128,0,143216:0:0:0:0:
320,192,142981,1,0,0:0:0:0:
64,192,143216,128,0,143450:0:0:0:0:
448,192,143216,1,0,0:0:0:0:
320,192,143450,1,0,0:0:0:0:
192,192,143450,1,8,0:0:0:0:
448,192,143684,1,0,0:0:0:0:
64,192,143919,1,0,0:0:0:0:
320,192,144153,1,0,0:0:0:0:
64,192,144388,1,0,0:0:0:0:
448,192,144388,1,0,0:0:0:0:
192,192,144739,1,0,0:0:0:0:
320,192,144856,128,0,145325:0:0:0:0:
448,192,145091,1,0,0:0:0:0:
192,192,145325,128,0,145794:0:0:0:0:
64,192,145325,1,8,0:0:0:0:
320,192,145559,1,0,0:0:0:0:
448,192,145794,128,0,146263:0:0:0:0:
64,192,145794,1,0,0:0:0:0:
64,192,146263,128,0,146614:0:0:0:0:
192,192,146614,128,0,146848:0:0:0:0:
320,192,146848,128,0,147083:0:0:0:0:
448,192,147083,128,0,147434:0:0:0:0:
320,192,147434,128,0,147669:0:0:0:0:
192,192,147669,128,0,147903:0:0:0:0:
64,192,147669,1,8,0:0:0:0:
448,192,147903,128,0,148138:0:0:0:0:
320,192,147903,1,8,0:0:0:0:
64,192,148138,1,4,0:0:0:0:
192,192,148138,1,0,0:0:0:0:
192,192,148489,1,0,0:0:0:0:
320,192,148606,1,8,0:0:0:0:
448,192,148606,128,0,148841:0:0:0:0:
64,192,148958,1,0,0:0:0:0:
192,192,149075,128,0,149309:0:0:0:0:
320,192,149075,1,0,0:0:0:0:
64,192,149309,1,0,0:0:0:0:
448,192,149544,128,0,150013:0:0:0:0:
192,192,149544,1,8,0:0:0:0:
64,192,150013,128,0,150364:0:0:0:0:
192,192,150013,1,0,0:0:0:0:
320,192,150364,1,0,0:0:0:0:
192,192,150481,1,8,0:0:0:0:
448,192,150481,128,0,150716:0:0:0:0:
64,192,150716,128,0,150950:0:0:0:0:
320,192,150716,1,0,0:0:0:0:
192,192,150950,128,0,151184:0:0:0:0:
320,192,150950,1,0,0:0:0:0:
320,192,151184,128,0,151419:0:0:0:0:
448,192,151184,1,0,0:0:0:0:
192,192,151419,128,0,151653:0:0:0:0:
64,192,151419,1,8,0:0:0:0:
448,192,151653,128,0,151888:0:0:0:0:
320,192,151653,1,0,0:0:0:0:
64,192,151888,1,0,0:0:0:0:
192,192,151888,1,0,0:0:0:0:
192,192,152239,1,0,0:0:0:0:
320,192,152356,1,8,0:0:0:0:
448,192,152356,128,0,152591:0:0:0:0:
320,192,152708,1,0,0:0:0:0:
64,192,152825,1,0,0:0:0:0:
192,192,152825,128,0,153059:0:0:0:0:
320,192,153059,1,0,0:0:0:0:
64,192,153294,128,0,153763:0:0:0:0:
448,192,153294,1,8,0:0:0:0:
192,192,153528,1,0,0:0:0:0:
320,192,153763,1,0,0:0:0:0:
448,192,153763,128,0,154114:0:0:0:0:
320,192,154114,1,0,0:0:0:0:
192,192,154231,1,8,0:0:0:0:
64,192,154231,128,0,154466:0:0:0:0:
320,192,154466,128,0,154700:0:0:0:0:
192,192,154700,1,0,0:0:0:0:
448,192,154700,128,0,154934:0:0:0:0:
192,192,154934,128,0,155169:0:0:0:0:
64,192,154934,1,0,0:0:0:0:
448,192,155169,128,0,155403:0:0:0:0:
320,192,155169,1,8,0:0:0:0:
64,192,155403,128,0,155638:0:0:0:0:
192,192,155403,1,0,0:0:0:0:
448,192,155638,1,0,0:0:0:0:
320,192,155638,1,0,0:0:0:0:
320,192,155989,1,0,0:0:0:0:
192,192,156106,1,8,0:0:0:0:
448,192,156106,128,0,156341:0:0:0:0:
320,192,156458,1,0,0:0:0:0:
64,192,156575,1,0,0:0:0:0:
192,192,156575,128,0,156809:0:0:0:0:
448,192,156809,1,0,0:0:0:0:
320,192,157044,128,0,157513:0:0:0:0:
192,192,157044,1,8,0:0:0:0:
448,192,157278,1,0,0:0:0:0:
64,192,157513,128,0,157864:0:0:0:0:
192,192,157513,1,0,0:0:0:0:
192,192,157864,1,0,0:0:0:0:
320,192,157981,1,8,0:0:0:0:
448,192,157981,128,0,158216:0:0:0:0:
192,192,158216,128,0,158450:0:0:0:0:
64,192,158450,128,0,158684:0:0:0:0:
320,192,158450,1,0,0:0:0:0:
320,192,158684,128,0,158919:0:0:0:0:
448,192,158684,1,0,0:0:0:0:
64,192,158919,1,8,0:0:0:0:
192,192,158919,128,0,159153:0:0:0:0:
448,192,159153,128,0,159388:0:0:0:0:
320,192,159153,1,0,0:0:0:0:
64,192,159388,1,0,0:0:0:0:
192,192,159388,1,0,0:0:0:0:
448,192,159856,128,0,160091:0:0:0:0:
320,192,159856,1,8,0:0:0:0:
64,192,160091,1,0,0:0:0:0:
192,192,160091,128,0,160325:0:0:0:0:
320,192,160325,128,0,160794:0:0:0:0:
448,192,160325,1,0,0:0:0:0:
448,192,160677,1,0,0:0:0:0:
64,192,160794,128,0,161263:0:0:0:0:
192,192,160794,1,8,0:0:0:0:
320,192,161028,1,0,0:0:0:0:
448,192,161263,1,0,0:0:0:0:
320,192,161380,1,0,0:0:0:0:
192,192,161497,1,0,0:0:0:0:
448,192,161614,1,0,0:0:0:0:
64,192,161731,1,0,0:0:0:0:
192,192,161848,1,0,0:0:0:0:
320,192,161966,1,0,0:0:0:0:
64,192,162083,1,0,0:0:0:0:
448,192,162200,1,0,0:0:0:0:
320,192,162317,1,0,0:0:0:0:
192,192,162434,1,0,0:0:0:0:
64,192,162552,1,0,0:0:0:0:
320,192,162669,1,0,0:0:0:0:
448,192,162669,1,8,0:0:0:0:
192,192,162903,1,0,0:0:0:0:
448,192,163138,1,4,0:0:0:0:
64,192,163138,1,0,0:0:0:0:
320,192,163372,1,0,0:0:0:0:
192,192,163606,1,0,0:0:0:0:
448,192,163606,1,8,0:0:0:0:
64,192,163841,1,0,0:0:0:0:
320,192,164075,1,0,0:0:0:0:
192,192,164075,1,0,0:0:0:0:
64,192,164309,1,0,0:0:0:0:
320,192,164544,1,8,0:0:0:0:
448,192,164544,1,0,0:0:0:0:
192,192,164778,1,0,0:0:0:0:
448,192,165013,1,0,0:0:0:0:
64,192,165013,1,0,0:0:0:0:
192,192,165247,1,0,0:0:0:0:
64,192,165481,1,8,0:0:0:0:
320,192,165481,1,0,0:0:0:0:
448,192,165716,1,0,0:0:0:0:
320,192,165950,1,0,0:0:0:0:
192,192,165950,1,0,0:0:0:0:
64,192,166184,1,0,0:0:0:0:
192,192,166419,1,0,0:0:0:0:
448,192,166419,1,8,0:0:0:0:
320,192,166653,1,0,0:0:0:0:
448,192,166888,1,0,0:0:0:0:
64,192,166888,1,4,0:0:0:0:
320,192,167122,1,0,0:0:0:0:
192,192,167356,1,0,0:0:0:0:
448,192,167356,1,8,0:0:0:0:
320,192,167591,1,0,0:0:0:0:
192,192,167825,1,0,0:0:0:0:
64,192,167825,1,0,0:0:0:0:
448,192,168059,1,0,0:0:0:0:
192,192,168294,1,8,0:0:0:0:
320,192,168294,1,0,0:0:0:0:
64,192,168528,1,0,0:0:0:0:
448,192,168763,1,0,0:0:0:0:
192,192,168763,1,0,0:0:0:0:
320,192,168997,1,0,0:0:0:0:
192,192,169231,1,0,0:0:0:0:
64,192,169231,1,8,0:0:0:0:
320,192,169466,1,0,0:0:0:0:
448,192,169700,1,0,0:0:0:0:
64,192,169700,1,0,0:0:0:0:
192,192,169934,1,0,0:0:0:0:
320,192,170169,1,8,0:0:0:0:
448,192,170169,1,0,0:0:0:0:
192,192,170403,1,0,0:0:0:0:
448,192,170638,1,0,0:0:0:0:
64,192,170638,1,4,0:0:0:0:
192,192,170872,1,0,0:0:0:0:
320,192,171106,1,0,0:0:0:0:
64,192,171106,1,8,0:0:0:0:
448,192,171341,1,0,0:0:0:0:
192,192,171575,1,0,0:0:0:0:
320,192,171575,1,0,0:0:0:0:
64,192,171809,1,0,0:0:0:0:
192,192,172044,1,8,0:0:0:0:
448,192,172044,1,0,0:0:0:0:
320,192,172278,1,0,0:0:0:0:
64,192,172513,1,0,0:0:0:0:
192,192,172513,1,0,0:0:0:0:
320,192,172747,1,0,0:0:0:0:
64,192,172981,1,0,0:0:0:0:
448,192,172981,1,8,0:0:0:0:
320,192,173216,1,0,0:0:0:0:
192,192,173450,1,0,0:0:0:0:
448,192,173450,1,0,0:0:0:0:
320,192,173684,1,0,0:0:0:0:
192,192,173919,1,0,0:0:0:0:
64,192,173919,1,8,0:0:0:0:
320,192,174153,1,0,0:0:0:0:
64,192,174388,1,4,0:0:0:0:
448,192,174388,1,0,0:0:0:0:
192,192,174505,1,0,0:0:0:0:
320,192,174622,1,0,0:0:0:0:
448,192,174739,1,0,0:0:0:0:
192,192,174856,1,8,0:0:0:0:
64,192,174973,1,0,0:0:0:0:
320,192,175091,1,0,0:0:0:0:
448,192,175208,1,0,0:0:0:0:
192,192,175325,1,0,0:0:0:0:
64,192,175442,1,0,0:0:0:0:
448,192,175559,1,0,0:0:0:0:
320,192,175677,1,0,0:0:0:0:
192,192,175794,1,8,0:0:0:0:
64,192,175911,1,0,0:0:0:0:
320,192,176028,1,0,0:0:0:0:
192,192,176145,1,0,0:0:0:0:
448,192,176263,1,0,0:0:0:0:
320,192,176341,1,0,0:0:0:0:
64,192,176419,1,0,0:0:0:0:
192,192,176497,1,0,0:0:0:0:
448,192,176575,1,0,0:0:0:0:
320,192,176653,1,0,0:0:0:0:
64,192,176731,1,0,0:0:0:0:
192,192,176809,1,0,0:0:0:0:
448,192,176888,1,0,0:0:0:0:
320,192,176966,1,0,0:0:0:0:
64,192,177044,1,0,0:0:0:0:
192,192,177122,1,0,0:0:0:0:
448,192,177200,1,0,0:0:0:0:
320,192,177278,1,0,0:0:0:0:
64,192,177356,1,0,0:0:0:0:
192,192,177434,1,0,0:0:0:0:
448,192,177513,1,0,0:0:0:0:
320,192,177591,1,0,0:0:0:0:
64,192,177669,1,0,0:0:0:0:
192,192,177669,1,8,0:0:0:0:
320,192,177903,1,0,0:0:0:0:
192,192,178020,1,0,0:0:0:0:
64,192,178138,1,4,0:0:0:0:
448,192,178138,1,0,0:0:0:0:
