osu file format v14

[General]
AudioFilename: audio.mp3
AudioLeadIn: 0
PreviewTime: 79824
Countdown: 0
SampleSet: Soft
StackLeniency: 0.7
Mode: 0
LetterboxInBreaks: 0
WidescreenStoryboard: 0

[Editor]
DistanceSpacing: 1
BeatDivisor: 4
GridSize: 4
TimelineZoom: 1

[Metadata]
Title:HAPPYEND
TitleUnicode:HAPPYEND
Artist:KATSURAGI KEIMA & SUGIMOTO YOTSUBA starring SHIMONO HIRO & TANGE SAKURA
ArtistUnicode:桂木桂馬&杉本四葉 starring 下野紘&丹下桜
Creator:ktgster
Version:End
Source:神のみぞ知るセカイⅡ
Tags:kami nomi zo shiru sekai ii the world god only knows 2
BeatmapID:1290007
BeatmapSetID:611053

[Difficulty]
HPDrainRate:6.5
CircleSize:5
OverallDifficulty:8
ApproachRate:8.4
SliderMultiplier:1.6
SliderTickRate:1

[Events]
//Background and Video events
0,0,"AJC.png",0,0
//Break Periods
2,130424,136104
2,260024,265720
//Storyboard Layer 0 (Background)
//Storyboard Layer 1 (Fail)
//Storyboard Layer 2 (Pass)
//Storyboard Layer 3 (Foreground)
//Storyboard Sound Samples

[TimingPoints]
624,600,4,2,1,50,1,0
39024,-76.9230769230769,4,2,1,60,0,0
58224,-66.6666666666667,4,2,1,70,0,0
77424,-58.8235294117647,4,2,1,80,0,0
79824,-58.8235294117647,4,2,1,80,0,1
125424,-58.8235294117647,4,2,1,70,0,0
137424,-100,4,2,1,60,0,0
142224,-66.6666666666667,4,2,1,80,0,0
147024,-66.6666666666667,4,2,1,70,0,0
166224,-100,4,2,1,50,0,0
173424,-76.9230769230769,4,2,1,60,0,0
187824,-66.6666666666667,4,2,1,70,0,0
207024,-58.8235294117647,4,2,1,80,0,0
209424,-58.8235294117647,4,2,1,80,0,1
255024,-58.8235294117647,4,2,1,70,0,0
267024,-100,4,2,1,50,0,0
271824,-83.3333333333333,4,2,1,80,0,0
276324,-83.3333333333333,4,2,1,5,0,0

[Colours]
Combo1 : 117,186,255
Combo2 : 174,174,174
Combo3 : 255,125,125
Combo4 : 119,119,255
Combo5 : 129,129,129
Combo6 : 255,98,176

[HitObjects]
88,281,624,6,0,P|78:307|27:360,2,80,0|0|0,0:2|0:2|0:2,0:0:0:0:
117,206,1524,1,0,0:2:0:0:
117,206,2124,1,0,0:2:0:0:
167,268,2424,1,0,0:2:0:0:
154,346,2724,1,0,0:2:0:0:
154,346,3324,1,0,0:2:0:0:
229,319,3624,1,0,0:2:0:0:
307,333,3924,1,0,0:2:0:0:
307,333,4524,1,0,0:2:0:0:
281,259,4824,1,0,0:2:0:0:
424,103,5424,38,0,P|433:76|484:23,2,80,0|0|0,0:2|0:2|0:2,0:0:0:0:
395,178,6324,1,0,0:2:0:0:
395,178,6924,1,0,0:2:0:0:
345,116,7224,1,0,0:2:0:0:
358,38,7524,1,0,0:2:0:0:
203,79,8124,1,0,0:2:0:0:
48,120,8724,1,0,0:2:0:0:
48,120,10224,38,0,P|66:166|59:215,1,80,0|0,1:2|0:2,0:0:0:0:
49,262,10674,1,0,0:2:0:0:
97,310,10824,2,0,L|153:313,1,40,0|0,1:2|0:2,0:0:0:0:
185,360,11124,1,0,0:2:0:0:
318,332,11424,1,0,1:2:0:0:
228,231,11724,1,0,0:2:0:0:
228,231,11874,1,0,0:2:0:0:
179,182,12024,2,0,L|175:125,1,40,0|0,1:2|0:2,0:0:0:0:
128,93,12324,1,0,0:2:0:0:
294,18,12624,38,0,P|304:57|290:119,1,80,0|0,1:2|0:2,0:0:0:0:
258,150,13074,1,0,0:2:0:0:
209,198,13224,2,0,L|205:254,1,40,0|0,1:2|0:2,0:0:0:0:
158,286,13524,1,0,0:2:0:0:
277,350,13824,1,0,1:2:0:0:
96,366,14124,2,0,L|15:355,2,80,0|0|0,0:2|1:2|0:2,0:0:0:0:
277,350,15024,38,0,P|287:315|277:258,1,80,0|0,1:2|0:2,0:0:0:0:
244,215,15474,1,0,0:2:0:0:
177,228,15624,1,0,1:2:0:0:
292,156,15924,1,0,0:2:0:0:
110,102,16224,2,0,P|154:108|210:93,2,80,0|0|0,1:2|0:2|1:2,0:0:0:0:
7,13,17124,37,4,1:0:0:0:
10,28,17724,1,0,0:2:0:0:
13,43,18324,1,0,0:2:0:0:
16,46,19524,5,0,0:2:0:0:
16,46,19674,1,0,0:2:0:0:
64,94,19824,2,0,P|77:138|66:184,1,80,0|0,0:2|0:2,0:0:0:0:
167,234,20274,2,0,P|162:194|174:156,1,80,0|0,0:2|0:2,0:0:0:0:
256,205,20724,2,0,B|292:157|264:129|232:101|280:41,1,160,0|2,0:2|0:2,0:0:0:0:
393,19,21624,1,0,0:2:0:0:
393,19,21924,2,0,L|381:82,1,40,0|0,0:2|0:2,0:0:0:0:
484,143,22224,38,0,P|488:103|476:65,1,80,0|0,0:2|0:2,0:0:0:0:
387,242,22674,2,0,P|382:202|394:164,1,80,0|0,0:2|0:2,0:0:0:0:
307,14,23124,2,0,B|271:62|299:90|331:118|283:178,1,160,0|0,0:2|0:2,0:0:0:0:
292,165,24024,1,0,0:2:0:0:
176,235,24324,1,0,0:2:0:0:
176,235,24474,1,0,0:2:0:0:
110,215,24624,38,0,P|97:171|108:125,1,80,0|0,0:2|0:2,0:0:0:0:
150,89,25074,2,0,P|101:113|20:73,1,120,0|0,0:2|0:2,0:0:0:0:
0,226,25824,2,0,L|13:317,2,80,0|0|0,0:2|0:2|0:2,0:0:0:0:
133,253,26724,1,0,0:2:0:0:
228,350,27024,38,0,P|270:353|306:337,1,80,0|0,0:2|0:2,0:0:0:0:
352,289,27474,2,0,P|388:273|428:277,1,80,0|0,0:2|0:2,0:0:0:0:
476,325,27924,2,0,P|458:281|486:182,1,120,0|0,0:2|0:2,0:0:0:0:
501,151,28524,1,0,0:2:0:0:
358,107,28824,2,0,L|366:155,1,40,2|0,0:2|0:2,0:0:0:0:
378,213,29124,1,0,0:2:0:0:
378,213,29274,1,0,0:2:0:0:
280,296,29424,6,0,B|256:264|256:264|256:212,1,80,0|0,0:2|0:2,0:0:0:0:
145,237,29874,2,0,B|169:205|169:205|169:153,1,80,0|0,0:2|0:2,0:0:0:0:
192,316,30324,2,0,B|156:356|156:356|44:356,1,160,0|0,0:2|0:2,0:0:0:0:
3,227,31224,1,0,0:2:0:0:
138,227,31524,2,0,L|182:227,1,40,0|0,0:2|0:2,0:0:0:0:
252,291,31824,38,0,B|228:323|228:323|228:375,1,80,0|0,0:2|0:2,0:0:0:0:
312,232,32274,2,0,B|336:264|336:264|336:316,1,80,0|0,0:2|0:2,0:0:0:0:
251,185,32724,2,0,B|287:145|287:145|399:145,1,160,0|0,0:2|0:2,0:0:0:0:
441,96,33474,1,0,0:2:0:0:
441,96,33624,1,0,0:2:0:0:
490,222,33924,2,0,L|484:273,1,40,0|0,0:2|0:2,0:0:0:0:
395,362,34224,38,0,B|371:330|371:330|371:278,1,80,0|0,0:2|0:2,0:0:0:0:
371,222,34674,1,0,0:2:0:0:
371,222,34974,1,0,0:2:0:0:
184,303,35424,2,0,B|184:343|184:343|160:375,2,80,0|0|0,0:2|0:2|0:2,0:0:0:0:
184,167,36324,1,0,0:2:0:0:
184,167,36474,1,0,0:2:0:0:
211,229,36624,5,0,0:2:0:0:
272,199,36774,1,0,0:2:0:0:
335,223,36924,1,0,0:2:0:0:
396,193,37074,1,0,0:2:0:0:
448,290,37224,2,0,L|403:281,1,40,0|0,0:2|0:2,0:0:0:0:
348,365,37524,2,0,L|393:356,1,40,0|0,0:2|0:2,0:0:0:0:
321,293,37824,2,2,B|274:282|274:282|231:288|231:288|169:274,1,140,0|0,0:2|0:2,0:0:0:0:
17,349,38724,5,0,0:2:0:0:
52,290,38874,1,0,0:2:0:0:
20,229,39024,2,0,P|61:259|146:249,1,103.999995239258,4|0,1:0|0:2,0:0:0:0:
211,326,39474,2,0,P|183:329|154:349,1,51.999997619629,0|0,0:2|1:2,0:0:0:0:
107,379,39774,1,0,0:2:0:0:
197,234,39924,2,0,P|194:206|174:177,1,51.999997619629,0|0,0:2|0:2,0:0:0:0:
134,137,40224,1,0,1:2:0:0:
134,137,40374,1,0,0:2:0:0:
269,75,40524,2,0,P|257:112|281:201,2,103.999995239258,0|0|0,0:2|1:2|0:2,0:0:0:0:
323,34,41274,1,0,0:2:0:0:
164,5,41424,38,0,P|176:42|152:131,1,103.999995239258,0|0,1:2|0:2,0:0:0:0:
120,268,41874,2,0,P|123:240|143:211,1,51.999997619629,0|0,0:2|1:2,0:0:0:0:
191,182,42174,1,0,0:2:0:0:
59,76,42324,2,0,P|71:98|73:124,1,51.999997619629,0|0,0:2|0:2,0:0:0:0:
25,257,42624,1,0,1:2:0:0:
25,257,42774,1,0,0:2:0:0:
72,304,42924,2,0,P|59:326|57:352,1,51.999997619629,0|0,0:2|0:2,0:0:0:0:
134,277,43224,2,0,L|128:224,1,51.999997619629,0|0,1:2|0:2,0:0:0:0:
182,359,43524,1,0,0:2:0:0:
240,324,43674,1,0,0:2:0:0:
300,354,43824,38,0,P|337:366|426:342,1,103.999995239258,0|0,1:2|0:2,0:0:0:0:
512,264,44274,2,0,P|489:276|463:278,1,51.999997619629,0|0,0:2|1:2,0:0:0:0:
396,264,44574,1,0,0:2:0:0:
450,134,44724,2,0,P|462:157|465:183,1,51.999997619629,0|0,0:2|0:2,0:0:0:0:
360,161,45024,2,0,P|359:114|405:47,1,103.999995239258,0|0,1:2|0:2,0:0:0:0:
450,39,45474,1,0,0:2:0:0:
450,39,45624,1,0,1:2:0:0:
450,39,45924,2,0,P|453:66|444:97,1,51.999997619629,0|0,0:2|0:2,0:0:0:0:
280,215,46224,38,0,P|268:178|292:89,1,103.999995239258,0|0,1:2|0:2,0:0:0:0:
169,247,46674,2,0,P|181:224|183:198,1,51.999997619629,0|0,0:2|1:2,0:0:0:0:
181,130,46974,1,0,0:2:0:0:
259,339,47124,2,0,P|247:316|245:290,1,51.999997619629,0|0,0:2|0:2,0:0:0:0:
276,114,47424,38,0,L|292:190,1,51.999997619629,10|0,1:2|0:2,0:0:0:0:
306,234,47724,1,8,0:2:0:0:
306,234,47874,1,8,0:2:0:0:
340,56,48024,2,0,L|356:132,1,51.999997619629,10|0,1:2|0:2,0:0:0:0:
370,176,48324,53,0,0:2:0:0:
370,176,48474,1,0,0:2:0:0:
206,155,48624,2,0,B|190:107|190:107|222:31,1,103.999995239258,4|0,1:0|0:2,0:0:0:0:
271,213,49074,2,0,B|284:191|284:191|286:165,1,51.999997619629,0|0,0:2|1:2,0:0:0:0:
189,240,49374,1,0,0:2:0:0:
350,106,49524,2,0,B|363:128|363:128|365:154,1,51.999997619629,0|0,0:2|0:2,0:0:0:0:
368,231,49824,1,0,1:2:0:0:
368,231,50124,2,0,B|416:247|416:247|492:215,2,103.999995239258,0|0|0,0:2|1:2|0:2,0:0:0:0:
309,275,50874,1,0,0:2:0:0:
351,370,51024,38,0,L|413:376,1,51.999997619629,0|0,1:2|0:2,0:0:0:0:
274,341,51324,2,0,L|212:347,1,51.999997619629,0|0,0:2|0:2,0:0:0:0:
319,269,51624,2,0,L|311:158,1,103.999995239258,0|0,1:2|0:2,0:0:0:0:
263,117,52074,1,0,0:2:0:0:
399,78,52224,2,0,B|415:126|415:126|383:202,2,103.999995239258,0|0|0,1:2|0:2|1:2,0:0:0:0:
246,1,53124,1,0,0:2:0:0:
246,1,53274,1,0,0:2:0:0:
180,15,53424,38,0,L|168:71,1,51.999997619629,2|0,1:2|0:2,0:0:0:0:
107,94,53724,1,0,0:2:0:0:
107,94,53874,1,0,0:2:0:0:
240,74,54024,2,0,L|228:130,1,51.999997619629,0|0,1:2|0:2,0:0:0:0:
167,153,54324,1,8,0:0:0:0:
167,153,54474,1,0,0:2:0:0:
300,133,54624,2,0,L|288:189,1,51.999997619629,0|0,1:2|0:2,0:0:0:0:
227,212,54924,1,0,0:2:0:0:
227,212,55074,1,0,0:2:0:0:
360,192,55224,2,0,L|348:248,1,51.999997619629,0|0,1:2|0:2,0:0:0:0:
287,271,55524,1,0,0:2:0:0:
287,271,55674,1,0,0:2:0:0:
436,335,55824,38,0,B|452:287|452:287|420:211,2,103.999995239258,0|0|0,1:2|0:2|1:2,0:0:0:0:
306,372,56724,1,0,0:2:0:0:
243,346,56874,1,0,0:2:0:0:
177,364,57024,38,0,B|171:337|171:337|194:286,1,51.999997619629,10|0,1:2|0:2,0:0:0:0:
238,278,57324,1,8,0:2:0:0:
171,287,57474,1,8,0:2:0:0:
111,255,57624,1,8,1:2:0:0:
44,264,57774,1,8,1:2:0:0:
12,325,57924,1,8,1:2:0:0:
12,325,58074,1,8,0:2:0:0:
198,361,58224,70,0,P|214:315|196:247,1,120.000004577637,4|0,1:0|0:2,0:0:0:0:
140,193,58674,1,0,0:2:0:0:
291,263,58824,2,0,B|292:234|292:234|309:207,1,60.0000022888184,0|0,1:2|0:2,0:0:0:0:
212,115,59124,2,0,P|262:133|334:115,1,120.000004577637,10|0,0:2|1:2,0:0:0:0:
391,76,59574,1,0,0:2:0:0:
500,204,59724,2,0,B|494:178|494:178|506:139,1,60.0000022888184,0|0,0:2|0:2,0:0:0:0:
419,253,60024,2,0,P|434:286|432:316,1,60.0000022888184,0|0,1:2|0:2,0:0:0:0:
313,265,60324,2,0,B|309:237|309:237|323:200,1,60.0000022888184,0|0,0:2|0:2,0:0:0:0:
379,81,60624,6,0,P|429:48|527:61,2,120.000004577637,0|0|0,1:2|0:2|1:2,0:0:0:0:
323,136,61374,1,0,0:2:0:0:
267,80,61524,2,0,B|258:53|258:53|270:16,1,60.0000022888184,0|0,0:2|0:2,0:0:0:0:
201,179,61824,1,0,1:2:0:0:
185,102,61974,1,0,0:2:0:0:
127,155,62124,2,0,B|112:189|146:236,1,60.0000022888184,0|0,0:2|0:2,0:0:0:0:
292,261,62424,2,0,B|288:229|288:229|260:196,1,60.0000022888184,0|0,1:2|0:2,0:0:0:0:
185,352,62724,2,0,P|193:312|217:287,1,60.0000022888184,0|0,0:2|0:2,0:0:0:0:
353,344,63024,70,0,B|386:293|386:293|372:195,1,120.000004577637,0|0,1:2|0:2,0:0:0:0:
363,157,63474,1,0,0:2:0:0:
476,267,63624,2,0,P|468:292|478:339,1,60.0000022888184,0|0,1:2|0:2,0:0:0:0:
443,180,63924,2,0,B|451:155|451:155|441:108,1,60.0000022888184,0|0,0:2|0:2,0:0:0:0:
314,60,64224,1,0,1:2:0:0:
314,60,64374,1,0,0:2:0:0:
248,102,64524,2,0,B|232:130|250:174,1,60.0000022888184,0|0,0:2|0:2,0:0:0:0:
382,94,64824,2,0,B|391:68|391:68|384:22,1,60.0000022888184,0|0,1:2|0:2,0:0:0:0:
331,193,65124,2,0,L|346:282,1,60.0000022888184,0|0,0:2|0:2,0:0:0:0:
480,308,65424,5,2,1:2:0:0:
482,290,65574,1,0,0:2:0:0:
485,272,65724,1,0,0:2:0:0:
488,254,65874,1,0,0:2:0:0:
410,254,66024,69,0,1:2:0:0:
413,236,66174,1,0,0:2:0:0:
416,219,66324,2,0,P|435:194|468:174,1,60.0000022888184,0|0,0:2|0:2,0:0:0:0:
434,6,66624,1,0,1:2:0:0:
434,6,66774,1,0,0:2:0:0:
378,61,66924,2,0,P|370:86|380:133,1,60.0000022888184,0|0,0:2|0:2,0:0:0:0:
477,232,67224,2,0,P|473:203|458:178,1,60.0000022888184,0|0,1:2|0:2,0:0:0:0:
312,295,67524,2,0,P|315:265|331:240,1,60.0000022888184,0|0,0:2|0:2,0:0:0:0:
411,311,67824,38,0,L|420:382,1,60.0000022888184,4|0,1:0|0:2,0:0:0:0:
331,240,68124,2,0,P|380:246|460:208,2,120.000004577637,0|0|0,0:2|1:2|0:2,0:0:0:0:
262,201,68874,1,0,0:2:0:0:
225,132,69024,2,0,L|221:62,1,60.0000022888184,0|0,1:2|0:2,0:0:0:0:
107,5,69324,2,0,P|122:30|126:59,1,60.0000022888184,0|0,0:2|0:2,0:0:0:0:
105,135,69624,1,0,1:2:0:0:
105,135,69774,1,0,0:2:0:0:
187,241,69924,2,0,P|171:215|167:186,1,60.0000022888184,0|0,0:2|0:2,0:0:0:0:
38,301,70224,38,0,P|87:295|167:333,1,120.000004577637,4|0,1:0|0:2,0:0:0:0:
213,367,70674,1,0,0:2:0:0:
328,228,70824,2,0,P|299:229|252:204,1,60.0000022888184,0|0,1:2|0:2,0:0:0:0:
459,273,71124,6,0,B|430:272|430:272|383:297,1,60.0000022888184,0|0,0:2|0:2,0:0:0:0:
506,329,71424,2,0,B|484:276|484:276|505:193,1,120.000004577637,0|0,1:2|0:2,0:0:0:0:
319,152,71874,2,0,B|348:151|348:151|395:176,1,60.0000022888184,0|0,0:2|1:2,0:0:0:0:
328,228,72174,1,0,0:2:0:0:
488,128,72324,2,0,B|459:129|459:129|412:104,1,60.0000022888184,0|0,0:2|0:2,0:0:0:0:
312,38,72624,38,0,B|334:91|334:91|313:174,1,120.000004577637,4|0,1:0|0:2,0:0:0:0:
398,297,73074,2,0,L|421:212,1,60.0000022888184,0|0,0:2|1:2,0:0:0:0:
434,163,73374,1,0,0:2:0:0:
314,307,73524,2,0,B|313:336|313:336|338:383,1,60.0000022888184,0|0,0:2|0:2,0:0:0:0:
499,221,73824,38,0,B|521:168|521:168|500:85,1,120.000004577637,0|0,1:2|0:2,0:0:0:0:
398,29,74274,2,0,L|421:114,1,60.0000022888184,0|0,0:2|1:2,0:0:0:0:
434,163,74574,1,0,0:2:0:0:
301,139,74724,2,0,B|300:110|300:110|325:63,1,60.0000022888184,0|0,0:2|0:2,0:0:0:0:
345,252,75024,38,0,B|292:230|292:230|209:251,1,120.000004577637,4|0,1:0|0:2,0:0:0:0:
160,272,75474,1,0,0:2:0:0:
160,272,75624,2,0,L|153:350,1,60.0000022888184,0|0,1:2|0:2,0:0:0:0:
19,180,75924,2,0,B|72:202|72:202|155:181,1,120.000004577637,0|0,0:2|1:2,0:0:0:0:
187,131,76374,1,0,0:2:0:0:
265,261,76524,2,0,B|256:233|256:233|268:181,1,60.0000022888184,0|0,0:2|0:2,0:0:0:0:
338,324,76824,1,0,1:2:0:0:
265,294,76974,1,0,1:2:0:0:
187,304,77124,1,0,1:2:0:0:
122,347,77274,1,0,0:2:0:0:
3,191,77424,38,0,B|58:167|58:167|146:189,1,136.000002593994,2|0,1:2|0:2,0:0:0:0:
61,384,77874,2,0,P|35:334|56:258,1,136.000002593994,2|0,1:2|0:2,0:0:0:0:
225,154,78324,22,0,B|232:188|232:188|223:227,1,68.0000012969971,2|0,1:2|0:2,0:0:0:0:
133,318,78624,2,0,B|197:274|249:322|301:362|362:318,1,238.00000453949,2|0,1:2|0:2,0:0:0:0:
488,96,79824,6,0,B|428:77|428:77|339:99,1,136.000002593994,4|0,1:0|0:2,0:0:0:0:
193,14,80274,2,0,P|223:31|276:31,1,68.0000012969971,0|8,0:2|1:2,0:0:0:0:
337,24,80574,1,0,0:2:0:0:
349,195,80724,2,0,B|319:178|319:178|266:178,1,68.0000012969971,0|0,0:2|0:2,0:0:0:0:
418,160,81024,21,0,1:2:0:0:
418,160,81324,2,0,P|378:206|382:302,2,136.000002593994,0|0|0,0:2|1:2|0:2,0:0:0:0:
497,140,82074,1,0,0:2:0:0:
319,19,82224,6,0,B|352:19|352:19|382:36,1,68.0000012969971,0|0,1:2|0:2,0:0:0:0:
309,168,82524,2,0,P|309:134|322:102,1,68.0000012969971,0|0,0:2|0:2,0:0:0:0:
435,223,82824,2,0,B|435:189|435:189|418:159,1,68.0000012969971,8|0,1:2|0:2,0:0:0:0:
344,306,83124,2,0,P|340:269|360:215,1,68.0000012969971,0|0,0:2|0:2,0:0:0:0:
502,303,83424,21,0,1:2:0:0:
502,303,83574,1,0,0:2:0:0:
352,384,83724,2,0,B|318:384|318:384|288:367,1,68.0000012969971,0|0,0:2|0:2,0:0:0:0:
350,243,84024,1,8,1:2:0:0:
350,243,84324,1,0,0:2:0:0:
273,276,84474,1,0,0:2:0:0:
149,157,84624,38,0,P|213:155|281:208,1,136.000002593994,0|0,1:2|0:2,0:0:0:0:
425,90,85074,2,0,P|378:100|337:91,1,68.0000012969971,0|8,0:2|1:2,0:0:0:0:
281,72,85374,1,0,0:2:0:0:
406,333,85524,2,0,P|389:275|410:182,1,136.000002593994,0|0,0:2|1:2,0:0:0:0:
464,150,85974,1,0,0:2:0:0:
310,314,86124,2,0,P|303:271|311:227,1,68.0000012969971,0|0,0:2|0:2,0:0:0:0:
493,302,86424,2,0,P|500:341|485:382,1,68.0000012969971,8|0,1:2|0:2,0:0:0:0:
400,201,86724,2,0,P|430:175|473:167,1,68.0000012969971,0|0,2:2|0:2,0:0:0:0:
323,10,87024,2,0,P|341:61|314:142,1,136.000002593994,0|0,1:2|0:2,0:0:0:0:
251,184,87474,1,0,0:2:0:0:
193,126,87624,2,0,L|187:54,1,68.0000012969971,8|0,1:2|0:2,0:0:0:0:
88,209,87924,6,0,B|94:177|94:177|86:140,1,68.0000012969971,0|0,0:2|0:2,0:0:0:0:
214,320,88224,2,0,P|204:274|220:231,1,68.0000012969971,0|0,1:2|0:2,0:0:0:0:
255,187,88524,1,0,0:2:0:0:
255,187,88674,1,0,0:2:0:0:
142,359,88824,1,8,1:2:0:0:
214,320,88974,1,0,1:2:0:0:
290,348,89124,1,0,1:2:0:0:
362,309,89274,1,8,0:2:0:0:
481,357,89424,22,0,P|458:308|483:218,1,136.000002593994,0|0,1:2|0:2,0:0:0:0:
330,156,89874,2,0,B|362:165|362:165|428:149,1,68.0000012969971,0|8,0:2|1:2,0:0:0:0:
475,138,90174,1,0,0:2:0:0:
370,12,90324,2,0,P|360:41|375:101,1,68.0000012969971,0|0,0:2|0:2,0:0:0:0:
476,234,90624,5,0,1:2:0:0:
476,234,90774,1,0,0:2:0:0:
362,374,90924,2,0,B|353:342|353:342|362:309,1,68.0000012969971,0|0,0:2|0:2,0:0:0:0:
254,362,91224,21,8,1:2:0:0:
270,282,91374,1,0,0:2:0:0:
234,208,91524,1,0,0:2:0:0:
250,128,91674,1,0,0:2:0:0:
330,30,91824,38,0,P|277:43|188:0,1,136.000002593994,0|0,1:2|0:2,0:0:0:0:
250,128,92274,2,0,P|203:138|162:129,1,68.0000012969971,0|8,0:2|1:2,0:0:0:0:
234,208,92574,1,0,0:2:0:0:
381,209,92724,2,0,P|334:199|293:208,1,68.0000012969971,0|0,0:2|0:2,0:0:0:0:
182,329,93024,1,0,1:2:0:0:
182,329,93174,1,0,0:2:0:0:
257,297,93324,2,0,P|304:287|345:296,1,68.0000012969971,0|0,0:2|0:2,0:0:0:0:
512,220,93624,6,0,B|475:232|475:232|424:221,1,68.0000012969971,8|0,1:2|0:2,0:0:0:0:
473,148,93924,1,0,0:2:0:0:
485,297,94074,1,0,0:2:0:0:
412,92,94224,38,0,B|438:72|438:72|496:68,1,68.0000012969971,0|0,1:2|0:2,0:0:0:0:
379,187,94524,2,0,B|352:167|352:167|294:163,1,68.0000012969971,0|0,0:2|0:2,0:0:0:0:
237,18,94824,2,0,B|297:37|297:37|386:15,1,136.000002593994,8|0,1:2|0:2,0:0:0:0:
259,106,95274,1,0,0:2:0:0:
149,56,95424,2,0,B|168:82|168:82|172:140,1,68.0000012969971,0|0,1:2|0:2,0:0:0:0:
61,63,95724,2,0,B|63:27|63:27|82:1,1,68.0000012969971,0|0,0:2|0:2,0:0:0:0:
158,203,96024,2,0,B|98:184|98:184|9:206,1,136.000002593994,8|0,1:2|0:2,0:0:0:0:
90,285,96474,1,0,0:2:0:0:
40,77,96624,38,0,L|171:117,1,136.000002593994,2|0,1:2|0:2,0:0:0:0:
90,285,97074,1,0,0:2:0:0:
27,163,97224,2,0,L|158:203,1,136.000002593994,10|0,1:2|0:2,0:0:0:0:
90,285,97674,1,0,0:2:0:0:
229,321,97824,38,0,L|330:289,1,68.0000012969971,2|0,1:2|0:2,0:0:0:0:
351,243,98124,1,0,0:2:0:0:
271,222,98274,1,0,1:2:0:0:
418,326,98424,1,10,1:2:0:0:
434,246,98574,1,8,1:2:0:0:
398,172,98724,1,8,1:2:0:0:
414,92,98874,1,8,0:2:0:0:
254,12,99024,70,0,B|235:72|235:72|257:161,1,136.000002593994,2|0,1:2|0:2,0:0:0:0:
165,27,99474,2,0,P|153:59|160:95,1,68.0000012969971,0|8,0:2|1:2,0:0:0:0:
176,171,99774,1,0,0:2:0:0:
43,234,99924,2,0,B|56:201|56:201|53:155,1,68.0000012969971,0|0,0:2|0:2,0:0:0:0:
159,329,100224,53,0,1:2:0:0:
159,329,100524,2,0,P|134:292|133:244,1,68.0000012969971,0|0,0:2|0:2,0:0:0:0:
252,133,100824,2,0,B|265:169|265:169|258:205,1,68.0000012969971,8|0,1:2|0:2,0:0:0:0:
187,64,101124,2,0,P|162:101|161:149,1,68.0000012969971,0|0,0:2|0:2,0:0:0:0:
342,17,101424,70,0,B|361:77|361:77|339:166,1,136.000002593994,0|0,1:2|0:2,0:0:0:0:
454,256,101874,2,0,P|450:214|472:174,1,68.0000012969971,0|8,0:2|1:2,0:0:0:0:
499,119,102174,1,0,0:2:0:0:
371,236,102324,2,0,B|366:266|366:266|379:302,1,68.0000012969971,0|0,0:2|0:2,0:0:0:0:
494,364,102624,53,0,1:2:0:0:
494,364,102774,1,0,0:2:0:0:
300,359,102924,2,0,P|267:347|226:350,1,68.0000012969971,0|0,0:2|0:2,0:0:0:0:
371,236,103224,2,0,B|341:230|341:230|305:243,1,68.0000012969971,8|0,1:2|0:2,0:0:0:0:
424,353,103524,1,0,0:2:0:0:
424,353,103674,1,0,0:2:0:0:
234,347,103824,69,0,1:2:0:0:
195,275,103974,1,0,0:2:0:0:
223,199,104124,1,0,0:2:0:0:
184,127,104274,1,0,0:2:0:0:
48,233,104424,2,0,P|84:232|127:219,1,68.0000012969971,8|0,1:2|0:2,0:0:0:0:
243,62,104724,6,0,B|183:43|183:43|94:65,1,136.000002593994,0|0,0:2|1:2,0:0:0:0:
53,118,105174,1,0,0:2:0:0:
267,197,105324,2,0,B|280:161|280:161|274:131,1,68.0000012969971,0|0,0:2|0:2,0:0:0:0:
114,224,105624,2,0,B|101:260|101:260|106:289,1,68.0000012969971,8|0,1:2|0:2,0:0:0:0:
189,144,105924,1,0,0:2:0:0:
189,144,106074,1,0,0:2:0:0:
250,353,106224,2,0,B|310:334|310:334|399:356,1,136.000002593994,0|0,1:2|0:2,0:0:0:0:
461,367,106674,1,0,0:2:0:0:
305,250,106824,2,0,L|388:269,1,68.0000012969971,8|0,1:2|0:2,0:0:0:0:
499,148,107124,2,0,P|463:148|417:172,1,68.0000012969971,0|0,0:2|0:2,0:0:0:0:
231,90,107424,22,0,B|291:109|291:109|380:87,1,136.000002593994,0|0,1:2|0:2,0:0:0:0:
202,3,107874,2,0,P|172:17|151:44,1,68.0000012969971,0|8,0:2|1:2,0:0:0:0:
128,123,108174,1,0,1:2:0:0:
296,108,108324,2,0,B|305:77|305:77|297:41,1,68.0000012969971,0|0,1:2|0:2,0:0:0:0:
195,204,108624,6,0,P|262:184|341:211,1,136.000002593994,2|0,1:2|0:2,0:0:0:0:
384,256,109074,1,0,0:2:0:0:
228,109,109224,2,0,L|317:107,1,68.0000012969971,8|0,1:2|0:2,0:0:0:0:
262,299,109524,2,0,B|228:302|228:302|174:284,1,68.0000012969971,0|0,0:2|0:2,0:0:0:0:
384,256,109824,22,0,P|366:289|394:401,1,136.000002593994,0|0,1:2|0:2,0:0:0:0:
475,320,110274,1,0,0:2:0:0:
404,174,110424,2,0,B|370:171|370:171|316:189,1,68.0000012969971,8|0,1:2|0:2,0:0:0:0:
265,302,110724,1,0,0:2:0:0:
265,302,110874,1,0,0:2:0:0:
475,240,111024,6,0,P|499:185|462:95,1,136.000002593994,0|0,1:2|0:2,0:0:0:0:
421,57,111474,1,0,0:2:0:0:
339,48,111624,2,0,L|259:58,1,68.0000012969971,8|0,1:2|0:2,0:0:0:0:
355,196,111924,70,0,P|355:160|379:114,1,68.0000012969971,0|0,0:2|0:2,0:0:0:0:
404,253,112224,2,0,P|342:223|268:248,1,136.000002593994,0|0,1:2|0:2,0:0:0:0:
377,64,112674,2,0,P|377:98|366:130,1,68.0000012969971,0|8,0:2|1:2,0:0:0:0:
298,83,112974,1,0,0:2:0:0:
453,72,113124,2,0,P|449:38|431:9,1,68.0000012969971,0|0,0:2|0:2,0:0:0:0:
227,16,113424,38,0,P|203:71|240:161,1,136.000002593994,0|0,1:2|0:2,0:0:0:0:
377,64,113874,2,0,P|363:33|324:7,1,68.0000012969971,0|8,0:2|1:2,0:0:0:0:
298,83,114174,1,0,0:2:0:0:
459,113,114324,2,0,P|437:139|406:152,1,68.0000012969971,0|0,0:2|0:2,0:0:0:0:
221,141,114624,1,0,1:2:0:0:
290,183,114774,1,0,0:2:0:0:
308,262,114924,1,0,0:2:0:0:
274,336,115074,1,0,0:2:0:0:
221,141,115224,2,0,P|256:110|297:98,1,68.0000012969971,8|0,1:2|0:2,0:0:0:0:
352,130,115524,1,0,0:2:0:0:
188,59,115674,1,0,0:2:0:0:
432,24,115824,38,0,P|456:79|419:169,1,136.000002593994,0|0,1:2|0:2,0:0:0:0:
293,99,116274,2,0,P|326:108|352:130,1,68.0000012969971,0|8,0:2|1:2,0:0:0:0:
379,206,116574,1,0,0:2:0:0:
237,238,116724,2,0,P|269:247|302:240,1,68.0000012969971,0|0,0:2|0:2,0:0:0:0:
166,172,117024,2,0,P|142:227|179:317,1,136.000002593994,0|0,1:2|0:2,0:0:0:0:
371,338,117474,2,0,P|338:328|305:335,1,68.0000012969971,0|8,0:2|1:2,0:0:0:0:
226,359,117774,1,0,1:2:0:0:
442,308,117924,2,0,P|423:280|393:263,1,68.0000012969971,0|0,1:2|0:2,0:0:0:0:
254,147,118224,38,0,P|309:171|399:134,1,136.000002593994,2|0,1:2|0:2,0:0:0:0:
443,101,118674,1,0,0:2:0:0:
396,329,118824,2,0,P|386:296|393:263,1,68.0000012969971,0|0,1:2|0:2,0:0:0:0:
456,211,119124,1,0,0:2:0:0:
464,292,119274,1,0,0:2:0:0:
328,366,119424,1,0,1:2:0:0:
248,347,119574,1,0,0:2:0:0:
169,370,119724,1,0,0:2:0:0:
89,351,119874,1,0,0:2:0:0:
158,201,120024,2,0,P|177:230|173:278,1,68.0000012969971,8|0,1:2|0:2,0:0:0:0:
23,248,120324,5,0,0:2:0:0:
23,248,120474,1,0,0:2:0:0:
87,136,120624,2,0,B|147:117|147:117|236:139,1,136.000002593994,0|0,1:2|0:2,0:0:0:0:
28,75,121074,2,0,L|96:54,1,68.0000012969971,0|8,0:2|1:2,0:0:0:0:
158,201,121374,1,0,0:2:0:0:
291,99,121524,2,0,B|302:128|302:128|293:171,1,68.0000012969971,0|0,0:2|0:2,0:0:0:0:
111,331,121824,2,0,B|100:302|100:302|109:259,1,68.0000012969971,0|0,1:2|0:2,0:0:0:0:
217,134,122124,2,0,L|233:228,1,68.0000012969971,0|0,0:2|0:2,0:0:0:0:
16,166,122424,2,0,B|45:155|45:155|88:164,1,68.0000012969971,8|0,1:2|0:2,0:0:0:0:
234,33,122724,2,0,L|140:49,1,68.0000012969971,0|0,0:2|0:2,0:0:0:0:
324,293,123024,38,0,B|343:233|343:233|321:144,1,136.000002593994,2|0,1:2|0:2,0:0:0:0:
304,82,123474,1,0,0:2:0:0:
447,24,123624,1,8,1:2:0:0:
429,103,123774,1,0,0:2:0:0:
273,12,123924,2,0,B|302:1|302:1|345:10,1,68.0000012969971,0|0,0:2|0:2,0:0:0:0:
217,134,124224,2,0,L|129:128,1,68.0000012969971,0|0,1:2|0:2,0:0:0:0:
321,258,124524,22,0,P|353:255|394:228,1,68.0000012969971,0|0,0:2|0:2,0:0:0:0:
164,278,124824,6,0,B|153:307|153:307|162:350,1,68.0000012969971,8|0,1:2|0:2,0:0:0:0:
325,162,125124,70,0,L|319:74,1,68.0000012969971,0|0,0:2|0:2,0:0:0:0:
90,19,125424,5,0,1:2:0:0:
90,19,125874,1,0,0:2:0:0:
90,19,126324,1,0,0:2:0:0:
232,194,126624,22,0,B|249:147|249:147|225:32,1,136.000002593994,0|0,1:2|0:2,0:0:0:0:
167,248,127074,6,0,P|229:221|312:253,1,136.000002593994,0|0,0:2|0:2,0:0:0:0:
125,383,127524,70,0,B|114:354|114:354|123:311,1,68.0000012969971,0|0,0:2|0:2,0:0:0:0:
363,294,127824,53,0,1:2:0:0:
256,192,127974,12,0,130224,3:2:0:0:
46,304,136824,85,0,1:2:0:0:
72,226,136974,1,0,1:2:0:0:
142,361,137124,2,0,P|161:331|199:313,1,68.0000012969971,0|0,1:2|3:2,0:0:0:0:
153,124,137424,22,0,B|169:168|169:168|149:248,2,120,0|0|0,1:2|0:2|0:2,0:0:0:0:
91,72,138624,2,0,P|132:85|222:70,2,120,0|0|0,0:2|0:2|1:2,0:0:0:0:
26,24,139824,1,4,1:0:0:0:
26,24,140424,2,0,B|13:64|13:64|23:117,1,80,0|0,0:2|0:2,0:0:0:0:
202,193,141024,6,0,P|215:152|200:62,1,120,0|0,0:2|0:2,0:0:0:0:
53,259,141624,2,0,B|37:222|37:222|55:159,1,80,8|0,0:2|1:2,0:0:0:0:
121,217,142074,1,0,0:2:0:0:
176,379,142224,38,0,P|136:384|83:324,1,120.000004577637,4|0,1:0|0:2,0:0:0:0:
53,259,142674,1,0,0:2:0:0:
195,191,142824,2,0,B|201:224|201:224|185:274,1,60.0000022888184,8|0,1:2|0:2,0:0:0:0:
121,217,143124,1,0,0:2:0:0:
121,217,143274,1,0,0:2:0:0:
301,375,143424,22,0,L|290:305,1,60.0000022888184,0|0,1:2|0:2,0:0:0:0:
281,242,143724,1,0,0:2:0:0:
281,242,143874,1,0,0:2:0:0:
373,328,144024,2,0,L|362:258,1,60.0000022888184,8|0,1:2|0:2,0:0:0:0:
353,195,144324,1,0,0:2:0:0:
353,195,144474,1,0,0:2:0:0:
226,109,144624,5,0,1:2:0:0:
303,113,144774,1,0,0:2:0:0:
371,75,144924,1,0,0:2:0:0:
448,79,145074,1,0,0:2:0:0:
347,253,145224,2,0,P|345:223|353:195,1,60.0000022888184,8|0,1:2|0:2,0:0:0:0:
409,146,145524,1,0,0:2:0:0:
409,146,145674,1,0,0:2:0:0:
433,318,145824,69,0,1:2:0:0:
360,289,145974,1,0,0:2:0:0:
287,317,146124,1,0,0:2:0:0:
214,288,146274,1,0,0:2:0:0:
269,232,146424,21,8,1:2:0:0:
51,203,146574,1,8,1:2:0:0:
197,204,146724,1,8,1:2:0:0:
124,232,146874,1,8,0:2:0:0:
225,132,147024,38,0,P|266:173|268:231,1,120.000004577637,4|0,1:0|0:2,0:0:0:0:
214,288,147474,1,0,0:2:0:0:
352,364,147624,2,0,P|342:325|354:289,1,60.0000022888184,8|0,1:2|0:2,0:0:0:0:
269,232,147924,2,0,P|328:236|382:212,1,120.000004577637,0|0,0:2|1:2,0:0:0:0:
429,149,148374,1,0,0:2:0:0:
503,290,148524,2,0,P|473:294|441:319,1,60.0000022888184,0|0,0:2|0:2,0:0:0:0:
292,358,148824,2,0,L|352:364,1,60.0000022888184,8|0,1:2|0:2,0:0:0:0:
307,211,149124,2,0,P|311:241|336:273,1,60.0000022888184,0|0,0:2|0:2,0:0:0:0:
432,152,149424,37,0,1:2:0:0:
432,152,149724,2,0,L|440:73,1,60.0000022888184,0|0,0:2|0:2,0:0:0:0:
309,21,150024,2,0,P|313:51|338:83,1,60.0000022888184,8|0,1:2|0:2,0:0:0:0:
490,183,150324,2,0,P|430:178|376:202,1,120.000004577637,0|0,0:2|1:2,0:0:0:0:
335,268,150774,1,0,0:2:0:0:
470,325,150924,2,0,P|466:295|441:263,1,60.0000022888184,0|0,0:2|0:2,0:0:0:0:
262,384,151224,2,0,P|266:354|291:322,1,60.0000022888184,8|0,1:2|0:2,0:0:0:0:
385,375,151524,1,0,0:2:0:0:
385,375,151674,1,0,0:2:0:0:
248,247,151824,38,0,L|119:259,1,120.000004577637,0|0,1:2|0:2,0:0:0:0:
61,218,152274,1,0,0:2:0:0:
147,372,152424,2,0,P|178:361|202:330,1,60.0000022888184,8|0,1:2|0:2,0:0:0:0:
294,181,152724,2,0,P|276:235|307:306,1,120.000004577637,0|0,0:2|1:2,0:0:0:0:
359,337,153174,1,0,0:2:0:0:
188,253,153324,2,0,P|159:262|138:283,1,60.0000022888184,0|0,0:2|0:2,0:0:0:0:
221,384,153624,2,0,L|229:308,1,60.0000022888184,8|0,1:2|0:2,0:0:0:0:
105,366,153924,1,0,0:2:0:0:
105,366,154074,1,0,0:2:0:0:
19,272,154224,38,0,L|148:284,1,120.000004577637,0|0,1:2|0:2,0:0:0:0:
192,227,154674,1,0,0:2:0:0:
62,139,154824,2,0,P|50:175|57:215,1,60.0000022888184,8|0,1:2|0:2,0:0:0:0:
132,183,155124,1,0,0:2:0:0:
132,183,155274,1,0,0:2:0:0:
194,93,155424,2,0,L|200:153,1,60.0000022888184,0|0,1:2|0:2,0:0:0:0:
195,230,155724,1,0,0:2:0:0:
195,230,155874,1,0,0:2:0:0:
290,133,156024,1,10,1:2:0:0:
319,206,156174,1,8,0:2:0:0:
291,279,156324,1,8,0:2:0:0:
320,352,156474,1,8,0:2:0:0:
504,209,156624,38,0,P|467:183|390:190,1,120.000004577637,4|0,1:0|0:2,0:0:0:0:
319,206,157074,1,0,0:2:0:0:
302,82,157224,2,0,P|329:96|372:96,1,60.0000022888184,8|0,1:2|0:2,0:0:0:0:
234,240,157524,2,0,P|238:181|214:127,1,120.000004577637,8|0,0:2|1:2,0:0:0:0:
151,79,157974,1,0,0:2:0:0:
341,154,158124,2,0,P|344:124|358:98,1,60.0000022888184,0|0,0:2|0:2,0:0:0:0:
264,2,158424,2,0,L|276:84,1,60.0000022888184,8|0,1:2|0:2,0:0:0:0:
408,206,158724,2,0,L|417:147,1,60.0000022888184,0|0,0:2|0:2,0:0:0:0:
308,229,159024,37,0,1:2:0:0:
308,229,159324,2,0,L|316:288,1,60.0000022888184,0|0,0:2|0:2,0:0:0:0:
488,299,159624,2,0,P|429:300|388:341,1,120.000004577637,8|0,1:2|0:2,0:0:0:0:
459,370,160073,1,0,0:2:0:0:
425,224,160224,2,0,P|419:194|403:169,1,60.0000022888184,0|0,1:2|0:2,0:0:0:0:
294,342,160524,2,0,P|300:313|316:288,1,60.0000022888184,0|0,0:2|0:2,0:0:0:0:
188,165,160824,1,8,1:2:0:0:
217,238,160974,1,0,0:2:0:0:
189,311,161124,1,0,0:2:0:0:
218,384,161274,1,0,0:2:0:0:
316,288,161424,38,0,L|304:159,1,120.000004577637,0|0,1:2|0:2,0:0:0:0:
353,107,161874,1,0,0:2:0:0:
226,68,162024,2,0,P|256:62|281:46,1,60.0000022888184,8|0,1:2|0:2,0:0:0:0:
365,3,162324,1,8,0:2:0:0:
365,3,162474,1,0,0:2:0:0:
488,86,162624,2,0,P|462:70|433:64,1,60.0000022888184,0|0,1:2|0:2,0:0:0:0:
305,168,162924,2,0,P|366:183|421:144,1,120.000004577637,0|8,0:2|1:2,0:0:0:0:
353,107,163374,1,0,0:2:0:0:
370,260,163524,37,4,1:0:0:0:
495,169,163674,1,0,0:2:0:0:
492,186,164124,1,0,0:2:0:0:
489,203,164724,1,0,0:2:0:0:
256,192,164874,12,2,166149,0:2:0:0:
65,323,168324,5,0,0:2:0:0:
65,323,168474,1,0,0:2:0:0:
0,223,168624,2,0,P|41:236|118:218,2,120,2|0|0,1:2|0:2|0:2,0:0:0:0:
184,341,170724,37,0,0:2:0:0:
184,341,170874,1,0,0:2:0:0:
135,292,171024,2,0,P|122:251|140:174,2,120,0|0|0,0:2|0:2|0:2,0:0:0:0:
135,292,172374,2,0,L|218:298,1,80,8|0,0:2|0:2,0:0:0:0:
263,249,172824,1,0,1:2:0:0:
234,187,172974,1,0,0:2:0:0:
257,123,173124,1,0,1:2:0:0:
228,61,173274,1,0,0:2:0:0:
397,20,173424,38,0,P|415:69|395:137,1,103.999995239258,4|0,1:0|0:2,0:0:0:0:
495,205,173874,2,0,P|496:171|510:142,2,51.999997619629,0|0|0,1:2|0:2|0:2,0:0:0:0:
375,306,174324,2,0,P|424:288|492:308,1,103.999995239258,8|0,1:2|0:2,0:0:0:0:
275,231,175524,37,8,0:2:0:0:
275,231,175674,1,0,0:2:0:0:
314,350,175824,2,0,P|265:332|197:352,1,103.999995239258,4|0,1:0|0:2,0:0:0:0:
113,248,176274,2,0,L|191:257,1,51.999997619629,0|0,0:2|1:2,0:0:0:0:
275,231,176574,1,0,0:2:0:0:
247,117,176724,2,0,P|218:125|186:152,1,51.999997619629,0|0,0:2|0:2,0:0:0:0:
374,179,177024,38,0,L|382:61,1,103.999995239258,2|0,1:2|0:2,0:0:0:0:
386,2,177474,1,0,0:2:0:0:
448,228,177624,2,0,L|456:110,1,103.999995239258,2|0,1:2|0:2,0:0:0:0:
460,51,178074,1,0,0:2:0:0:
302,38,178224,6,0,B|290:84|290:84|318:161,1,103.999995239258,4|0,1:0|0:2,0:0:0:0:
217,64,178674,2,0,B|211:87|211:87|225:125,2,51.999997619629,0|0|0,0:2|1:2|0:2,0:0:0:0:
294,207,179124,2,0,B|248:195|248:195|171:223,1,103.999995239258,0|0,0:2|1:2,0:0:0:0:
143,265,179574,1,0,0:2:0:0:
236,371,179724,2,0,B|242:348|242:348|228:309,1,51.999997619629,0|0,0:2|0:2,0:0:0:0:
53,267,180024,2,0,L|68:355,1,51.999997619629,0|0,1:2|0:2,0:0:0:0:
115,177,180324,2,0,B|109:154|109:154|123:115,1,51.999997619629,0|0,0:2|0:2,0:0:0:0:
2,51,180624,38,0,B|48:63|48:63|125:35,1,103.999995239258,0|0,1:2|0:2,0:0:0:0:
168,17,181074,1,0,0:2:0:0:
168,17,181224,2,0,L|183:90,1,51.999997619629,0|0,1:2|0:2,0:0:0:0:
236,112,181524,1,0,0:2:0:0:
246,40,181674,1,0,0:2:0:0:
115,184,181824,2,0,B|161:172|161:172|238:200,2,103.999995239258,0|0|0,1:2|0:2|1:2,0:0:0:0:
63,235,182574,1,0,0:2:0:0:
11,183,182724,2,0,L|2:120,1,51.999997619629,0|0,0:2|0:2,0:0:0:0:
144,287,183024,38,0,L|138:349,1,51.999997619629,0|0,1:2|0:2,0:0:0:0:
115,184,183324,2,0,L|109:122,1,51.999997619629,0|0,0:2|0:2,0:0:0:0:
215,192,183624,2,0,L|223:303,1,103.999995239258,0|8,1:2|0:2,0:0:0:0:
274,347,184074,1,0,0:2:0:0:
325,295,184224,1,0,1:2:0:0:
325,295,184374,1,0,0:2:0:0:
394,317,184524,2,0,B|405:263|405:263|377:203,1,103.999995239258,0|0,0:2|1:2,0:0:0:0:
384,218,185124,2,0,L|405:153,1,51.999997619629,0|0,0:2|0:2,0:0:0:0:
465,57,185424,38,0,B|411:68|411:68|351:40,1,103.999995239258,0|0,1:2|0:2,0:0:0:0:
301,15,185874,1,0,0:2:0:0:
257,170,186024,2,0,B|279:161|279:161|319:170,1,51.999997619629,0|0,1:2|0:2,0:0:0:0:
213,68,186324,2,0,L|142:56,1,51.999997619629,0|0,0:2|0:2,0:0:0:0:
163,221,186624,2,0,B|154:198|154:198|163:158,1,51.999997619629,10|0,1:2|0:2,0:0:0:0:
299,302,186924,2,0,L|287:231,1,51.999997619629,8|8,0:2|0:2,0:0:0:0:
97,384,187224,1,8,1:2:0:0:
156,342,187374,1,8,1:2:0:0:
228,343,187524,1,8,1:2:0:0:
290,381,187674,1,8,0:2:0:0:
511,248,187824,70,0,P|458:271|380:248,1,120.000004577637,4|0,1:0|0:2,0:0:0:0:
345,195,188274,1,0,0:2:0:0:
423,359,188424,2,0,P|389:352|351:358,1,60.0000022888184,0|0,1:2|0:2,0:0:0:0:
191,294,188724,2,0,B|246:304|246:304|315:283,1,120.000004577637,10|0,0:2|1:2,0:0:0:0:
259,215,189174,1,0,0:2:0:0:
98,280,189324,2,0,P|97:311|116:354,1,60.0000022888184,0|0,0:2|0:2,0:0:0:0:
182,148,189624,2,0,B|183:179|183:179|164:222,1,60.0000022888184,0|0,1:2|0:2,0:0:0:0:
14,140,189924,2,0,P|35:162|79:179,1,60.0000022888184,0|0,0:2|0:2,0:0:0:0:
270,134,190224,6,0,B|280:79|280:79|259:10,1,120.000004577637,0|0,1:2|0:2,0:0:0:0:
182,17,190674,1,0,0:0:0:0:
361,167,190824,2,0,P|356:126|367:91,1,60.0000022888184,0|0,1:2|0:2,0:0:0:0:
243,235,191124,2,0,B|298:225|298:225|367:246,1,120.000004577637,0|0,0:2|1:2,0:0:0:0:
414,299,191574,1,0,0:2:0:0:
414,299,191724,2,0,L|426:375,1,60.0000022888184,0|0,0:2|0:2,0:0:0:0:
494,201,192024,2,0,B|487:231|487:231|500:277,1,60.0000022888184,0|0,1:2|0:2,0:0:0:0:
359,108,192324,2,0,P|364:149|353:184,1,60.0000022888184,0|0,0:2|0:2,0:0:0:0:
495,35,192624,70,0,B|440:45|440:45|371:24,1,120.000004577637,0|0,1:2|0:2,0:0:0:0:
303,2,193074,1,0,0:2:0:0:
408,134,193224,2,0,P|380:144|360:166,1,60.0000022888184,0|0,1:2|0:2,0:0:0:0:
237,64,193524,2,0,B|266:75|266:75|285:95,1,60.0000022888184,0|0,0:2|0:2,0:0:0:0:
341,252,193824,1,0,1:2:0:0:
341,252,193974,1,0,0:2:0:0:
299,318,194124,2,0,B|274:326|274:326|227:316,1,60.0000022888184,0|0,0:2|0:2,0:0:0:0:
307,184,194424,2,0,P|332:176|379:186,1,60.0000022888184,0|0,1:2|0:2,0:0:0:0:
208,235,194724,2,0,L|119:220,1,60.0000022888184,0|0,0:2|0:2,0:0:0:0:
19,128,195024,5,2,1:2:0:0:
37,126,195174,1,0,0:2:0:0:
55,123,195324,1,0,0:2:0:0:
73,120,195474,1,0,0:2:0:0:
73,198,195624,21,0,1:2:0:0:
91,195,195774,1,0,0:2:0:0:
108,192,195924,2,0,P|133:173|153:140,1,60.0000022888184,0|0,0:2|0:2,0:0:0:0:
321,174,196224,1,0,1:2:0:0:
321,174,196374,1,0,0:2:0:0:
266,230,196524,2,0,P|241:238|194:228,1,60.0000022888184,0|0,0:2|0:2,0:0:0:0:
376,274,196824,2,0,P|401:266|448:276,1,60.0000022888184,0|0,1:2|0:2,0:0:0:0:
266,378,197124,2,0,P|274:353|264:306,1,60.0000022888184,0|0,0:2|0:2,0:0:0:0:
229,143,197424,38,0,P|221:118|231:71,1,60.0000022888184,4|0,1:0|0:2,0:0:0:0:
185,205,197724,2,0,P|222:180|309:176,2,120.000004577637,0|0|0,0:2|1:2|0:2,0:0:0:0:
148,274,198474,1,0,0:2:0:0:
92,219,198624,2,0,L|86:156,1,60.0000022888184,0|0,1:2|0:2,0:0:0:0:
269,286,198924,2,0,P|277:311|267:358,1,60.0000022888184,0|0,0:2|0:2,0:0:0:0:
205,383,199224,1,0,1:2:0:0:
205,383,199374,1,0,0:2:0:0:
308,214,199524,2,0,P|330:230|348:274,1,60.0000022888184,0|0,0:2|0:2,0:0:0:0:
148,274,199824,38,0,P|125:217|156:160,1,120.000004577637,4|0,1:0|0:2,0:0:0:0:
216,129,200274,1,0,0:2:0:0:
59,86,200424,2,0,P|61:126|37:173,1,60.0000022888184,0|0,1:2|0:2,0:0:0:0:
146,0,200724,6,0,B|142:31|142:31|168:87,1,60.0000022888184,0|0,0:2|0:2,0:0:0:0:
293,180,201024,2,0,B|303:125|303:125|282:56,1,120.000004577637,0|0,1:2|0:2,0:0:0:0:
444,117,201474,2,0,B|414:111|414:111|357:139,1,60.0000022888184,0|0,0:2|1:2,0:0:0:0:
373,200,201774,1,0,0:2:0:0:
159,135,201924,2,0,B|189:141|189:141|216:129,1,60.0000022888184,0|0,0:2|0:2,0:0:0:0:
397,288,202224,38,0,B|342:278|342:278|273:299,1,120.000004577637,4|0,1:0|0:2,0:0:0:0:
323,143,202674,2,0,B|317:173|317:173|329:199,1,60.0000022888184,0|0,0:2|1:2,0:0:0:0:
399,162,202974,1,0,0:2:0:0:
203,297,203124,2,0,B|209:267|209:267|196:240,1,60.0000022888184,0|0,0:2|0:2,0:0:0:0:
2,344,203424,38,0,B|57:334|57:334|126:355,1,120.000004577637,0|0,1:2|0:2,0:0:0:0:
76,199,203874,2,0,B|82:229|82:229|69:255,1,60.0000022888184,0|0,0:2|1:2,0:0:0:0:
0,218,204174,1,0,0:2:0:0:
196,353,204324,2,0,B|190:323|190:323|202:296,1,60.0000022888184,0|0,0:2|0:2,0:0:0:0:
393,216,204624,38,0,B|340:194|340:194|257:215,1,120.000004577637,4|0,1:0|0:2,0:0:0:0:
208,236,205074,1,0,0:2:0:0:
208,236,205224,2,0,L|201:314,1,60.0000022888184,0|0,1:2|0:2,0:0:0:0:
67,144,205524,2,0,B|120:166|120:166|203:145,1,120.000004577637,0|0,0:2|1:2,0:0:0:0:
235,95,205974,1,0,0:2:0:0:
325,201,206124,2,0,B|297:192|297:192|245:204,1,60.0000022888184,0|0,0:2|0:2,0:0:0:0:
67,300,206424,1,0,1:2:0:0:
140,330,206574,1,0,1:2:0:0:
218,320,206724,1,0,1:2:0:0:
283,277,206874,1,0,0:2:0:0:
160,14,207024,38,0,B|136:69|136:69|158:157,1,136.000002593994,2|0,1:2|0:2,0:0:0:0:
353,72,207474,2,0,P|303:46|227:67,1,136.000002593994,2|0,1:2|0:2,0:0:0:0:
123,236,207924,70,0,B|157:243|157:243|196:234,1,68.0000012969971,2|0,1:2|0:2,0:0:0:0:
287,144,208224,2,0,B|243:208|291:260|331:312|287:373,1,238.00000453949,2|0,1:2|0:2,0:0:0:0:
34,373,209424,6,0,B|15:313|15:313|37:224,1,136.000002593994,4|0,1:0|0:2,0:0:0:0:
214,99,209874,2,0,P|207:126|164:161,1,68.0000012969971,0|8,0:2|1:2,0:0:0:0:
103,185,210174,1,0,0:2:0:0:
279,266,210324,2,0,B|262:236|262:236|262:183,1,68.0000012969971,0|0,0:2|0:2,0:0:0:0:
143,303,210624,21,0,1:2:0:0:
143,303,210924,2,0,P|150:254|99:184,2,136.000002593994,0|0|0,0:2|1:2|0:2,0:0:0:0:
98,371,211674,1,0,0:2:0:0:
240,339,211824,6,0,B|270:322|270:322|323:322,1,68.0000012969971,0|0,1:2|0:2,0:0:0:0:
403,167,212124,2,0,P|415:199|405:251,1,68.0000012969971,0|0,0:2|0:2,0:0:0:0:
308,99,212424,2,0,B|291:129|291:129|291:182,1,68.0000012969971,8|0,1:2|0:2,0:0:0:0:
432,69,212724,2,0,P|463:83|492:126,1,68.0000012969971,0|0,0:2|0:2,0:0:0:0:
357,40,213024,69,0,1:2:0:0:
357,40,213174,1,0,0:2:0:0:
231,222,213324,2,0,B|214:192|214:192|214:158,1,68.0000012969971,0|0,0:2|0:2,0:0:0:0:
337,229,213624,1,8,1:2:0:0:
337,229,213924,1,0,0:2:0:0:
353,308,214074,1,0,0:2:0:0:
154,327,214224,38,0,P|207:324|290:380,1,136.000002593994,0|0,1:2|0:2,0:0:0:0:
192,242,214674,2,0,P|223:243|277:219,1,68.0000012969971,0|8,0:2|1:2,0:0:0:0:
310,168,214974,1,0,0:2:0:0:
384,345,215124,2,0,P|367:294|399:199,1,136.000002593994,0|0,0:2|1:2,0:0:0:0:
454,170,215574,1,0,0:2:0:0:
283,71,215724,2,0,P|314:72|368:48,1,68.0000012969971,0|0,0:2|0:2,0:0:0:0:
281,230,216024,2,0,P|291:195|341:147,1,68.0000012969971,8|0,1:2|0:2,0:0:0:0:
141,114,216324,2,0,P|176:124|224:174,1,68.0000012969971,0|0,2:2|0:2,0:0:0:0:
348,60,216624,2,0,P|282:67|218:11,1,136.000002593994,0|0,1:2|0:2,0:0:0:0:
145,33,217074,1,0,0:2:0:0:
141,114,217224,2,0,L|156:193,1,68.0000012969971,8|0,1:2|0:2,0:0:0:0:
263,276,217524,6,0,B|269:244|269:244|261:207,1,68.0000012969971,0|0,0:2|0:2,0:0:0:0:
132,373,217824,2,0,B|120:337|134:304,1,68.0000012969971,0|0,1:2|0:2,0:0:0:0:
191,249,218124,1,0,0:2:0:0:
191,249,218274,1,0,0:2:0:0:
250,357,218424,1,8,1:2:0:0:
289,285,218574,1,0,1:2:0:0:
261,209,218724,1,0,1:2:0:0:
300,137,218874,1,8,0:2:0:0:
417,290,219024,70,0,B|362:266|362:266|289:285,1,136.000002593994,0|0,1:2|0:2,0:0:0:0:
366,89,219474,2,0,P|382:127|378:170,1,68.0000012969971,0|8,0:2|1:2,0:0:0:0:
300,137,219774,1,0,0:2:0:0:
482,236,219924,2,0,B|465:206|465:206|465:172,1,68.0000012969971,0|0,0:2|0:2,0:0:0:0:
470,38,220224,37,0,1:2:0:0:
470,38,220374,1,0,0:2:0:0:
300,137,220524,2,0,P|285:167|283:201,1,68.0000012969971,0|0,0:2|0:2,0:0:0:0:
409,289,220824,1,8,1:2:0:0:
329,273,220974,1,0,0:2:0:0:
255,309,221124,1,0,0:2:0:0:
175,293,221274,1,0,0:2:0:0:
77,213,221424,38,0,P|90:266|47:355,1,136.000002593994,0|0,1:2|0:2,0:0:0:0:
178,142,221874,2,0,P|169:175|171:209,1,68.0000012969971,0|8,0:2|1:2,0:0:0:0:
197,286,222174,1,0,0:2:0:0:
42,72,222324,2,0,P|66:95|82:125,1,68.0000012969971,0|0,0:2|0:2,0:0:0:0:
62,340,222624,1,0,1:2:0:0:
62,340,222774,1,0,0:2:0:0:
30,265,222924,2,0,P|20:218|29:177,1,68.0000012969971,0|0,0:2|0:2,0:0:0:0:
250,103,223224,6,0,B|262:140|262:140|251:191,1,68.0000012969971,8|0,1:2|0:2,0:0:0:0:
178,142,223524,1,0,0:2:0:0:
327,130,223674,1,0,0:2:0:0:
188,52,223824,38,0,B|248:71|248:71|337:49,1,136.000002593994,0|0,1:2|0:2,0:0:0:0:
396,26,224274,1,0,0:2:0:0:
496,138,224424,2,0,B|459:126|459:126|408:137,1,68.0000012969971,8|0,1:2|0:0,0:0:0:0:
456,210,224724,1,0,0:2:0:0:
456,210,224874,1,0,0:0:0:0:
400,347,225024,2,0,B|388:317|388:317|401:259,1,68.0000012969971,0|0,1:2|0:2,0:0:0:0:
340,95,225324,2,0,B|351:132|351:132|339:183,1,68.0000012969971,0|0,0:2|0:2,0:0:0:0:
178,247,225624,2,0,B|167:210|167:210|179:159,1,68.0000012969971,8|0,1:2|0:0,0:0:0:0:
310,291,225924,1,0,0:2:0:0:
310,291,226074,1,0,0:2:0:0:
102,284,226224,38,0,B|57:142,1,136.000002593994,2|0,1:2|0:2,0:0:0:0:
252,201,226674,1,0,0:2:0:0:
178,247,226824,2,0,B|133:105,1,136.000002593994,10|0,1:2|0:2,0:0:0:0:
252,201,227274,1,0,0:2:0:0:
410,307,227424,38,0,L|378:206,1,68.0000012969971,2|0,1:2|0:2,0:0:0:0:
332,185,227724,1,0,0:2:0:0:
311,265,227874,1,0,1:2:0:0:
415,118,228024,1,10,1:2:0:0:
335,102,228174,1,8,1:2:0:0:
261,138,228324,1,8,1:2:0:0:
181,122,228474,1,8,0:2:0:0:
238,235,228624,70,0,B|178:216|178:216|89:238,1,136.000002593994,2|0,1:2|0:2,0:0:0:0:
170,368,229074,2,0,P|180:324|173:291,1,68.0000012969971,0|8,0:2|1:2,0:0:0:0:
98,327,229374,1,0,0:2:0:0:
33,192,229524,2,0,B|21:229|21:229|32:280,1,68.0000012969971,0|0,0:2|0:2,0:0:0:0:
175,96,229824,5,0,1:2:0:0:
175,96,230124,2,0,P|200:133|201:181,1,68.0000012969971,0|0,0:2|0:2,0:0:0:0:
62,68,230424,2,0,B|78:33|78:33|108:12,1,68.0000012969971,8|0,1:2|0:2,0:0:0:0:
92,181,230724,2,0,P|67:218|66:266,1,68.0000012969971,0|0,0:2|0:2,0:0:0:0:
267,223,231024,22,0,B|286:163|286:163|264:74,1,136.000002593994,0|0,1:2|0:2,0:0:0:0:
376,14,231474,2,0,P|366:44|375:95,1,68.0000012969971,0|8,0:2|1:2,0:0:0:0:
403,153,231774,1,0,0:2:0:0:
201,127,231924,2,0,B|189:90|189:90|200:39,1,68.0000012969971,0|0,0:2|0:2,0:0:0:0:
260,11,232224,5,0,1:2:0:0:
260,11,232374,1,0,0:2:0:0:
210,222,232524,2,0,P|179:222|126:187,1,68.0000012969971,0|0,0:2|0:2,0:0:0:0:
335,153,232824,2,0,B|296:150|296:150|249:174,1,68.0000012969971,8|0,1:2|0:2,0:0:0:0:
180,304,233124,1,0,0:2:0:0:
180,304,233274,1,0,0:2:0:0:
285,373,233424,21,0,1:2:0:0:
324,301,233574,1,0,0:2:0:0:
296,225,233724,1,0,0:2:0:0:
335,153,233874,1,0,0:2:0:0:
466,273,234024,2,0,P|430:272|387:259,1,68.0000012969971,8|0,1:2|0:2,0:0:0:0:
218,156,234324,6,0,B|199:216|199:216|221:305,1,136.000002593994,0|0,0:2|1:2,0:0:0:0:
247,362,234774,1,0,0:2:0:0:
361,232,234924,2,0,B|325:219|325:219|295:225,1,68.0000012969971,0|0,0:2|0:2,0:0:0:0:
57,168,235224,2,0,B|93:181|93:181|122:176,1,68.0000012969971,8|0,1:2|0:2,0:0:0:0:
270,96,235524,1,0,0:2:0:0:
270,96,235674,1,0,0:2:0:0:
132,308,235824,2,0,B|192:289|192:289|281:311,1,136.000002593994,0|0,1:2|0:2,0:0:0:0:
341,329,236274,1,0,0:2:0:0:
276,194,236424,2,0,L|193:213,1,68.0000012969971,8|0,1:2|0:2,0:0:0:0:
399,242,236724,2,0,P|435:242|481:218,1,68.0000012969971,0|0,0:2|0:2,0:0:0:0:
426,72,237024,70,0,B|366:53|366:53|277:75,1,136.000002593994,0|0,1:2|0:2,0:0:0:0:
449,152,237474,2,0,P|479:138|500:111,1,68.0000012969971,0|8,0:2|1:2,0:0:0:0:
495,29,237774,1,0,1:2:0:0:
366,138,237924,2,0,B|366:173|366:173|383:204,1,68.0000012969971,0|0,1:2|0:2,0:0:0:0:
299,358,238224,6,0,P|307:291|270:216,1,136.000002593994,2|0,1:2|0:2,0:0:0:0:
210,187,238674,1,0,0:2:0:0:
134,217,238824,2,0,L|128:296,1,68.0000012969971,8|0,1:2|0:2,0:0:0:0:
359,211,239124,2,0,B|344:180|344:180|318:159,1,68.0000012969971,0|0,0:2|0:2,0:0:0:0:
220,361,239424,22,0,P|282:335|348:343,1,136.000002593994,0|0,1:2|0:2,0:0:0:0:
427,365,239874,1,0,0:2:0:0:
512,217,240024,2,0,B|478:220|478:220|424:202,1,68.0000012969971,8|0,1:2|0:2,0:0:0:0:
317,158,240324,1,0,0:2:0:0:
317,158,240474,1,0,0:2:0:0:
158,232,240624,6,0,P|215:267|281:264,1,136.000002593994,0|0,1:2|0:2,0:0:0:0:
356,231,241074,1,0,0:2:0:0:
390,157,241224,2,0,L|400:77,1,68.0000012969971,8|0,1:2|0:2,0:0:0:0:
262,14,241524,22,0,P|262:50|286:96,1,68.0000012969971,0|0,0:2|0:2,0:0:0:0:
445,210,241824,2,0,P|383:180|309:205,1,136.000002593994,0|0,1:2|0:2,0:0:0:0:
394,348,242274,2,0,P|394:314|383:282,1,68.0000012969971,0|8,0:2|1:2,0:0:0:0:
280,334,242574,1,0,0:2:0:0:
162,334,242724,2,0,P|166:300|184:271,1,68.0000012969971,0|0,0:2|0:2,0:0:0:0:
377,156,243024,38,0,P|401:211|364:301,1,136.000002593994,0|0,1:2|0:2,0:0:0:0:
227,204,243474,2,0,P|241:173|280:147,1,68.0000012969971,0|8,0:2|1:2,0:0:0:0:
306,223,243774,1,0,0:2:0:0:
145,253,243924,2,0,P|167:279|198:292,1,68.0000012969971,0|0,0:2|0:2,0:0:0:0:
383,281,244224,1,0,1:2:0:0:
419,208,244374,1,0,0:2:0:0:
406,127,244524,1,0,0:2:0:0:
341,77,244674,1,0,0:2:0:0:
510,23,244824,2,0,P|495:53|471:77,1,68.0000012969971,8|0,1:2|0:2,0:0:0:0:
406,127,245124,1,0,0:2:0:0:
370,3,245274,1,0,0:2:0:0:
166,88,245424,38,0,P|221:64|311:101,1,136.000002593994,0|0,1:2|0:2,0:0:0:0:
241,227,245874,2,0,P|250:194|272:168,1,68.0000012969971,0|8,0:2|1:2,0:0:0:0:
348,141,246174,1,0,0:2:0:0:
380,283,246324,2,0,P|389:251|382:218,1,68.0000012969971,0|0,0:2|0:2,0:0:0:0:
314,354,246624,2,0,P|369:378|459:341,1,136.000002593994,0|0,1:2|0:2,0:0:0:0:
480,149,247074,2,0,P|470:182|477:215,1,68.0000012969971,0|8,0:2|1:2,0:0:0:0:
501,294,247374,1,0,1:2:0:0:
450,78,247524,2,0,P|422:97|405:127,1,68.0000012969971,0|0,1:2|0:2,0:0:0:0:
223,268,247824,38,0,P|247:213|210:123,1,136.000002593994,2|0,1:2|0:2,0:0:0:0:
177,79,248274,1,0,0:2:0:0:
405,126,248424,2,0,P|372:136|339:129,1,68.0000012969971,0|0,1:2|0:2,0:0:0:0:
287,66,248724,1,0,0:2:0:0:
368,58,248874,1,0,0:2:0:0:
377,245,249024,1,0,1:2:0:0:
297,226,249174,1,0,0:2:0:0:
218,249,249324,1,0,0:2:0:0:
138,230,249474,1,0,0:2:0:0:
207,80,249624,2,0,P|226:109|222:157,1,68.0000012969971,8|0,1:2|0:2,0:0:0:0:
72,127,249924,5,0,0:2:0:0:
72,127,250074,1,0,0:2:0:0:
130,292,250224,2,0,B|190:311|190:311|279:289,1,136.000002593994,0|0,1:2|0:2,0:0:0:0:
71,353,250674,2,0,L|139:374,1,68.0000012969971,0|8,0:2|1:2,0:0:0:0:
201,227,250974,1,0,0:2:0:0:
330,328,251124,2,0,B|341:299|341:299|332:256,1,68.0000012969971,0|0,0:2|0:2,0:0:0:0:
95,30,251424,2,0,B|84:59|84:59|93:102,1,68.0000012969971,0|0,1:2|0:2,0:0:0:0:
201,227,251724,2,0,L|217:133,1,68.0000012969971,0|0,0:2|0:2,0:0:0:0:
0,195,252024,2,0,B|29:206|29:206|72:197,1,68.0000012969971,8|0,1:2|0:2,0:0:0:0:
218,328,252324,2,0,L|124:312,1,68.0000012969971,0|0,0:2|0:2,0:0:0:0:
139,128,252624,38,0,B|199:109|199:109|288:131,1,136.000002593994,2|0,1:2|0:2,0:0:0:0:
350,148,253074,1,0,0:2:0:0:
408,5,253224,1,8,1:2:0:0:
329,23,253374,1,0,0:2:0:0:
420,179,253524,2,0,B|431:150|431:150|422:107,1,68.0000012969971,0|0,0:2|0:2,0:0:0:0:
200,109,253824,2,0,L|206:197,1,68.0000012969971,0|0,1:2|0:2,0:0:0:0:
410,322,254124,22,0,P|378:325|337:352,1,68.0000012969971,0|0,0:2|0:2,0:0:0:0:
126,283,254424,6,0,B|155:294|155:294|198:285,1,68.0000012969971,8|0,1:2|0:2,0:0:0:0:
420,179,254724,38,0,L|332:185,1,68.0000012969971,0|0,0:2|0:2,0:0:0:0:
83,97,255024,21,0,1:2:0:0:
83,97,255474,1,0,0:2:0:0:
83,97,255924,1,0,0:2:0:0:
23,292,256224,6,0,B|70:309|70:309|185:285,1,136.000002593994,0|0,1:2|0:2,0:0:0:0:
314,153,256674,70,0,P|249:136|188:163,1,136.000002593994,0|0,0:2|0:2,0:0:0:0:
265,360,257124,54,0,B|254:331|254:331|263:288,1,68.0000012969971,0|0,0:2|0:2,0:0:0:0:
413,208,257424,21,0,1:2:0:0:
256,192,257574,12,0,259824,3:2:0:0:
466,304,266424,5,0,1:2:0:0:
440,226,266574,1,0,1:2:0:0:
370,361,266724,2,0,P|351:331|313:313,1,68.0000012969971,0|0,1:2|3:2,0:0:0:0:
294,151,267024,22,0,B|338:135|338:135|418:155,2,120,0|0|0,1:2|0:2|0:2,0:0:0:0:
237,207,268224,2,0,P|196:220|106:205,2,120,0|0|0,0:2|0:2|1:2,0:0:0:0:
217,130,269424,1,4,1:0:0:0:
217,130,270024,2,0,B|205:89|205:89|215:41,1,80,0|0,0:2|0:2,0:0:0:0:
449,28,270624,6,0,P|462:69|447:159,1,120,0|0,0:2|0:2,0:0:0:0:
320,264,271224,2,0,B|304:227|304:227|322:164,1,80,8|0,0:2|1:2,0:0:0:0:
388,222,271674,1,0,0:2:0:0:
432,352,271824,70,0,B|392:392|344:352|292:316|253:354,3,191.999994140625,4|0|0|0,1:0|1:2|1:2|1:2,0:0:0:0:
24,256,274224,2,0,P|84:268|212:216,1,191.999994140625,0|2,1:2|1:2,0:0:0:0:
256,40,275124,1,2,1:2:0:0:
256,192,275274,12,0,276324,0:2:0:0:
