osu file format v14

[General]
AudioFilename: audio.mp3
AudioLeadIn: 0
PreviewTime: 28366
Countdown: 1
SampleSet: Normal
StackLeniency: 0.7
Mode: 0
LetterboxInBreaks: 0
WidescreenStoryboard: 0

[Editor]
DistanceSpacing: 1
BeatDivisor: 4
GridSize: 4
TimelineZoom: 1.2

[Metadata]
Title:Triple Play - Aspire Style
TitleUnicode:Triple Play - Aspire Style
Artist:KASAI HARCORES
ArtistUnicode:葛西ハーコーズ
Creator:DemoPlayer05
Version:Aspire Level
Source:
Tags:aspire
BeatmapID:1658268
BeatmapSetID:790234

[Difficulty]
HPDrainRate:2
CircleSize:4
OverallDifficulty:4
ApproachRate:10
SliderMultiplier:1.4
SliderTickRate:1

[Events]
//Background and Video events
0,0,"BackGround.jpg",0,0
//Break Periods
2,23468,26888
//Storyboard Layer 0 (Background)
//Storyboard Layer 1 (Fail)
//Storyboard Layer 2 (Pass)
//Storyboard Layer 3 (Foreground)
//Storyboard Sound Samples

[TimingPoints]
0,342.857142857143,4,1,0,100,1,0
600,342.857142857143,4,1,0,100,1,0
1285,171.428571428571,4,1,0,100,1,0
9513,1E-298,4,1,0,100,1,0
10370,171.428571428571,4,1,0,100,1,0
20483,1E-298,4,1,0,100,1,0
21854,85.7142857142857,4,1,0,100,1,0
23225,1E-298,4,1,0,100,1,0
23396,171.428571428571,4,1,0,100,1,0
27338,171.428571428571,4,1,0,100,1,0
28366,1E-298,4,1,0,100,1,0
28709,171.428571428571,4,1,0,100,1,0
29737,1E-298,4,1,0,100,1,0
30080,171.428571428571,4,1,0,100,1,0
31108,1E-298,4,1,0,100,1,0
31451,171.428571428571,4,1,0,100,1,0
33850,1E-298,4,1,0,100,1,0
34192,171.428571428571,4,1,0,100,1,0
35906,1E-298,4,1,0,100,1,0
36249,171.428571428571,4,1,0,100,1,0
37620,1E-298,4,1,0,100,1,0
38306,171.428571428571,4,1,0,100,1,0
43448,1E-298,4,1,0,100,1,0
43791,171.428571428571,4,1,0,100,1,0
44819,1E-298,4,1,0,100,1,0
45162,171.428571428571,4,1,0,100,1,0
47219,1E-298,4,1,0,100,1,0
47904,171.428571428571,4,1,0,100,1,0
60246,85.7142857142857,1,2,0,100,1,0
61618,171.428571428571,4,1,0,100,1,0
77389,1E-298,4,1,0,100,1,0
77732,171.428571428571,4,1,0,100,1,0
83903,85.7142857142857,4,1,0,100,1,0
87674,171.428571428571,4,1,0,100,1,0
89046,1E-298,4,1,0,100,1,0
89731,171.428571428571,4,1,0,100,1,0
94188,1E-298,4,1,0,100,1,0
94530,171.428571428571,4,1,0,100,1,0
95558,1E-298,4,1,0,100,1,0
95901,171.428571428571,4,1,0,100,1,0
96929,1E-298,4,1,0,100,1,0
97272,171.428571428571,4,1,0,100,1,0
99672,1E-298,4,1,0,100,1,0
100014,171.428571428571,4,1,0,100,1,0
108928,85.7142857142857,4,1,0,100,1,0
109313,1E-298,4,1,0,100,1,0
109613,171.428571428571,4,1,0,100,1,0
110298,85.7142857142857,4,1,0,100,1,0
110684,1E-298,4,1,0,100,1,0
110984,171.428571428571,4,1,0,100,1,0
113384,1E-298,4,1,0,100,1,0
113726,171.428571428571,4,1,0,100,1,0
124697,1E-298,4,1,0,100,1,0
126025,171.428571428571,4,1,0,100,1,0
130183,171.428571428571,4,1,0,20,1,0
132583,171.428571428571,4,1,0,100,1,0
142525,85.7142857142857,4,1,0,100,1,0
142867,1E-298,4,1,0,100,1,0
143039,85.7142857142857,4,1,0,100,1,0
143553,1E-298,4,1,0,100,1,0
143725,171.428571428571,4,1,0,100,1,0
143897,171.428571428571,4,1,0,100,1,0
154868,1E-298,4,1,0,100,1,0
155211,171.428571428571,4,1,0,100,1,0

[HitObjects]
124,80,1285,6,4,B,16,-1
244,200,1456,2,4,B,16,-1
232,100,1627,6,0,L|312:100,1,70
140,172,1799,2,0,L|140:252,1,70
292,152,1970,2,0,L|368:152,1,70
184,232,2142,2,0,L|184:308,1,70
340,200,2313,2,0,L|420:200,1,70
236,284,2485,2,0,L|236:364,1,70
324,292,2656,6,0,P|400:312|460:256,1,140
448,188,2999,2,0,P|380:144|320:188,1,140
220,208,3342,2,0,B|216:160|172:156|160:152|156:144|160:140|164:96,1,140
276,72,3684,2,0,B|312:92|304:88|304:88|304:88,7,35
344,180,4027,6,0,P|400:252|380:300,1,140
192,304,4370,2,0,B|108:248|108:248|156:228,1,140
144,56,4713,2,0,P|232:60|248:112,1,140
432,144,5056,2,0,B|464:212|464:212|420:284,1,140
80,240,5399,2,0,B|68:296|68:296|72:296|124:304|124:304|172:280,1,140
392,44,5742,2,0,B|400:108|432:116|432:116|388:180,1,140
364,336,6084,86,0,B,16,-1
140,60,6256,86,0,B,16,-1
80,328,6427,86,0,B,16,-1
336,64,6599,86,0,B,16,-1
448,240,6770,6,0,P|428:324|360:352,1,140,4|0,0:0|0:0,0:0:0:0:
300,224,7113,6,0,L|216:194,1,70
280,158,7284,2,0,L|196:128,1,70
176,260,7456,2,0,L|100:227,1,70
189,72,7627,2,0,L|118:42,1,70
278,270,7799,2,0,L|353:302,1,70
350,82,7970,2,0,L|427:108,1,70
192,336,8142,6,0,B|120:336|120:336|60:264,1,140
72,156,8484,2,0,B|168:156|168:156|216:208,1,140
312,64,8827,2,0,P|292:128|360:176,1,140
440,140,9170,2,0,P|500:188|468:264,1,140
148,136,9556,6,4,B|-180:408|-180:408|408:-80|408:-80,1,50000
256,276,9899,2,4,B|-180:88|-180:88|560:408|560:408|504:384,1,20000
344,136,10242,2,4,B|300:-80|300:-80|400:408|400:408|396:392,1,40000
152,104,10541,5,8,0:0:0:0:
192,160,10627,1,8,0:0:0:0:
200,232,10712,1,8,0:0:0:0:
180,296,10798,1,8,0:0:0:0:
288,60,10884,6,4,B|356:52|356:52|352:52|352:52,3,70
360,308,11227,2,4,B|428:324|428:324|424:312|424:312,3,70
108,192,11569,2,4,B|40:180|40:180|52:180|52:180,3,70
312,120,11912,6,0,P|224:96|184:128,1,140
184,128,12084,2,0,L|262:247,1,140
176,296,12255,6,2,P|84:188|140:72,1,280
140,72,12598,2,0,L|212:212,1,140
204,196,12769,2,0,L|240:36,1,140
236,52,12941,2,0,L|312:200,1,140
299,176,13112,2,0,L|336:28,1,140
336,32,13284,2,0,L|408:168,1,140
404,160,13455,1,0,0:0:0:0:
188,320,13627,6,0,P|152:308|148:268,1,70
212,256,13712,2,0,P|232:228|200:196,1,70
148,208,13798,2,0,P|124:180|156:140,1,70
200,148,13884,2,0,P|212:104|168:80,1,70
252,100,13969,2,0,P|284:76|332:96,1,70
316,112,14055,2,0,P|364:112|384:140,1,70
372,148,14141,2,0,P|404:160|412:200,1,70
372,220,14227,6,0,L|348:292,4,70
96,156,14655,2,0,B|156:120|156:120|156:116|156:116,3,70
376,56,14998,6,0,P|456:112|440:152,1,140
448,140,15169,2,0,L|312:188,1,140
308,188,15341,2,0,P|376:276|376:320,1,140
380,304,15512,2,0,L|232:248,1,140
244,252,15684,2,0,P|200:192|232:120,3,140
108,100,16369,5,0,0:0:0:0:
108,100,16369,5,0,0:0:0:0:
344,56,16541,5,0,0:0:0:0:
344,56,16541,5,0,0:0:0:0:
164,324,16712,5,0,0:0:0:0:
164,324,16712,5,0,0:0:0:0:
392,276,16884,5,0,0:0:0:0:
392,276,16884,5,0,0:0:0:0:
200,28,17055,86,0,B,16,-1
328,336,17226,2,8,B,16,-1
412,84,17397,86,8,B,16,-1
96,252,17569,2,0,B,16,-1
72,216,17740,54,2,P|72:124|224:52,1,280
224,52,18083,2,0,P|140:152|128:184,1,140
136,168,18254,2,0,L|292:104,1,140
268,112,18426,2,0,P|296:180|364:152,1,140
360,164,18597,2,0,P|416:116|476:160,1,140
472,148,18769,2,0,B|496:58|444:246,1,140
448,228,18940,2,0,P|372:256|368:324,1,140
360,312,19112,2,0,P|400:252|340:192,1,140
364,196,19283,2,0,P|328:152|260:280,1,280
255,277,19626,1,0,0:0:0:0:
180,144,19797,6,12,B|180:152|180:152|180:148|180:148|180:148|180:148|180:152|180:152|180:148|180:148|180:152|180:152|180:152|180:152|180:152|180:152|180:144|180:144|180:148|180:148|180:144|180:144|180:144|180:144|180:152|180:152|180:152|180:152|180:144|180:144|180:152|180:152|180:152|180:152|180:152|180:152|180:144|180:144|180:144|180:144|180:144|180:144|180:144|180:144|180:144|180:144|180:144|180:144|180:152|180:152|180:144|180:144|180:152|180:152|180:152|180:152|180:144|180:144|180:144|180:144|180:144|180:144|180:144|180:144|180:144|180:144|180:152|180:152|180:144|180:144|180:152|180:152|180:144|180:144|180:152|180:152|180:144|180:144|180:144|180:144|180:144|180:144|180:144|180:144|180:144|180:144|168:280|168:280,1,280
168,276,20140,1,12,0:0:0:0:
256,192,20483,6,4,B|-180:192|-180:192|692:192|692:192|252:192|252:192|256:188|256:188|256:-80|256:-80|256:408|256:408|256:360,1,40000
256,192,20568,6,4,B|332:-80|332:-80|196:408|196:408|264:164|264:164|-180:24|-180:24|692:296|692:296|488:232,1,40000
256,192,20654,6,4,B|404:-80|404:-80|140:404|140:404|136:408|136:408|252:200|252:200|300:112|300:112|-44:-80|-44:-80|692:332|692:332|220:68,1,40000
256,192,20740,6,4,B|480:-80|480:-80|76:408|76:408|352:76|352:76|136:-80|136:-80|692:324|692:324|340:68,1,40000
256,192,20825,6,4,B|560:-80|560:-80|12:408|12:408|416:48|416:48|288:-80|288:-80|692:324|692:324|392:24,1,40000
256,192,20911,6,4,B|660:-80|660:-80|-64:408|-64:408|476:44|476:44|388:-80|388:-80|692:344|692:344|464:28,1,40000
256,192,20997,6,4,B|692:-24|692:-24|-180:408|-180:408|540:52|540:52|468:-80|468:-80|692:332|692:332|528:32,1,40000
256,192,21083,6,4,B|692:48|692:48|-180:336|-180:336|608:76|608:76|548:-80|548:-80|692:300|692:300|596:44,1,40000
256,192,21168,6,4,B|692:120|692:120|-180:264|-180:264|672:124|672:124|640:-80|640:-80|692:248|692:248|668:100,1,40000
256,192,21254,6,4,B|692:192|692:192|-180:192|-180:192|688:192|688:192|692:188|692:188|692:-80|692:-80|692:408|692:408|692:180,1,40000
256,192,21340,6,4,B|692:256|692:256|-180:128|-180:128|672:252|672:252|692:112|692:112|648:408|648:408|672:240,1,40000
256,192,21425,6,4,B|692:332|692:332|-180:52|-180:52|636:312|636:312|688:128|688:128|608:408|608:408|644:280,1,40000
256,192,21511,6,4,B|692:368|692:368|-180:16|-180:16|592:328|592:328|560:408|560:408|692:84|692:84,1,40000
256,192,21597,6,4,B|692:408|692:408|-180:-24|-180:-24|548:336|548:336|512:408|512:408|692:52|692:52|664:104,1,40000
256,192,21683,6,4,B|620:408|620:408|-180:-68|-180:-68|504:340|504:340|464:408|464:408|692:32|692:32|496:352,1,40000
256,192,21768,6,4,B|516:408|516:408|-72:-80|-72:-80|452:356|452:356|408:408|408:408|692:72|692:72,1,40000
256,160,21854,6,4,L|256:236,15,70
324,192,22539,6,0,B|392:192|392:192|388:192|388:192,7,70
188,192,22882,2,0,B|120:192|120:192|124:192|124:192,7,70
256,192,23268,6,4,B|-180:192|-180:192|692:192|692:192|256:192|256:192|-180:-24|-180:-24|692:408|692:408|256:192|256:192|692:-24|692:-24|-180:408|-180:408|256:192|256:192|216:408|216:408|288:16|288:16,1,100000
180,40,27338,6,0,B,16,-1
36,316,27680,2,0,B,16,-1
228,316,28023,2,0,B,16,-1
344,156,28195,1,0,0:0:0:0:
308,116,28280,1,0,0:0:0:0:
432,256,28409,6,4,B|-180:256|-180:256|692:256|692:256|428:256|428:256|432:252|432:252|432:-80|432:-80|432:408|432:408|432:372,1,2590
160,68,28709,6,0,P|88:96|72:156,1,140
71,151,28880,2,0,P|172:156|192:104,1,140
192,128,29051,2,0,L|144:268,1,140
144,264,29223,2,0,P|232:208|284:196,1,140
272,196,29394,1,0,0:0:0:0:
372,104,29780,6,12,B|-180:-80|-180:-80|692:212|692:212|368:108|368:108|268:408|268:408|432:-80|432:-80|420:-48,1,2695
448,112,30080,6,0,L|416:176,1,70
136,36,30251,2,0,L|180:92,1,70
344,272,30422,2,0,P|360:316|408:336,1,70
108,256,30594,2,0,L|192:284,1,70
432,176,30765,2,0,L|404:212,6,35
64,96,31151,6,12,B|-180:108|-180:108|692:64|692:64|68:96|68:96|64:92|64:92|56:-80|56:-80|80:408|80:408|76:336,1,2450
316,48,31451,6,0,L|284:120,1,70
164,312,31622,2,0,B|136:284|136:284|120:224,1,70
328,244,31793,2,0,L|396:284,1,70
120,76,31965,2,0,P|160:96|164:136,1,70
428,192,32136,5,0,0:0:0:0:
428,192,32136,5,0,0:0:0:0:
80,200,32308,5,0,0:0:0:0:
80,200,32308,5,0,0:0:0:0:
324,44,32479,5,0,0:0:0:0:
324,48,32479,5,0,0:0:0:0:
220,328,32650,5,0,0:0:0:0:
220,328,32650,5,0,0:0:0:0:
136,24,32822,6,0,B|136:64|136:56|136:56|136:56,3,35
360,352,32993,2,0,B|360:324|360:324|356:320|360:320,3,35
400,104,33165,6,0,L|340:104,3,35
80,272,33336,2,0,B|124:272|112:272|112:272|112:272,3,35
256,192,33508,5,0,0:0:0:0:
256,192,33892,6,4,B|256:-12|256:-12|256:192|256:192|256:192|256:192|460:124|460:124|256:192|256:192|388:372|388:372|256:192|256:192|124:372|124:372|256:192|256:192|64:128|64:128|148:224|148:224|120:376|120:376|256:304|256:304|392:376|392:376|360:228|360:228|464:120|464:120|320:104|320:104|256:-16|256:-16|192:100|192:100|256:-16|256:-16,1,60000
228,56,34192,6,0,P|344:56|396:208,1,280
400,196,34534,2,0,B|392:228|392:228|392:224|392:224,6,35
284,164,34877,2,0,B,16,-1
168,120,35049,2,0,B,16,-1
64,164,35220,2,0,P|40:196|52:240,1,70
168,252,35392,2,0,P|180:292|156:328,1,70
280,304,35563,6,0,P|388:308|428:156,1,280
432,160,35949,6,0,B|212:80|212:80|672:248|672:248|428:160|428:160|200:276|200:276|676:40|676:40,1,30000
168,76,36249,5,4,0:0:0:0:
336,160,36420,2,4,L|368:176,1,35
168,244,36591,2,4,L|132:268,1,35
336,332,36763,2,4,L|372:352,1,35
104,68,36934,6,0,B|104:72|104:72|104:68|104:68|104:72|104:72|104:68|104:68|104:72|104:72|104:68|104:68|104:68|104:68|104:72|104:72|104:68|104:68|104:72|104:72|104:68|104:68|104:72|104:72|104:68|104:68|104:72|104:72|104:68|104:68|104:72|104:72|104:68|104:68|104:72|104:72|104:68|104:68|104:72|104:72|104:68|104:68|104:72|104:68|104:68|104:72|104:72|104:68|104:68|104:72|104:72|104:68|104:68|104:72|104:72|104:72|104:72|104:68|104:68|40:192|176:224|176:224,1,280
145,212,37277,2,0,B|172:192|172:192|168:196|168:196,6,35
368,88,37663,6,4,B|-180:88|-180:88|692:88|692:88|364:88|364:88|368:84|368:84|440:0|440:0|280:188|280:188,1,20000
368,312,38006,6,4,B|-180:312|-180:312|692:312|692:312|364:312|364:312|464:408|464:408|260:212|260:212,1,20000
388,44,38306,6,0,B|388:48|388:48|388:44|388:44|388:48|388:48|388:44|388:44|388:48|388:48|388:44|388:44|388:44|388:44|388:48|388:48|388:44|388:44|388:48|388:48|388:44|388:44|388:48|388:48|388:44|388:44|388:48|388:48|388:44|388:44|388:48|388:48|388:44|388:44|388:48|388:48|388:44|388:44|388:48|388:48|388:44|388:44|388:48|388:44|388:44|388:48|388:48|388:44|388:44|388:48|388:48|388:44|388:44|388:48|388:48|388:48|388:48|388:44|388:44|508:64|460:200|460:200,1,280
466,172,38648,2,0,B|434:176|434:176|438:176|438:176,6,35
356,300,38991,5,4,0:0:0:0:
384,312,38991,5,4,0:0:0:0:
144,56,39163,5,0,0:0:0:0:
164,68,39163,5,0,0:0:0:0:
136,292,39334,5,4,0:0:0:0:
172,308,39334,5,4,0:0:0:0:
336,60,39506,5,4,0:0:0:0:
372,76,39506,5,4,0:0:0:0:
112,148,39677,5,0,0:0:0:0:
92,284,39848,1,0,0:0:0:0:
116,272,39934,1,0,0:0:0:0:
152,252,40020,1,0,0:0:0:0:
184,228,40105,1,0,0:0:0:0:
224,192,40191,1,0,0:0:0:0:
264,148,40277,1,0,0:0:0:0:
340,64,40363,6,0,L|384:128,1,70
424,116,40534,2,0,L|368:188,1,70
336,184,40705,2,0,L|380:248,1,70
420,236,40876,2,0,L|364:308,1,70
304,320,41048,5,0,0:0:0:0:
304,248,41220,1,0,0:0:0:0:
248,248,41305,1,0,0:0:0:0:
196,224,41391,1,0,0:0:0:0:
164,184,41477,1,0,0:0:0:0:
172,136,41563,1,0,0:0:0:0:
204,96,41648,1,0,0:0:0:0:
236,80,41734,6,0,L|296:116,1,70
124,192,41905,2,0,L|72:240,1,70
412,192,42077,2,0,L|480:228,1,70
316,292,42248,2,0,L|264:352,1,70
156,44,42420,6,4,B,16,-1
340,348,42591,2,4,B,16,-1
332,40,42763,6,4,B,16,-1
148,352,42934,2,4,B,16,-1
472,200,43105,6,4,B|400:124|352:180|344:204|328:204|288:196|208:136,1,280
216,140,43491,6,4,B|12:76|12:76|44:296|44:296|368:4|368:4|436:264|436:264|212:136|212:136|248:376|248:376|200:44|200:44|192:8,1,80000
96,120,43791,6,4,B,16,-1
408,244,43962,2,4,B,16,-1
112,280,44134,6,4,B,16,-1
392,72,44305,2,4,B,16,-1
260,24,44476,6,0,B|192:92|188:124|304:196|304:224|232:296,1,280
252,276,44862,6,0,B|136:132|136:132|340:112|340:112|160:408|160:408|372:408|372:408|248:272|248:272|508:244|508:244|16:300|16:300|0:304,1,17000
88,76,45162,6,4,L|88:4,1,70
92,320,45333,2,4,P|104:288|127:235,1,70
376,320,45504,2,4,L|460:320,1,70
92,320,45676,2,4,L|184:288,1,70
112,56,45847,6,4,L|40:56,1,70
376,56,46019,2,4,P|340:68|280:88,1,70
376,268,46190,2,4,L|376:344,1,70
376,56,46362,2,4,L|336:140,1,70
248,104,46533,6,0,B|224:60|248:24|248:24|272:64|244:104,1,140
360,192,46704,2,0,B|408:168|440:192|440:192|404:220|360:188,1,140
252,272,46876,2,0,B|232:316|252:348|252:348|276:316|248:272,1,140
152,192,47047,2,0,B|112:168|80:192|80:192|112:216|152:188,1,140
256,192,47261,6,0,B|92:144|72:0|72:0|224:32|256:192|256:192|256:192|256:192|288:32|444:0|444:0|420:152|256:192|256:192|256:192|256:192|424:228|444:380|444:380|280:328|256:192|256:192|256:192|256:192|92:240|72:380|72:380|248:344|256:192|256:192,1,2240
256,192,47604,6,4,B|173:42|261:-73|261:-73|346:56|256:192|256:192|256:192|256:192|391:101|524:189|524:189|400:279|256:192|256:192|256:192|256:192|349:336|256:457|256:457|176:305|256:192|256:192|256:192|256:192|106:109|-7:194|-7:194|142:293|256:192|256:192,1,2240
296,36,47904,6,0,P|400:80|412:240,1,280
412,236,48246,2,0,B|332:152|296:144|284:208|300:288|272:316|248:296|212:264|188:268,1,280
212,272,48589,1,0,0:0:0:0:
60,160,49275,6,0,P|64:280|216:320,1,280
200,320,49618,2,0,B|184:104|184:104|272:128,1,280
256,124,49961,1,0,0:0:0:0:
232,104,50475,5,0,0:0:0:0:
268,112,50561,1,0,0:0:0:0:
304,120,50646,2,0,P|352:136|372:228,1,140
200,220,50903,1,0,0:0:0:0:
172,220,50989,2,0,P|136:252|124:344,1,140
288,320,51246,1,0,0:0:0:0:
316,316,51332,2,0,P|360:292|384:200,1,140
168,152,51589,1,0,0:0:0:0:
144,144,51675,2,0,P|88:88|92:20,1,140
380,104,52018,6,0,P|416:168|380:244,1,140
328,288,52361,2,0,P|264:312|188:276,1,140
136,228,52703,2,0,P|108:156|140:96,1,140
200,52,53046,2,0,P|276:20|332:56,1,140
220,100,53303,5,0,0:0:0:0:
184,152,53389,2,0,P|108:284|108:284,1,140
276,324,53646,1,0,0:0:0:0:
308,280,53732,2,0,P|388:152|388:152,1,140
140,96,53989,1,0,0:0:0:0:
108,152,54075,2,0,L|32:284,1,140
352,332,54332,1,0,0:0:0:0:
384,280,54418,2,0,L|464:152,1,140
72,196,54761,6,0,B|108:120|176:144|184:148|200:152|208:160|216:172|232:168|244:172|256:172|272:172|336:104,1,280
192,152,54932,1,0,0:0:0:0:
316,120,55103,1,0,0:0:0:0:
248,272,55275,1,0,0:0:0:0:
136,304,55361,1,0,0:0:0:0:
144,256,55446,2,0,P|160:184|224:112,1,140
200,128,55618,2,0,P|264:148|304:228,1,140
304,212,55789,2,0,P|392:140|380:104,1,140
392,124,55961,1,0,0:0:0:0:
160,52,56132,6,0,P|64:108|68:288,1,280
52,128,56303,1,0,0:0:0:0:
56,272,56475,2,0,P|244:288|320:216,1,280
188,304,56646,1,0,0:0:0:0:
308,232,56818,2,0,B|320:60|320:60|408:160,1,280
320,92,56989,1,0,0:0:0:0:
396,148,57161,2,0,B|396:228|396:228|356:292,1,140
360,280,57332,1,0,0:0:0:0:
164,52,57503,6,0,L|60:156,1,140
60,156,57675,1,0,0:0:0:0:
208,160,57846,2,0,L|316:252,1,140
320,256,58018,1,0,0:0:0:0:
312,140,58189,2,0,L|200:264,1,140
212,248,58361,1,0,0:0:0:0:
288,48,58532,2,0,L|420:148,1,140
404,136,58703,1,0,0:0:0:0:
408,260,58875,5,0,0:0:0:0:
392,280,58961,1,0,0:0:0:0:
360,300,59046,1,0,0:0:0:0:
316,296,59132,1,0,0:0:0:0:
272,260,59218,2,8,L|212:212,1,70
224,104,59389,2,8,L|284:152,1,70
332,176,59561,1,0,0:0:0:0:
396,140,59646,1,0,0:0:0:0:
400,68,59732,1,0,0:0:0:0:
328,24,59818,1,0,0:0:0:0:
240,44,59903,2,8,L|184:96,1,70
92,160,60075,2,8,L|144:212,1,70
220,264,60246,6,0,L|168:320,15,70
268,168,60931,6,0,B|324:208|324:208|312:200|312:200,7,70
212,88,61274,2,0,B|168:136|168:136|172:132|172:132,7,70
132,256,61618,6,0,B|256:368|384:268|384:268|380:272|380:272,2,280
128,248,62303,2,0,B|272:248|272:248|160:180|160:180|280:164|280:164|120:100,1,560
127,103,62989,2,0,B|267:7|379:115|379:115|376:112|376:112,2,280
220,64,64360,6,0,P|156:72|80:120,1,140
116,180,64703,2,0,P|264:136|356:216,1,280
352,208,65046,2,0,B|296:312|296:312|240:244|240:244|200:328|200:328,1,280
208,310,65389,2,0,P|132:142|152:38,1,280
146,52,65732,2,0,B|268:12|268:12|180:120|180:120|320:76|320:76|204:200|204:200,1,560
216,184,66417,1,0,0:0:0:0:
88,96,67103,6,4,P|36:128|24:232,1,140
108,192,67360,1,0,0:0:0:0:
112,280,67446,2,0,P|184:308|256:272,1,140
248,196,67703,1,0,0:0:0:0:
304,92,67789,2,0,L|356:140,1,70
424,248,67960,2,0,L|364:312,1,70
416,88,68132,2,0,L|364:144,1,70
312,248,68303,2,0,L|364:304,1,70
464,56,68475,6,4,P|468:116|400:192,1,140
328,88,68732,1,0,0:0:0:0:
192,144,68818,2,0,P|272:136|332:196,1,140
368,240,69075,1,0,0:0:0:0:
280,196,69161,2,0,L|232:248,1,70
120,284,69332,2,0,L|184:344,1,70
80,180,69504,2,0,L|28:236,1,70
152,96,69675,2,0,L|204:148,1,70
316,300,69846,6,4,P|248:324|164:296,1,140
132,232,70103,1,0,0:0:0:0:
184,152,70189,2,0,P|264:132|328:172,1,140
368,240,70446,1,0,0:0:0:0:
156,88,70532,2,0,L|108:140,1,70
340,88,70703,2,0,L|404:148,1,70
160,284,70875,2,0,L|108:340,1,70
352,288,71046,2,0,L|404:340,1,70
148,84,71217,6,0,L|256:192,1,140
308,136,71475,1,0,0:0:0:0:
360,296,71560,2,0,L|256:192,1,140
200,256,71817,1,0,0:0:0:0:
152,164,71903,6,2,B|204:132|204:132|216:184|216:184|276:156|276:156|288:196|288:196|364:168|364:168,1,280
348,176,72246,1,8,0:0:0:0:
348,208,72332,1,8,0:0:0:0:
360,248,72417,1,8,0:0:0:0:
380,284,72503,1,8,0:0:0:0:
444,72,72589,6,4,P|452:128|380:208,1,140
324,240,72846,1,0,0:0:0:0:
256,172,72932,2,0,P|240:96|172:52,1,140
96,60,73189,1,0,0:0:0:0:
72,160,73275,2,0,L|124:208,1,70
216,248,73446,2,0,L|284:316,1,70
296,156,73618,2,0,L|356:216,1,70
432,232,73789,2,0,L|484:284,1,70
280,44,73960,6,4,P|228:76|216:180,1,140
104,124,74217,1,0,0:0:0:0:
72,248,74303,2,0,P|148:212|212:256,1,140
276,312,74560,1,0,0:0:0:0:
300,192,74646,2,0,L|352:240,1,70
400,84,74817,2,0,L|340:148,1,70
456,240,74989,2,0,L|404:296,1,70
460,136,75160,2,0,L|516:192,1,70
320,96,75332,6,6,P|256:128|188:80,1,140
132,168,75589,1,0,0:0:0:0:
192,244,75675,2,2,P|264:272|336:236,1,140
368,172,75932,1,0,0:0:0:0:
96,84,76018,2,8,L|176:84,1,70
404,236,76189,2,8,L|312:236,1,70
96,236,76361,2,8,L|184:236,1,70
408,84,76532,2,8,L|316:84,1,70
284,0,76703,6,2,B|208:68|208:68|296:144|296:144|208:224|208:224|296:312|296:312|208:384|208:384,1,560
219,374,77432,6,0,B|20:328|20:328|-56:300|-45:250|-49:210|-29:194|11:182|67:186|99:194|123:210|160:220|160:220|208:160|228:136|308:64|328:128|460:56|372:184|355:238|323:274|283:314|240:344|215:378|188:380|188:380,1,20000
176,80,77732,5,0,0:0:0:0:
244,48,77817,1,0,0:0:0:0:
312,48,77903,1,0,0:0:0:0:
376,80,77989,1,0,0:0:0:0:
396,152,78074,2,0,L|328:224,1,70
196,148,78246,2,0,L|256:212,1,70
368,184,78417,2,0,L|300:256,1,70
160,180,78589,2,0,L|220:244,1,70
340,212,78760,2,0,L|272:284,1,70
132,208,78932,2,0,L|192:272,1,70
240,304,79103,6,0,P|424:320|456:256,1,280
455,259,79446,2,0,L|400:216,1,70
392,152,79617,2,0,L|456:100,1,70
360,256,79789,2,0,L|305:213,1,70
297,149,79960,2,0,L|361:97,1,70
272,256,80132,2,0,L|217:213,1,70
209,149,80303,2,0,L|273:97,1,70
192,256,80474,2,0,L|137:213,1,70
129,149,80645,2,0,L|193:97,1,70
68,232,80817,6,0,P|180:312|296:224,1,280
288,240,81160,1,8,0:0:0:0:
252,184,81246,1,8,0:0:0:0:
212,128,81331,1,8,0:0:0:0:
160,88,81417,1,8,0:0:0:0:
96,76,81503,2,0,P|56:112|60:152,2,70
72,196,81846,6,2,B|132:224|132:224|228:144|228:144|312:172|312:172,1,280
316,172,82189,1,0,0:0:0:0:
176,76,82360,2,0,L|96:228,3,140
110,199,82874,2,2,L|384:72,1,280
376,76,83217,1,0,0:0:0:0:
412,132,83303,1,0,0:0:0:0:
416,200,83389,1,0,0:0:0:0:
380,256,83474,1,0,0:0:0:0:
316,276,83560,2,12,P|324:304|324:288,1,140
176,72,83902,5,4,0:0:0:0:
132,64,83988,1,0,0:0:0:0:
100,76,84074,2,0,P|64:124|92:196,1,140
172,152,84245,5,4,0:0:0:0:
176,192,84330,1,0,0:0:0:0:
176,228,84416,2,0,P|216:280|184:352,1,140
312,340,84588,5,4,0:0:0:0:
320,296,84673,1,0,0:0:0:0:
308,264,84759,2,0,P|308:204|328:120,1,140
120,204,84931,5,4,0:0:0:0:
128,144,85017,1,0,0:0:0:0:
152,96,85103,2,0,L|312:136,1,140
384,228,85274,5,4,0:0:0:0:
320,228,85360,1,0,0:0:0:0:
256,228,85446,2,0,L|112:228,1,140
40,144,85617,5,4,0:0:0:0:
104,144,85703,1,0,0:0:0:0:
168,144,85789,2,0,L|312:144,1,140
400,196,85960,5,4,0:0:0:0:
336,196,86046,1,0,0:0:0:0:
272,196,86132,2,0,L|128:196,1,140
148,52,86303,5,0,0:0:0:0:
148,52,86303,1,0,0:0:0:0:
352,340,86474,1,0,0:0:0:0:
352,340,86474,1,0,0:0:0:0:
352,52,86645,5,0,0:0:0:0:
352,52,86645,1,0,0:0:0:0:
144,340,86817,1,0,0:0:0:0:
144,340,86817,1,0,0:0:0:0:
256,16,86988,86,0,B,16,-1
256,368,87160,2,0,B,16,-1
416,140,87331,86,0,B,16,-1
72,244,87503,2,0,B,16,-1
296,60,87674,6,0,P|432:144|452:208,1,210
447,183,87931,2,0,P|380:236|232:228,1,210
256,236,88188,2,0,P|292:192|252:112,1,140
260,116,88359,2,0,P|188:100|64:188,1,210
72,172,88616,2,0,P|104:288|204:332,1,210
184,332,88874,2,0,L|256:192,1,140
256,192,89088,6,4,B|176:0|176:0|344:0|344:0|164:384|164:384|368:384|368:384|248:176|248:176,1,30000
256,192,89731,6,0,B,16,-1
256,80,90416,5,0,0:0:0:0:
148,264,90759,1,0,0:0:0:0:
360,264,91102,1,0,0:0:0:0:
256,96,91788,6,0,B|332:144|332:144|320:136|320:136,3,93.3333333333333
336,240,92359,1,0,0:0:0:0:
252,280,92473,2,0,B|176:228|176:228|184:232|184:232,3,93.3333333333333
168,136,93030,1,0,0:0:0:0:
376,48,93159,5,0,0:0:0:0:
152,328,93273,1,0,0:0:0:0:
144,56,93388,1,0,0:0:0:0:
372,312,93502,1,0,0:0:0:0:
188,192,93730,1,0,0:0:0:0:
328,192,93845,2,0,L|364:192,7,35
256,192,94230,6,4,B|64:20|64:20|460:376|460:376|256:192|256:192|436:20|436:20|68:372|68:372,1,1820
184,64,94530,6,0,L|184:144,1,70
328,64,94701,2,0,L|328:140,1,70
96,236,94872,2,0,L|152:296,1,70
416,240,95044,2,0,L|360:300,1,70
256,340,95215,2,0,L|256:188,1,140
256,188,95601,38,4,B|-72:200|-72:200|488:360|488:360|240:64|240:64|36:372|36:372|616:164|616:164|252:188,1,30000
464,168,95901,6,0,P|392:172|380:236,1,140
380,232,96072,2,0,P|412:268|400:300,1,70
96,192,96243,1,0,0:0:0:0:
256,56,96415,1,0,0:0:0:0:
256,56,96415,1,0,0:0:0:0:
256,332,96586,1,0,0:0:0:0:
256,332,96586,1,0,0:0:0:0:
256,192,96972,2,4,B|532:100|532:100|244:0|244:0|440:256|440:256|424:-40|424:-40|256:192|256:192,1,15000
364,52,97272,6,0,L|332:124,1,70
132,296,97443,2,0,B|144:256|144:256|200:240,1,70
336,276,97614,2,0,L|404:316,1,70
128,64,97786,2,0,P|168:84|172:124,1,70
428,192,97957,5,0,0:0:0:0:
428,192,97957,5,0,0:0:0:0:
80,200,98129,5,0,0:0:0:0:
80,200,98129,5,0,0:0:0:0:
324,44,98300,5,0,0:0:0:0:
324,48,98300,5,0,0:0:0:0:
220,328,98471,5,0,0:0:0:0:
220,328,98471,5,0,0:0:0:0:
136,24,98643,6,0,B|136:64|136:56|136:56|136:56,3,35
360,352,98814,2,0,B|360:324|360:324|356:320|360:320,3,35
400,104,98986,6,0,L|340:104,3,35
80,272,99157,2,0,B|124:272|112:272|112:272|112:272,3,35
256,160,99329,6,0,P|284:192|244:164,1,140
256,192,99714,6,0,B|-108:316|-108:316|108:0|108:0|120:384|120:384|-120:80|-120:80|256:192|256:192|176:168|176:168,1,15000
184,128,100014,5,0,0:0:0:0:
356,80,100185,1,0,0:0:0:0:
392,128,100271,1,0,0:0:0:0:
408,188,100356,1,0,0:0:0:0:
392,248,100442,1,0,0:0:0:0:
356,296,100528,1,0,0:0:0:0:
304,328,100614,1,0,0:0:0:0:
188,296,100699,2,0,L|56:224,1,140
56,224,100871,2,0,L|216:216,1,140
195,217,101042,2,0,L|75:145,1,140
68,140,101214,2,0,L|228:132,1,140
212,132,101385,5,0,0:0:0:0:
88,304,101556,1,0,0:0:0:0:
176,312,101642,1,0,0:0:0:0:
260,304,101728,1,0,0:0:0:0:
340,272,101814,1,0,0:0:0:0:
412,220,101899,1,0,0:0:0:0:
424,132,101985,1,0,0:0:0:0:
376,52,102071,2,0,L|332:192,1,140
332,192,102242,2,0,L|264:40,1,140
272,56,102414,2,0,L|228:196,1,140
228,196,102585,2,0,L|160:44,1,140
168,64,102756,6,0,B|165:66|165:66|168:64|168:64|165:66|165:66|168:64|168:64|165:66|165:66|168:64|168:64|168:64|168:64|165:66|165:66|168:64|168:64|165:66|165:66|168:64|168:64|165:66|165:66|168:64|168:64|165:66|165:66|168:64|168:64|165:66|165:66|168:64|168:64|165:66|165:66|168:64|168:64|165:66|165:66|168:64|168:64|165:66|168:64|168:64|165:66|165:66|168:64|168:64|165:66|165:66|168:64|168:64|165:66|165:66|165:66|165:66|168:64|168:64|52:48|64:188|64:188,1,280
64,188,103099,1,0,0:0:0:0:
120,228,103185,1,0,0:0:0:0:
180,264,103271,1,0,0:0:0:0:
244,296,103356,1,0,0:0:0:0:
304,312,103442,6,0,B|307:310|307:310|304:312|304:312|307:310|307:310|304:312|304:312|307:310|307:310|304:312|304:312|304:312|304:312|307:310|307:310|304:312|304:312|307:310|307:310|304:312|304:312|307:310|307:310|304:312|304:312|307:310|307:310|304:312|304:312|307:310|307:310|304:312|304:312|307:310|307:310|304:312|304:312|307:310|307:310|304:312|304:312|307:310|304:312|304:312|307:310|307:310|304:312|304:312|307:310|307:310|304:312|304:312|307:310|307:310|307:310|307:310|304:312|304:312|420:328|408:188|408:188,1,280
408,192,103785,1,0,0:0:0:0:
317,194,103871,1,0,0:0:0:0:
232,196,103956,1,0,0:0:0:0:
148,196,104042,1,0,0:0:0:0:
72,192,104128,6,0,B|69:190|69:190|72:192|72:192|69:190|69:190|72:192|72:192|69:190|69:190|72:192|72:192|72:192|72:192|69:190|69:190|72:192|72:192|69:190|69:190|72:192|72:192|69:190|69:190|72:192|72:192|69:190|69:190|72:192|72:192|69:190|69:190|72:192|72:192|69:190|69:190|72:192|72:192|69:190|69:190|72:192|72:192|69:190|72:192|72:192|69:190|69:190|72:192|72:192|69:190|69:190|72:192|72:192|69:190|69:190|69:190|69:190|72:192|72:192|48:316|176:312|176:312,1,280
176,312,104471,1,0,0:0:0:0:
216,244,104556,1,0,0:0:0:0:
260,180,104642,1,0,0:0:0:0:
304,120,104728,1,0,0:0:0:0:
344,64,104814,6,0,B|347:66|347:66|344:64|344:64|347:66|347:66|344:64|344:64|347:66|347:66|344:64|344:64|344:64|344:64|347:66|347:66|344:64|344:64|347:66|347:66|344:64|344:64|347:66|347:66|344:64|344:64|347:66|347:66|344:64|344:64|347:66|347:66|344:64|344:64|347:66|347:66|344:64|344:64|347:66|347:66|344:64|344:64|347:66|344:64|344:64|347:66|347:66|344:64|344:64|347:66|347:66|344:64|344:64|347:66|347:66|347:66|347:66|344:64|344:64|460:48|448:188|448:188,1,280
448,184,105156,5,0,0:0:0:0:
432,232,105242,1,0,0:0:0:0:
404,280,105328,1,0,0:0:0:0:
360,316,105414,1,0,0:0:0:0:
284,328,105499,6,0,P|168:328|116:176,1,280
112,188,105841,2,0,B|120:156|120:156|120:160|120:160,6,35
228,220,106184,2,0,B,16,-1
344,264,106356,2,0,B,16,-1
420,176,106527,2,0,P|444:208|432:252,1,70
320,100,106699,2,0,P|308:140|332:176,1,70
232,80,106870,6,0,P|124:76|84:228,1,280
79,219,107213,2,0,B|111:218|111:218|108:219|108:219,6,35
288,84,107556,6,0,L|220:152,1,70
248,236,107727,2,0,L|320:164,1,70
416,84,107899,2,0,L|348:152,1,70
372,240,108070,2,0,L|444:168,1,70
344,60,108242,6,0,B,16,-1
176,324,108413,2,0,B,16,-1
172,60,108585,6,0,B,16,-1
344,328,108756,2,0,B,16,-1
100,192,108928,6,0,B|104:192|104:192|100:192|100:192|104:192|104:192|100:192|100:192|104:192|104:192|100:192|100:192|104:192|104:192|100:192|100:192|104:192|104:192|100:192|100:192|104:192|104:192|100:192|100:192|104:192|104:192|100:192|100:192|104:192|104:192|100:192|100:192|104:192|104:192|100:192|100:192|104:192|104:192|100:192|100:192|104:192|104:192|100:192|100:192|104:192|104:192|100:192|100:192|104:192|104:192|100:192|100:192|104:192|104:192|100:192|100:192|104:192|104:192|100:192|100:192|104:192|104:192|100:192|100:192|104:192|104:192|100:192|100:192|104:192|104:192|100:192|100:192|104:192|104:192|100:192|100:192|104:192|104:192|100:192|100:192|104:192|104:192|100:192|100:192|104:192|104:192|100:192|100:192|104:192|104:192|100:192|100:192|104:192|104:192|100:192|100:192|104:192|104:192|100:192|100:192|104:192|104:192|100:192|100:192|104:192|104:192|100:192|100:192|104:192|104:192|100:192|100:192|104:192|104:192|100:192|100:192|104:192|104:192|100:192|100:192|432:192,1,560
420,192,109313,6,0,B|124:380|124:380|232:92|232:92|328:408|328:408|28:180|28:180|428:192|428:192|228:184|228:184|212:136|212:136|220:92|220:92,1,70000
124,104,109613,6,0,B,16,-1
388,272,109784,2,0,B,16,-1
124,276,109956,6,0,B,16,-1
392,104,110127,2,0,B,16,-1
256,36,110299,6,0,B|256:40|256:40|256:36|256:36|256:40|256:40|256:36|256:36|256:40|256:40|256:36|256:36|256:40|256:40|256:36|256:36|256:40|256:40|256:36|256:36|256:40|256:40|256:36|256:36|256:40|256:40|256:36|256:36|256:40|256:40|256:36|256:36|256:40|256:40|256:36|256:36|256:40|256:40|256:36|256:36|256:40|256:40|256:36|256:36|256:40|256:40|256:36|256:36|256:40|256:40|256:36|256:36|256:40|256:40|256:36|256:36|256:40|256:40|256:36|256:36|256:40|256:40|256:36|256:36|256:40|256:40|256:36|256:36|256:40|256:40|256:36|256:36|256:40|256:40|256:36|256:36|256:40|256:40|256:36|256:36|256:40|256:40|256:36|256:36|256:40|256:40|256:36|256:36|256:40|256:40|256:36|256:36|256:40|256:40|256:36|256:36|256:40|256:40|256:36|256:36|256:40|256:40|256:36|256:36|256:40|256:40|256:36|256:36|256:40|256:40|256:36|256:36|256:40|256:40|256:36|256:36|256:40|256:40|256:36|256:36|256:368,1,560
256,360,110684,6,0,B|392:8|392:8|80:240|80:240|496:232|496:232|152:12|152:12|256:360|256:360|156:24|156:24|148:0|148:0,1,40000
124,112,110984,5,0,0:0:0:0:
244,268,111155,2,0,P|332:300|384:268,1,140
372,280,111326,1,0,0:0:0:0:
288,72,111498,1,0,0:0:0:0:
108,148,111669,2,0,L|168:288,1,140
163,276,111841,1,0,0:0:0:0:
340,236,112012,1,0,0:0:0:0:
336,56,112184,2,0,P|228:60|188:100,1,140
200,80,112355,6,0,L|352:144,1,140
329,134,112526,2,0,L|184:192,1,140
192,192,112698,2,0,L|352:256,1,140
324,244,112869,2,0,L|168:312,1,140
192,304,113041,2,0,P|92:128|128:72,1,280
117,83,113426,6,0,B|-183:11|-183:11|397:151|397:151|116:84|116:84|17:411|17:411|137:15|137:15|141:3|141:3,1,50000
408,168,113726,6,4,B,16,-1
132,328,114068,2,4,B,16,-1
152,40,114411,2,4,B,16,-1
76,152,115097,6,4,B,16,-1
376,32,115440,2,4,B,16,-1
312,336,115783,2,4,B,16,-1
208,84,116468,6,0,P|120:116|112:172,1,140
200,264,116811,2,0,P|160:320|88:320,1,140
340,64,117154,2,0,B|396:120|396:120|380:184,1,140
416,304,117497,2,0,P|304:216|296:204,1,140
72,188,117840,6,0,B|176:248|176:248|212:212,1,140
184,80,118183,2,0,B|216:64|216:64|320:120,1,140
272,304,118525,2,0,P|304:224|256:188,1,140
440,84,118868,2,0,P|380:116|360:208,1,140
384,320,119125,5,0,0:0:0:0:
408,244,119211,2,0,P|416:196|364:116,1,140
288,40,119468,1,0,0:0:0:0:
228,80,119554,2,0,P|192:144|204:236,1,140
260,328,119811,1,0,0:0:0:0:
248,260,119897,2,0,P|124:216|88:224,1,140
56,288,120154,1,0,0:0:0:0:
52,196,120240,2,0,P|76:116|116:68,1,140
216,56,120583,6,0,L|372:84,1,140
360,80,120754,2,0,L|220:164,1,140
232,156,120925,2,0,L|380:180,1,140
376,180,121097,1,0,0:0:0:0:
264,328,121268,5,0,0:0:0:0:
124,24,121440,1,0,0:0:0:0:
88,256,121611,5,0,0:0:0:0:
392,60,121783,1,0,0:0:0:0:
256,112,121954,6,0,P|300:128|328:168,1,70
256,268,122125,2,0,P|208:248|188:212,1,70
336,192,122297,2,0,P|320:236|280:264,1,70
180,192,122468,2,0,P|200:144|236:124,1,70
392,156,122640,6,0,P|400:208|380:244,1,70
124,228,122811,2,0,P|116:176|136:140,1,70
220,56,122983,2,0,P|272:48|308:68,1,70
292,324,123154,2,0,P|240:332|204:312,1,70
348,100,123325,6,0,L|292:156,1,70
164,284,123497,2,0,L|220:228,1,70
164,100,123668,2,0,L|220:156,1,70
348,284,123840,2,0,L|292:228,1,70
256,96,124011,6,0,L|256:24,1,70
256,288,124183,2,0,L|256:360,1,70
352,192,124354,2,0,L|424:192,1,70
160,192,124525,2,0,L|88:192,1,70
136,316,124718,6,0,B|-160:148|-160:148|160:148|160:148|-128:320|-128:320|4:32|4:32|136:316|136:316|76:184|76:184|28:92|28:92,1,1855
116,300,124804,2,0,B|-128:112|-128:112|208:160|208:160|-128:280|-128:280|56:16|56:16|116:300|116:300|-48:172|-48:172|-128:112|-128:112,1,15000
100,268,124889,2,0,B|-112:56|-112:56|-72:352|-72:352|84:84|84:84|-180:208|-180:208|96:264|96:264|24:192|24:192|-24:144|-24:144,1,15000
92,228,124975,2,0,B|-180:268|-180:268|32:48|32:48|-20:372|-20:372|-156:80|-156:80|96:228|96:228|-32:152|-32:152|-52:140|-52:140,1,15000
96,176,125061,2,0,B|-172:320|-172:320|-40:40|-40:40|24:348|24:348|-180:120|-180:120|100:176|100:176|-100:136|-100:136|-136:128|-136:128,1,15000
116,128,125146,2,0,B|-132:372|-132:372|-80:28|-80:28|84:336|84:336|-180:176|-180:176|116:124|116:124|-116:164|-116:164,1,15000
172,120,125232,2,0,B|-180:172|-180:172|128:336|128:336|-36:16|-36:16|-88:384|-88:384|176:120|176:120|-48:152|-48:152|-96:160|-96:160,1,15000
196,176,125318,2,0,B|-176:96|-176:96|68:376|68:376|16:8|16:8|-180:324|-180:324|192:176|192:176|-4:132|-4:132|-64:120|-64:120,1,15000
220,240,125404,2,0,B|-168:80|-168:80|36:388|36:388|100:28|100:28|-180:304|-180:304|216:240|216:240|8:152|8:152|-72:120|-72:120,1,15000
256,304,125489,2,0,B|-32:36|-32:36|44:400|44:400|184:56|184:56|-152:260|-152:260|252:304|252:304|120:176|120:176|72:136|72:136,1,18000
328,308,125575,2,0,B|0:64|0:64|96:408|96:408|256:88|256:88|-68:280|-68:280|324:308|324:308|136:168|136:168|92:132|92:132,1,18000
372,236,125661,2,0,B|116:4|116:4|176:376|176:376|368:12|368:12|16:216|16:216|376:236|376:236|220:96|220:96|180:64|180:64,1,18000
356,152,125746,2,0,B|-4:296|-4:296|200:0|200:0|232:356|232:356|-16:72|-16:72|356:156|356:156|200:120|200:120|104:100|104:100,1,15000
300,92,125832,2,0,B|0:340|0:340|368:312|368:312|56:88|56:88|208:408|208:408|296:92|296:92|188:184|188:184|132:144|132:144,1,18000
204,64,125918,2,0,B|-128:272|-128:272|280:296|280:296|-20:44|-20:44|64:408|64:408|208:64|208:64|88:140|88:140|16:76|16:76,1,17000
120,104,126004,2,0,B|-136:352|-136:352|292:272|292:272|-104:128|-104:128|136:408|136:408|120:100|120:100|56:184|56:184|-28:156|-28:156,1,15000
88,184,126068,6,0,L|112:216,15,35
244,272,126754,6,0,L|216:300,7,35
348,176,127097,6,0,L|348:212,7,35
176,212,127440,6,4,P|248:112|408:40,1,280
260,104,127611,1,0,0:0:0:0:
388,40,127783,2,4,P|464:104|360:224,1,280
468,140,127954,1,0,0:0:0:0:
368,224,128125,1,4,0:0:0:0:
252,276,128468,6,12,B,16,-1
140,296,128811,2,4,P|116:152|212:72,1,280
112,168,128983,1,0,0:0:0:0:
216,68,129154,2,4,P|300:144|260:320,1,280
308,168,129325,1,0,0:0:0:0:
281,298,129497,2,4,L|437:50,1,280
356,180,129668,1,0,0:0:0:0:
436,48,129840,1,12,0:0:0:0:
116,188,130183,6,4,L|116:196,30,8.75
184,192,130525,1,0,0:0:0:0:
400,188,130868,6,0,L|400:196,30,8.75
332,192,131211,1,0,0:0:0:0:
256,188,131554,6,8,L|256:196,93,8.75
256,188,132583,1,14,0:0:0:0:
388,96,132925,6,0,P|444:60|380:80,1,186.666666666667
396,208,133268,1,0,0:0:0:0:
320,256,133383,2,0,P|288:272|196:244,1,105
188,132,133611,1,0,0:0:0:0:
124,80,133725,2,0,P|64:52|12:76,1,105
136,220,133954,6,0,P|108:248|116:276,1,70
188,248,134068,2,0,P|180:280|196:312,1,70
244,260,134183,2,0,P|256:288|292:308,1,46.6666666666667
312,256,134297,2,0,P|376:240|312:236,1,186.666666666667
352,56,134640,5,0,0:0:0:0:
416,108,134754,2,0,P|448:152|456:208,1,93.3333333333333
344,320,134983,1,0,0:0:0:0:
324,240,135097,2,0,P|304:196|268:156,1,93.3333333333333
140,84,135325,2,0,B|80:72|64:104|72:188|192:168|132:72,1,186.666666666667
76,220,135668,6,0,B|104:336|104:336|160:288|160:288,1,186.666666666667
120,132,136011,1,0,0:0:0:0:
152,60,136125,2,0,P|200:28|268:28,1,93.3333333333333
400,84,136354,1,0,0:0:0:0:
452,148,136468,2,0,P|476:200|448:252,1,93.3333333333333
296,128,136697,2,0,B|340:244|180:108|232:260,1,186.666666666667
88,312,137040,5,0,0:0:0:0:
144,244,137154,2,0,P|212:232|240:260,1,93.3333333333333
376,320,137383,1,0,0:0:0:0:
436,264,137497,2,0,P|456:208|448:168,1,93.3333333333333
320,204,137725,1,0,0:0:0:0:
276,128,137840,2,0,P|220:92|160:120,1,93.3333333333333
172,180,138068,2,0,P|124:136|160:188,1,186.666666666667
85,288,138411,2,0,B|144:224|161:342|247:284,1,175
320,80,138754,5,0,0:0:0:0:
388,136,138868,1,0,0:0:0:0:
448,208,138983,2,0,P|396:240|360:248,1,93.3333333333333
292,164,139211,2,0,P|220:144|164:164,1,93.3333333333333
236,64,139440,6,0,P|264:92|256:120,1,70
176,128,139554,2,0,P|159:156|167:191,1,70
232,196,139668,2,0,P|240:228|224:260,1,70
156,272,139783,2,0,P|92:290|146:254,1,186.666666666667
416,112,140125,5,0,0:0:0:0:
96,140,140240,1,0,0:0:0:0:
212,348,140354,1,0,0:0:0:0:
248,20,140468,1,0,0:0:0:0:
408,328,140582,1,0,0:0:0:0:
116,268,140697,1,0,0:0:0:0:
392,112,140811,2,0,P|445:82|394:115,1,186.666666666667
256,184,141154,2,0,P|195:193|254:180,1,186.666666666667
172,60,141497,6,0,P|116:96|108:132,1,93.3333333333333
108,124,141611,1,0,0:0:0:0:
216,284,141725,2,0,B|256:316|256:316|304:280,1,93.3333333333333
296,284,141840,1,0,0:0:0:0:
400,136,141954,2,0,P|376:80|320:68,1,93.3333333333333
344,68,142068,1,0,0:0:0:0:
248,160,142182,2,0,L|60:280,1,186.666666666667
84,264,142411,1,0,0:0:0:0:
145,81,142525,6,0,B|148:84|148:84|145:81|145:81|148:84|148:84|145:81|145:81|148:84|148:84|145:81|145:81|148:84|148:84|145:81|145:81|148:84|148:84|145:81|145:81|148:84|148:84|145:81|145:81|148:84|148:84|145:81|145:81|148:84|148:84|145:81|145:81|148:84|148:84|145:81|145:81|148:84|148:84|145:81|145:81|148:84|148:84|145:81|145:81|148:84|148:84|145:81|145:81|148:84|148:84|145:81|145:81|148:84|148:84|145:81|145:81|148:84|148:84|145:81|145:81|148:84|148:84|145:81|145:81|148:84|148:84|145:81|145:81|148:84|148:84|145:81|145:81|148:84|148:84|145:81|145:81|148:84|148:84|145:81|145:81|148:84|148:84|145:81|145:81|148:84|148:84|145:81|145:81|148:84|148:84|145:81|145:81|148:84|148:84|145:81|145:81|148:84|148:84|145:81|145:81|148:84|148:84|145:81|145:81|148:84|148:84|145:81|145:81|148:84|148:84|145:81|145:81|148:84|148:84|145:81|145:81|148:84|148:84|145:81|145:81|380:316,1,560
372,308,142910,2,4,B|-180:292|-180:292|692:320|692:320|372:308|372:308|372:308|372:308|408:408|408:408|300:108,1,50000
366,81,143210,6,0,B|363:84|363:84|366:81|366:81|363:84|363:84|366:81|366:81|363:84|363:84|366:81|366:81|363:84|363:84|366:81|366:81|363:84|363:84|366:81|366:81|363:84|363:84|366:81|366:81|363:84|363:84|366:81|366:81|363:84|363:84|366:81|366:81|363:84|363:84|366:81|366:81|363:84|363:84|366:81|366:81|363:84|363:84|366:81|366:81|363:84|363:84|366:81|366:81|363:84|363:84|366:81|366:81|363:84|363:84|366:81|366:81|363:84|363:84|366:81|366:81|363:84|363:84|366:81|366:81|363:84|363:84|366:81|366:81|363:84|363:84|366:81|366:81|363:84|363:84|366:81|366:81|363:84|363:84|366:81|366:81|363:84|363:84|366:81|366:81|363:84|363:84|366:81|366:81|363:84|363:84|366:81|366:81|363:84|363:84|366:81|366:81|363:84|363:84|366:81|366:81|363:84|363:84|366:81|366:81|363:84|363:84|366:81|366:81|363:84|363:84|366:81|366:81|363:84|363:84|366:81|366:81|363:84|363:84|366:81|366:81|128:320,1,560
140,308,143596,2,4,B|124:404|124:404|180:60|180:60|-176:0|-176:0|696:148|696:148|180:60|180:60|188:0,1,80000
400,80,143896,6,0,P|412:104|400:84,1,140
248,44,144239,5,0,0:0:0:0:
204,88,144325,1,0,0:0:0:0:
176,140,144411,1,0,0:0:0:0:
160,200,144497,1,0,0:0:0:0:
252,140,144582,5,0,0:0:0:0:
300,184,144668,1,0,0:0:0:0:
336,240,144754,1,0,0:0:0:0:
360,300,144839,1,0,0:0:0:0:
216,300,144925,6,0,P|244:304|216:304,1,70
84,280,145097,6,0,P|80:308|80:280,1,70
88,156,145268,6,0,B|96:100|160:176|224:92,1,140
284,68,145611,5,0,0:0:0:0:
356,76,145697,1,0,0:0:0:0:
408,120,145782,1,0,0:0:0:0:
420,188,145868,1,0,0:0:0:0:
456,88,145954,5,0,0:0:0:0:
396,124,146039,1,0,0:0:0:0:
352,172,146125,1,0,0:0:0:0:
320,228,146211,1,0,0:0:0:0:
412,280,146297,2,0,P|308:356|172:304,1,280
172,304,146639,1,0,0:0:0:0:
68,252,146811,1,4,0:0:0:0:
120,156,146982,5,0,0:0:0:0:
100,112,147068,1,0,0:0:0:0:
144,100,147154,1,0,0:0:0:0:
160,140,147239,1,0,0:0:0:0:
236,192,147325,5,0,0:0:0:0:
264,136,147411,1,0,0:0:0:0:
304,88,147496,1,0,0:0:0:0:
356,56,147582,1,0,0:0:0:0:
416,144,147668,6,0,P|440:196|432:232,1,70
348,204,147839,2,0,P|352:248|384:288,1,70
256,308,148011,5,0,0:0:0:0:
240,308,148097,1,0,0:0:0:0:
216,304,148182,1,0,0:0:0:0:
192,296,148268,1,0,0:0:0:0:
144,268,148354,5,0,0:0:0:0:
172,240,148439,1,0,0:0:0:0:
212,220,148525,1,0,0:0:0:0:
256,204,148611,1,0,0:0:0:0:
308,176,148697,5,0,0:0:0:0:
252,144,148782,1,0,0:0:0:0:
188,120,148868,1,0,0:0:0:0:
124,104,148954,1,0,0:0:0:0:
56,96,149039,2,0,P|220:40|356:36,1,280
332,32,149382,1,0,0:0:0:0:
488,88,149554,1,4,0:0:0:0:
316,152,149725,5,0,0:0:0:0:
328,140,149811,1,0,0:0:0:0:
344,124,149896,1,0,0:0:0:0:
360,108,149982,1,0,0:0:0:0:
380,88,150068,5,0,0:0:0:0:
332,100,150154,1,0,0:0:0:0:
276,116,150239,1,0,0:0:0:0:
212,136,150325,1,0,0:0:0:0:
124,144,150411,6,0,P|84:172|64:212,1,70
156,232,150582,2,0,P|208:256|248:248,1,70
312,204,150754,2,0,P|360:200|312:208,1,140
456,256,151096,5,0,0:0:0:0:
432,192,151182,1,0,0:0:0:0:
412,136,151268,1,0,0:0:0:0:
396,88,151354,1,0,0:0:0:0:
340,152,151439,5,0,0:0:0:0:
324,188,151525,1,0,0:0:0:0:
314,216,151611,1,0,0:0:0:0:
308,236,151696,1,0,0:0:0:0:
272,324,151782,6,0,B|256:160|80:376|100:168,1,280
100,176,152125,1,0,0:0:0:0:
68,84,152296,1,4,0:0:0:0:
216,120,152468,5,0,0:0:0:0:
276,112,152554,1,0,0:0:0:0:
336,104,152640,1,0,0:0:0:0:
392,96,152726,1,0,0:0:0:0:
460,88,152811,2,0,P|476:68|460:92,1,140
404,176,153154,6,0,P|372:208|356:260,1,70
412,288,153325,2,0,P|380:324|332:344,1,70
184,316,153496,5,0,0:0:0:0:
200,260,153582,1,0,0:0:0:0:
228,208,153668,1,0,0:0:0:0:
264,164,153754,1,0,0:0:0:0:
276,264,153839,5,0,0:0:0:0:
240,208,153925,1,0,0:0:0:0:
204,148,154011,1,0,0:0:0:0:
168,96,154096,1,0,0:0:0:0:
108,164,154182,5,0,0:0:0:0:
148,112,154268,1,0,0:0:0:0:
204,80,154354,1,0,0:0:0:0:
264,68,154439,1,0,0:0:0:0:
336,20,154525,5,0,0:0:0:0:
336,80,154611,1,0,0:0:0:0:
320,136,154696,1,0,0:0:0:0:
280,184,154782,1,0,0:0:0:0:
256,192,154911,6,0,B|-152:24|-152:24|76:328|76:328|108:0|108:0|-164:228|-164:228|256:192|256:192|208:172|208:172|92:124|92:124,1,20000
