osu file format v14

[General]
AudioFilename: audio.mp3
AudioLeadIn: 0
PreviewTime: 89936
Countdown: 0
SampleSet: Normal
StackLeniency: 0.7
Mode: 1
LetterboxInBreaks: 0
WidescreenStoryboard: 0

[Editor]
DistanceSpacing: 0.9
BeatDivisor: 4
GridSize: 4
TimelineZoom: 1.860001

[Metadata]
Title:Trinity Homerun
TitleUnicode:Trinity Homerun
Artist:KASAI HARCORES
ArtistUnicode:葛西ハーコーズ
Creator:Midnaait
Version:Strike
Source:
Tags:葛西ハーコーズEP3 KASAI BASEBALL CLASSIC EPISODE of KBC 6回表 DJ Genki C-Show Camellia かめりあ Nardoxyribonucleic _DUSK_ yassu-
BeatmapID:1838986
BeatmapSetID:879375

[Difficulty]
HPDrainRate:5
CircleSize:2
OverallDifficulty:7
ApproachRate:8
SliderMultiplier:1.4
SliderTickRate:1

[Events]
//Background and Video events
0,0,"KASAI.jpg",0,-100
//Break Periods
//Storyboard Layer 0 (Background)
//Storyboard Layer 1 (Fail)
//Storyboard Layer 2 (Pass)
//Storyboard Layer 3 (Foreground)
//Storyboard Sound Samples

[TimingPoints]
835,342.857142857143,4,1,0,75,1,0
2527,-111.111111111111,4,1,0,75,0,0
13155,-105.263157894737,4,1,0,75,0,0
21384,-105.263157894737,4,1,0,75,0,0
21555,-104.918913417765,4,1,0,75,0,0
21727,-104.576913182338,4,1,0,75,0,0
21898,-104.237135313352,4,1,0,75,0,0
21984,-104.068127158763,4,1,0,75,0,0
22070,-103.899558219078,4,1,0,75,0,0
22155,-103.731642092641,4,1,0,75,0,0
22241,-103.564267842052,4,1,0,75,0,0
22413,-103.231027943607,4,1,0,75,0,0
22584,-102.899925706254,4,1,0,75,0,0
22670,-102.735117020435,4,1,0,75,0,0
22755,-102.570940626811,4,1,0,75,0,0
22927,-102.244052463468,4,1,0,75,0,0
23013,-102.081440573289,4,1,0,75,0,0
23098,-101.919241231633,4,1,0,75,0,0
23184,-101.757660062255,4,1,0,75,0,0
23270,-101.596487199859,4,1,0,75,0,0
23355,-101.435926982362,4,1,0,75,0,0
23441,-101.275770885849,4,1,0,75,0,0
23613,-100.957174975947,4,1,0,75,0,0
23784,-100.640475989195,4,1,0,75,0,0
23870,-100.482819949859,4,1,0,75,0,0
23955,-100.325757735367,4,1,0,75,0,0
24041,-100.169085416183,4,1,0,75,0,0
24127,-100.01300169022,4,1,0,75,0,0
25155,-92.5925925925926,4,1,0,75,0,0
25327,-96.1538461538461,4,1,0,75,0,0
25498,-100.01300169022,4,1,0,75,0,0
26355,-92.5925925925926,4,1,0,75,0,0
26441,-93.4579439252336,4,1,0,75,0,0
26527,-94.3396226415094,4,1,0,75,0,0
26613,-95.2380952380952,4,1,0,75,0,0
26698,-96.1538461538461,4,1,0,75,0,0
26870,-100.01300169022,4,1,0,75,0,0
27898,-92.5925925925926,4,1,0,75,0,0
28070,-96.1538461538461,4,1,0,75,0,0
28241,-100,4,1,0,75,0,0
30470,-92.5925925925926,4,1,0,75,0,0
30555,-93.4579439252336,4,1,0,75,0,0
30641,-94.3396226415094,4,1,0,75,0,0
30813,-97.0873786407767,4,1,0,75,0,0
30984,-100.01300169022,4,1,0,75,0,0
32013,-92.5925925925926,4,1,0,75,0,0
32098,-94.3396226415094,4,1,0,75,0,0
32184,-96.1538461538461,4,1,0,75,0,0
32270,-98.0392156862745,4,1,0,75,0,0
32355,-100.01300169022,4,1,0,75,0,0
33213,-92.5925925925926,4,1,0,75,0,0
33298,-93.4579439252336,4,1,0,75,0,0
33384,-94.3396226415094,4,1,0,75,0,0
33555,-97.0873786407767,4,1,0,75,0,0
33727,-100.01300169022,4,1,0,75,0,0
35098,-100,4,1,0,75,0,0
35355,-99.7330147195956,4,1,0,75,0,0
35441,-99.6443692461605,4,1,0,75,0,0
35613,-99.4675502037593,4,1,0,75,0,0
35784,-99.2912589933058,4,1,0,75,0,0
36041,-99.0281378550902,4,1,0,75,0,0
36127,-98.9407404329251,4,1,0,75,0,0
36298,-98.7663100215212,4,1,0,75,0,0
36384,-98.67937393858,4,1,0,75,0,0
36470,-98.5925907668039,4,1,0,75,0,0
36727,-98.3330580007709,4,1,0,75,0,0
36813,-98.2468826264143,4,1,0,75,0,0
36984,-98.0749842099276,4,1,0,75,0,0
37155,-97.9035904183714,4,1,0,75,0,0
37241,-97.8181658115729,4,1,0,75,0,0
37413,-97.6477630362205,4,1,0,75,0,0
37498,-97.5627840906319,4,1,0,75,0,0
37670,-97.3931742967726,4,1,0,75,0,0
37727,-97.3367686723557,4,1,0,75,0,0
37784,-97.2805229800915,4,1,0,75,0,0
37841,-97.2242477273832,4,1,0,75,0,0
38098,-96.9718597360232,4,1,0,75,0,0
38184,-96.8880526373412,4,1,0,75,0,0
38355,-96.7208722675145,4,1,0,75,0,0
38527,-96.5541746162937,4,1,0,75,0,0
38613,-96.4710876150418,4,1,0,75,0,0
38698,-96.3881434872459,4,1,0,75,0,0
38784,-96.3053418647025,4,1,0,75,0,0
38870,-96.2225897925152,4,1,0,75,0,0
39041,-96.0576960945822,4,1,0,75,0,0
39213,-95.8933665763671,4,1,0,75,0,0
39384,-95.7295067058519,4,1,0,75,0,0
39470,-95.6478323331758,4,1,0,75,0,0
39555,-95.5662972073617,4,1,0,75,0,0
39727,-95.4036432743294,4,1,0,75,0,0
39813,-95.3224328953903,4,1,0,75,0,0
39898,-95.2414513654291,4,1,0,75,0,0
39984,-95.1606073149959,4,1,0,75,0,0
40070,-95.0799003942963,4,1,0,75,0,0
40155,-94.9993302547217,4,1,0,75,0,0
40241,-94.9188064529601,4,1,0,75,0,0
40413,-94.7583472628104,4,1,0,75,0,0
40470,-94.7049514589771,4,1,0,75,0,0
40527,-94.6516157977333,4,1,0,75,0,0
40584,-94.5984296660675,4,1,0,75,0,0
40670,-94.5185837713482,4,1,0,75,0,0
40755,-94.4389617380546,4,1,0,75,0,0
40841,-94.3594737383431,4,1,0,75,0,0
40927,-94.2801194340553,4,1,0,75,0,0
41013,-94.2008984881698,4,1,0,75,0,0
41098,-94.1217219757279,4,1,0,75,0,0
41184,-94.0427668886703,4,1,0,75,0,0
41270,-93.9639441553487,4,1,0,75,0,0
41355,-93.8852534432417,4,1,0,75,0,0
41441,-93.8066944209407,4,1,0,75,0,0
41527,-93.7282667581455,4,1,0,75,0,0
41613,-93.6498824225726,4,1,0,75,0,0
41655,-93.6107832133399,4,1,0,75,0,0
41784,-93.4936812295541,4,1,0,75,0,0
41827,-93.4547123136864,4,1,0,75,0,0
41955,-93.338000233345,4,1,0,75,0,0
42041,-93.2602670227965,4,1,0,75,0,0
42127,-93.1827500093183,4,1,0,75,0,0
42213,-93.1053617515725,4,1,0,75,0,0
42298,-93.0281019290307,4,1,0,75,0,0
42384,-92.9509702222272,4,1,0,75,0,0
42470,-92.8738800570989,4,1,0,75,0,0
42555,-92.7970037703423,4,1,0,75,0,0
42641,-92.7202546469074,4,1,0,75,0,0
42727,-92.643632371538,4,1,0,75,0,0
42813,-92.5671366300193,4,1,0,75,0,0
42898,-92.4906815638324,4,1,0,75,0,0
42984,-92.4144380924921,4,1,0,75,0,0
43027,-92.3763634751249,4,1,0,75,0,0
43155,-92.2623276309064,4,1,0,75,0,0
43198,-92.224378223242,4,1,0,75,0,0
43327,-92.1106322381686,4,1,0,75,0,0
43384,-92.0602626479293,4,1,0,75,0,0
43441,-92.0098634573626,4,1,0,75,0,0
43498,-91.9595194195515,4,1,0,75,0,0
43584,-91.8841487898398,4,1,0,75,0,0
43670,-91.8089016074821,4,1,0,75,0,0
43727,-91.7587771858317,4,1,0,75,0,0
43784,-91.7087074666478,4,1,0,75,0,0
43841,-91.6586923604313,4,1,0,75,0,0
43927,-91.5838138430766,4,1,0,75,0,0
44013,-91.5090575665179,4,1,0,75,0,0
44070,-91.4592599299605,4,1,0,75,0,0
44127,-91.4095164619398,4,1,0,75,0,0
44184,-91.3599105403756,4,1,0,75,0,0
44270,-91.2854358651349,4,1,0,75,0,0
44355,-91.2111657060611,4,1,0,75,0,0
44413,-91.16169166928,4,1,0,75,0,0
44470,-91.1123542885674,4,1,0,75,0,0
44527,-91.0629873577255,4,1,0,75,0,0
44584,-91.0136738943659,4,1,0,75,0,0
44641,-90.9644138116727,4,1,0,75,0,0
44698,-90.9152070230179,4,1,0,75,0,0
46092,-90.9090909090909,4,1,0,75,0,1
50699,-90.9090909090909,4,1,0,75,0,1
50785,-91.743119266055,4,1,0,75,0,1
50871,-92.5925925925926,4,1,0,75,0,1
50956,-93.4579439252336,4,1,0,75,0,1
51042,-94.3396226415094,4,1,0,75,0,1
51128,-95.2380952380952,4,1,0,75,0,1
51214,-96.1538461538461,4,1,0,75,0,1
51299,-97.0873786407767,4,1,0,75,0,1
51385,-98.0392156862745,4,1,0,75,0,1
51471,-99.009900990099,4,1,0,75,0,1
51556,-100,4,1,0,75,0,1
57042,-80,4,1,0,75,0,1
57385,-83.3333333333333,4,1,0,75,0,1
57442,-84.0336134453781,4,1,0,75,0,1
57499,-84.7457627118644,4,1,0,75,0,1
57556,-85.4700854700855,4,1,0,75,0,1
57614,-86.2068965517241,4,1,0,75,0,1
57671,-86.9565217391304,4,1,0,75,0,1
57728,-87.719298245614,4,1,0,75,0,1
58071,-90.9090909090909,4,1,0,75,0,1
58242,-92.5925925925926,4,1,0,75,0,1
58414,-94.3396226415094,4,1,0,75,0,1
58728,-83.3333333333333,4,1,0,75,0,1
58785,-84.0336134453781,4,1,0,75,0,1
58842,-84.7457627118644,4,1,0,75,0,1
58899,-85.4700854700855,4,1,0,75,0,1
58957,-86.2068965517241,4,1,0,75,0,1
59014,-86.9565217391304,4,1,0,75,0,1
59071,-87.719298245614,4,1,0,75,0,1
59271,-89.2857142857143,4,1,0,75,0,1
59356,-90.0900900900901,4,1,0,75,0,1
59442,-90.9090909090909,4,1,0,75,0,1
59528,-91.743119266055,4,1,0,75,0,1
59614,-92.5925925925926,4,1,0,75,0,1
59699,-93.4579439252336,4,1,0,75,0,1
59785,-94.3396226415094,4,1,0,75,0,1
60099,-83.3333333333333,4,1,0,75,0,1
60156,-84.0336134453781,4,1,0,75,0,1
60213,-84.7457627118644,4,1,0,75,0,1
60270,-85.4700854700855,4,1,0,75,0,1
60328,-86.2068965517241,4,1,0,75,0,1
60385,-86.9565217391304,4,1,0,75,0,1
60442,-87.719298245614,4,1,0,75,0,1
60642,-89.2857142857143,4,1,0,75,0,1
60728,-90.9090909090909,4,1,0,75,0,1
60814,-92.5925925925926,4,1,0,75,0,1
61177,-90.9090909090909,4,1,0,75,0,1
62699,-90.7372675197785,4,1,0,75,0,1
62785,-90.6515580736544,4,1,0,75,0,1
62871,-90.5660103951667,4,1,0,75,0,1
63042,-90.3954802259887,4,1,0,75,0,1
63214,-90.2255910452905,4,1,0,75,0,1
63385,-90.0562581444628,4,1,0,75,0,1
63471,-89.9719107694578,4,1,0,75,0,1
63556,-89.8876404494382,4,1,0,75,0,1
63642,-89.8035278417877,4,1,0,75,0,1
63728,-89.71965300027,4,1,0,75,0,1
63899,-89.5522120739665,4,1,0,75,0,1
64071,-89.3854748603352,4,1,0,75,0,1
64156,-89.3022989983854,4,1,0,75,0,1
64242,-89.2193573886565,4,1,0,75,0,1
64328,-89.1364902506964,4,1,0,75,0,1
64414,-89.0537769042592,4,1,0,75,0,1
64585,-88.8888888888889,4,1,0,75,0,1
64756,-88.7246103436925,4,1,0,75,0,1
64842,-88.6426592797784,4,1,0,75,0,1
64928,-88.5608594654289,4,1,0,75,0,1
65099,-88.3977900552486,4,1,0,75,0,1
65156,-88.3435929692635,4,1,0,75,0,1
65214,-88.289384349294,4,1,0,75,0,1
65271,-88.2353200692118,4,1,0,75,0,1
65356,-88.1542699724518,4,1,0,75,0,1
65442,-88.0733686390111,4,1,0,75,0,1
65528,-87.9926930867661,4,1,0,75,0,1
65614,-87.9120879120879,4,1,0,75,0,1
65699,-87.8316302780222,4,1,0,75,0,1
65785,-87.7513967828583,4,1,0,75,0,1
65871,-87.6712328767123,4,1,0,75,0,1
65956,-87.591215301835,4,1,0,75,0,1
66042,-87.5114202403414,4,1,0,75,0,1
66128,-87.431693989071,4,1,0,75,0,1
66214,-87.3521128729062,4,1,0,75,0,1
66299,-87.2727526611644,4,1,0,75,0,1
66385,-87.1934604904632,4,1,0,75,0,1
66471,-87.1143122717061,4,1,0,75,0,1
66556,-87.0353833647531,4,1,0,75,0,1
66663,-86.9565217391304,4,1,0,75,0,0
68377,-86.9565217391304,4,1,0,75,0,1
71785,-86.9565217391304,4,1,0,75,0,1
71899,-87.3362445414847,4,1,0,75,0,1
72014,-87.719298245614,4,1,0,75,0,1
72128,-88.1057268722467,4,1,0,75,0,1
72242,-88.495575221239,4,1,0,75,0,1
72356,-88.8888888888889,4,1,0,75,0,1
72471,-89.2857142857143,4,1,0,75,0,1
72585,-89.6860986547085,4,1,0,75,0,1
72699,-90.0900900900901,4,1,0,75,0,1
72814,-90.4977375565611,4,1,0,75,0,1
72928,-90.9090909090909,4,1,0,75,0,1
73042,-91.324200913242,4,1,0,75,0,1
73156,-91.743119266055,4,1,0,75,0,1
73271,-92.1658986175115,4,1,0,75,0,1
73385,-92.5925925925926,4,1,0,75,0,1
73499,-93.0232558139535,4,1,0,75,0,1
78985,-80,4,1,0,75,0,1
79320,-83.3333333333333,4,1,0,75,0,1
79377,-84.0336134453781,4,1,0,75,0,1
79434,-84.7457627118644,4,1,0,75,0,1
79491,-85.4700854700855,4,1,0,75,0,1
79549,-86.2068965517241,4,1,0,75,0,1
79606,-86.9565217391304,4,1,0,75,0,1
79663,-87.719298245614,4,1,0,75,0,1
79899,-89.2857142857143,4,1,0,75,0,1
80014,-90.0900900900901,4,1,0,75,0,1
80242,-91.743119266055,4,1,0,75,0,1
80356,-93.4579439252336,4,1,0,75,0,1
80692,-83.3333333333333,4,1,0,75,0,1
80749,-84.0336134453781,4,1,0,75,0,1
80806,-84.7457627118644,4,1,0,75,0,1
80863,-85.4700854700855,4,1,0,75,0,1
80921,-86.2068965517241,4,1,0,75,0,1
80978,-86.9565217391304,4,1,0,75,0,1
81035,-87.719298245614,4,1,0,75,0,1
81271,-89.2857142857143,4,1,0,75,0,1
81328,-90.0900900900901,4,1,0,75,0,1
81385,-90.9090909090909,4,1,0,75,0,1
81499,-91.743119266055,4,1,0,75,0,1
81614,-92.5925925925926,4,1,0,75,0,1
81728,-93.4579439252336,4,1,0,75,0,1
82063,-83.3333333333333,4,1,0,75,0,1
82120,-84.0336134453781,4,1,0,75,0,1
82177,-84.7457627118644,4,1,0,75,0,1
82234,-85.4700854700855,4,1,0,75,0,1
82292,-86.2068965517241,4,1,0,75,0,1
82349,-86.9565217391304,4,1,0,75,0,1
82406,-87.719298245614,4,1,0,75,0,1
82528,-89.2857142857143,4,1,0,75,0,1
82642,-90.9090909090909,4,1,0,75,0,1
82756,-92.5925925925926,4,1,0,75,0,1
83099,-86.9565217391304,4,1,0,75,0,1
84471,-86.9565217391304,4,1,0,75,0,1
84728,-86.7208672086721,4,1,0,75,0,1
84814,-86.6425742548522,4,1,0,75,0,1
84985,-86.4864864864865,4,1,0,75,0,1
85156,-86.3309600952403,4,1,0,75,0,1
85242,-86.2533692722372,4,1,0,75,0,1
85414,-86.0986794184551,4,1,0,75,0,1
85499,-86.0215053763441,4,1,0,75,0,1
85585,-85.9444695593283,4,1,0,75,0,1
85671,-85.867645328843,4,1,0,75,0,1
85842,-85.7142612244968,4,1,0,75,0,1
86014,-85.5614973262032,4,1,0,75,0,1
86099,-85.4852828537039,4,1,0,75,0,1
86185,-85.4092769848475,4,1,0,75,0,1
86356,-85.2575246159788,4,1,0,75,0,1
86528,-85.1063829787234,4,1,0,75,0,1
86614,-85.0309767848427,4,1,0,75,0,1
86699,-84.9557762706623,4,1,0,75,0,1
86785,-84.8806366047745,4,1,0,75,0,1
86871,-84.8056297369244,4,1,0,75,0,1
87042,-84.6560846560847,4,1,0,75,0,1
87099,-84.6063772902946,4,1,0,75,0,1
87156,-84.5566567650822,4,1,0,75,0,1
87214,-84.5070660583285,4,1,0,75,0,1
87271,-84.4574621546112,4,1,0,75,0,1
87328,-84.4079876966917,4,1,0,75,0,1
87385,-84.3585000046397,4,1,0,75,0,1
87471,-84.2844837322518,4,1,0,75,0,1
87556,-84.2105263157895,4,1,0,75,0,1
87614,-84.1613406564921,4,1,0,75,0,1
87671,-84.1121416717625,4,1,0,75,0,1
87728,-84.0630708407904,4,1,0,75,0,1
87814,-83.989501312336,4,1,0,75,0,1
87899,-83.91606044306,4,1,0,75,0,1
87956,-83.8672180656697,4,1,0,75,0,1
88014,-83.8183622562562,4,1,0,75,0,1
88071,-83.7696335078534,4,1,0,75,0,1
88156,-83.6965764752359,4,1,0,75,0,1
88242,-83.6237166895378,4,1,0,75,0,1
88299,-83.5751440835484,4,1,0,75,0,1
88356,-83.5266976383661,4,1,0,75,0,1
88414,-83.4782376408382,4,1,0,75,0,1
88471,-83.4299034465727,4,1,0,75,0,1
88528,-83.3815556663604,4,1,0,75,0,1
88606,-83.3333333333333,4,1,0,75,0,0
88949,-87.719298245614,4,1,0,75,0,0
89120,-89.2857142857143,4,1,0,75,0,0
89206,-90.9090909090909,4,1,0,75,0,0
89292,-92.5925925925926,4,1,0,75,0,0
89635,-96.1538461538461,4,1,0,75,0,0
89977,-100,4,1,0,75,0,1
106435,-100,4,1,0,75,0,1
106520,-99.7661481487394,4,1,0,75,0,1
106606,-99.5333874794961,4,1,0,75,0,1
106692,-99.3018089810542,4,1,0,75,0,1
106777,-99.0712074303406,4,1,0,75,0,1
106863,-98.8416744175013,4,1,0,75,0,1
106949,-98.6132025327815,4,1,0,75,0,1
107035,-98.3858812324996,4,1,0,75,0,1
107120,-98.159509202454,4,1,0,75,0,1
107206,-97.9341764813034,4,1,0,75,0,1
107292,-97.7098759279995,4,1,0,75,0,1
107377,-97.4866955032312,4,1,0,75,0,1
107463,-97.2644376899696,4,1,0,75,0,1
107635,-96.823042334907,4,1,0,75,0,1
107806,-96.3855421686747,4,1,0,75,0,1
107892,-96.1682713945553,4,1,0,75,0,1
107977,-95.9519779540736,4,1,0,75,0,1
108063,-95.7367469227816,4,1,0,75,0,1
108149,-95.5223880597015,4,1,0,75,0,1
108235,-95.3089869703084,4,1,0,75,0,1
108320,-95.0966276833891,4,1,0,75,0,1
108406,-94.8851225820899,4,1,0,75,0,1
108492,-94.6745562130178,4,1,0,75,0,1
108577,-94.4649223403873,4,1,0,75,0,1
108663,-94.2563036259457,4,1,0,75,0,1
108749,-94.0485158673954,4,1,0,75,0,1
108835,-93.841642228739,4,1,0,75,0,1
109006,-93.4307005807652,4,1,0,75,0,1
109177,-93.0232558139535,4,1,0,75,0,1
109235,-92.8882869727893,4,1,0,75,0,1
109292,-92.7536231884058,4,1,0,75,0,1
109349,-92.6193492934996,4,1,0,75,0,1
109406,-92.485549132948,4,1,0,75,0,1
109463,-92.3521349966568,4,1,0,75,0,1
109520,-92.2190201729107,4,1,0,75,0,1
109606,-92.0201082340513,4,1,0,75,0,1
109692,-91.8221368480399,4,1,0,75,0,1
109777,-91.6249315103637,4,1,0,75,0,1
109863,-91.4285714285714,4,1,0,75,0,1
109920,-91.2981871831953,4,1,0,75,0,1
109977,-91.1680911680912,4,1,0,75,0,1
110035,-91.0383653879418,4,1,0,75,0,1
110092,-90.9090909090909,4,1,0,75,0,1
110149,-90.7801830491611,4,1,0,75,0,1
110206,-90.6515580736544,4,1,0,75,0,1
110292,-90.4593435003605,4,1,0,75,0,1
110377,-90.2680238163154,4,1,0,75,0,1
110463,-90.0774305593088,4,1,0,75,0,1
110549,-89.8876404494382,4,1,0,75,0,1
110606,-89.7616111132055,4,1,0,75,0,1
110663,-89.6358543417367,4,1,0,75,0,1
110720,-89.5104494498688,4,1,0,75,0,1
110806,-89.3231183415198,4,1,0,75,0,1
110892,-89.1364902506964,4,1,0,75,0,1
110949,-89.0125570014162,4,1,0,75,0,1
111006,-88.8888888888889,4,1,0,75,0,1
111063,-88.7656427253893,4,1,0,75,0,1
111149,-88.5813344955205,4,1,0,75,0,1
111235,-88.3977900552486,4,1,0,75,0,1
111292,-88.2759010321218,4,1,0,75,0,1
111349,-88.1542699724518,4,1,0,75,0,1
111406,-88.0330511287158,4,1,0,75,0,1
111492,-87.8517694664147,4,1,0,75,0,1
111577,-87.6712328767123,4,1,0,75,0,1
111749,-87.3124528512755,4,1,0,75,0,1
111835,-87.3124528512755,4,1,0,75,0,1
111920,-86.9565217391304,4,1,0,75,0,0
112520,-133.333333333333,4,1,0,75,0,0
122892,-121.212121212121,4,1,0,75,0,0
132492,-121.212121212121,4,1,0,75,0,0
132663,-119.850187265918,4,1,0,75,0,0
132749,-119.180704167273,4,1,0,75,0,0
132835,-118.518518518519,4,1,0,75,0,0
133006,-117.216117216117,4,1,0,75,0,0
133092,-116.575659934811,4,1,0,75,0,0
133177,-115.942028985507,4,1,0,75,0,0
133263,-115.315248827244,4,1,0,75,0,0
133349,-114.695340501792,4,1,0,75,0,0
133435,-114.082061508484,4,1,0,75,0,0
133520,-113.475177304965,4,1,0,75,0,0
133692,-112.280701754386,4,1,0,75,0,0
133862,-111.111111111111,4,1,0,75,0,0
144834,-105.263157894737,4,1,0,75,0,0
153063,-105.263157894737,4,1,0,75,0,0
153234,-104.918913417765,4,1,0,75,0,0
153406,-104.576913182338,4,1,0,75,0,0
153577,-104.237135313352,4,1,0,75,0,0
153663,-104.068127158763,4,1,0,75,0,0
153749,-103.899558219078,4,1,0,75,0,0
153834,-103.731642092641,4,1,0,75,0,0
153920,-103.564267842052,4,1,0,75,0,0
154092,-103.231027943607,4,1,0,75,0,0
154263,-102.899925706254,4,1,0,75,0,0
154349,-102.735117020435,4,1,0,75,0,0
154434,-102.570940626811,4,1,0,75,0,0
154606,-102.244052463468,4,1,0,75,0,0
154692,-102.081440573289,4,1,0,75,0,0
154777,-101.919241231633,4,1,0,75,0,0
154863,-101.757660062255,4,1,0,75,0,0
154949,-101.596487199859,4,1,0,75,0,0
155034,-101.435926982362,4,1,0,75,0,0
155120,-101.275770885849,4,1,0,75,0,0
155292,-100.957174975947,4,1,0,75,0,0
155463,-100.640475989195,4,1,0,75,0,0
155549,-100.482819949859,4,1,0,75,0,0
155634,-100.325757735367,4,1,0,75,0,0
155720,-100.169085416183,4,1,0,75,0,0
155806,-100.01300169022,4,1,0,75,0,0
166777,-100,4,1,0,75,0,0
167035,-99.7328157865079,4,1,0,75,0,0
167120,-99.6441706665498,4,1,0,75,0,0
167292,-99.4671544535921,4,1,0,75,0,0
167463,-99.2907660580474,4,1,0,75,0,0
167720,-99.0274513998025,4,1,0,75,0,0
167806,-98.9399572975144,4,1,0,75,0,0
167977,-98.7654320987654,4,1,0,75,0,0
168063,-98.6784001863048,4,1,0,75,0,0
168149,-98.5915215235151,4,1,0,75,0,0
168406,-98.3318976876271,4,1,0,75,0,0
168492,-98.2456278239478,4,1,0,75,0,0
168663,-98.0735414257735,4,1,0,75,0,0
168835,-97.9020568243118,4,1,0,75,0,0
168920,-97.8166348925631,4,1,0,75,0,0
169092,-97.6460467509743,4,1,0,75,0,0
169177,-97.5609756097561,4,1,0,75,0,0
169349,-97.3912772476446,4,1,0,75,0,0
169406,-97.3348738199363,4,1,0,75,0,0
169463,-97.278535685658,4,1,0,75,0,0
169520,-97.2222627314984,4,1,0,75,0,0
169777,-96.969696969697,4,1,0,75,0,0
169863,-96.8857997389896,4,1,0,75,0,0
170035,-96.7184400476242,4,1,0,75,0,0
170120,-96.6350702198738,4,1,0,75,0,0
170206,-96.5517507728968,4,1,0,75,0,0
170292,-96.4685748793902,4,1,0,75,0,0
170377,-96.3855421686747,4,1,0,75,0,0
170463,-96.3026522713462,4,1,0,75,0,0
170549,-96.2199048192702,4,1,0,75,0,0
170720,-96.0549280500561,4,1,0,75,0,0
170806,-95.9726055794634,4,1,0,75,0,0
170892,-95.8904240945786,4,1,0,75,0,0
171149,-95.6447219416644,4,1,0,75,0,0
171235,-95.5631007932693,4,1,0,75,0,0
171406,-95.4003667190097,4,1,0,75,0,0
171492,-95.3191619158008,4,1,0,75,0,0
171577,-95.2380952380952,4,1,0,75,0,0
171749,-95.0763748519185,4,1,0,75,0,0
171835,-94.9957204427941,4,1,0,75,0,0
171920,-94.9152928468988,4,1,0,75,0,0
172006,-94.8349113862588,4,1,0,75,0,0
172092,-94.7546659566384,4,1,0,75,0,0
172149,-94.701274300347,4,1,0,75,0,0
172206,-94.6478531973938,4,1,0,75,0,0
172263,-94.594581811543,4,1,0,75,0,0
172349,-94.514742409521,4,1,0,75,0,0
172435,-94.4350376654148,4,1,0,75,0,0
172520,-94.3555562684642,4,1,0,75,0,0
172606,-94.2761196703353,4,1,0,75,0,0
172692,-94.196816712776,4,1,0,75,0,0
172777,-94.1176470588235,4,1,0,75,0,0
172863,-94.0386103726468,4,1,0,75,0,0
172949,-93.9597063195419,4,1,0,75,0,0
173035,-93.8809345659274,4,1,0,75,0,0
173120,-93.8023827681271,4,1,0,75,0,0
173206,-93.7238744699915,4,1,0,75,0,0
173292,-93.6454974776585,4,1,0,75,0,0
173335,-93.6063143075379,4,1,0,75,0,0
173463,-93.4891360949401,4,1,0,75,0,0
173506,-93.4501709670878,4,1,0,75,0,0
173635,-93.3332960000149,4,1,0,75,0,0
173720,-93.2556575876067,4,1,0,75,0,0
173806,-93.1780614117967,4,1,0,75,0,0
173892,-93.1005942610932,4,1,0,75,0,0
173977,-93.0232558139535,4,1,0,75,0,0
174063,-92.9460457499026,4,1,0,75,0,0
174149,-92.8689637495287,4,1,0,75,0,0
174235,-92.7920094944784,4,1,0,75,0,0
174320,-92.7152686285836,4,1,0,75,0,0
174406,-92.6385687711679,4,1,0,75,0,0
174492,-92.5619957106771,4,1,0,75,0,0
174577,-92.485549132948,4,1,0,75,0,0
174663,-92.4092287248543,4,1,0,75,0,0
174706,-92.3711583989861,4,1,0,75,0,0
174835,-92.2569651702279,4,1,0,75,0,0
174877,-92.2190201729107,4,1,0,75,0,0
175006,-92.1052873961283,4,1,0,75,0,0
175063,-92.054754167779,4,1,0,75,0,0
175120,-92.0043610067117,4,1,0,75,0,0
175177,-91.9540229885058,4,1,0,75,0,0
175263,-91.8785769478488,4,1,0,75,0,0
175349,-91.8032546089824,4,1,0,75,0,0
175406,-91.7531363515833,4,1,0,75,0,0
175463,-91.7030727865629,4,1,0,75,0,0
175520,-91.6530638244441,4,1,0,75,0,0
175606,-91.5781106336839,4,1,0,75,0,0
175692,-91.5032799350693,4,1,0,75,0,0
175749,-91.4534885847755,4,1,0,75,0,0
175806,-91.4036678463833,4,1,0,75,0,0
175863,-91.3539848151406,4,1,0,75,0,0
175949,-91.2795197967022,4,1,0,75,0,0
176035,-91.2051760761527,4,1,0,75,0,0
176092,-91.1557085350913,4,1,0,75,0,0
176149,-91.106294625002,4,1,0,75,0,0
176206,-91.0569342587146,4,1,0,75,0,0
176263,-91.0075445254411,4,1,0,75,0,0
176320,-90.9582910756273,4,1,0,75,0,0
176377,-90.9090909090909,4,1,0,75,0,0
177749,-90.9090909090909,4,1,0,75,0,1
194206,-90.9090909090909,4,1,0,75,0,1
194377,-90.7372675197785,4,1,0,75,0,1
194463,-90.6515580736544,4,1,0,75,0,1
194549,-90.5660103951667,4,1,0,75,0,1
194720,-90.3954802259887,4,1,0,75,0,1
194777,-90.3388066604995,4,1,0,75,0,1
194835,-90.2821226049281,4,1,0,75,0,1
194892,-90.2255910452905,4,1,0,75,0,1
194977,-90.1408450704225,4,1,0,75,0,1
195149,-89.9719107694578,4,1,0,75,0,1
195235,-89.8876404494382,4,1,0,75,0,1
195320,-89.8035278417877,4,1,0,75,0,1
195406,-89.71965300027,4,1,0,75,0,1
195577,-89.5522120739665,4,1,0,75,0,1
195749,-89.3854748603352,4,1,0,75,0,1
195835,-89.3022989983854,4,1,0,75,0,1
195920,-89.2193573886565,4,1,0,75,0,1
196006,-89.1364902506964,4,1,0,75,0,1
196092,-89.0537769042592,4,1,0,75,0,1
196177,-88.9712960804585,4,1,0,75,0,1
196263,-88.8888888888889,4,1,0,75,0,1
196435,-88.7246103436925,4,1,0,75,0,1
196520,-88.6426592797784,4,1,0,75,0,1
196606,-88.5608594654289,4,1,0,75,0,1
196692,-88.4792887680852,4,1,0,75,0,1
196777,-88.3977900552486,4,1,0,75,0,1
196949,-88.2353200692118,4,1,0,75,0,1
197035,-88.1542699724518,4,1,0,75,0,1
197120,-88.0733686390111,4,1,0,75,0,1
197206,-87.9926930867661,4,1,0,75,0,1
197292,-87.9120879120879,4,1,0,75,0,1
197377,-87.8316302780222,4,1,0,75,0,1
197463,-87.7513967828583,4,1,0,75,0,1
197549,-87.6712328767123,4,1,0,75,0,1
197635,-87.591215301835,4,1,0,75,0,1
197720,-87.5114202403414,4,1,0,75,0,1
197806,-87.431693989071,4,1,0,75,0,1
197892,-87.3521128729062,4,1,0,75,0,1
197977,-87.2727526611644,4,1,0,75,0,1
198063,-87.1934604904632,4,1,0,75,0,1
198149,-87.1143122717061,4,1,0,75,0,1
198235,-87.0353833647531,4,1,0,75,0,1
198320,-86.9565217391304,4,1,0,75,0,0
200035,-86.9565217391304,4,1,0,75,0,1
216149,-86.9565217391304,4,1,0,75,0,1
216320,-86.7993017864164,4,1,0,75,0,1
216406,-86.7208672086721,4,1,0,75,0,1
216492,-86.6425742548522,4,1,0,75,0,1
216663,-86.4864864864865,4,1,0,75,0,1
216720,-86.4346070337026,4,1,0,75,0,1
216777,-86.3827151642265,4,1,0,75,0,1
216835,-86.3309600952403,4,1,0,75,0,1
216920,-86.2533692722372,4,1,0,75,0,1
217006,-86.1759177950685,4,1,0,75,0,1
217092,-86.0986794184551,4,1,0,75,0,1
217177,-86.0215053763441,4,1,0,75,0,1
217263,-85.9444695593283,4,1,0,75,0,1
217349,-85.867645328843,4,1,0,75,0,1
217520,-85.7142612244968,4,1,0,75,0,1
217692,-85.5614973262032,4,1,0,75,0,1
217777,-85.4852828537039,4,1,0,75,0,1
217863,-85.4092769848475,4,1,0,75,0,1
218035,-85.2575246159788,4,1,0,75,0,1
218120,-85.1819230330216,4,1,0,75,0,1
218206,-85.1063829787234,4,1,0,75,0,1
218292,-85.0309767848427,4,1,0,75,0,1
218377,-84.9557762706623,4,1,0,75,0,1
218463,-84.8806366047745,4,1,0,75,0,1
218549,-84.8056297369244,4,1,0,75,0,1
218635,-84.7308271084419,4,1,0,75,0,1
218720,-84.6560846560847,4,1,0,75,0,1
218777,-84.6063772902946,4,1,0,75,0,1
218835,-84.5566567650822,4,1,0,75,0,1
218892,-84.5070660583285,4,1,0,75,0,1
218949,-84.4574621546112,4,1,0,75,0,1
219006,-84.4079876966917,4,1,0,75,0,1
219063,-84.3585000046397,4,1,0,75,0,1
219149,-84.2844837322518,4,1,0,75,0,1
219235,-84.2105263157895,4,1,0,75,0,1
219292,-84.1613406564921,4,1,0,75,0,1
219349,-84.1121416717625,4,1,0,75,0,1
219406,-84.0630708407904,4,1,0,75,0,1
219492,-83.989501312336,4,1,0,75,0,1
219577,-83.91606044306,4,1,0,75,0,1
219635,-83.8672180656697,4,1,0,75,0,1
219692,-83.8183622562562,4,1,0,75,0,1
219749,-83.7696335078534,4,1,0,75,0,1
219835,-83.6965764752359,4,1,0,75,0,1
219920,-83.6237166895378,4,1,0,75,0,1
219977,-83.5751440835484,4,1,0,75,0,1
220035,-83.5266976383661,4,1,0,75,0,1
220092,-83.4782376408382,4,1,0,75,0,1
220149,-83.4299034465727,4,1,0,75,0,1
220206,-83.3815556663604,4,1,0,75,0,1
220263,-83.3333333333333,4,1,0,75,0,0
220606,-86.9565217391304,4,1,0,75,0,0
220949,-90.9090909090909,4,1,0,75,0,0
221120,-93.0232558139535,4,1,0,75,0,0
221292,-95.2380952380952,4,1,0,75,0,0
221463,-97.5609756097561,4,1,0,75,0,0
221635,-100,4,1,0,75,0,0
221977,-105.263157894737,4,1,0,75,0,0
223006,-105.263157894737,4,1,0,75,0,0
223177,-104.575163398693,4,1,0,75,0,0
223263,-104.234527687296,4,1,0,75,0,0
223349,-103.896103896104,4,1,0,75,0,0
223520,-103.225806451613,4,1,0,75,0,0
223692,-102.564102564103,4,1,0,75,0,0
223777,-102.23642172524,4,1,0,75,0,0
223863,-101.910828025478,4,1,0,75,0,0
223949,-101.587301587302,4,1,0,75,0,0
224035,-101.26582278481,4,1,0,75,0,0
224120,-100.946372239748,4,1,0,75,0,0
224206,-100.62893081761,4,1,0,75,0,0
224292,-100.313479623824,4,1,0,75,0,0
224377,-100,4,1,0,75,0,1
238092,-100,4,1,0,75,0,1
238177,-99.6884735202492,4,1,0,75,0,1
238263,-99.3788819875776,4,1,0,75,0,1
238349,-99.0712074303406,4,1,0,75,0,1
238435,-98.7654320987654,4,1,0,75,0,1
238520,-98.4615384615385,4,1,0,75,0,1
238606,-98.159509202454,4,1,0,75,0,1
238692,-97.8593272171254,4,1,0,75,0,1
238777,-97.5609756097561,4,1,0,75,0,1
238863,-97.2644376899696,4,1,0,75,0,1
238949,-96.969696969697,4,1,0,75,0,1
239035,-96.6767371601208,4,1,0,75,0,1
239120,-96.3855421686747,4,1,0,75,0,1
239292,-95.8083832335329,4,1,0,75,0,1
239463,-95.2380952380952,4,1,0,75,0,1
239549,-94.9554896142433,4,1,0,75,0,1
239635,-94.6745562130178,4,1,0,75,0,1
239720,-94.3952802359882,4,1,0,75,0,1
239806,-94.1176470588235,4,1,0,75,0,1
239892,-93.841642228739,4,1,0,75,0,1
239977,-93.5672514619883,4,1,0,75,0,1
240063,-93.2944606413994,4,1,0,75,0,1
240149,-93.0232558139535,4,1,0,75,0,1
240235,-92.7536231884058,4,1,0,75,0,1
240320,-92.485549132948,4,1,0,75,0,1
240406,-92.2190201729107,4,1,0,75,0,1
240492,-91.9540229885058,4,1,0,75,0,1
240663,-91.4285714285714,4,1,0,75,0,1
240835,-90.9090909090909,4,1,0,75,0,1
240892,-90.7372675197785,4,1,0,75,0,1
240949,-90.5660103951667,4,1,0,75,0,1
241006,-90.3954802259887,4,1,0,75,0,1
241063,-90.2255910452905,4,1,0,75,0,1
241120,-90.0562581444628,4,1,0,75,0,1
241177,-89.8876404494382,4,1,0,75,0,1
241263,-89.6358543417367,4,1,0,75,0,1
241349,-89.3854748603352,4,1,0,75,0,1
241435,-89.1364902506964,4,1,0,75,0,1
241520,-88.8888888888889,4,1,0,75,0,1
241577,-88.7246103436925,4,1,0,75,0,1
241635,-88.5608594654289,4,1,0,75,0,1
241692,-88.3977900552486,4,1,0,75,0,1
241749,-88.2353200692118,4,1,0,75,0,1
241806,-88.0733686390111,4,1,0,75,0,1
241863,-87.9120879120879,4,1,0,75,0,1
241949,-87.6712328767123,4,1,0,75,0,1
242035,-87.431693989071,4,1,0,75,0,1
242120,-87.1934604904632,4,1,0,75,0,1
242206,-86.9565217391304,4,1,0,75,0,1
242263,-86.7993017864164,4,1,0,75,0,1
242320,-86.6425742548522,4,1,0,75,0,1
242377,-86.4864864864865,4,1,0,75,0,1
242463,-86.2533692722372,4,1,0,75,0,1
242549,-86.0215053763441,4,1,0,75,0,1
242606,-85.867645328843,4,1,0,75,0,1
242663,-85.7142612244968,4,1,0,75,0,1
242720,-85.5614973262032,4,1,0,75,0,1
242806,-85.3333333333333,4,1,0,75,0,1
242892,-85.1063829787234,4,1,0,75,0,1
242949,-84.9557762706623,4,1,0,75,0,1
243006,-84.8056297369244,4,1,0,75,0,1
243063,-84.6560846560847,4,1,0,75,0,1
243149,-84.4327176781003,4,1,0,75,0,1
243235,-84.2105263157895,4,1,0,75,0,1
243406,-83.7696335078534,4,1,0,75,0,1
243577,-83.3333333333333,4,1,0,75,0,0
243663,-83.3333333333333,4,1,0,20,0,0

[HitObjects]
63,98,834,5,0,0:0:0:0:
68,94,1006,1,0,0:0:0:0:
68,94,1092,1,0,0:0:0:0:
68,94,1177,1,8,0:0:0:0:
78,98,1349,1,8,0:0:0:0:
78,98,1435,1,8,0:0:0:0:
78,98,1520,1,0,0:0:0:0:
77,97,1606,1,8,0:0:0:0:
78,98,1692,1,0,0:0:0:0:
77,97,1777,1,0,0:0:0:0:
81,97,1863,1,8,0:0:0:0:
82,96,2035,1,8,0:0:0:0:
82,96,2206,1,4,0:0:0:0:
78,98,2549,1,8,0:0:0:0:
78,98,2720,1,8,0:0:0:0:
82,96,3063,1,8,0:0:0:0:
82,96,3235,1,0,0:0:0:0:
78,98,3406,1,0,0:0:0:0:
78,98,3577,1,8,0:0:0:0:
82,96,3920,1,8,0:0:0:0:
82,96,4263,1,8,0:0:0:0:
82,96,4606,1,12,0:0:0:0:
82,96,4949,1,0,0:0:0:0:
82,96,5292,1,8,0:0:0:0:
82,96,5463,1,0,0:0:0:0:
82,96,5806,1,0,0:0:0:0:
82,96,5977,1,8,0:0:0:0:
82,96,6149,1,0,0:0:0:0:
82,96,6320,1,8,0:0:0:0:
82,96,6663,1,8,0:0:0:0:
82,96,7006,1,8,0:0:0:0:
82,96,7349,1,12,0:0:0:0:
82,96,7520,1,12,0:0:0:0:
82,96,7692,1,0,0:0:0:0:
82,96,8035,1,0,0:0:0:0:
82,96,8206,1,0,0:0:0:0:
82,96,8549,1,0,0:0:0:0:
82,96,8720,1,0,0:0:0:0:
82,96,8892,1,8,0:0:0:0:
82,96,9063,1,8,0:0:0:0:
82,96,9406,1,8,0:0:0:0:
82,96,9749,1,8,0:0:0:0:
82,96,10092,1,12,0:0:0:0:
82,96,10435,1,0,0:0:0:0:
82,96,10777,1,8,0:0:0:0:
82,96,10949,1,0,0:0:0:0:
82,96,11292,1,0,0:0:0:0:
82,96,11463,1,8,0:0:0:0:
82,96,11635,1,8,0:0:0:0:
82,96,11806,1,0,0:0:0:0:
82,96,11977,1,8,0:0:0:0:
82,96,12063,1,8,0:0:0:0:
82,96,12149,1,8,0:0:0:0:
82,96,12320,1,8,0:0:0:0:
82,96,12492,1,0,0:0:0:0:
82,96,12663,1,12,0:0:0:0:
82,96,12835,1,12,0:0:0:0:
82,96,13177,1,4,0:0:0:0:
159,164,13435,1,0,0:0:0:0:
159,164,13520,1,8,0:0:0:0:
160,154,13692,1,0,0:0:0:0:
160,153,13777,1,8,0:0:0:0:
163,155,13863,1,0,0:0:0:0:
160,153,13949,1,8,0:0:0:0:
163,155,14035,1,0,0:0:0:0:
163,155,14206,1,8,0:0:0:0:
163,154,14377,1,0,0:0:0:0:
163,154,14463,1,0,0:0:0:0:
163,154,14549,1,8,0:0:0:0:
160,154,14720,1,0,0:0:0:0:
163,155,14892,1,8,0:0:0:0:
163,155,15063,1,0,0:0:0:0:
163,155,15149,1,0,0:0:0:0:
163,155,15235,1,8,0:0:0:0:
163,154,15320,1,8,0:0:0:0:
163,154,15406,1,0,0:0:0:0:
163,154,15577,1,12,0:0:0:0:
148,153,15835,1,0,0:0:0:0:
160,154,15920,1,8,0:0:0:0:
154,152,16092,1,8,0:0:0:0:
154,152,16263,1,0,0:0:0:0:
154,152,16435,1,8,0:0:0:0:
156,151,16520,1,8,0:0:0:0:
163,154,16606,1,0,0:0:0:0:
160,154,16692,1,8,0:0:0:0:
160,154,16777,1,0,0:0:0:0:
160,154,16949,1,8,0:0:0:0:
154,152,17120,1,0,0:0:0:0:
154,152,17206,1,0,0:0:0:0:
154,152,17292,1,8,0:0:0:0:
168,155,17463,1,0,0:0:0:0:
153,156,17635,1,8,0:0:0:0:
175,150,17806,1,0,0:0:0:0:
175,150,17892,1,0,0:0:0:0:
160,154,17977,1,8,0:0:0:0:
175,150,18149,1,0,0:0:0:0:
153,156,18320,1,12,0:0:0:0:
153,156,18663,1,0,0:0:0:0:
152,149,18835,1,0,0:0:0:0:
152,149,19006,1,8,0:0:0:0:
153,149,19177,1,0,0:0:0:0:
153,156,19263,1,8,0:0:0:0:
219,139,19349,1,0,0:0:0:0:
219,139,19435,1,8,0:0:0:0:
219,139,19520,1,0,0:0:0:0:
169,148,19692,1,8,0:0:0:0:
141,136,19777,1,0,0:0:0:0:
169,148,19863,1,8,0:0:0:0:
169,148,20035,1,8,0:0:0:0:
154,159,20206,1,0,0:0:0:0:
154,158,20377,1,8,0:0:0:0:
154,158,20549,1,0,0:0:0:0:
154,158,20635,1,0,0:0:0:0:
155,158,20720,1,8,0:0:0:0:
156,158,20806,1,8,0:0:0:0:
157,157,20892,1,0,0:0:0:0:
154,159,21063,1,12,0:0:0:0:
154,159,21235,1,8,0:0:0:0:
154,158,21320,1,8,0:0:0:0:
154,158,21406,1,0,0:0:0:0:
154,158,21577,1,0,0:0:0:0:
155,158,21749,1,8,0:0:0:0:
157,157,21920,1,0,0:0:0:0:
181,146,22006,1,0,0:0:0:0:
154,159,22092,1,8,0:0:0:0:
172,147,22177,1,8,0:0:0:0:
154,158,22263,1,0,0:0:0:0:
154,158,22435,1,8,0:0:0:0:
154,158,22606,1,0,0:0:0:0:
172,147,22692,1,0,0:0:0:0:
155,158,22777,1,8,0:0:0:0:
157,157,22949,1,0,0:0:0:0:
172,145,23035,1,8,0:0:0:0:
172,147,23120,1,8,0:0:0:0:
172,147,23206,1,0,0:0:0:0:
172,145,23292,1,8,0:0:0:0:
172,145,23377,1,8,0:0:0:0:
154,158,23463,1,0,0:0:0:0:
154,158,23635,1,0,0:0:0:0:
85,98,23806,1,8,0:0:0:0:
85,98,23892,1,8,0:0:0:0:
85,98,23977,1,8,0:0:0:0:
85,98,24063,1,8,0:0:0:0:
85,98,24149,1,4,0:0:0:0:
97,92,24492,1,4,0:0:0:0:
97,91,24835,1,12,0:0:0:0:
95,91,25177,1,8,0:0:0:0:
80,88,25220,1,8,0:0:0:0:
97,92,25349,1,0,0:0:0:0:
82,86,25392,1,0,0:0:0:0:
97,91,25520,1,12,0:0:0:0:
95,91,25863,1,4,0:0:0:0:
95,91,26206,1,4,0:0:0:0:
105,91,26377,1,8,0:0:0:0:
106,88,26463,1,0,0:0:0:0:
106,88,26549,1,8,0:0:0:0:
106,88,26635,1,8,0:0:0:0:
95,91,26720,1,0,0:0:0:0:
95,91,26892,1,12,0:0:0:0:
95,91,27235,1,12,0:0:0:0:
95,91,27577,1,12,0:0:0:0:
109,108,27920,1,0,0:0:0:0:
108,108,27963,1,0,0:0:0:0:
109,108,28092,1,8,0:0:0:0:
108,108,28135,1,8,0:0:0:0:
108,108,28263,1,4,0:0:0:0:
104,107,28606,1,8,0:0:0:0:
109,108,28777,1,4,0:0:0:0:
108,108,28949,1,8,0:0:0:0:
108,108,29292,1,4,0:0:0:0:
104,107,29463,1,8,0:0:0:0:
104,107,29635,1,4,0:0:0:0:
117,101,29977,1,4,0:0:0:0:
117,101,30320,1,12,0:0:0:0:
117,92,30492,1,0,0:0:0:0:
113,93,30577,1,8,0:0:0:0:
113,93,30663,1,0,0:0:0:0:
112,78,30706,1,0,0:0:0:0:
116,79,30835,1,0,0:0:0:0:
118,80,30877,1,0,0:0:0:0:
118,80,31006,1,12,0:0:0:0:
87,91,31349,1,4,0:0:0:0:
87,91,31692,1,4,0:0:0:0:
107,88,32035,1,8,0:0:0:0:
107,87,32120,1,8,0:0:0:0:
107,87,32206,1,0,0:0:0:0:
107,87,32292,1,0,0:0:0:0:
110,87,32377,1,12,0:0:0:0:
39,100,32720,1,12,0:0:0:0:
83,101,33063,1,12,0:0:0:0:
91,85,33235,1,0,0:0:0:0:
86,85,33320,1,0,0:0:0:0:
87,85,33406,1,8,0:0:0:0:
96,84,33449,1,8,0:0:0:0:
87,85,33577,1,8,0:0:0:0:
96,84,33620,1,8,0:0:0:0:
109,105,33749,1,4,0:0:0:0:
109,105,34092,1,8,0:0:0:0:
111,101,34263,1,4,0:0:0:0:
109,105,34435,1,8,0:0:0:0:
109,105,34777,1,4,0:0:0:0:
109,105,34949,1,8,0:0:0:0:
109,105,35120,1,4,0:0:0:0:
101,85,35377,1,8,0:0:0:0:
99,96,35463,1,0,0:0:0:0:
101,85,35635,1,0,0:0:0:0:
101,85,35806,1,8,0:0:0:0:
101,85,36063,1,0,0:0:0:0:
99,96,36149,1,8,0:0:0:0:
101,85,36320,1,8,0:0:0:0:
93,93,36406,1,8,0:0:0:0:
101,85,36492,1,0,0:0:0:0:
101,85,36749,1,8,0:0:0:0:
118,106,36835,1,0,0:0:0:0:
101,85,37006,1,0,0:0:0:0:
101,85,37177,1,8,0:0:0:0:
118,105,37263,1,0,0:0:0:0:
101,85,37435,1,0,0:0:0:0:
121,104,37520,1,8,0:0:0:0:
101,85,37692,1,0,0:0:0:0:
91,89,37749,1,0,0:0:0:0:
121,104,37806,1,0,0:0:0:0:
101,85,37863,1,8,0:0:0:0:
101,85,38120,1,0,0:0:0:0:
121,103,38206,1,8,0:0:0:0:
101,85,38377,1,0,0:0:0:0:
101,85,38549,1,8,0:0:0:0:
121,103,38635,1,0,0:0:0:0:
121,103,38720,1,8,0:0:0:0:
101,85,38806,1,8,0:0:0:0:
121,103,38892,1,0,0:0:0:0:
101,85,39063,1,8,0:0:0:0:
101,85,39235,1,0,0:0:0:0:
121,103,39406,1,8,0:0:0:0:
101,85,39492,1,8,0:0:0:0:
121,103,39577,1,0,0:0:0:0:
101,85,39749,1,8,0:0:0:0:
121,103,39835,1,0,0:0:0:0:
101,85,39920,1,8,0:0:0:0:
122,103,40006,1,8,0:0:0:0:
122,103,40092,1,0,0:0:0:0:
101,85,40177,1,0,0:0:0:0:
122,103,40263,1,8,0:0:0:0:
101,85,40435,1,0,0:0:0:0:
122,103,40492,1,0,0:0:0:0:
121,96,40549,1,0,0:0:0:0:
101,85,40606,1,8,0:0:0:0:
130,97,40692,1,8,0:0:0:0:
130,97,40777,1,0,0:0:0:0:
130,97,40863,1,0,0:0:0:0:
140,94,40949,1,8,0:0:0:0:
140,94,41035,1,0,0:0:0:0:
140,94,41120,1,0,0:0:0:0:
140,94,41206,1,0,0:0:0:0:
140,94,41292,1,8,0:0:0:0:
141,94,41377,1,8,0:0:0:0:
141,94,41463,1,0,0:0:0:0:
141,94,41549,1,8,0:0:0:0:
69,100,41635,1,0,0:0:0:0:
69,100,41677,1,0,0:0:0:0:
69,100,41806,1,0,0:0:0:0:
69,100,41849,1,0,0:0:0:0:
140,94,41977,1,8,0:0:0:0:
140,94,42063,1,8,0:0:0:0:
140,94,42149,1,8,0:0:0:0:
140,94,42235,1,0,0:0:0:0:
140,94,42320,1,8,0:0:0:0:
141,94,42406,1,8,0:0:0:0:
141,94,42492,1,0,0:0:0:0:
141,94,42577,1,0,0:0:0:0:
140,94,42663,1,8,0:0:0:0:
140,94,42749,1,0,0:0:0:0:
140,94,42835,1,0,0:0:0:0:
140,94,42920,1,0,0:0:0:0:
69,99,43006,1,8,0:0:0:0:
69,99,43049,1,8,0:0:0:0:
69,99,43177,1,8,0:0:0:0:
69,99,43220,1,8,0:0:0:0:
154,88,43349,1,8,0:0:0:0:
153,89,43406,1,8,0:0:0:0:
153,89,43463,1,8,0:0:0:0:
154,89,43520,1,0,0:0:0:0:
148,86,43606,1,0,0:0:0:0:
154,89,43692,1,8,0:0:0:0:
154,89,43749,1,8,0:0:0:0:
154,89,43806,1,8,0:0:0:0:
154,89,43863,1,0,0:0:0:0:
149,86,43949,1,0,0:0:0:0:
154,88,44035,1,8,0:0:0:0:
154,88,44092,1,0,0:0:0:0:
154,88,44149,1,0,0:0:0:0:
154,88,44206,1,8,0:0:0:0:
154,88,44292,1,0,0:0:0:0:
154,88,44377,1,8,0:0:0:0:
153,89,44435,1,8,0:0:0:0:
153,89,44492,1,8,0:0:0:0:
154,89,44549,1,8,0:0:0:0:
154,89,44606,1,8,0:0:0:0:
154,89,44663,1,8,0:0:0:0:
154,89,44720,1,0,0:0:0:0:
114,96,45063,1,0,0:0:0:0:
114,96,45235,1,8,0:0:0:0:
114,96,45320,1,8,0:0:0:0:
114,96,45406,1,8,0:0:0:0:
114,96,45749,1,8,0:0:0:0:
114,96,46092,1,4,0:0:0:0:
84,87,46435,1,0,0:0:0:0:
86,86,46520,1,8,0:0:0:0:
131,99,46606,1,8,0:0:0:0:
125,94,46777,1,0,0:0:0:0:
125,94,46863,1,0,0:0:0:0:
125,93,46949,1,8,0:0:0:0:
125,93,47120,1,0,0:0:0:0:
125,93,47206,1,8,0:0:0:0:
125,93,47292,1,0,0:0:0:0:
125,93,47377,1,8,0:0:0:0:
125,93,47463,1,0,0:0:0:0:
153,124,47635,1,8,0:0:0:0:
132,94,47720,1,8,0:0:0:0:
132,94,47806,1,0,0:0:0:0:
132,95,47977,1,8,0:0:0:0:
132,95,48063,1,8,0:0:0:0:
132,95,48149,1,0,0:0:0:0:
132,95,48235,1,8,0:0:0:0:
132,95,48320,1,8,0:0:0:0:
149,92,48406,1,8,0:0:0:0:
149,91,48492,1,0,0:0:0:0:
148,91,48577,1,8,0:0:0:0:
148,91,48663,1,8,0:0:0:0:
148,91,48749,1,8,0:0:0:0:
148,91,48835,1,0,0:0:0:0:
165,106,49006,1,8,0:0:0:0:
149,86,49092,1,8,0:0:0:0:
157,90,49177,1,0,0:0:0:0:
158,90,49263,1,0,0:0:0:0:
157,90,49349,1,0,0:0:0:0:
157,89,49435,1,0,0:0:0:0:
158,88,49520,1,8,0:0:0:0:
187,85,49606,1,0,0:0:0:0:
188,85,49692,1,8,0:0:0:0:
201,101,49749,1,8,0:0:0:0:
193,85,49806,1,8,0:0:0:0:
199,85,49863,1,0,0:0:0:0:
215,84,49949,1,0,0:0:0:0:
220,84,50035,1,8,0:0:0:0:
222,84,50120,1,8,0:0:0:0:
227,84,50206,1,0,0:0:0:0:
201,101,50377,1,8,0:0:0:0:
201,101,50463,1,8,0:0:0:0:
201,101,50549,1,0,0:0:0:0:
213,86,50720,1,0,0:0:0:0:
213,85,50806,1,8,0:0:0:0:
213,85,50892,1,0,0:0:0:0:
215,84,50977,1,8,0:0:0:0:
211,83,51063,1,8,0:0:0:0:
211,83,51149,1,8,0:0:0:0:
211,83,51235,1,0,0:0:0:0:
211,83,51320,1,0,0:0:0:0:
211,83,51406,1,8,0:0:0:0:
211,83,51492,1,8,0:0:0:0:
211,83,51577,1,4,0:0:0:0:
160,100,51749,1,0,0:0:0:0:
178,157,51920,1,8,0:0:0:0:
178,157,52092,1,0,0:0:0:0:
178,157,52177,1,8,0:0:0:0:
160,100,52263,1,0,0:0:0:0:
184,142,52520,1,0,0:0:0:0:
160,100,52606,1,8,0:0:0:0:
160,100,52777,1,8,0:0:0:0:
182,147,52949,1,0,0:0:0:0:
160,100,53120,1,8,0:0:0:0:
189,146,53206,1,0,0:0:0:0:
189,146,53292,1,8,0:0:0:0:
160,100,53463,1,8,0:0:0:0:
192,121,53549,1,8,0:0:0:0:
189,146,53635,1,0,0:0:0:0:
190,146,53720,1,0,0:0:0:0:
189,146,53806,1,0,0:0:0:0:
162,129,53892,1,0,0:0:0:0:
160,100,53977,1,8,0:0:0:0:
160,100,54149,1,8,0:0:0:0:
181,128,54235,1,8,0:0:0:0:
189,146,54320,1,0,0:0:0:0:
160,100,54492,1,0,0:0:0:0:
189,146,54663,1,8,0:0:0:0:
189,146,54835,1,0,0:0:0:0:
189,146,54920,1,8,0:0:0:0:
160,100,55006,1,0,0:0:0:0:
189,146,55263,1,0,0:0:0:0:
160,100,55349,1,8,0:0:0:0:
160,100,55520,1,8,0:0:0:0:
160,100,55692,1,0,0:0:0:0:
189,146,55863,1,8,0:0:0:0:
189,146,55949,1,8,0:0:0:0:
160,100,56035,1,0,0:0:0:0:
189,146,56206,1,0,0:0:0:0:
160,100,56377,1,8,0:0:0:0:
189,146,56463,1,8,0:0:0:0:
189,146,56549,1,0,0:0:0:0:
189,146,56635,1,0,0:0:0:0:
160,100,56720,1,8,0:0:0:0:
160,100,57063,1,4,0:0:0:0:
207,130,57406,1,8,0:0:0:0:
212,128,57463,1,8,0:0:0:0:
211,129,57520,1,8,0:0:0:0:
212,128,57577,1,8,0:0:0:0:
212,128,57635,1,8,0:0:0:0:
207,130,57692,1,8,0:0:0:0:
207,130,57749,1,8,0:0:0:0:
207,130,58092,1,0,0:0:0:0:
207,130,58135,1,0,0:0:0:0:
207,130,58263,1,0,0:0:0:0:
207,130,58306,1,0,0:0:0:0:
207,130,58435,1,4,0:0:0:0:
207,130,58777,1,8,0:0:0:0:
212,128,58835,1,8,0:0:0:0:
211,129,58892,1,8,0:0:0:0:
212,128,58949,1,8,0:0:0:0:
212,128,59006,1,8,0:0:0:0:
207,130,59063,1,8,0:0:0:0:
207,130,59120,1,8,0:0:0:0:
200,138,59292,1,8,0:0:0:0:
199,136,59377,1,0,0:0:0:0:
199,136,59463,1,8,0:0:0:0:
200,136,59549,1,8,0:0:0:0:
201,136,59635,1,0,0:0:0:0:
203,136,59720,1,8,0:0:0:0:
203,136,59806,1,4,0:0:0:0:
233,133,60149,1,8,0:0:0:0:
233,133,60206,1,8,0:0:0:0:
242,126,60263,1,8,0:0:0:0:
242,126,60320,1,8,0:0:0:0:
242,126,60377,1,8,0:0:0:0:
242,126,60435,1,8,0:0:0:0:
242,126,60492,1,8,0:0:0:0:
248,123,60663,1,0,0:0:0:0:
257,121,60749,1,8,0:0:0:0:
257,121,60835,1,8,0:0:0:0:
248,123,61177,1,8,0:0:0:0:
242,126,61349,1,0,0:0:0:0:
242,126,61520,1,8,0:0:0:0:
248,123,61692,1,0,0:0:0:0:
243,123,61777,1,0,0:0:0:0:
248,123,61863,1,8,0:0:0:0:
248,123,62035,1,0,0:0:0:0:
248,123,62206,1,8,0:0:0:0:
242,126,62377,1,8,0:0:0:0:
232,113,62463,1,8,0:0:0:0:
245,118,62549,1,0,0:0:0:0:
222,111,62720,1,0,0:0:0:0:
222,111,62806,1,8,0:0:0:0:
222,111,62892,1,0,0:0:0:0:
219,106,63063,1,0,0:0:0:0:
219,106,63235,1,8,0:0:0:0:
219,106,63406,1,0,0:0:0:0:
219,105,63492,1,0,0:0:0:0:
219,105,63577,1,8,0:0:0:0:
222,111,63663,1,8,0:0:0:0:
222,111,63749,1,0,0:0:0:0:
222,111,63920,1,8,0:0:0:0:
219,106,64092,1,8,0:0:0:0:
219,106,64177,1,0,0:0:0:0:
219,106,64263,1,8,0:0:0:0:
219,106,64349,1,8,0:0:0:0:
219,105,64435,1,0,0:0:0:0:
219,105,64606,1,0,0:0:0:0:
217,104,64777,1,0,0:0:0:0:
217,104,64863,1,8,0:0:0:0:
222,111,64949,1,8,0:0:0:0:
219,106,65120,1,0,0:0:0:0:
231,115,65177,1,0,0:0:0:0:
226,119,65235,1,0,0:0:0:0:
219,106,65292,1,8,0:0:0:0:
209,126,65377,1,8,0:0:0:0:
238,109,65463,1,8,0:0:0:0:
238,109,65549,1,0,0:0:0:0:
238,109,65635,1,8,0:0:0:0:
253,108,65720,1,8,0:0:0:0:
256,108,65806,1,0,0:0:0:0:
256,107,65892,1,0,0:0:0:0:
256,107,65977,1,8,0:0:0:0:
256,107,66063,1,0,0:0:0:0:
259,109,66149,1,8,0:0:0:0:
257,107,66235,1,0,0:0:0:0:
250,110,66320,1,8,0:0:0:0:
250,110,66406,1,8,0:0:0:0:
261,108,66492,1,8,0:0:0:0:
261,108,66577,1,8,0:0:0:0:
261,108,66663,1,0,0:0:0:0:
252,112,67006,1,0,0:0:0:0:
252,112,67177,1,8,0:0:0:0:
250,110,67263,1,8,0:0:0:0:
250,110,67349,1,8,0:0:0:0:
248,109,67692,1,8,0:0:0:0:
261,128,68035,1,4,0:0:0:0:
209,148,68377,1,0,0:0:0:0:
209,148,68492,1,8,0:0:0:0:
209,148,68606,1,8,0:0:0:0:
209,148,68720,1,0,0:0:0:0:
209,148,68835,1,8,0:0:0:0:
209,148,68949,1,8,0:0:0:0:
209,148,69063,1,0,0:0:0:0:
209,148,69177,1,0,0:0:0:0:
209,148,69292,1,8,0:0:0:0:
209,148,69406,1,0,0:0:0:0:
209,148,69635,1,8,0:0:0:0:
209,148,69749,1,0,0:0:0:0:
209,148,69863,1,8,0:0:0:0:
217,147,69977,1,8,0:0:0:0:
217,147,70092,1,0,0:0:0:0:
209,148,70206,1,0,0:0:0:0:
217,147,70320,1,8,0:0:0:0:
217,147,70435,1,0,0:0:0:0:
217,147,70549,1,8,0:0:0:0:
217,147,70663,1,8,0:0:0:0:
218,147,70777,1,0,0:0:0:0:
217,147,71006,1,8,0:0:0:0:
217,147,71120,1,0,0:0:0:0:
219,145,71235,1,8,0:0:0:0:
217,147,71349,1,8,0:0:0:0:
217,147,71463,1,0,0:0:0:0:
217,147,71577,1,8,0:0:0:0:
218,147,71692,1,8,0:0:0:0:
217,147,71806,1,0,0:0:0:0:
217,147,71920,1,0,0:0:0:0:
217,147,72035,1,8,0:0:0:0:
219,145,72149,1,0,0:0:0:0:
219,139,72263,1,0,0:0:0:0:
222,139,72377,1,8,0:0:0:0:
220,139,72492,1,0,0:0:0:0:
225,139,72606,1,8,0:0:0:0:
225,139,72720,1,8,0:0:0:0:
220,139,72835,1,0,0:0:0:0:
221,139,72949,1,8,0:0:0:0:
219,145,73063,1,0,0:0:0:0:
219,145,73177,1,8,0:0:0:0:
219,139,73292,1,8,0:0:0:0:
220,139,73406,1,8,0:0:0:0:
220,139,73520,1,4,0:0:0:0:
225,139,73749,1,0,0:0:0:0:
227,137,73863,1,8,0:0:0:0:
226,137,74092,1,8,0:0:0:0:
226,137,74206,1,0,0:0:0:0:
226,137,74435,1,0,0:0:0:0:
226,137,74549,1,8,0:0:0:0:
235,146,74663,1,8,0:0:0:0:
225,139,74777,1,8,0:0:0:0:
227,137,74892,1,0,0:0:0:0:
226,137,75120,1,8,0:0:0:0:
226,137,75235,1,0,0:0:0:0:
226,137,75463,1,8,0:0:0:0:
226,137,75577,1,8,0:0:0:0:
180,161,75692,1,0,0:0:0:0:
225,139,75806,1,0,0:0:0:0:
202,144,75863,1,0,0:0:0:0:
227,137,75920,1,8,0:0:0:0:
226,137,76149,1,8,0:0:0:0:
226,137,76263,1,0,0:0:0:0:
226,137,76492,1,0,0:0:0:0:
250,140,76606,1,8,0:0:0:0:
225,139,76835,1,8,0:0:0:0:
227,137,76949,1,0,0:0:0:0:
226,137,77177,1,0,0:0:0:0:
226,137,77292,1,8,0:0:0:0:
226,137,77406,1,8,0:0:0:0:
226,137,77520,1,8,0:0:0:0:
225,139,77635,1,0,0:0:0:0:
225,139,77863,1,0,0:0:0:0:
227,137,77977,1,8,0:0:0:0:
226,137,78206,1,0,0:0:0:0:
226,137,78320,1,8,0:0:0:0:
226,137,78435,1,0,0:0:0:0:
225,139,78549,1,0,0:0:0:0:
225,139,78663,1,8,0:0:0:0:
227,137,79006,1,4,0:0:0:0:
230,143,79349,1,8,0:0:0:0:
230,143,79406,1,8,0:0:0:0:
230,143,79463,1,8,0:0:0:0:
230,143,79520,1,8,0:0:0:0:
230,143,79577,1,8,0:0:0:0:
225,139,79635,1,8,0:0:0:0:
225,139,79692,1,8,0:0:0:0:
229,144,79920,1,0,0:0:0:0:
229,145,80035,1,8,0:0:0:0:
230,143,80263,1,8,0:0:0:0:
230,143,80377,1,4,0:0:0:0:
236,137,80720,1,8,0:0:0:0:
236,136,80777,1,8,0:0:0:0:
250,126,80835,1,8,0:0:0:0:
236,136,80892,1,8,0:0:0:0:
237,135,80949,1,8,0:0:0:0:
247,131,81006,1,8,0:0:0:0:
250,130,81063,1,8,0:0:0:0:
248,129,81292,1,0,0:0:0:0:
248,129,81349,1,0,0:0:0:0:
248,129,81406,1,8,0:0:0:0:
248,129,81520,1,0,0:0:0:0:
248,129,81635,1,8,0:0:0:0:
251,128,81749,1,4,0:0:0:0:
173,134,82092,1,8,0:0:0:0:
194,122,82149,1,8,0:0:0:0:
173,134,82206,1,8,0:0:0:0:
173,134,82263,1,8,0:0:0:0:
204,117,82320,1,8,0:0:0:0:
183,127,82377,1,8,0:0:0:0:
185,126,82435,1,8,0:0:0:0:
133,143,82549,1,0,0:0:0:0:
145,136,82663,1,0,0:0:0:0:
149,133,82777,1,8,0:0:0:0:
157,139,83120,1,4,0:0:0:0:
160,133,83349,1,0,0:0:0:0:
158,139,83463,1,8,0:0:0:0:
158,139,83577,1,0,0:0:0:0:
158,138,83692,1,8,0:0:0:0:
156,137,83806,1,8,0:0:0:0:
157,139,83920,1,0,0:0:0:0:
157,139,84035,1,8,0:0:0:0:
158,139,84263,1,8,0:0:0:0:
158,139,84492,1,4,0:0:0:0:
142,139,84749,1,8,0:0:0:0:
141,139,84835,1,0,0:0:0:0:
141,140,85006,1,0,0:0:0:0:
141,138,85177,1,8,0:0:0:0:
141,138,85263,1,0,0:0:0:0:
146,136,85435,1,0,0:0:0:0:
146,136,85520,1,8,0:0:0:0:
142,139,85606,1,8,0:0:0:0:
148,135,85692,1,0,0:0:0:0:
148,135,85863,1,8,0:0:0:0:
152,132,86035,1,0,0:0:0:0:
152,132,86120,1,8,0:0:0:0:
152,132,86206,1,0,0:0:0:0:
153,130,86377,1,0,0:0:0:0:
153,130,86549,1,8,0:0:0:0:
155,129,86635,1,8,0:0:0:0:
155,129,86720,1,0,0:0:0:0:
156,128,86806,1,0,0:0:0:0:
157,127,86892,1,8,0:0:0:0:
158,126,87063,1,0,0:0:0:0:
172,138,87120,1,0,0:0:0:0:
175,134,87177,1,0,0:0:0:0:
175,134,87235,1,8,0:0:0:0:
161,121,87292,1,8,0:0:0:0:
163,121,87349,1,8,0:0:0:0:
163,121,87406,1,0,0:0:0:0:
166,130,87492,1,0,0:0:0:0:
163,121,87577,1,8,0:0:0:0:
163,121,87635,1,8,0:0:0:0:
163,121,87692,1,8,0:0:0:0:
163,121,87749,1,0,0:0:0:0:
169,128,87835,1,0,0:0:0:0:
163,121,87920,1,8,0:0:0:0:
163,121,87977,1,0,0:0:0:0:
163,121,88035,1,0,0:0:0:0:
163,121,88092,1,8,0:0:0:0:
169,128,88177,1,0,0:0:0:0:
163,121,88263,1,8,0:0:0:0:
161,121,88320,1,8,0:0:0:0:
163,121,88377,1,8,0:0:0:0:
163,121,88435,1,8,0:0:0:0:
163,121,88492,1,8,0:0:0:0:
163,121,88549,1,8,0:0:0:0:
163,121,88606,1,0,0:0:0:0:
182,126,88949,1,0,0:0:0:0:
182,126,89120,1,8,0:0:0:0:
182,126,89206,1,8,0:0:0:0:
182,126,89292,1,8,0:0:0:0:
182,126,89635,1,8,0:0:0:0:
179,148,89977,1,4,0:0:0:0:
187,160,90235,1,0,0:0:0:0:
187,160,90320,1,8,0:0:0:0:
190,162,90492,1,0,0:0:0:0:
190,162,90663,1,8,0:0:0:0:
190,162,90749,1,8,0:0:0:0:
211,161,90835,1,0,0:0:0:0:
211,161,90920,1,0,0:0:0:0:
211,161,91006,1,8,0:0:0:0:
219,158,91177,1,0,0:0:0:0:
198,139,91349,1,8,0:0:0:0:
195,153,91520,1,0,0:0:0:0:
195,153,91606,1,0,0:0:0:0:
198,139,91692,1,8,0:0:0:0:
195,153,91863,1,0,0:0:0:0:
198,139,92035,1,8,0:0:0:0:
197,151,92120,1,8,0:0:0:0:
197,151,92206,1,0,0:0:0:0:
197,151,92292,1,0,0:0:0:0:
198,139,92377,1,8,0:0:0:0:
208,141,92549,1,8,0:0:0:0:
197,151,92720,1,0,0:0:0:0:
195,153,92892,1,8,0:0:0:0:
197,150,92977,1,8,0:0:0:0:
197,150,93063,1,0,0:0:0:0:
213,144,93235,1,8,0:0:0:0:
212,143,93406,1,0,0:0:0:0:
224,139,93492,1,8,0:0:0:0:
224,139,93577,1,0,0:0:0:0:
217,140,93663,1,0,0:0:0:0:
224,139,93749,1,8,0:0:0:0:
224,139,93920,1,0,0:0:0:0:
209,150,94006,1,0,0:0:0:0:
203,139,94092,1,8,0:0:0:0:
238,136,94349,1,0,0:0:0:0:
203,139,94435,1,8,0:0:0:0:
240,136,94606,1,0,0:0:0:0:
240,136,94692,1,0,0:0:0:0:
203,139,94777,1,8,0:0:0:0:
240,136,94863,1,0,0:0:0:0:
238,136,95035,1,0,0:0:0:0:
203,139,95120,1,8,0:0:0:0:
201,128,95292,1,8,0:0:0:0:
206,126,95377,1,8,0:0:0:0:
206,126,95463,1,0,0:0:0:0:
214,136,95720,1,0,0:0:0:0:
214,139,95806,1,8,0:0:0:0:
209,134,95892,1,8,0:0:0:0:
209,134,95977,1,0,0:0:0:0:
211,132,96149,1,8,0:0:0:0:
211,132,96320,1,0,0:0:0:0:
211,132,96406,1,0,0:0:0:0:
211,132,96492,1,8,0:0:0:0:
211,132,96577,1,8,0:0:0:0:
211,132,96663,1,0,0:0:0:0:
211,132,96749,1,0,0:0:0:0:
203,139,96835,1,8,0:0:0:0:
209,134,97006,1,0,0:0:0:0:
211,132,97092,1,0,0:0:0:0:
203,139,97177,1,8,0:0:0:0:
211,132,97349,1,0,0:0:0:0:
203,139,97520,1,8,0:0:0:0:
211,132,97606,1,0,0:0:0:0:
211,132,97692,1,0,0:0:0:0:
211,132,97777,1,0,0:0:0:0:
203,139,97863,1,8,0:0:0:0:
209,134,98035,1,0,0:0:0:0:
211,132,98120,1,0,0:0:0:0:
211,132,98206,1,8,0:0:0:0:
211,132,98377,1,0,0:0:0:0:
211,132,98549,1,8,0:0:0:0:
211,132,98720,1,8,0:0:0:0:
211,132,98806,1,8,0:0:0:0:
224,124,98892,1,0,0:0:0:0:
225,123,98977,1,8,0:0:0:0:
244,113,99063,1,0,0:0:0:0:
235,116,99149,1,0,0:0:0:0:
241,114,99235,1,8,0:0:0:0:
244,113,99406,1,0,0:0:0:0:
203,139,99577,1,8,0:0:0:0:
225,141,99749,1,0,0:0:0:0:
225,141,99835,1,0,0:0:0:0:
203,139,99920,1,8,0:0:0:0:
226,141,100006,1,8,0:0:0:0:
226,141,100092,1,0,0:0:0:0:
203,139,100263,1,8,0:0:0:0:
228,140,100349,1,8,0:0:0:0:
197,147,100435,1,0,0:0:0:0:
229,139,100520,1,0,0:0:0:0:
203,139,100606,1,8,0:0:0:0:
229,139,100777,1,0,0:0:0:0:
216,139,100863,1,0,0:0:0:0:
216,139,100949,1,0,0:0:0:0:
182,193,101206,1,0,0:0:0:0:
182,181,101292,1,8,0:0:0:0:
182,193,101463,1,0,0:0:0:0:
182,193,101549,1,0,0:0:0:0:
182,193,101635,1,8,0:0:0:0:
182,193,101806,1,0,0:0:0:0:
180,184,101977,1,8,0:0:0:0:
182,193,102063,1,8,0:0:0:0:
180,184,102149,1,0,0:0:0:0:
203,140,102320,1,8,0:0:0:0:
180,181,102492,1,0,0:0:0:0:
180,181,102577,1,0,0:0:0:0:
203,140,102663,1,8,0:0:0:0:
180,181,102835,1,0,0:0:0:0:
203,140,103006,1,8,0:0:0:0:
180,184,103092,1,8,0:0:0:0:
180,184,103177,1,0,0:0:0:0:
180,181,103263,1,0,0:0:0:0:
203,140,103349,1,8,0:0:0:0:
192,174,103520,1,8,0:0:0:0:
197,157,103692,1,0,0:0:0:0:
197,157,103863,1,8,0:0:0:0:
197,157,103949,1,0,0:0:0:0:
196,157,104035,1,8,0:0:0:0:
198,157,104206,1,0,0:0:0:0:
199,157,104292,1,8,0:0:0:0:
197,157,104377,1,0,0:0:0:0:
197,157,104463,1,8,0:0:0:0:
197,157,104549,1,0,0:0:0:0:
197,157,104720,1,8,0:0:0:0:
197,157,104806,1,8,0:0:0:0:
197,157,104892,1,0,0:0:0:0:
203,140,105063,1,8,0:0:0:0:
202,149,105235,1,0,0:0:0:0:
202,149,105320,1,0,0:0:0:0:
203,140,105406,1,8,0:0:0:0:
202,149,105577,1,0,0:0:0:0:
203,140,105749,1,8,0:0:0:0:
203,140,105835,1,0,0:0:0:0:
203,140,105920,1,0,0:0:0:0:
203,140,106006,1,0,0:0:0:0:
203,140,106092,1,8,0:0:0:0:
193,146,106263,1,0,0:0:0:0:
168,149,106435,1,8,0:0:0:0:
106,154,106520,1,0,0:0:0:0:
106,154,106606,1,0,0:0:0:0:
106,154,106692,1,0,0:0:0:0:
106,154,106777,1,8,0:0:0:0:
106,154,106863,1,0,0:0:0:0:
106,154,106949,1,8,0:0:0:0:
106,154,107035,1,8,0:0:0:0:
106,154,107120,1,0,0:0:0:0:
106,154,107206,1,8,0:0:0:0:
106,154,107292,1,0,0:0:0:0:
106,154,107377,1,0,0:0:0:0:
106,154,107463,1,8,0:0:0:0:
106,154,107635,1,0,0:0:0:0:
106,154,107806,1,8,0:0:0:0:
106,154,107892,1,8,0:0:0:0:
106,154,107977,1,8,0:0:0:0:
106,154,108063,1,0,0:0:0:0:
106,154,108149,1,8,0:0:0:0:
106,154,108235,1,8,0:0:0:0:
106,154,108320,1,0,0:0:0:0:
106,154,108406,1,0,0:0:0:0:
106,154,108492,1,8,0:0:0:0:
106,154,108577,1,0,0:0:0:0:
106,154,108663,1,0,0:0:0:0:
106,154,108749,1,0,0:0:0:0:
106,154,108835,1,8,0:0:0:0:
106,154,109006,1,0,0:0:0:0:
106,154,109177,1,8,0:0:0:0:
106,154,109235,1,8,0:0:0:0:
106,154,109292,1,8,0:0:0:0:
127,153,109349,1,0,0:0:0:0:
106,154,109406,1,0,0:0:0:0:
87,143,109463,1,0,0:0:0:0:
106,154,109520,1,8,0:0:0:0:
106,154,109606,1,0,0:0:0:0:
106,154,109692,1,0,0:0:0:0:
106,154,109777,1,0,0:0:0:0:
106,154,109863,1,8,0:0:0:0:
91,150,109920,1,0,0:0:0:0:
106,154,109977,1,0,0:0:0:0:
106,154,110035,1,8,0:0:0:0:
106,154,110092,1,0,0:0:0:0:
106,154,110149,1,0,0:0:0:0:
112,144,110206,1,8,0:0:0:0:
106,154,110292,1,8,0:0:0:0:
106,154,110377,1,0,0:0:0:0:
106,154,110463,1,8,0:0:0:0:
106,154,110549,1,0,0:0:0:0:
106,154,110606,1,0,0:0:0:0:
94,153,110663,1,0,0:0:0:0:
106,154,110720,1,8,0:0:0:0:
106,154,110806,1,0,0:0:0:0:
106,154,110892,1,8,0:0:0:0:
106,154,110949,1,8,0:0:0:0:
106,154,111006,1,8,0:0:0:0:
92,152,111063,1,0,0:0:0:0:
106,154,111149,1,0,0:0:0:0:
106,154,111235,1,8,0:0:0:0:
106,154,111292,1,0,0:0:0:0:
86,153,111349,1,0,0:0:0:0:
106,154,111406,1,8,0:0:0:0:
106,154,111492,1,0,0:0:0:0:
106,154,111577,1,8,0:0:0:0:
106,154,111749,1,0,0:0:0:0:
193,146,111920,1,12,0:0:0:0:
193,146,112949,1,0,0:0:0:0:
193,146,113292,1,0,0:0:0:0:
194,146,114663,1,8,0:0:0:0:
194,146,115692,1,0,0:0:0:0:
194,146,116035,1,0,0:0:0:0:
194,146,116120,1,8,0:0:0:0:
194,146,116206,1,0,0:0:0:0:
194,146,117406,1,0,0:0:0:0:
194,146,117749,1,0,0:0:0:0:
194,146,118092,1,0,0:0:0:0:
194,146,118263,1,8,0:0:0:0:
194,146,118777,1,8,0:0:0:0:
194,146,119120,1,8,0:0:0:0:
194,146,119463,1,8,0:0:0:0:
194,146,119977,1,8,0:0:0:0:
194,146,120063,1,8,0:0:0:0:
194,146,120149,1,0,0:0:0:0:
194,146,121177,1,0,0:0:0:0:
194,146,121520,1,8,0:0:0:0:
215,150,122892,1,0,0:0:0:0:
215,150,123063,1,0,0:0:0:0:
215,150,123235,1,8,0:0:0:0:
215,150,123406,1,0,0:0:0:0:
215,150,123577,1,8,0:0:0:0:
215,150,123920,1,8,0:0:0:0:
215,150,124263,1,0,0:0:0:0:
203,151,124606,1,0,0:0:0:0:
203,151,124949,1,8,0:0:0:0:
215,150,125635,1,0,0:0:0:0:
203,151,125977,1,0,0:0:0:0:
203,152,126320,1,8,0:0:0:0:
215,150,126663,1,8,0:0:0:0:
215,150,127006,1,0,0:0:0:0:
218,160,127349,1,0,0:0:0:0:
217,166,127692,1,8,0:0:0:0:
215,150,128377,1,8,0:0:0:0:
215,150,128720,1,8,0:0:0:0:
215,150,128892,1,0,0:0:0:0:
218,167,129063,1,8,0:0:0:0:
215,150,129406,1,8,0:0:0:0:
215,150,129749,1,0,0:0:0:0:
218,167,130092,1,0,0:0:0:0:
215,150,130435,1,8,0:0:0:0:
215,150,131120,1,0,0:0:0:0:
219,165,131463,1,0,0:0:0:0:
219,165,131806,1,8,0:0:0:0:
215,150,132149,1,8,0:0:0:0:
215,150,132492,1,0,0:0:0:0:
215,150,132663,1,0,0:0:0:0:
215,150,132749,1,0,0:0:0:0:
215,150,132835,1,8,0:0:0:0:
215,150,133006,1,8,0:0:0:0:
215,150,133092,1,8,0:0:0:0:
215,150,133177,1,0,0:0:0:0:
215,150,133263,1,8,0:0:0:0:
215,150,133349,1,0,0:0:0:0:
215,150,133435,1,0,0:0:0:0:
222,149,133520,1,8,0:0:0:0:
215,150,133692,1,8,0:0:0:0:
82,96,133863,1,4,0:0:0:0:
78,98,134206,1,8,0:0:0:0:
78,98,134377,1,8,0:0:0:0:
82,96,134720,1,8,0:0:0:0:
82,96,134892,1,0,0:0:0:0:
78,98,135063,1,0,0:0:0:0:
78,98,135235,1,8,0:0:0:0:
82,96,135577,1,8,0:0:0:0:
82,96,135920,1,8,0:0:0:0:
82,96,136263,1,12,0:0:0:0:
82,96,136606,1,0,0:0:0:0:
82,96,136949,1,8,0:0:0:0:
82,96,137120,1,0,0:0:0:0:
82,96,137463,1,0,0:0:0:0:
82,96,137635,1,8,0:0:0:0:
82,96,137806,1,0,0:0:0:0:
82,96,137977,1,8,0:0:0:0:
82,96,138320,1,8,0:0:0:0:
82,96,138663,1,8,0:0:0:0:
82,96,139006,1,12,0:0:0:0:
82,96,139177,1,12,0:0:0:0:
82,96,139349,1,0,0:0:0:0:
82,96,139692,1,0,0:0:0:0:
82,96,139863,1,0,0:0:0:0:
82,96,140206,1,0,0:0:0:0:
82,96,140377,1,0,0:0:0:0:
82,96,140549,1,8,0:0:0:0:
82,96,140720,1,8,0:0:0:0:
82,96,141063,1,8,0:0:0:0:
82,96,141406,1,8,0:0:0:0:
82,96,141749,1,12,0:0:0:0:
82,96,142092,1,0,0:0:0:0:
82,96,142435,1,8,0:0:0:0:
82,96,142606,1,0,0:0:0:0:
82,96,142949,1,0,0:0:0:0:
82,96,143120,1,8,0:0:0:0:
82,96,143292,1,8,0:0:0:0:
82,96,143463,1,0,0:0:0:0:
82,96,143635,1,8,0:0:0:0:
82,96,143720,1,8,0:0:0:0:
82,96,143806,1,8,0:0:0:0:
82,96,143977,1,8,0:0:0:0:
82,96,144149,1,0,0:0:0:0:
82,96,144320,1,12,0:0:0:0:
82,96,144492,1,12,0:0:0:0:
82,96,144835,1,4,0:0:0:0:
159,164,145092,1,0,0:0:0:0:
159,164,145177,1,8,0:0:0:0:
160,154,145349,1,0,0:0:0:0:
160,153,145435,1,8,0:0:0:0:
163,155,145520,1,0,0:0:0:0:
160,153,145606,1,8,0:0:0:0:
163,155,145692,1,0,0:0:0:0:
163,155,145863,1,8,0:0:0:0:
163,154,146035,1,0,0:0:0:0:
163,154,146120,1,0,0:0:0:0:
163,154,146206,1,8,0:0:0:0:
160,154,146377,1,0,0:0:0:0:
163,155,146549,1,8,0:0:0:0:
163,155,146720,1,0,0:0:0:0:
163,155,146806,1,0,0:0:0:0:
163,155,146892,1,8,0:0:0:0:
163,154,146977,1,8,0:0:0:0:
163,154,147063,1,0,0:0:0:0:
163,154,147235,1,12,0:0:0:0:
148,153,147492,1,0,0:0:0:0:
160,154,147577,1,8,0:0:0:0:
154,152,147749,1,0,0:0:0:0:
154,152,147920,1,8,0:0:0:0:
154,152,148092,1,8,0:0:0:0:
156,151,148177,1,8,0:0:0:0:
163,154,148263,1,0,0:0:0:0:
160,154,148349,1,8,0:0:0:0:
160,154,148435,1,0,0:0:0:0:
160,154,148606,1,8,0:0:0:0:
154,152,148777,1,0,0:0:0:0:
154,152,148863,1,0,0:0:0:0:
154,152,148949,1,8,0:0:0:0:
168,155,149120,1,0,0:0:0:0:
153,156,149292,1,8,0:0:0:0:
175,150,149463,1,0,0:0:0:0:
175,150,149549,1,0,0:0:0:0:
160,154,149635,1,8,0:0:0:0:
184,136,149720,1,8,0:0:0:0:
175,150,149806,1,0,0:0:0:0:
153,156,149977,1,12,0:0:0:0:
153,156,150320,1,0,0:0:0:0:
152,149,150492,1,0,0:0:0:0:
152,149,150663,1,8,0:0:0:0:
153,149,150835,1,8,0:0:0:0:
153,156,150920,1,0,0:0:0:0:
219,139,151006,1,8,0:0:0:0:
219,139,151092,1,8,0:0:0:0:
219,139,151177,1,0,0:0:0:0:
169,148,151349,1,8,0:0:0:0:
142,135,151435,1,0,0:0:0:0:
169,148,151520,1,8,0:0:0:0:
169,148,151692,1,8,0:0:0:0:
154,159,151863,1,0,0:0:0:0:
154,158,152035,1,8,0:0:0:0:
154,158,152206,1,0,0:0:0:0:
154,158,152292,1,0,0:0:0:0:
155,158,152377,1,8,0:0:0:0:
156,158,152463,1,8,0:0:0:0:
157,157,152549,1,0,0:0:0:0:
154,159,152720,1,12,0:0:0:0:
154,159,152892,1,8,0:0:0:0:
154,158,152977,1,8,0:0:0:0:
154,158,153063,1,0,0:0:0:0:
154,158,153235,1,0,0:0:0:0:
155,158,153406,1,8,0:0:0:0:
157,157,153577,1,0,0:0:0:0:
181,146,153663,1,0,0:0:0:0:
154,159,153749,1,8,0:0:0:0:
172,147,153835,1,8,0:0:0:0:
154,158,153920,1,0,0:0:0:0:
154,158,154092,1,8,0:0:0:0:
154,158,154263,1,0,0:0:0:0:
172,147,154349,1,0,0:0:0:0:
155,158,154435,1,8,0:0:0:0:
157,157,154606,1,0,0:0:0:0:
172,147,154777,1,8,0:0:0:0:
172,147,154863,1,0,0:0:0:0:
172,145,154949,1,0,0:0:0:0:
172,145,155035,1,0,0:0:0:0:
154,158,155120,1,8,0:0:0:0:
154,158,155292,1,0,0:0:0:0:
85,98,155463,1,8,0:0:0:0:
85,98,155549,1,8,0:0:0:0:
85,98,155635,1,8,0:0:0:0:
85,98,155720,1,8,0:0:0:0:
85,98,155806,1,4,0:0:0:0:
176,162,156149,1,12,0:0:0:0:
176,162,156492,1,12,0:0:0:0:
182,157,156663,1,0,0:0:0:0:
164,168,156749,1,0,0:0:0:0:
165,167,156835,1,8,0:0:0:0:
165,167,157006,1,0,0:0:0:0:
181,153,157177,1,12,0:0:0:0:
176,162,157520,1,12,0:0:0:0:
176,162,157863,1,12,0:0:0:0:
193,167,158035,1,8,0:0:0:0:
193,167,158120,1,0,0:0:0:0:
194,166,158206,1,8,0:0:0:0:
194,166,158377,1,8,0:0:0:0:
181,153,158549,1,4,0:0:0:0:
176,162,158892,1,4,0:0:0:0:
176,162,159235,1,12,0:0:0:0:
193,155,159406,1,0,0:0:0:0:
193,155,159492,1,0,0:0:0:0:
193,155,159577,1,8,0:0:0:0:
193,155,159635,1,8,0:0:0:0:
165,149,159692,1,8,0:0:0:0:
174,147,159749,1,8,0:0:0:0:
181,153,159920,1,4,0:0:0:0:
176,162,160263,1,8,0:0:0:0:
181,153,160435,1,4,0:0:0:0:
176,162,160606,1,8,0:0:0:0:
181,153,160949,1,4,0:0:0:0:
176,162,161120,1,8,0:0:0:0:
181,153,161292,1,4,0:0:0:0:
176,162,161635,1,12,0:0:0:0:
176,162,161977,1,12,0:0:0:0:
179,168,162149,1,8,0:0:0:0:
181,168,162235,1,8,0:0:0:0:
182,165,162320,1,0,0:0:0:0:
182,165,162406,1,0,0:0:0:0:
182,165,162492,1,0,0:0:0:0:
182,153,162663,1,12,0:0:0:0:
176,162,163006,1,12,0:0:0:0:
176,162,163349,1,12,0:0:0:0:
161,166,163520,1,8,0:0:0:0:
167,163,163606,1,0,0:0:0:0:
167,163,163692,1,8,0:0:0:0:
167,163,163777,1,0,0:0:0:0:
167,163,163863,1,8,0:0:0:0:
182,153,164035,1,4,0:0:0:0:
176,162,164377,1,4,0:0:0:0:
176,162,164720,1,12,0:0:0:0:
181,150,164892,1,0,0:0:0:0:
182,153,164977,1,0,0:0:0:0:
182,153,165063,1,8,0:0:0:0:
181,150,165235,1,8,0:0:0:0:
182,153,165406,1,4,0:0:0:0:
176,162,165749,1,8,0:0:0:0:
182,153,165920,1,4,0:0:0:0:
176,161,166092,1,8,0:0:0:0:
182,153,166435,1,4,0:0:0:0:
176,162,166606,1,8,0:0:0:0:
182,153,166777,1,4,0:0:0:0:
182,153,167035,1,8,0:0:0:0:
182,153,167120,1,0,0:0:0:0:
182,153,167292,1,0,0:0:0:0:
182,153,167463,1,8,0:0:0:0:
182,153,167720,1,0,0:0:0:0:
182,153,167806,1,8,0:0:0:0:
182,153,167977,1,8,0:0:0:0:
182,153,168063,1,8,0:0:0:0:
182,153,168149,1,0,0:0:0:0:
195,151,168406,1,8,0:0:0:0:
195,151,168492,1,0,0:0:0:0:
195,153,168663,1,0,0:0:0:0:
195,153,168835,1,8,0:0:0:0:
195,153,168920,1,0,0:0:0:0:
195,153,169092,1,0,0:0:0:0:
195,153,169177,1,8,0:0:0:0:
195,151,169349,1,0,0:0:0:0:
195,151,169406,1,0,0:0:0:0:
195,151,169463,1,0,0:0:0:0:
195,151,169520,1,8,0:0:0:0:
195,153,169777,1,8,0:0:0:0:
195,153,169863,1,0,0:0:0:0:
195,153,170035,1,0,0:0:0:0:
208,156,170120,1,0,0:0:0:0:
195,153,170206,1,8,0:0:0:0:
195,151,170292,1,8,0:0:0:0:
195,151,170377,1,0,0:0:0:0:
158,160,170463,1,0,0:0:0:0:
195,151,170549,1,8,0:0:0:0:
195,153,170720,1,8,0:0:0:0:
195,153,170806,1,8,0:0:0:0:
195,153,170892,1,0,0:0:0:0:
195,153,171149,1,0,0:0:0:0:
195,153,171235,1,8,0:0:0:0:
195,151,171406,1,0,0:0:0:0:
195,151,171492,1,8,0:0:0:0:
195,153,171577,1,8,0:0:0:0:
195,153,171749,1,0,0:0:0:0:
195,153,171835,1,8,0:0:0:0:
195,153,171920,1,8,0:0:0:0:
195,153,172006,1,8,0:0:0:0:
101,85,172092,1,0,0:0:0:0:
122,103,172149,1,0,0:0:0:0:
121,96,172206,1,0,0:0:0:0:
101,85,172263,1,8,0:0:0:0:
130,97,172349,1,8,0:0:0:0:
130,97,172435,1,0,0:0:0:0:
130,97,172520,1,0,0:0:0:0:
140,94,172606,1,8,0:0:0:0:
140,94,172692,1,0,0:0:0:0:
140,94,172777,1,0,0:0:0:0:
140,94,172863,1,0,0:0:0:0:
140,94,172949,1,8,0:0:0:0:
141,94,173035,1,8,0:0:0:0:
141,94,173120,1,0,0:0:0:0:
141,94,173206,1,8,0:0:0:0:
69,100,173292,1,0,0:0:0:0:
69,100,173335,1,0,0:0:0:0:
69,100,173463,1,0,0:0:0:0:
69,100,173506,1,0,0:0:0:0:
140,94,173635,1,8,0:0:0:0:
140,94,173720,1,8,0:0:0:0:
140,94,173806,1,0,0:0:0:0:
140,94,173892,1,0,0:0:0:0:
140,94,173977,1,8,0:0:0:0:
141,94,174063,1,0,0:0:0:0:
141,94,174149,1,8,0:0:0:0:
141,94,174235,1,0,0:0:0:0:
140,94,174320,1,8,0:0:0:0:
140,94,174406,1,8,0:0:0:0:
140,94,174492,1,0,0:0:0:0:
140,94,174577,1,0,0:0:0:0:
69,99,174663,1,8,0:0:0:0:
69,99,174706,1,8,0:0:0:0:
69,99,174835,1,8,0:0:0:0:
69,99,174877,1,8,0:0:0:0:
154,88,175006,1,8,0:0:0:0:
153,89,175063,1,8,0:0:0:0:
153,89,175120,1,8,0:0:0:0:
154,89,175177,1,0,0:0:0:0:
148,86,175263,1,0,0:0:0:0:
154,89,175349,1,8,0:0:0:0:
154,89,175406,1,8,0:0:0:0:
154,89,175463,1,8,0:0:0:0:
154,89,175520,1,0,0:0:0:0:
149,86,175606,1,0,0:0:0:0:
154,88,175692,1,8,0:0:0:0:
154,88,175749,1,0,0:0:0:0:
154,88,175806,1,0,0:0:0:0:
154,88,175863,1,8,0:0:0:0:
154,88,175949,1,0,0:0:0:0:
154,88,176035,1,8,0:0:0:0:
153,89,176092,1,8,0:0:0:0:
153,89,176149,1,8,0:0:0:0:
154,89,176206,1,8,0:0:0:0:
154,89,176263,1,8,0:0:0:0:
154,89,176320,1,8,0:0:0:0:
154,89,176377,1,0,0:0:0:0:
114,96,176720,1,0,0:0:0:0:
114,96,177063,1,8,0:0:0:0:
114,96,177149,1,8,0:0:0:0:
114,96,177235,1,0,0:0:0:0:
114,96,177320,1,0,0:0:0:0:
114,96,177406,1,8,0:0:0:0:
114,96,177492,1,0,0:0:0:0:
114,96,177577,1,8,0:0:0:0:
114,96,177663,1,8,0:0:0:0:
114,96,177749,1,0,0:0:0:0:
180,146,177835,1,8,0:0:0:0:
180,146,177920,1,0,0:0:0:0:
180,146,178006,1,0,0:0:0:0:
180,146,178092,1,8,0:0:0:0:
180,146,178177,1,0,0:0:0:0:
180,146,178263,1,8,0:0:0:0:
180,146,178349,1,8,0:0:0:0:
180,146,178435,1,0,0:0:0:0:
180,146,178520,1,8,0:0:0:0:
180,146,178606,1,8,0:0:0:0:
180,146,178692,1,8,0:0:0:0:
180,146,178777,1,0,0:0:0:0:
180,146,178863,1,0,0:0:0:0:
180,146,178949,1,8,0:0:0:0:
180,146,179035,1,8,0:0:0:0:
180,146,179120,1,0,0:0:0:0:
180,146,179206,1,8,0:0:0:0:
180,146,179292,1,8,0:0:0:0:
180,146,179377,1,8,0:0:0:0:
180,146,179463,1,0,0:0:0:0:
180,146,179549,1,8,0:0:0:0:
180,146,179635,1,8,0:0:0:0:
180,146,179720,1,0,0:0:0:0:
180,146,179806,1,8,0:0:0:0:
180,146,179892,1,8,0:0:0:0:
180,146,179977,1,8,0:0:0:0:
180,146,180063,1,8,0:0:0:0:
171,145,180149,1,0,0:0:0:0:
180,146,180235,1,0,0:0:0:0:
180,146,180320,1,8,0:0:0:0:
180,146,180406,1,8,0:0:0:0:
180,146,180492,1,0,0:0:0:0:
180,146,180549,1,0,0:0:0:0:
202,150,180606,1,0,0:0:0:0:
180,146,180663,1,8,0:0:0:0:
180,146,180835,1,8,0:0:0:0:
180,146,180920,1,8,0:0:0:0:
180,146,181092,1,0,0:0:0:0:
180,146,181177,1,8,0:0:0:0:
188,138,181263,1,0,0:0:0:0:
180,146,181349,1,0,0:0:0:0:
180,146,181435,1,8,0:0:0:0:
180,146,181606,1,0,0:0:0:0:
180,146,181692,1,8,0:0:0:0:
187,139,181777,1,8,0:0:0:0:
180,146,181863,1,0,0:0:0:0:
180,146,182035,1,8,0:0:0:0:
180,146,182206,1,0,0:0:0:0:
180,146,182292,1,8,0:0:0:0:
180,146,182377,1,8,0:0:0:0:
180,146,182549,1,8,0:0:0:0:
180,146,182635,1,0,0:0:0:0:
180,146,182720,1,8,0:0:0:0:
180,146,182806,1,8,0:0:0:0:
180,146,182892,1,0,0:0:0:0:
180,146,182977,1,0,0:0:0:0:
180,146,183063,1,8,0:0:0:0:
180,146,183149,1,8,0:0:0:0:
180,146,183235,1,4,0:0:0:0:
180,146,183406,1,8,0:0:0:0:
180,146,183492,1,8,0:0:0:0:
180,146,183577,1,0,0:0:0:0:
180,146,183749,1,8,0:0:0:0:
180,146,183920,1,0,0:0:0:0:
180,146,184006,1,0,0:0:0:0:
180,146,184092,1,8,0:0:0:0:
180,146,184177,1,8,0:0:0:0:
180,146,184263,1,0,0:0:0:0:
180,146,184435,1,8,0:0:0:0:
180,146,184520,1,8,0:0:0:0:
180,146,184606,1,0,0:0:0:0:
180,146,184692,1,8,0:0:0:0:
180,146,184863,1,8,0:0:0:0:
180,146,184949,1,0,0:0:0:0:
185,141,185035,1,0,0:0:0:0:
185,141,185120,1,8,0:0:0:0:
185,141,185206,1,8,0:0:0:0:
185,141,185292,1,0,0:0:0:0:
180,146,185463,1,0,0:0:0:0:
180,146,185549,1,0,0:0:0:0:
180,146,185635,1,8,0:0:0:0:
180,146,185806,1,0,0:0:0:0:
180,146,185892,1,8,0:0:0:0:
180,146,185977,1,0,0:0:0:0:
175,144,186149,1,0,0:0:0:0:
175,144,186235,1,0,0:0:0:0:
175,144,186320,1,8,0:0:0:0:
180,146,186492,1,8,0:0:0:0:
180,146,186577,1,8,0:0:0:0:
180,146,186663,1,0,0:0:0:0:
180,146,186835,1,0,0:0:0:0:
180,146,186920,1,8,0:0:0:0:
180,146,187006,1,8,0:0:0:0:
183,142,187177,1,8,0:0:0:0:
185,142,187263,1,0,0:0:0:0:
186,142,187349,1,8,0:0:0:0:
162,146,187435,1,0,0:0:0:0:
180,146,187520,1,8,0:0:0:0:
180,146,187692,1,0,0:0:0:0:
180,146,187863,1,8,0:0:0:0:
191,144,187949,1,8,0:0:0:0:
183,142,188035,1,0,0:0:0:0:
191,143,188120,1,8,0:0:0:0:
185,142,188206,1,0,0:0:0:0:
185,142,188292,1,0,0:0:0:0:
186,142,188377,1,8,0:0:0:0:
191,143,188549,1,8,0:0:0:0:
180,146,188720,1,4,0:0:0:0:
169,154,188892,1,8,0:0:0:0:
169,154,188977,1,0,0:0:0:0:
169,153,189063,1,8,0:0:0:0:
169,153,189149,1,8,0:0:0:0:
167,149,189235,1,0,0:0:0:0:
167,149,189320,1,8,0:0:0:0:
167,149,189406,1,0,0:0:0:0:
167,149,189492,1,8,0:0:0:0:
167,149,189577,1,8,0:0:0:0:
167,149,189663,1,8,0:0:0:0:
167,149,189749,1,0,0:0:0:0:
169,154,189835,1,0,0:0:0:0:
169,154,189920,1,8,0:0:0:0:
169,154,190006,1,8,0:0:0:0:
169,153,190092,1,0,0:0:0:0:
169,153,190177,1,0,0:0:0:0:
167,149,190263,1,8,0:0:0:0:
167,149,190349,1,0,0:0:0:0:
167,149,190435,1,8,0:0:0:0:
167,149,190520,1,8,0:0:0:0:
167,149,190606,1,8,0:0:0:0:
167,149,190692,1,8,0:0:0:0:
167,149,190777,1,0,0:0:0:0:
169,154,190863,1,8,0:0:0:0:
169,154,190949,1,8,0:0:0:0:
169,154,191035,1,0,0:0:0:0:
169,153,191120,1,8,0:0:0:0:
169,153,191206,1,8,0:0:0:0:
167,149,191292,1,0,0:0:0:0:
167,149,191377,1,8,0:0:0:0:
167,149,191463,1,0,0:0:0:0:
145,139,191549,1,0,0:0:0:0:
154,143,191635,1,8,0:0:0:0:
158,147,191720,1,0,0:0:0:0:
158,147,191806,1,8,0:0:0:0:
158,147,191892,1,8,0:0:0:0:
158,147,191977,1,0,0:0:0:0:
158,147,192063,1,8,0:0:0:0:
158,147,192149,1,0,0:0:0:0:
158,147,192235,1,8,0:0:0:0:
158,147,192320,1,8,0:0:0:0:
158,147,192406,1,8,0:0:0:0:
158,147,192492,1,0,0:0:0:0:
158,147,192577,1,0,0:0:0:0:
158,147,192663,1,8,0:0:0:0:
158,147,192749,1,8,0:0:0:0:
158,147,192835,1,0,0:0:0:0:
158,147,192920,1,8,0:0:0:0:
158,147,193006,1,8,0:0:0:0:
158,147,193092,1,0,0:0:0:0:
158,147,193177,1,8,0:0:0:0:
158,147,193263,1,8,0:0:0:0:
158,147,193349,1,0,0:0:0:0:
158,147,193435,1,0,0:0:0:0:
158,147,193520,1,8,0:0:0:0:
158,147,193606,1,0,0:0:0:0:
158,147,193692,1,8,0:0:0:0:
158,147,193777,1,8,0:0:0:0:
158,147,193863,1,0,0:0:0:0:
158,147,193949,1,8,0:0:0:0:
158,147,194035,1,8,0:0:0:0:
158,147,194120,1,8,0:0:0:0:
158,147,194206,1,4,0:0:0:0:
183,152,194377,1,0,0:0:0:0:
179,154,194463,1,0,0:0:0:0:
188,151,194549,1,8,0:0:0:0:
184,145,194720,1,0,0:0:0:0:
184,145,194777,1,0,0:0:0:0:
167,156,194835,1,0,0:0:0:0:
190,140,194892,1,8,0:0:0:0:
190,140,194977,1,0,0:0:0:0:
190,140,195149,1,0,0:0:0:0:
190,140,195235,1,8,0:0:0:0:
190,140,195320,1,8,0:0:0:0:
190,140,195406,1,0,0:0:0:0:
190,140,195577,1,8,0:0:0:0:
177,157,195749,1,0,0:0:0:0:
177,157,195835,1,0,0:0:0:0:
177,157,195920,1,8,0:0:0:0:
185,155,196006,1,0,0:0:0:0:
185,154,196092,1,8,0:0:0:0:
222,149,196177,1,8,0:0:0:0:
222,149,196263,1,0,0:0:0:0:
205,150,196435,1,8,0:0:0:0:
228,141,196520,1,8,0:0:0:0:
214,148,196606,1,0,0:0:0:0:
207,150,196692,1,8,0:0:0:0:
211,149,196777,1,8,0:0:0:0:
189,139,196949,1,0,0:0:0:0:
190,139,197035,1,0,0:0:0:0:
220,133,197120,1,8,0:0:0:0:
222,131,197206,1,0,0:0:0:0:
229,128,197292,1,8,0:0:0:0:
245,124,197377,1,8,0:0:0:0:
258,122,197463,1,0,0:0:0:0:
263,120,197549,1,0,0:0:0:0:
271,119,197635,1,8,0:0:0:0:
272,118,197720,1,8,0:0:0:0:
273,117,197806,1,8,0:0:0:0:
274,117,197892,1,0,0:0:0:0:
274,117,197977,1,8,0:0:0:0:
278,116,198063,1,0,0:0:0:0:
278,116,198149,1,8,0:0:0:0:
278,116,198235,1,8,0:0:0:0:
279,116,198320,1,0,0:0:0:0:
265,133,198663,1,0,0:0:0:0:
267,130,199006,1,8,0:0:0:0:
267,130,199092,1,8,0:0:0:0:
268,130,199177,1,0,0:0:0:0:
287,140,199263,1,0,0:0:0:0:
297,140,199349,1,8,0:0:0:0:
297,140,199435,1,0,0:0:0:0:
297,140,199520,1,8,0:0:0:0:
297,140,199606,1,8,0:0:0:0:
297,140,199692,1,0,0:0:0:0:
298,140,199777,1,0,0:0:0:0:
299,139,199863,1,0,0:0:0:0:
300,139,199949,1,0,0:0:0:0:
305,138,200035,1,12,0:0:0:0:
185,167,200206,1,0,0:0:0:0:
185,167,200292,1,0,0:0:0:0:
185,167,200377,1,8,0:0:0:0:
185,167,200463,1,8,0:0:0:0:
186,160,200549,1,8,0:0:0:0:
189,157,200635,1,0,0:0:0:0:
242,146,200720,1,8,0:0:0:0:
193,157,200806,1,0,0:0:0:0:
193,157,200892,1,8,0:0:0:0:
198,157,200977,1,8,0:0:0:0:
203,157,201063,1,0,0:0:0:0:
209,155,201149,1,0,0:0:0:0:
215,154,201235,1,8,0:0:0:0:
219,152,201320,1,8,0:0:0:0:
223,152,201406,1,0,0:0:0:0:
225,152,201492,1,8,0:0:0:0:
226,152,201577,1,8,0:0:0:0:
226,152,201663,1,0,0:0:0:0:
235,152,201749,1,8,0:0:0:0:
238,153,201835,1,8,0:0:0:0:
241,152,201920,1,8,0:0:0:0:
242,152,202006,1,8,0:0:0:0:
245,154,202092,1,0,0:0:0:0:
245,154,202177,1,0,0:0:0:0:
245,154,202263,1,8,0:0:0:0:
250,152,202349,1,8,0:0:0:0:
250,153,202435,1,0,0:0:0:0:
275,129,202492,1,0,0:0:0:0:
271,135,202549,1,0,0:0:0:0:
273,131,202606,1,8,0:0:0:0:
215,148,202777,1,0,0:0:0:0:
215,148,202863,1,8,0:0:0:0:
214,143,202949,1,8,0:0:0:0:
207,147,203035,1,0,0:0:0:0:
206,147,203120,1,8,0:0:0:0:
202,147,203206,1,8,0:0:0:0:
206,147,203292,1,0,0:0:0:0:
181,142,203377,1,8,0:0:0:0:
220,136,203463,1,0,0:0:0:0:
231,129,203549,1,0,0:0:0:0:
244,122,203635,1,8,0:0:0:0:
250,117,203720,1,8,0:0:0:0:
229,113,203806,1,0,0:0:0:0:
229,114,203977,1,8,0:0:0:0:
229,114,204063,1,8,0:0:0:0:
229,114,204149,1,0,0:0:0:0:
229,114,204235,1,0,0:0:0:0:
229,114,204320,1,8,0:0:0:0:
233,117,204492,1,0,0:0:0:0:
233,117,204577,1,8,0:0:0:0:
233,117,204663,1,8,0:0:0:0:
233,117,204749,1,8,0:0:0:0:
229,114,204835,1,0,0:0:0:0:
219,128,204920,1,0,0:0:0:0:
229,114,205006,1,8,0:0:0:0:
229,114,205092,1,8,0:0:0:0:
229,114,205177,1,4,0:0:0:0:
180,146,205349,1,8,0:0:0:0:
180,146,205435,1,8,0:0:0:0:
180,146,205520,1,0,0:0:0:0:
180,146,205692,1,8,0:0:0:0:
180,146,205863,1,0,0:0:0:0:
180,146,205949,1,0,0:0:0:0:
180,146,206035,1,8,0:0:0:0:
180,146,206120,1,8,0:0:0:0:
180,146,206206,1,0,0:0:0:0:
180,146,206292,1,8,0:0:0:0:
180,146,206377,1,8,0:0:0:0:
180,146,206549,1,0,0:0:0:0:
180,146,206720,1,8,0:0:0:0:
185,141,206892,1,0,0:0:0:0:
180,146,206977,1,0,0:0:0:0:
185,141,207063,1,8,0:0:0:0:
185,141,207149,1,8,0:0:0:0:
185,141,207235,1,0,0:0:0:0:
180,146,207406,1,0,0:0:0:0:
180,146,207492,1,0,0:0:0:0:
180,146,207577,1,8,0:0:0:0:
180,146,207749,1,0,0:0:0:0:
180,146,207835,1,8,0:0:0:0:
180,146,207920,1,0,0:0:0:0:
175,144,208092,1,0,0:0:0:0:
175,144,208177,1,0,0:0:0:0:
175,144,208263,1,8,0:0:0:0:
180,146,208435,1,8,0:0:0:0:
180,146,208520,1,8,0:0:0:0:
180,146,208606,1,0,0:0:0:0:
180,146,208777,1,0,0:0:0:0:
180,146,208863,1,8,0:0:0:0:
180,146,208949,1,8,0:0:0:0:
183,142,209120,1,8,0:0:0:0:
185,142,209206,1,0,0:0:0:0:
186,142,209292,1,8,0:0:0:0:
162,146,209377,1,0,0:0:0:0:
180,146,209463,1,8,0:0:0:0:
180,146,209635,1,0,0:0:0:0:
180,146,209806,1,8,0:0:0:0:
191,144,209892,1,0,0:0:0:0:
183,142,209977,1,8,0:0:0:0:
191,143,210063,1,8,0:0:0:0:
185,142,210149,1,0,0:0:0:0:
185,142,210235,1,0,0:0:0:0:
186,142,210320,1,8,0:0:0:0:
180,146,210406,1,8,0:0:0:0:
191,143,210492,1,8,0:0:0:0:
180,146,210663,1,0,0:0:0:0:
169,154,210835,1,0,0:0:0:0:
169,153,211006,1,12,0:0:0:0:
167,149,211177,1,0,0:0:0:0:
167,149,211263,1,8,0:0:0:0:
167,149,211349,1,0,0:0:0:0:
167,149,211435,1,8,0:0:0:0:
167,149,211520,1,8,0:0:0:0:
167,149,211606,1,0,0:0:0:0:
167,149,211692,1,8,0:0:0:0:
169,154,211777,1,8,0:0:0:0:
169,154,211863,1,0,0:0:0:0:
169,154,211949,1,8,0:0:0:0:
169,153,212035,1,0,0:0:0:0:
169,153,212120,1,0,0:0:0:0:
167,149,212206,1,8,0:0:0:0:
167,149,212292,1,0,0:0:0:0:
167,149,212377,1,8,0:0:0:0:
167,149,212463,1,8,0:0:0:0:
167,149,212549,1,8,0:0:0:0:
167,149,212635,1,8,0:0:0:0:
167,149,212720,1,0,0:0:0:0:
169,154,212806,1,8,0:0:0:0:
169,154,212892,1,0,0:0:0:0:
169,154,212977,1,0,0:0:0:0:
169,153,213063,1,8,0:0:0:0:
169,153,213149,1,8,0:0:0:0:
167,149,213235,1,8,0:0:0:0:
167,149,213320,1,8,0:0:0:0:
167,149,213406,1,0,0:0:0:0:
145,139,213492,1,0,0:0:0:0:
154,143,213577,1,8,0:0:0:0:
158,147,213663,1,0,0:0:0:0:
158,147,213749,1,8,0:0:0:0:
158,147,213835,1,8,0:0:0:0:
158,147,213920,1,0,0:0:0:0:
158,147,214006,1,8,0:0:0:0:
158,147,214092,1,0,0:0:0:0:
158,147,214177,1,8,0:0:0:0:
158,147,214263,1,8,0:0:0:0:
158,147,214349,1,8,0:0:0:0:
158,147,214435,1,0,0:0:0:0:
158,147,214520,1,0,0:0:0:0:
158,147,214606,1,8,0:0:0:0:
158,147,214692,1,8,0:0:0:0:
158,147,214777,1,0,0:0:0:0:
158,147,214863,1,0,0:0:0:0:
158,147,214949,1,8,0:0:0:0:
158,147,215035,1,0,0:0:0:0:
158,147,215120,1,8,0:0:0:0:
158,147,215206,1,8,0:0:0:0:
158,147,215292,1,0,0:0:0:0:
158,147,215377,1,8,0:0:0:0:
158,147,215463,1,0,0:0:0:0:
158,147,215549,1,0,0:0:0:0:
158,147,215635,1,8,0:0:0:0:
158,147,215720,1,8,0:0:0:0:
158,147,215806,1,0,0:0:0:0:
158,147,215892,1,8,0:0:0:0:
158,147,215977,1,0,0:0:0:0:
158,147,216063,1,8,0:0:0:0:
158,147,216149,1,4,0:0:0:0:
183,152,216320,1,0,0:0:0:0:
179,154,216406,1,0,0:0:0:0:
188,151,216492,1,8,0:0:0:0:
184,145,216663,1,0,0:0:0:0:
184,145,216720,1,0,0:0:0:0:
199,136,216777,1,0,0:0:0:0:
190,140,216835,1,8,0:0:0:0:
190,140,216920,1,0,0:0:0:0:
191,146,217006,1,8,0:0:0:0:
190,140,217092,1,8,0:0:0:0:
190,140,217177,1,0,0:0:0:0:
190,140,217263,1,8,0:0:0:0:
190,140,217349,1,8,0:0:0:0:
190,140,217520,1,8,0:0:0:0:
190,152,217692,1,0,0:0:0:0:
190,152,217777,1,8,0:0:0:0:
195,154,217863,1,0,0:0:0:0:
197,154,218035,1,8,0:0:0:0:
197,154,218120,1,0,0:0:0:0:
199,153,218206,1,8,0:0:0:0:
199,153,218292,1,8,0:0:0:0:
198,155,218377,1,0,0:0:0:0:
202,153,218463,1,0,0:0:0:0:
203,153,218549,1,8,0:0:0:0:
182,140,218635,1,8,0:0:0:0:
158,126,218720,1,0,0:0:0:0:
172,138,218777,1,0,0:0:0:0:
175,134,218835,1,0,0:0:0:0:
175,134,218892,1,8,0:0:0:0:
161,121,218949,1,8,0:0:0:0:
163,121,219006,1,8,0:0:0:0:
163,121,219063,1,0,0:0:0:0:
166,130,219149,1,0,0:0:0:0:
163,121,219235,1,8,0:0:0:0:
163,121,219292,1,8,0:0:0:0:
163,121,219349,1,8,0:0:0:0:
163,121,219406,1,0,0:0:0:0:
169,128,219492,1,0,0:0:0:0:
163,121,219577,1,8,0:0:0:0:
163,121,219635,1,0,0:0:0:0:
163,121,219692,1,0,0:0:0:0:
163,121,219749,1,8,0:0:0:0:
169,128,219835,1,0,0:0:0:0:
163,121,219920,1,8,0:0:0:0:
161,121,219977,1,8,0:0:0:0:
163,121,220035,1,8,0:0:0:0:
163,121,220092,1,8,0:0:0:0:
163,121,220149,1,8,0:0:0:0:
163,121,220206,1,8,0:0:0:0:
163,121,220263,1,0,0:0:0:0:
158,152,220606,1,0,0:0:0:0:
158,152,220949,1,8,0:0:0:0:
158,152,221120,1,0,0:0:0:0:
158,152,221292,1,8,0:0:0:0:
158,152,221463,1,8,0:0:0:0:
179,148,221635,1,4,0:0:0:0:
187,160,221977,1,8,0:0:0:0:
190,162,222149,1,0,0:0:0:0:
211,161,222492,1,0,0:0:0:0:
211,161,222663,1,8,0:0:0:0:
219,158,222835,1,8,0:0:0:0:
198,139,223006,1,0,0:0:0:0:
195,153,223177,1,8,0:0:0:0:
195,153,223263,1,8,0:0:0:0:
198,139,223349,1,8,0:0:0:0:
195,153,223520,1,0,0:0:0:0:
198,139,223692,1,8,0:0:0:0:
197,151,223777,1,8,0:0:0:0:
197,151,223863,1,0,0:0:0:0:
197,151,223949,1,0,0:0:0:0:
198,139,224035,1,8,0:0:0:0:
177,141,224120,1,0,0:0:0:0:
208,141,224206,1,8,0:0:0:0:
198,139,224292,1,8,0:0:0:0:
197,151,224377,1,4,0:0:0:0:
195,153,224549,1,8,0:0:0:0:
197,150,224635,1,8,0:0:0:0:
197,150,224720,1,0,0:0:0:0:
213,144,224892,1,8,0:0:0:0:
212,143,225063,1,0,0:0:0:0:
224,139,225149,1,8,0:0:0:0:
224,139,225235,1,0,0:0:0:0:
217,140,225320,1,0,0:0:0:0:
224,139,225406,1,8,0:0:0:0:
224,139,225577,1,0,0:0:0:0:
209,150,225663,1,8,0:0:0:0:
203,139,225749,1,8,0:0:0:0:
238,136,225920,1,0,0:0:0:0:
203,139,226006,1,8,0:0:0:0:
228,144,226177,1,8,0:0:0:0:
240,136,226263,1,0,0:0:0:0:
203,139,226435,1,8,0:0:0:0:
240,136,226520,1,8,0:0:0:0:
240,136,226606,1,0,0:0:0:0:
238,136,226692,1,0,0:0:0:0:
203,139,226777,1,8,0:0:0:0:
179,154,226863,1,0,0:0:0:0:
201,128,226949,1,8,0:0:0:0:
206,126,227035,1,8,0:0:0:0:
206,126,227120,1,0,0:0:0:0:
218,114,227292,1,0,0:0:0:0:
214,140,227377,1,8,0:0:0:0:
214,139,227549,1,8,0:0:0:0:
209,134,227635,1,0,0:0:0:0:
209,134,227720,1,0,0:0:0:0:
211,132,227806,1,8,0:0:0:0:
211,132,227977,1,0,0:0:0:0:
211,132,228063,1,8,0:0:0:0:
211,132,228149,1,8,0:0:0:0:
211,132,228235,1,8,0:0:0:0:
211,132,228320,1,0,0:0:0:0:
211,132,228406,1,0,0:0:0:0:
203,139,228492,1,8,0:0:0:0:
209,134,228663,1,0,0:0:0:0:
211,132,228749,1,8,0:0:0:0:
203,139,228920,1,8,0:0:0:0:
211,132,229006,1,0,0:0:0:0:
203,139,229177,1,8,0:0:0:0:
211,132,229349,1,0,0:0:0:0:
211,132,229435,1,0,0:0:0:0:
203,139,229520,1,8,0:0:0:0:
211,132,229606,1,0,0:0:0:0:
209,134,229692,1,8,0:0:0:0:
211,132,229777,1,8,0:0:0:0:
211,132,229863,1,0,0:0:0:0:
211,132,230035,1,0,0:0:0:0:
196,133,230120,1,0,0:0:0:0:
211,132,230206,1,8,0:0:0:0:
211,132,230377,1,8,0:0:0:0:
211,132,230463,1,8,0:0:0:0:
224,124,230549,1,0,0:0:0:0:
225,123,230635,1,8,0:0:0:0:
244,113,230720,1,0,0:0:0:0:
235,116,230806,1,0,0:0:0:0:
241,114,230892,1,8,0:0:0:0:
244,113,231063,1,8,0:0:0:0:
196,132,231149,1,8,0:0:0:0:
203,139,231235,1,0,0:0:0:0:
225,141,231406,1,0,0:0:0:0:
225,141,231492,1,0,0:0:0:0:
203,139,231577,1,8,0:0:0:0:
226,141,231663,1,8,0:0:0:0:
226,141,231749,1,0,0:0:0:0:
203,139,231920,1,8,0:0:0:0:
228,140,232006,1,8,0:0:0:0:
197,147,232092,1,0,0:0:0:0:
229,139,232177,1,0,0:0:0:0:
203,139,232263,1,8,0:0:0:0:
229,139,232435,1,8,0:0:0:0:
216,139,232520,1,8,0:0:0:0:
216,139,232606,1,4,0:0:0:0:
192,114,232777,1,0,0:0:0:0:
182,193,232863,1,8,0:0:0:0:
182,181,233035,1,8,0:0:0:0:
182,193,233120,1,0,0:0:0:0:
182,193,233292,1,8,0:0:0:0:
182,193,233377,1,8,0:0:0:0:
182,193,233463,1,0,0:0:0:0:
188,141,233549,1,8,0:0:0:0:
180,184,233635,1,0,0:0:0:0:
182,193,233720,1,0,0:0:0:0:
180,184,233806,1,8,0:0:0:0:
203,140,233977,1,8,0:0:0:0:
180,181,234149,1,0,0:0:0:0:
180,181,234235,1,0,0:0:0:0:
203,140,234320,1,8,0:0:0:0:
180,181,234492,1,0,0:0:0:0:
203,140,234663,1,8,0:0:0:0:
180,184,234749,1,8,0:0:0:0:
180,184,234835,1,0,0:0:0:0:
180,181,234920,1,0,0:0:0:0:
203,140,235006,1,8,0:0:0:0:
203,169,235177,1,8,0:0:0:0:
197,157,235349,1,0,0:0:0:0:
197,157,235520,1,8,0:0:0:0:
197,157,235606,1,0,0:0:0:0:
196,157,235692,1,8,0:0:0:0:
199,157,235777,1,8,0:0:0:0:
198,157,235863,1,0,0:0:0:0:
197,157,236035,1,0,0:0:0:0:
197,157,236120,1,8,0:0:0:0:
197,157,236206,1,0,0:0:0:0:
135,158,236292,1,0,0:0:0:0:
197,157,236377,1,8,0:0:0:0:
197,157,236463,1,8,0:0:0:0:
197,157,236549,1,0,0:0:0:0:
203,140,236720,1,8,0:0:0:0:
202,149,236892,1,0,0:0:0:0:
202,149,236977,1,8,0:0:0:0:
203,140,237063,1,8,0:0:0:0:
202,149,237235,1,0,0:0:0:0:
203,140,237406,1,8,0:0:0:0:
203,140,237492,1,0,0:0:0:0:
203,140,237577,1,0,0:0:0:0:
203,140,237663,1,0,0:0:0:0:
203,140,237749,1,8,0:0:0:0:
193,146,237920,1,0,0:0:0:0:
168,149,238092,1,8,0:0:0:0:
106,154,238177,1,0,0:0:0:0:
106,154,238263,1,0,0:0:0:0:
106,154,238349,1,8,0:0:0:0:
106,154,238435,1,0,0:0:0:0:
106,154,238520,1,0,0:0:0:0:
106,154,238606,1,8,0:0:0:0:
106,154,238692,1,0,0:0:0:0:
106,154,238777,1,8,0:0:0:0:
106,154,238863,1,8,0:0:0:0:
106,154,238949,1,0,0:0:0:0:
106,154,239035,1,0,0:0:0:0:
106,154,239120,1,8,0:0:0:0:
106,154,239292,1,0,0:0:0:0:
106,154,239463,1,8,0:0:0:0:
106,154,239549,1,8,0:0:0:0:
106,154,239635,1,0,0:0:0:0:
106,154,239720,1,8,0:0:0:0:
106,154,239806,1,0,0:0:0:0:
106,154,239892,1,0,0:0:0:0:
106,154,239977,1,8,0:0:0:0:
106,154,240063,1,0,0:0:0:0:
106,154,240149,1,8,0:0:0:0:
106,154,240235,1,8,0:0:0:0:
106,154,240320,1,0,0:0:0:0:
106,154,240406,1,8,0:0:0:0:
106,154,240492,1,0,0:0:0:0:
106,154,240663,1,8,0:0:0:0:
106,154,240835,1,8,0:0:0:0:
106,154,240892,1,8,0:0:0:0:
106,154,240949,1,8,0:0:0:0:
127,153,241006,1,0,0:0:0:0:
106,154,241063,1,0,0:0:0:0:
87,143,241120,1,0,0:0:0:0:
106,154,241177,1,8,0:0:0:0:
106,154,241263,1,0,0:0:0:0:
106,154,241349,1,8,0:0:0:0:
106,154,241435,1,0,0:0:0:0:
106,154,241520,1,8,0:0:0:0:
91,150,241577,1,0,0:0:0:0:
106,154,241635,1,0,0:0:0:0:
106,154,241692,1,8,0:0:0:0:
106,154,241749,1,0,0:0:0:0:
106,154,241806,1,0,0:0:0:0:
112,144,241863,1,8,0:0:0:0:
106,154,241949,1,8,0:0:0:0:
106,154,242035,1,0,0:0:0:0:
106,154,242120,1,8,0:0:0:0:
106,154,242206,1,0,0:0:0:0:
106,154,242263,1,0,0:0:0:0:
94,153,242320,1,0,0:0:0:0:
106,154,242377,1,8,0:0:0:0:
106,154,242463,1,0,0:0:0:0:
106,154,242549,1,8,0:0:0:0:
106,154,242606,1,8,0:0:0:0:
106,154,242663,1,8,0:0:0:0:
92,152,242720,1,0,0:0:0:0:
106,154,242806,1,0,0:0:0:0:
106,154,242892,1,8,0:0:0:0:
106,154,242949,1,0,0:0:0:0:
86,153,243006,1,0,0:0:0:0:
106,154,243063,1,8,0:0:0:0:
106,154,243149,1,0,0:0:0:0:
106,154,243235,1,8,0:0:0:0:
106,154,243406,1,0,0:0:0:0:
225,189,243577,1,4,0:0:0:0:
256,192,243749,8,0,249063,0:0:0:0:
