osu file format v14

[General]
AudioFilename: audio.mp3
AudioLeadIn: 0
PreviewTime: 176334
Countdown: 0
SampleSet: Soft
StackLeniency: 0.7
Mode: 3
LetterboxInBreaks: 0
SpecialStyle: 0
WidescreenStoryboard: 1

[Editor]
Bookmarks: 13134,18620,21363,22734,23763,24105,35077,40563,43305,44677,46048,51534,57020,62505,65248,66620,67991,73477,78963,84448,88563,89934,106391,109134,111877,133820,144791,155763,166734,172220,174963,176334,177705,183191,188677,194163,196905,198277,199648,199991,205134,210620,216105,218848,220220,221591,224334,238048,240791,243534
DistanceSpacing: 0.8
BeatDivisor: 4
GridSize: 8
TimelineZoom: 1.7

[Metadata]
Title:Trinity Homerun
TitleUnicode:Trinity Homerun
Artist:KASAI HARCORES
ArtistUnicode:葛西ハーコーズ
Creator:Leniane
Version:3rd Base(Hard)
Source:
Tags:famoss dj genki genkianamei かめりあ kamelcamellia cametek camellia c-show 葛西ハーコーズEP3 KASAI BASEBALL CLASSIC J-Core Track 6
BeatmapID:1838160
BeatmapSetID:878609

[Difficulty]
HPDrainRate:7.7
CircleSize:4
OverallDifficulty:7.8
ApproachRate:5
SliderMultiplier:1.4
SliderTickRate:1

[Events]
//Background and Video events
0,0,"bg2.jpg",0,0
//Break Periods
//Storyboard Layer 0 (Background)
//Storyboard Layer 1 (Fail)
//Storyboard Layer 2 (Pass)
//Storyboard Layer 3 (Foreground)
//Storyboard Sound Samples
Sample,12105,0,"S3.wav",50
Sample,12448,0,"S3.wav",70
Sample,25134,0,"SC1.wav",70
Sample,27877,0,"SC3.wav",50
Sample,28220,0,"1.wav",50
Sample,28905,0,"3.wav",50
Sample,30620,0,"SC1.wav",70
Sample,31991,0,"SC3.wav",70
Sample,33191,0,"SC2.wav",70
Sample,35077,0,"push_scratch.wav",50
Sample,36105,0,"wou.wav",70
Sample,37477,0,"what.wav",100
Sample,39534,0,"2.wav",50
Sample,41591,0,"wou.wav",70
Sample,42963,0,"what.wav",100
Sample,43820,0,"R.wav",50
Sample,45705,0,"push_scratch.wav",50
Sample,55991,0,"2.wav",50
Sample,56334,0,"3.wav",50
Sample,61391,0,"tom02.wav",70
Sample,65763,0,"R.wav",50
Sample,85477,0,"wou.wav",70
Sample,86848,0,"what.wav",100
Sample,87705,0,"R.wav",50
Sample,89591,0,"Bassdrop.wav",50
Sample,107077,0,"C1.wav",70
Sample,108448,0,"C1.wav",70
Sample,109134,0,"C1.wav",70
Sample,111020,0,"R.wav",50
Sample,143763,0,"S3.wav",50
Sample,144105,0,"S3.wav",70
Sample,166734,0,"push_scratch.wav",50
Sample,167763,0,"wou.wav",70
Sample,169134,0,"what.wav",100
Sample,173248,0,"wou.wav",70
Sample,174620,0,"what.wav",100
Sample,175477,0,"R.wav",50
Sample,197420,0,"R.wav",50
Sample,199305,0,"Bassdrop.wav",50
Sample,210963,0,"F-Kick.wav",70
Sample,217134,0,"wou.wav",70
Sample,218505,0,"what.wav",100
Sample,219363,0,"R.wav",50
Sample,223477,0,"R.wav",50
Sample,229391,0,"S3.wav",50
Sample,229734,0,"S3.wav",50
Sample,240105,0,"C1.wav",70
Sample,240791,0,"C1.wav",70
Sample,241134,0,"C1.wav",70
Sample,241477,0,"C1.wav",70
Sample,241820,0,"C1.wav",70
Sample,242163,0,"F-Kick.wav",70
Sample,242677,0,"R.wav",50
Sample,243534,0,"push_scratch.wav",70

[TimingPoints]
2163,342.857142857143,4,2,1,50,1,0
24791,-333.333333333333,4,2,1,50,0,0
25134,-58.8235294117647,4,2,1,50,0,0
25177,-333.333333333333,4,2,1,50,0,0
25305,-58.8235294117647,4,2,1,50,0,0
25348,-125,4,2,1,50,0,0
25477,-100,4,2,1,50,0,0
26163,-333.333333333333,4,2,1,50,0,0
26334,-83.3333333333333,4,2,1,50,0,0
26377,-125,4,2,1,50,0,0
26420,-333.333333333333,4,2,1,50,0,0
26505,-68.9655172413793,4,2,1,50,0,0
26548,-125,4,2,1,50,0,0
26591,-166.666666666667,4,2,1,50,0,0
26677,-333.333333333333,4,2,1,50,0,0
26720,-222.222222222222,4,2,1,50,0,0
26763,-153.846153846154,4,2,1,50,0,0
26805,-83.3333333333333,4,2,1,50,0,0
26848,-100,4,2,1,50,0,0
27534,-333.333333333333,4,2,1,50,0,0
27877,-90.9090909090909,4,2,1,50,0,0
27920,-333.333333333333,4,2,1,50,0,0
28048,-62.5,4,2,1,50,0,0
28091,-166.666666666667,4,2,1,50,0,0
28220,-100,4,2,1,50,0,0
30277,-333.333333333333,4,2,1,50,0,0
30448,-68.9655172413793,4,2,1,50,0,0
30491,-333.333333333333,4,2,1,50,0,0
30620,-90.9090909090909,4,2,1,50,0,0
30663,-166.666666666667,4,2,1,50,0,0
30791,-333.333333333333,4,2,1,50,0,0
30834,-222.222222222222,4,2,1,50,0,0
30877,-153.846153846154,4,2,1,50,0,0
30920,-83.3333333333333,4,2,1,50,0,0
30963,-100,4,2,1,50,0,0
31648,-333.333333333333,4,2,1,50,0,0
31991,-62.5,4,2,1,50,0,0
32034,-333.333333333333,4,2,1,50,0,0
32077,-83.3333333333333,4,2,1,50,0,0
32120,-333.333333333333,4,2,1,50,0,0
32163,-90.9090909090909,4,2,1,50,0,0
32205,-333.333333333333,4,2,1,50,0,0
32248,-153.846153846154,4,2,1,50,0,0
32291,-90.9090909090909,4,2,1,50,0,0
32334,-100,4,2,1,50,0,0
33020,-333.333333333333,4,2,1,50,0,0
33191,-95.2380952380952,4,2,1,50,0,0
33234,-333.333333333333,4,2,1,50,0,0
33277,-83.3333333333333,4,2,1,50,0,0
33320,-333.333333333333,4,2,1,50,0,0
33363,-68.9655172413793,4,2,1,50,0,0
33405,-333.333333333333,4,2,1,50,0,0
33534,-90.9090909090909,4,2,1,50,0,0
33577,-333.333333333333,4,2,1,50,0,0
33620,-181.818181818182,4,2,1,50,0,0
33663,-111.111111111111,4,2,1,50,0,0
33705,-100,4,2,1,50,0,0
46048,-100,4,2,1,50,0,1
57363,-38.4615384615385,4,2,1,50,0,1
57374,-333.333333333333,4,2,1,50,0,1
57405,-38.4615384615385,4,2,1,50,0,1
57416,-333.333333333333,4,2,1,50,0,1
57448,-38.4615384615385,4,2,1,50,0,1
57459,-333.333333333333,4,2,1,50,0,1
57491,-38.4615384615385,4,2,1,50,0,1
57502,-333.333333333333,4,2,1,50,0,1
57534,-38.4615384615385,4,2,1,50,0,1
57545,-333.333333333333,4,2,1,50,0,1
57577,-38.4615384615385,4,2,1,50,0,1
57588,-333.333333333333,4,2,1,50,0,1
57620,-38.4615384615385,4,2,1,50,0,1
57631,-333.333333333333,4,2,1,50,0,1
57663,-38.4615384615385,4,2,1,50,0,1
57674,-333.333333333333,4,2,1,50,0,1
57705,-100,4,2,1,50,0,1
58734,-38.4615384615385,4,2,1,50,0,1
58745,-333.333333333333,4,2,1,50,0,1
58777,-38.4615384615385,4,2,1,50,0,1
58788,-333.333333333333,4,2,1,50,0,1
58820,-38.4615384615385,4,2,1,50,0,1
58831,-333.333333333333,4,2,1,50,0,1
58863,-38.4615384615385,4,2,1,50,0,1
58874,-333.333333333333,4,2,1,50,0,1
58905,-38.4615384615385,4,2,1,50,0,1
58916,-333.333333333333,4,2,1,50,0,1
58948,-38.4615384615385,4,2,1,50,0,1
58959,-333.333333333333,4,2,1,50,0,1
58991,-38.4615384615385,4,2,1,50,0,1
59002,-333.333333333333,4,2,1,50,0,1
59034,-38.4615384615385,4,2,1,50,0,1
59045,-333.333333333333,4,2,1,50,0,1
59077,-100,4,2,1,50,0,1
60105,-38.4615384615385,4,2,1,50,0,1
60116,-333.333333333333,4,2,1,50,0,1
60148,-38.4615384615385,4,2,1,50,0,1
60159,-333.333333333333,4,2,1,50,0,1
60191,-38.4615384615385,4,2,1,50,0,1
60202,-333.333333333333,4,2,1,50,0,1
60234,-38.4615384615385,4,2,1,50,0,1
60245,-333.333333333333,4,2,1,50,0,1
60277,-38.4615384615385,4,2,1,50,0,1
60288,-333.333333333333,4,2,1,50,0,1
60320,-38.4615384615385,4,2,1,50,0,1
60331,-333.333333333333,4,2,1,50,0,1
60363,-38.4615384615385,4,2,1,50,0,1
60374,-333.333333333333,4,2,1,50,0,1
60405,-38.4615384615385,4,2,1,50,0,1
60416,-333.333333333333,4,2,1,50,0,1
60448,-100,4,2,1,50,0,1
62505,-100,4,2,1,50,0,0
67991,-100,4,2,1,50,0,1
79305,-38.4615384615385,4,2,1,50,0,1
79319,-333.333333333333,4,2,1,50,0,1
79363,-38.4615384615385,4,2,1,50,0,1
79377,-333.333333333333,4,2,1,50,0,1
79420,-38.4615384615385,4,2,1,50,0,1
79434,-333.333333333333,4,2,1,50,0,1
79477,-38.4615384615385,4,2,1,50,0,1
79491,-333.333333333333,4,2,1,50,0,1
79534,-38.4615384615385,4,2,1,50,0,1
79548,-333.333333333333,4,2,1,50,0,1
79591,-38.4615384615385,4,2,1,50,0,1
79605,-333.333333333333,4,2,1,50,0,1
79648,-100,4,2,1,50,0,1
80677,-38.4615384615385,4,2,1,50,0,1
80691,-333.333333333333,4,2,1,50,0,1
80734,-38.4615384615385,4,2,1,50,0,1
80748,-333.333333333333,4,2,1,50,0,1
80791,-38.4615384615385,4,2,1,50,0,1
80805,-333.333333333333,4,2,1,50,0,1
80848,-38.4615384615385,4,2,1,50,0,1
80862,-333.333333333333,4,2,1,50,0,1
80905,-38.4615384615385,4,2,1,50,0,1
80919,-333.333333333333,4,2,1,50,0,1
80963,-38.4615384615385,4,2,1,50,0,1
80977,-333.333333333333,4,2,1,50,0,1
81020,-100,4,2,1,50,0,1
82048,-38.4615384615385,4,2,1,50,0,1
82062,-333.333333333333,4,2,1,50,0,1
82105,-38.4615384615385,4,2,1,50,0,1
82119,-333.333333333333,4,2,1,50,0,1
82163,-38.4615384615385,4,2,1,50,0,1
82177,-333.333333333333,4,2,1,50,0,1
82220,-38.4615384615385,4,2,1,50,0,1
82234,-333.333333333333,4,2,1,50,0,1
82277,-38.4615384615385,4,2,1,50,0,1
82291,-333.333333333333,4,2,1,50,0,1
82334,-38.4615384615385,4,2,1,50,0,1
82348,-333.333333333333,4,2,1,50,0,1
82391,-100,4,2,1,50,0,1
84448,-100,4,2,1,50,0,0
89934,-100,4,2,1,50,0,1
111877,-100,4,2,1,50,0,0
177705,-100,4,2,1,50,0,1
194163,-100,4,2,1,50,0,0
199991,-100,4,2,1,50,0,1
216105,-100,4,2,1,50,0,0
224334,-100,4,2,1,50,0,1
243534,-100,4,2,1,50,0,0

[HitObjects]
64,192,2162,5,0,0:0:0:70:F-Kick.wav
448,192,2162,128,0,2505:0:0:0:0:
192,192,2505,1,0,0:0:0:0:
320,192,2677,128,0,3020:0:0:0:0:
64,192,3020,1,0,0:0:0:0:
192,192,3191,128,0,3363:0:0:0:0:
320,192,3363,128,0,3534:0:0:0:0:
64,192,3534,1,0,0:0:0:50:S3.wav
448,192,3534,128,0,4563:0:0:0:0:
64,192,3877,1,0,0:0:0:50:S3.wav
64,192,4220,1,0,0:0:0:50:S3.wav
192,192,4563,1,0,0:0:0:50:Impact_snare.wav
320,192,4563,1,0,0:0:0:50:push_scratch.wav
64,192,4905,128,0,5248:0:0:0:70:F-Kick.wav
320,192,5248,1,0,0:0:0:0:
192,192,5420,128,0,5763:0:0:0:0:
448,192,5763,1,0,0:0:0:0:
320,192,5934,128,0,6105:0:0:0:0:
192,192,6105,128,0,6277:0:0:0:0:
64,192,6277,128,0,7305:0:0:0:50:S3.wav
448,192,6277,1,0,0:0:0:0:
448,192,6620,1,0,0:0:0:50:S3.wav
448,192,6963,1,0,0:0:0:50:S3.wav
192,192,7305,1,0,0:0:0:50:Impact_snare.wav
320,192,7305,1,0,0:0:0:50:push_scratch.wav
448,192,7477,1,0,0:0:0:0:
320,192,7648,128,0,7991:0:0:0:70:F-Kick.wav
64,192,7991,1,0,0:0:0:0:
448,192,8163,128,0,8505:0:0:0:0:
192,192,8505,1,0,0:0:0:0:
320,192,8677,128,0,8848:0:0:0:0:
64,192,8848,128,0,9020:0:0:0:0:
192,192,9020,128,0,10048:0:0:0:50:S3.wav
448,192,9020,1,0,0:0:0:0:
448,192,9363,1,0,0:0:0:50:S3.wav
448,192,9705,1,0,0:0:0:50:S3.wav
64,192,10048,1,0,0:0:0:50:Impact_snare.wav
320,192,10048,1,0,0:0:0:50:push_scratch.wav
192,192,10391,128,0,10734:0:0:0:70:F-Kick.wav
448,192,10734,1,0,0:0:0:0:
64,192,10905,128,0,11248:0:0:0:0:
320,192,11248,1,0,0:0:0:0:
192,192,11420,128,0,11591:0:0:0:0:
64,192,11591,128,0,11763:0:0:0:0:
320,192,11763,1,0,0:0:0:50:S3.wav
448,192,11763,1,0,0:0:0:0:
64,192,11934,1,0,0:0:0:70:tom01.wav
192,192,12020,1,0,0:0:0:70:tom02.wav
320,192,12105,1,0,0:0:0:70:tom01.wav
448,192,12277,1,0,0:0:0:70:tom02.wav
192,192,12448,1,0,0:0:0:70:tom03.wav
64,192,12620,1,0,0:0:0:70:tom04.wav
320,192,12620,1,0,0:0:0:0:
192,192,12791,1,0,0:0:0:50:push_scratch.wav
448,192,12791,128,0,13134:0:0:0:50:Impact_snare.wav
64,192,13134,128,0,13477:0:0:0:70:F-Kick.wav
192,192,13134,1,0,0:0:0:0:
320,192,13477,1,0,0:0:0:0:
192,192,13648,128,0,13991:0:0:0:0:
448,192,13991,1,0,0:0:0:0:
320,192,14163,128,0,14334:0:0:0:0:
192,192,14334,128,0,14505:0:0:0:0:
64,192,14505,128,0,15534:0:0:0:50:S3.wav
448,192,14505,1,0,0:0:0:0:
448,192,14848,1,0,0:0:0:50:S3.wav
448,192,15191,1,0,0:0:0:50:S3.wav
192,192,15534,1,0,0:0:0:50:Impact_snare.wav
320,192,15534,1,0,0:0:0:50:push_scratch.wav
448,192,15877,128,0,16220:0:0:0:70:F-Kick.wav
192,192,16220,1,0,0:0:0:0:
320,192,16391,128,0,16734:0:0:0:0:
64,192,16734,1,0,0:0:0:0:
192,192,16905,128,0,17077:0:0:0:0:
320,192,17077,128,0,17248:0:0:0:0:
64,192,17248,1,0,0:0:0:50:S3.wav
448,192,17248,128,0,18277:0:0:0:0:
64,192,17591,1,0,0:0:0:50:S3.wav
64,192,17934,1,0,0:0:0:50:S3.wav
192,192,18277,1,0,0:0:0:50:Impact_snare.wav
320,192,18277,1,0,0:0:0:50:push_scratch.wav
64,192,18448,1,0,0:0:0:0:
192,192,18620,128,0,18963:0:0:0:70:F-Kick.wav
448,192,18963,1,0,0:0:0:0:
64,192,19134,128,0,19477:0:0:0:0:
320,192,19477,1,0,0:0:0:0:
192,192,19648,128,0,19820:0:0:0:0:
448,192,19820,128,0,19991:0:0:0:0:
64,192,19991,1,0,0:0:0:50:S3.wav
320,192,19991,128,0,21020:0:0:0:0:
64,192,20334,1,0,0:0:0:50:S3.wav
64,192,20677,1,0,0:0:0:50:S3.wav
192,192,21020,1,0,0:0:0:50:Impact_snare.wav
448,192,21020,1,0,0:0:0:50:push_scratch.wav
320,192,21363,128,0,21705:0:0:0:70:F-Kick.wav
64,192,21705,1,0,0:0:0:0:
448,192,21877,128,0,22220:0:0:0:0:
192,192,22220,1,0,0:0:0:0:
320,192,22391,128,0,22563:0:0:0:0:
448,192,22563,128,0,22734:0:0:0:0:
64,192,22734,1,0,0:0:0:50:S3.wav
192,192,22734,1,0,0:0:0:0:
448,192,22905,1,0,0:0:0:0:
320,192,22991,1,0,0:0:0:0:
192,192,23077,1,0,0:0:0:50:S3.wav
64,192,23248,1,0,0:0:0:50:R.wav
320,192,23420,1,0,0:0:0:50:S3.wav
320,192,23591,1,0,0:0:0:0:
192,192,23763,1,0,0:0:0:50:S3.wav
64,192,23848,1,0,0:0:0:50:S3.wav
320,192,23934,1,0,0:0:0:50:S3.wav
448,192,24020,1,0,0:0:0:50:S3.wav
64,192,24105,1,0,0:0:0:70:K.wav
192,192,24105,1,0,0:0:0:70:C1.wav
192,192,24448,1,0,0:0:0:0:
64,192,24791,1,0,0:0:0:0:
64,192,25477,1,0,0:0:0:70:K.wav
320,192,25477,1,0,0:0:0:70:C1.wav
448,192,25820,1,0,0:0:0:0:
192,192,26163,1,0,0:0:0:70:SC2.wav
192,192,26848,1,0,0:0:0:70:K.wav
320,192,26848,1,0,0:0:0:70:C1.wav
64,192,27191,1,0,0:0:0:0:
448,192,27534,1,0,0:0:0:0:
64,192,28220,1,0,0:0:0:70:K.wav
448,192,28220,1,0,0:0:0:70:C1.wav
192,192,28563,1,0,0:0:0:50:2.wav
320,192,28734,1,0,0:0:0:70:K.wav
448,192,28734,1,0,0:0:0:70:C1.wav
192,192,29077,1,0,0:0:0:0:
64,192,29248,1,0,0:0:0:70:K.wav
320,192,29248,1,0,0:0:0:70:C1.wav
64,192,29591,1,0,0:0:0:70:K.wav
192,192,29591,1,0,0:0:0:70:C1.wav
320,192,29934,1,0,0:0:0:0:
448,192,30277,1,0,0:0:0:0:
192,192,30963,1,0,0:0:0:70:K.wav
448,192,30963,1,0,0:0:0:70:C1.wav
64,192,31305,1,0,0:0:0:0:
320,192,31648,1,0,0:0:0:0:
64,192,32334,1,0,0:0:0:70:K.wav
448,192,32334,1,0,0:0:0:70:C1.wav
320,192,32677,1,0,0:0:0:0:
192,192,33020,1,0,0:0:0:0:
64,192,33705,1,0,0:0:0:70:K.wav
448,192,33705,1,0,0:0:0:70:C1.wav
320,192,34048,1,0,0:0:0:0:
192,192,34220,1,0,0:0:0:70:K.wav
448,192,34220,1,0,0:0:0:70:C1.wav
64,192,34391,1,0,0:0:0:0:
192,192,34477,1,0,0:0:0:0:
320,192,34563,1,0,0:0:0:0:
448,192,34648,1,0,0:0:0:0:
64,192,34734,1,0,0:0:0:70:K.wav
192,192,34734,1,0,0:0:0:70:C1.wav
320,192,35077,1,0,0:0:0:70:K.wav
448,192,35077,1,0,0:0:0:70:C.wav
320,192,35334,1,0,0:0:0:70:K.wav
448,192,35334,1,0,0:0:0:0:
192,192,35591,1,0,0:0:0:70:K.wav
320,192,35591,1,0,0:0:0:0:
64,192,35763,1,0,0:0:0:70:K.wav
192,192,35763,1,0,0:0:0:0:
64,192,36020,1,0,0:0:0:70:K.wav
192,192,36020,1,0,0:0:0:0:
64,192,36277,1,0,0:0:0:70:K.wav
448,192,36277,1,0,0:0:0:0:
192,192,36448,1,0,0:0:0:70:K.wav
448,192,36448,1,0,0:0:0:0:
192,192,36705,1,0,0:0:0:70:K.wav
448,192,36705,1,0,0:0:0:0:
192,192,36963,1,0,0:0:0:70:K.wav
320,192,36963,1,0,0:0:0:0:
64,192,37134,1,0,0:0:0:70:K.wav
320,192,37134,1,0,0:0:0:0:
64,192,37391,1,0,0:0:0:70:K.wav
320,192,37391,1,0,0:0:0:0:
64,192,37648,1,0,0:0:0:70:K.wav
448,192,37648,1,0,0:0:0:0:
192,192,37734,1,0,0:0:0:70:K.wav
320,192,37820,1,0,0:0:0:70:K.wav
448,192,37820,1,0,0:0:0:0:
320,192,38077,1,0,0:0:0:70:K.wav
448,192,38077,1,0,0:0:0:0:
192,192,38334,1,0,0:0:0:70:K.wav
320,192,38334,1,0,0:0:0:0:
192,192,38505,1,0,0:0:0:70:K.wav
448,192,38505,1,0,0:0:0:0:
192,192,38763,1,0,0:0:0:70:K.wav
448,192,38763,1,0,0:0:0:0:
64,192,39020,1,0,0:0:0:70:K.wav
448,192,39020,1,0,0:0:0:0:
64,192,39191,1,0,0:0:0:70:K.wav
320,192,39191,1,0,0:0:0:50:1.wav
64,192,39448,1,0,0:0:0:70:K.wav
320,192,39448,1,0,0:0:0:0:
192,192,39705,1,0,0:0:0:70:K.wav
320,192,39705,1,0,0:0:0:0:
192,192,39877,1,0,0:0:0:70:K.wav
448,192,39877,1,0,0:0:0:50:3.wav
192,192,40134,1,0,0:0:0:70:K.wav
448,192,40134,1,0,0:0:0:0:
64,192,40391,1,0,0:0:0:70:K.wav
448,192,40391,1,0,0:0:0:0:
320,192,40477,1,0,0:0:0:70:K.wav
64,192,40563,1,0,0:0:0:70:K.wav
192,192,40563,1,0,0:0:0:70:F-Kick.wav
448,192,40648,1,0,0:0:0:70:K.wav
320,192,40734,1,0,0:0:0:70:K.wav
192,192,40820,1,0,0:0:0:70:K.wav
448,192,40905,1,0,0:0:0:70:K.wav
64,192,40991,1,0,0:0:0:70:K.wav
192,192,41077,1,0,0:0:0:70:K.wav
448,192,41163,1,0,0:0:0:70:K.wav
192,192,41248,1,0,0:0:0:70:K.wav
320,192,41334,1,0,0:0:0:70:K.wav
64,192,41420,1,0,0:0:0:70:K.wav
192,192,41505,1,0,0:0:0:70:K.wav
320,192,41591,1,0,0:0:0:70:K.wav
448,192,41677,1,0,0:0:0:70:K.wav
192,192,41763,1,0,0:0:0:70:K.wav
64,192,41848,1,0,0:0:0:70:K.wav
448,192,41934,1,0,0:0:0:70:K.wav
320,192,42020,1,0,0:0:0:70:K.wav
192,192,42105,1,0,0:0:0:70:K.wav
448,192,42191,1,0,0:0:0:70:K.wav
320,192,42277,1,0,0:0:0:70:K.wav
64,192,42363,1,0,0:0:0:70:K.wav
192,192,42448,1,0,0:0:0:70:K.wav
320,192,42534,1,0,0:0:0:70:K.wav
448,192,42620,1,0,0:0:0:70:K.wav
192,192,42705,1,0,0:0:0:70:K.wav
64,192,42791,1,0,0:0:0:70:K.wav
448,192,42877,1,0,0:0:0:70:K.wav
320,192,42963,1,0,0:0:0:70:K.wav
192,192,43048,1,0,0:0:0:70:K.wav
448,192,43134,1,0,0:0:0:70:K.wav
320,192,43220,1,0,0:0:0:70:K.wav
64,192,43305,128,0,43391:0:0:0:70:K.wav
192,192,43391,128,0,43477:0:0:0:70:K.wav
448,192,43477,128,0,43563:0:0:0:70:K.wav
320,192,43563,128,0,43648:0:0:0:70:K.wav
192,192,43648,128,0,43734:0:0:0:70:K.wav
64,192,43734,128,0,43820:0:0:0:70:K.wav
320,192,43820,128,0,43905:0:0:0:70:K.wav
448,192,43905,128,0,43991:0:0:0:70:K.wav
64,192,43991,128,0,44077:0:0:0:70:K.wav
192,192,44077,128,0,44163:0:0:0:70:K.wav
320,192,44163,128,0,44248:0:0:0:70:K.wav
448,192,44248,128,0,44334:0:0:0:70:K.wav
192,192,44334,128,0,44420:0:0:0:70:K.wav
64,192,44420,128,0,44505:0:0:0:70:K.wav
448,192,44505,128,0,44591:0:0:0:70:K.wav
320,192,44591,128,0,44677:0:0:0:70:K.wav
64,192,44677,1,0,0:0:0:70:K.wav
192,192,44677,128,0,45020:0:0:0:50:1.wav
320,192,45020,128,0,45191:0:0:0:50:2.wav
64,192,45191,1,0,0:0:0:0:
320,192,45277,1,0,0:0:0:0:
64,192,45363,128,0,45705:0:0:0:0:
448,192,45705,128,0,46048:0:0:0:50:S4.wav
64,192,46048,128,0,46391:0:0:0:70:K1.wav
192,192,46048,1,0,0:0:0:70:F-Kick.wav
320,192,46048,1,0,0:0:0:0:
192,192,46391,1,0,0:0:0:70:K1.wav
448,192,46391,1,0,0:0:0:0:
320,192,46477,1,0,0:0:0:0:
192,192,46563,128,0,46734:0:0:0:0:
320,192,46734,1,0,0:0:0:70:K1.wav
448,192,46734,1,0,0:0:0:0:
64,192,46820,1,0,0:0:0:0:
448,192,46905,128,0,47077:0:0:0:0:
64,192,47077,1,0,0:0:0:70:K1.wav
320,192,47077,1,0,0:0:0:0:
192,192,47163,1,0,0:0:0:0:
320,192,47248,128,0,47420:0:0:0:0:
64,192,47420,1,0,0:0:0:70:K1.wav
192,192,47420,128,0,47591:0:0:0:0:
448,192,47591,128,0,47763:0:0:0:0:
64,192,47763,1,0,0:0:0:70:K1.wav
320,192,47763,1,0,0:0:0:0:
192,192,47934,1,0,0:0:0:0:
64,192,48020,1,0,0:0:0:0:
320,192,48105,1,0,0:0:0:70:K1.wav
448,192,48105,1,0,0:0:0:0:
192,192,48191,1,0,0:0:0:0:
64,192,48277,1,0,0:0:0:0:
320,192,48363,1,0,0:0:0:0:
64,192,48448,1,0,0:0:0:70:K1.wav
448,192,48448,1,0,0:0:0:0:
192,192,48534,1,0,0:0:0:0:
320,192,48620,1,0,0:0:0:0:
448,192,48705,1,0,0:0:0:0:
64,192,48791,128,0,49134:0:0:0:70:K1.wav
192,192,48791,1,0,0:0:0:0:
320,192,49134,1,0,0:0:0:70:K1.wav
448,192,49134,1,0,0:0:0:0:
192,192,49220,1,0,0:0:0:0:
64,192,49305,1,0,0:0:0:0:
320,192,49391,1,0,0:0:0:0:
64,192,49477,1,0,0:0:0:70:K1.wav
448,192,49477,1,0,0:0:0:0:
192,192,49563,1,0,0:0:0:0:
448,192,49648,1,0,0:0:0:0:
320,192,49734,1,0,0:0:0:0:
64,192,49820,1,0,0:0:0:70:K1.wav
192,192,49820,1,0,0:0:0:0:
448,192,49905,1,0,0:0:0:0:
192,192,49991,1,0,0:0:0:0:
320,192,50077,1,0,0:0:0:0:
64,192,50163,128,0,50334:0:0:0:70:K1.wav
448,192,50163,1,0,0:0:0:0:
320,192,50334,128,0,50505:0:0:0:0:
64,192,50505,1,0,0:0:0:70:K1.wav
448,192,50505,1,0,0:0:0:0:
192,192,50591,1,0,0:0:0:0:
448,192,50677,1,0,0:0:0:0:
320,192,50763,1,0,0:0:0:0:
64,192,50848,1,0,0:0:0:70:K1.wav
192,192,50848,1,0,0:0:0:0:
448,192,50934,1,0,0:0:0:0:
320,192,51020,1,0,0:0:0:50:S3.wav
64,192,51105,1,0,0:0:0:50:S3.wav
192,192,51191,1,0,0:0:0:70:K1.wav
448,192,51191,1,0,0:0:0:0:
320,192,51277,1,0,0:0:0:0:
64,192,51363,1,0,0:0:0:50:S3.wav
192,192,51448,1,0,0:0:0:50:S3.wav
320,192,51534,1,0,0:0:0:70:K.wav
448,192,51534,1,0,0:0:0:70:F-Kick.wav
192,192,51705,128,0,51877:0:0:0:0:
64,192,51877,1,0,0:0:0:70:S2.wav
448,192,51877,1,0,0:0:0:0:
320,192,52048,1,0,0:0:0:0:
192,192,52220,1,0,0:0:0:70:K.wav
320,192,52220,128,0,52391:0:0:0:0:
320,192,52563,1,0,0:0:0:70:S2.wav
448,192,52563,128,0,52734:0:0:0:0:
192,192,52734,128,0,52905:0:0:0:0:
64,192,52905,1,0,0:0:0:70:K.wav
448,192,52905,1,0,0:0:0:0:
320,192,53077,128,0,53248:0:0:0:0:
64,192,53248,1,0,0:0:0:70:S2.wav
192,192,53248,1,0,0:0:0:0:
192,192,53420,128,0,53763:0:0:0:0:
64,192,53591,1,0,0:0:0:70:K.wav
448,192,53591,1,0,0:0:0:0:
320,192,53763,128,0,53934:0:0:0:0:
64,192,53934,128,0,54105:0:0:0:70:S2.wav
192,192,53934,1,0,0:0:0:0:
448,192,54105,128,0,54277:0:0:0:0:
64,192,54277,1,0,0:0:0:70:K.wav
192,192,54277,1,0,0:0:0:0:
320,192,54448,128,0,54620:0:0:0:0:
64,192,54620,1,0,0:0:0:70:S2.wav
448,192,54620,1,0,0:0:0:0:
192,192,54791,1,0,0:0:0:0:
192,192,54963,128,0,55134:0:0:0:70:K.wav
320,192,54963,1,0,0:0:0:0:
64,192,55305,128,0,55477:0:0:0:70:S2.wav
192,192,55305,1,0,0:0:0:0:
320,192,55477,128,0,55648:0:0:0:0:
64,192,55648,1,0,0:0:0:70:K.wav
448,192,55648,1,0,0:0:0:50:1.wav
192,192,55820,128,0,55991:0:0:0:0:
448,192,55991,128,0,56163:0:0:0:70:S2.wav
320,192,56163,128,0,56334:0:0:0:0:
64,192,56334,128,0,56677:0:0:0:70:K.wav
448,192,56505,1,0,0:0:0:0:
320,192,56591,1,0,0:0:0:0:
192,192,56677,128,0,57020:0:0:0:50:Bassdrop.wav
448,192,56677,1,0,0:0:0:50:S4.wav
64,192,57020,1,0,0:0:0:70:K.wav
448,192,57020,128,0,57363:0:0:0:70:C1.wav
64,192,57363,128,0,57448:0:0:0:0:
192,192,57448,128,0,57534:0:0:0:0:
320,192,57534,128,0,57620:0:0:0:0:
448,192,57620,128,0,57705:0:0:0:0:
64,192,57705,128,0,58048:0:0:0:70:S2.wav
192,192,57705,1,0,0:0:0:0:
320,192,57877,128,0,58048:0:0:0:0:
448,192,58048,1,0,0:0:0:0:
448,192,58220,1,0,0:0:0:0:
64,192,58391,128,0,58734:0:0:0:70:K.wav
320,192,58391,1,0,0:0:0:0:
448,192,58734,128,0,58820:0:0:0:0:
320,192,58820,128,0,58905:0:0:0:0:
192,192,58905,128,0,58991:0:0:0:0:
64,192,58991,128,0,59077:0:0:0:0:
320,192,59077,1,0,0:0:0:70:S2.wav
448,192,59077,1,0,0:0:0:0:
192,192,59248,1,0,0:0:0:0:
320,192,59334,1,0,0:0:0:0:
64,192,59420,1,0,0:0:0:0:
448,192,59505,1,0,0:0:0:0:
320,192,59591,1,0,0:0:0:0:
192,192,59677,1,0,0:0:0:0:
64,192,59763,1,0,0:0:0:70:K.wav
448,192,59763,128,0,60105:0:0:0:0:
64,192,60105,128,0,60191:0:0:0:0:
192,192,60191,128,0,60277:0:0:0:0:
448,192,60277,128,0,60363:0:0:0:0:
320,192,60363,128,0,60448:0:0:0:0:
64,192,60448,128,0,60791:0:0:0:70:S2.wav
192,192,60448,1,0,0:0:0:0:
320,192,60620,128,0,60791:0:0:0:0:
448,192,60791,128,0,61134:0:0:0:0:
64,192,61134,1,0,0:0:0:70:K.wav
320,192,61134,1,0,0:0:0:0:
192,192,61305,1,0,0:0:0:70:tom01.wav
448,192,61477,1,0,0:0:0:70:tom01.wav
320,192,61563,1,0,0:0:0:0:
192,192,61648,1,0,0:0:0:70:tom01.wav
64,192,61734,1,0,0:0:0:0:
320,192,61820,1,0,0:0:0:70:S2.wav
448,192,61820,1,0,0:0:0:70:tom02.wav
192,192,61905,1,0,0:0:0:0:
448,192,61991,1,0,0:0:0:70:tom03.wav
320,192,62077,1,0,0:0:0:0:
64,192,62163,1,0,0:0:0:70:tom04.wav
192,192,62248,1,0,0:0:0:0:
320,192,62334,1,0,0:0:0:0:
448,192,62420,1,0,0:0:0:0:
64,192,62505,1,0,0:0:0:70:K.wav
192,192,62505,1,0,0:0:0:70:F-Kick.wav
320,192,62677,1,0,0:0:0:0:
192,192,62763,1,0,0:0:0:0:
64,192,62848,1,0,0:0:0:70:K.wav
448,192,62848,1,0,0:0:0:0:
320,192,63020,1,0,0:0:0:0:
448,192,63105,1,0,0:0:0:0:
64,192,63191,1,0,0:0:0:70:K.wav
192,192,63191,1,0,0:0:0:0:
320,192,63363,1,0,0:0:0:0:
64,192,63448,1,0,0:0:0:0:
192,192,63534,1,0,0:0:0:70:K.wav
448,192,63534,128,0,63877:0:0:0:70:wou.wav
64,192,63877,1,0,0:0:0:70:K.wav
192,192,63877,1,0,0:0:0:0:
320,192,64048,1,0,0:0:0:0:
192,192,64134,1,0,0:0:0:0:
64,192,64220,1,0,0:0:0:70:K.wav
448,192,64220,1,0,0:0:0:0:
320,192,64391,1,0,0:0:0:0:
448,192,64477,1,0,0:0:0:0:
64,192,64563,1,0,0:0:0:70:K.wav
192,192,64563,1,0,0:0:0:0:
320,192,64734,1,0,0:0:0:0:
64,192,64820,1,0,0:0:0:0:
192,192,64905,1,0,0:0:0:70:K.wav
448,192,64905,128,0,65077:0:0:0:100:what.wav
64,192,65077,128,0,65248:0:0:0:70:K.wav
320,192,65248,1,0,0:0:0:70:K.wav
448,192,65334,1,0,0:0:0:70:K.wav
192,192,65420,1,0,0:0:0:70:K.wav
320,192,65505,1,0,0:0:0:70:K.wav
64,192,65591,1,0,0:0:0:70:K.wav
448,192,65677,1,0,0:0:0:70:K.wav
320,192,65763,1,0,0:0:0:70:K.wav
192,192,65848,1,0,0:0:0:70:K.wav
64,192,65934,1,0,0:0:0:70:K.wav
320,192,66020,1,0,0:0:0:70:K.wav
448,192,66105,1,0,0:0:0:70:K.wav
64,192,66191,1,0,0:0:0:70:K.wav
320,192,66277,1,0,0:0:0:70:K.wav
192,192,66363,1,0,0:0:0:70:K.wav
64,192,66448,1,0,0:0:0:70:K.wav
448,192,66534,1,0,0:0:0:70:K.wav
64,192,66620,1,0,0:0:0:70:K.wav
320,192,66620,128,0,66963:0:0:0:50:1.wav
192,192,66963,128,0,67134:0:0:0:50:2.wav
448,192,67134,1,0,0:0:0:0:
192,192,67220,1,0,0:0:0:0:
448,192,67305,128,0,67648:0:0:0:50:3.wav
64,192,67648,128,0,67991:0:0:0:50:Bassdrop.wav
192,192,67991,128,0,68334:0:0:0:70:C1.wav
64,192,68334,1,0,0:0:0:70:K1.wav
448,192,68334,1,0,0:0:0:70:C.wav
320,192,68448,1,0,0:0:0:0:
192,192,68563,1,0,0:0:0:0:
320,192,68677,1,0,0:0:0:70:K1.wav
448,192,68677,1,0,0:0:0:0:
64,192,68791,1,0,0:0:0:0:
192,192,68905,1,0,0:0:0:0:
64,192,69020,1,0,0:0:0:70:K1.wav
448,192,69020,1,0,0:0:0:0:
320,192,69134,1,0,0:0:0:0:
192,192,69248,1,0,0:0:0:0:
320,192,69363,1,0,0:0:0:70:K1.wav
448,192,69363,128,0,69705:0:0:0:0:
64,192,69705,1,0,0:0:0:70:K1.wav
192,192,69705,1,0,0:0:0:70:C1.wav
448,192,69820,1,0,0:0:0:0:
320,192,69934,1,0,0:0:0:0:
64,192,70048,1,0,0:0:0:70:K1.wav
192,192,70048,1,0,0:0:0:0:
320,192,70163,1,0,0:0:0:0:
192,192,70277,1,0,0:0:0:0:
320,192,70391,1,0,0:0:0:70:K1.wav
448,192,70391,1,0,0:0:0:0:
192,192,70505,1,0,0:0:0:0:
64,192,70620,1,0,0:0:0:0:
192,192,70734,1,0,0:0:0:70:K1.wav
448,192,70734,128,0,71077:0:0:0:0:
64,192,71077,1,0,0:0:0:70:K1.wav
192,192,71077,1,0,0:0:0:70:C1.wav
320,192,71191,1,0,0:0:0:0:
448,192,71305,1,0,0:0:0:0:
64,192,71420,1,0,0:0:0:70:K1.wav
320,192,71420,1,0,0:0:0:0:
192,192,71534,1,0,0:0:0:0:
320,192,71648,1,0,0:0:0:0:
192,192,71763,1,0,0:0:0:70:K1.wav
448,192,71763,1,0,0:0:0:0:
64,192,71877,1,0,0:0:0:0:
192,192,71991,1,0,0:0:0:0:
320,192,72105,1,0,0:0:0:70:K1.wav
448,192,72105,1,0,0:0:0:70:C1.wav
64,192,72220,1,0,0:0:0:0:
192,192,72334,1,0,0:0:0:0:
320,192,72448,1,0,0:0:0:70:K1.wav
448,192,72448,1,0,0:0:0:0:
192,192,72563,1,0,0:0:0:0:
320,192,72677,1,0,0:0:0:0:
64,192,72791,1,0,0:0:0:70:K1.wav
192,192,72791,1,0,0:0:0:0:
320,192,72905,1,0,0:0:0:0:
448,192,73020,1,0,0:0:0:0:
192,192,73134,1,0,0:0:0:70:K1.wav
320,192,73134,1,0,0:0:0:0:
64,192,73248,1,0,0:0:0:0:
448,192,73363,1,0,0:0:0:0:
192,192,73477,1,0,0:0:0:70:K.wav
320,192,73477,1,0,0:0:0:70:F-Kick.wav
448,192,73705,128,0,73820:0:0:0:0:
64,192,73820,1,0,0:0:0:70:S2.wav
192,192,73820,1,0,0:0:0:0:
320,192,73934,1,0,0:0:0:0:
64,192,74048,1,0,0:0:0:0:
320,192,74163,128,0,74277:0:0:0:70:K.wav
192,192,74277,1,0,0:0:0:0:
448,192,74391,1,0,0:0:0:0:
64,192,74505,128,0,74734:0:0:0:70:S2.wav
320,192,74505,1,0,0:0:0:0:
448,192,74734,128,0,74848:0:0:0:0:
64,192,74848,1,0,0:0:0:70:K.wav
192,192,74848,1,0,0:0:0:0:
320,192,75077,128,0,75191:0:0:0:0:
64,192,75191,1,0,0:0:0:70:S2.wav
448,192,75191,1,0,0:0:0:0:
192,192,75305,1,0,0:0:0:0:
448,192,75420,128,0,75648:0:0:0:0:
192,192,75534,1,0,0:0:0:70:K.wav
64,192,75648,1,0,0:0:0:0:
320,192,75763,128,0,75877:0:0:0:0:
192,192,75877,128,0,76105:0:0:0:70:S2.wav
448,192,75877,1,0,0:0:0:0:
448,192,76105,128,0,76220:0:0:0:0:
64,192,76220,1,0,0:0:0:70:K.wav
320,192,76220,1,0,0:0:0:0:
192,192,76448,128,0,76563:0:0:0:0:
320,192,76563,1,0,0:0:0:70:S2.wav
448,192,76563,1,0,0:0:0:0:
64,192,76677,1,0,0:0:0:0:
320,192,76791,1,0,0:0:0:0:
64,192,76905,128,0,77020:0:0:0:70:K.wav
192,192,76905,1,0,0:0:0:0:
448,192,77020,1,0,0:0:0:0:
320,192,77134,1,0,0:0:0:0:
64,192,77248,1,0,0:0:0:70:S2.wav
448,192,77248,128,0,77477:0:0:0:0:
192,192,77477,128,0,77591:0:0:0:0:
320,192,77591,128,0,77820:0:0:0:70:K.wav
448,192,77591,1,0,0:0:0:50:1.wav
64,192,77820,1,0,0:0:0:0:
192,192,77934,128,0,78163:0:0:0:70:S2.wav
448,192,77934,1,0,0:0:0:50:2.wav
320,192,78163,1,0,0:0:0:0:
64,192,78277,128,0,78505:0:0:0:70:K.wav
448,192,78277,1,0,0:0:0:50:3.wav
192,192,78505,1,0,0:0:0:0:
320,192,78620,1,0,0:0:0:50:S4.wav
448,192,78620,128,0,78963:0:0:0:50:Bassdrop.wav
64,192,78963,128,0,79305:0:0:0:70:K.wav
192,192,78963,1,0,0:0:0:70:C1.wav
448,192,79305,128,0,79420:0:0:0:0:
320,192,79420,128,0,79534:0:0:0:0:
192,192,79534,128,0,79648:0:0:0:0:
64,192,79648,1,0,0:0:0:70:S2.wav
448,192,79648,128,0,79991:0:0:0:0:
192,192,79991,1,0,0:0:0:0:
192,192,80220,1,0,0:0:0:0:
64,192,80334,128,0,80677:0:0:0:70:K.wav
448,192,80334,1,0,0:0:0:0:
320,192,80677,128,0,80791:0:0:0:0:
448,192,80791,128,0,80905:0:0:0:0:
192,192,80905,128,0,81020:0:0:0:0:
64,192,81020,1,0,0:0:0:70:S2.wav
320,192,81020,1,0,0:0:0:0:
192,192,81248,1,0,0:0:0:0:
448,192,81363,1,0,0:0:0:0:
320,192,81477,1,0,0:0:0:0:
192,192,81591,1,0,0:0:0:0:
64,192,81705,1,0,0:0:0:70:K.wav
448,192,81705,128,0,82048:0:0:0:0:
64,192,82048,128,0,82163:0:0:0:0:
192,192,82163,128,0,82277:0:0:0:0:
320,192,82277,128,0,82391:0:0:0:0:
64,192,82391,128,0,82734:0:0:0:70:S2.wav
448,192,82391,1,0,0:0:0:0:
448,192,82734,128,0,83077:0:0:0:0:
64,192,83077,1,0,0:0:0:70:K.wav
192,192,83077,1,0,0:0:0:0:
320,192,83305,1,0,0:0:0:70:tom01.wav
192,192,83420,1,0,0:0:0:70:tom01.wav
64,192,83534,1,0,0:0:0:70:tom02.wav
448,192,83648,1,0,0:0:0:70:tom02.wav
64,192,83763,1,0,0:0:0:70:S2.wav
320,192,83763,1,0,0:0:0:70:tom03.wav
192,192,83991,1,0,0:0:0:70:tom04.wav
448,192,84220,1,0,0:0:0:70:tom04.wav
64,192,84448,1,0,0:0:0:70:K.wav
192,192,84448,1,0,0:0:0:70:F-Kick.wav
64,192,84705,1,0,0:0:0:70:K.wav
448,192,84705,1,0,0:0:0:0:
192,192,84963,1,0,0:0:0:70:K.wav
448,192,84963,1,0,0:0:0:0:
64,192,85134,1,0,0:0:0:70:K.wav
320,192,85134,1,0,0:0:0:0:
320,192,85391,1,0,0:0:0:70:K.wav
448,192,85391,1,0,0:0:0:0:
64,192,85648,1,0,0:0:0:70:K.wav
448,192,85648,1,0,0:0:0:0:
192,192,85820,1,0,0:0:0:70:K.wav
320,192,85820,1,0,0:0:0:0:
64,192,86077,1,0,0:0:0:70:K.wav
320,192,86077,1,0,0:0:0:0:
64,192,86334,1,0,0:0:0:70:K.wav
192,192,86334,1,0,0:0:0:0:
320,192,86505,1,0,0:0:0:70:K.wav
448,192,86505,1,0,0:0:0:0:
192,192,86763,1,0,0:0:0:70:K.wav
448,192,86763,1,0,0:0:0:0:
64,192,87020,1,0,0:0:0:70:K.wav
192,192,87020,1,0,0:0:0:0:
320,192,87105,1,0,0:0:0:70:K.wav
448,192,87191,1,0,0:0:0:70:K.wav
192,192,87277,1,0,0:0:0:70:K.wav
320,192,87363,1,0,0:0:0:70:K.wav
448,192,87448,1,0,0:0:0:70:K.wav
64,192,87534,1,0,0:0:0:70:K.wav
192,192,87620,1,0,0:0:0:70:K.wav
320,192,87705,1,0,0:0:0:70:K.wav
64,192,87791,1,0,0:0:0:70:K.wav
448,192,87877,128,0,87963:0:0:0:70:K.wav
320,192,87963,128,0,88048:0:0:0:70:K.wav
192,192,88048,128,0,88134:0:0:0:70:K.wav
64,192,88134,128,0,88220:0:0:0:70:K.wav
320,192,88220,128,0,88305:0:0:0:70:K.wav
192,192,88305,128,0,88391:0:0:0:70:K.wav
448,192,88391,128,0,88477:0:0:0:70:K.wav
320,192,88477,128,0,88563:0:0:0:70:K.wav
64,192,88563,128,0,88905:0:0:0:70:K.wav
192,192,88563,1,0,0:0:0:50:1.wav
448,192,88905,128,0,89077:0:0:0:50:2.wav
192,192,89077,1,0,0:0:0:0:
448,192,89163,1,0,0:0:0:0:
192,192,89248,128,0,89591:0:0:0:50:3.wav
320,192,89591,128,0,89934:0:0:0:50:S4.wav
64,192,89934,128,0,90277:0:0:0:70:K.wav
192,192,89934,1,0,0:0:0:70:F-Kick.wav
448,192,89934,1,0,0:0:0:0:
320,192,90105,1,0,0:0:0:0:
192,192,90277,1,0,0:0:0:70:S.wav
448,192,90277,128,0,90448:0:0:0:0:
192,192,90448,128,0,90791:0:0:0:0:
64,192,90620,1,0,0:0:0:70:K.wav
448,192,90620,1,0,0:0:0:0:
320,192,90791,128,0,90963:0:0:0:0:
64,192,90963,128,0,91134:0:0:0:70:S.wav
448,192,90963,1,0,0:0:0:0:
192,192,91134,128,0,91305:0:0:0:0:
320,192,91305,1,0,0:0:0:70:K.wav
448,192,91305,128,0,92334:0:0:0:0:
192,192,91477,1,0,0:0:0:0:
64,192,91648,1,0,0:0:0:70:S.wav
320,192,91648,1,0,0:0:0:0:
192,192,91820,1,0,0:0:0:0:
320,192,91991,1,0,0:0:0:70:K.wav
64,192,92163,1,0,0:0:0:0:
192,192,92334,1,0,0:0:0:70:S.wav
320,192,92334,1,0,0:0:0:0:
64,192,92505,1,0,0:0:0:0:
320,192,92677,1,0,0:0:0:70:K.wav
448,192,92677,128,0,93020:0:0:0:0:
192,192,92848,1,0,0:0:0:0:
64,192,93020,128,0,93191:0:0:0:70:S.wav
320,192,93020,1,0,0:0:0:0:
320,192,93191,128,0,93534:0:0:0:0:
64,192,93363,1,0,0:0:0:70:K.wav
448,192,93363,1,0,0:0:0:0:
192,192,93534,128,0,93705:0:0:0:0:
64,192,93705,1,0,0:0:0:70:S.wav
448,192,93705,128,0,93877:0:0:0:0:
320,192,93877,128,0,94048:0:0:0:0:
64,192,94048,128,0,95077:0:0:0:70:K.wav
192,192,94048,1,0,0:0:0:0:
320,192,94220,1,0,0:0:0:0:
192,192,94391,1,0,0:0:0:70:S.wav
448,192,94391,1,0,0:0:0:0:
320,192,94563,1,0,0:0:0:0:
192,192,94734,1,0,0:0:0:70:K.wav
448,192,94905,1,0,0:0:0:0:
192,192,95077,1,0,0:0:0:70:S.wav
320,192,95077,1,0,0:0:0:0:
448,192,95248,1,0,0:0:0:0:
64,192,95420,1,0,0:0:0:70:K.wav
192,192,95420,128,0,95763:0:0:0:0:
320,192,95591,1,0,0:0:0:0:
64,192,95763,1,0,0:0:0:70:S.wav
448,192,95763,128,0,95934:0:0:0:0:
64,192,95934,128,0,96277:0:0:0:0:
192,192,96105,1,0,0:0:0:70:K.wav
448,192,96105,1,0,0:0:0:0:
320,192,96277,128,0,96448:0:0:0:0:
192,192,96448,128,0,96620:0:0:0:70:S.wav
448,192,96448,1,0,0:0:0:0:
64,192,96620,128,0,96791:0:0:0:0:
320,192,96791,128,0,97820:0:0:0:70:K.wav
448,192,96791,1,0,0:0:0:0:
64,192,96963,1,0,0:0:0:0:
192,192,97134,1,0,0:0:0:70:S.wav
448,192,97134,1,0,0:0:0:0:
64,192,97305,1,0,0:0:0:0:
448,192,97477,1,0,0:0:0:70:K.wav
192,192,97648,1,0,0:0:0:0:
64,192,97820,1,0,0:0:0:70:S.wav
448,192,97820,1,0,0:0:0:0:
192,192,97991,1,0,0:0:0:0:
320,192,98163,128,0,98505:0:0:0:70:K.wav
448,192,98163,1,0,0:0:0:0:
192,192,98334,1,0,0:0:0:0:
64,192,98505,128,0,98677:0:0:0:70:S.wav
448,192,98505,1,0,0:0:0:0:
448,192,98677,128,0,99020:0:0:0:0:
64,192,98848,1,0,0:0:0:70:K.wav
320,192,98848,1,0,0:0:0:0:
192,192,99020,128,0,99191:0:0:0:0:
64,192,99191,1,0,0:0:0:70:S.wav
320,192,99191,128,0,99363:0:0:0:0:
448,192,99363,128,0,99534:0:0:0:0:
64,192,99534,1,0,0:0:0:70:K.wav
192,192,99534,1,0,0:0:0:0:
448,192,99705,1,0,0:0:0:0:
192,192,99877,1,0,0:0:0:70:S.wav
320,192,99877,1,0,0:0:0:0:
64,192,100048,1,0,0:0:0:70:K.wav
448,192,100048,1,0,0:0:0:0:
320,192,100220,1,0,0:0:0:0:
64,192,100391,1,0,0:0:0:70:K.wav
192,192,100391,1,0,0:0:0:0:
320,192,100563,1,0,0:0:0:70:K.wav
448,192,100563,1,0,0:0:0:0:
64,192,100734,1,0,0:0:0:70:K.wav
192,192,100820,1,0,0:0:0:70:K.wav
320,192,100905,1,0,0:0:0:70:K.wav
448,192,100905,128,0,101248:0:0:0:70:F-Kick.wav
192,192,101077,1,0,0:0:0:0:
64,192,101248,128,0,101420:0:0:0:70:S.wav
320,192,101248,1,0,0:0:0:0:
320,192,101420,128,0,101763:0:0:0:0:
64,192,101591,1,0,0:0:0:70:K.wav
448,192,101591,1,0,0:0:0:0:
192,192,101763,128,0,101934:0:0:0:0:
64,192,101934,1,0,0:0:0:70:S.wav
448,192,101934,128,0,102105:0:0:0:0:
320,192,102105,128,0,102277:0:0:0:0:
64,192,102277,128,0,103305:0:0:0:70:K.wav
192,192,102277,1,0,0:0:0:0:
320,192,102448,1,0,0:0:0:0:
192,192,102620,1,0,0:0:0:70:S.wav
448,192,102620,1,0,0:0:0:0:
320,192,102791,1,0,0:0:0:0:
192,192,102963,1,0,0:0:0:70:K.wav
448,192,103134,1,0,0:0:0:0:
192,192,103305,1,0,0:0:0:70:S.wav
320,192,103305,1,0,0:0:0:0:
448,192,103477,1,0,0:0:0:0:
64,192,103648,128,0,103991:0:0:0:70:K.wav
192,192,103648,1,0,0:0:0:0:
320,192,103820,1,0,0:0:0:0:
192,192,103991,1,0,0:0:0:70:S.wav
448,192,103991,128,0,104163:0:0:0:0:
192,192,104163,128,0,104505:0:0:0:0:
64,192,104334,1,0,0:0:0:70:K.wav
448,192,104334,1,0,0:0:0:0:
320,192,104505,128,0,104677:0:0:0:0:
64,192,104677,128,0,104848:0:0:0:70:S.wav
448,192,104677,1,0,0:0:0:0:
192,192,104848,128,0,105020:0:0:0:0:
320,192,105020,1,0,0:0:0:70:K.wav
448,192,105020,128,0,105705:0:0:0:0:
192,192,105191,1,0,0:0:0:0:
64,192,105363,1,0,0:0:0:70:S.wav
320,192,105363,1,0,0:0:0:0:
192,192,105534,1,0,0:0:0:0:
320,192,105705,1,0,0:0:0:70:K.wav
64,192,105791,1,0,0:0:0:70:K.wav
192,192,105877,1,0,0:0:0:70:K.wav
320,192,105963,1,0,0:0:0:70:K.wav
64,192,106048,1,0,0:0:0:70:S.wav
448,192,106048,1,0,0:0:0:0:
192,192,106220,1,0,0:0:0:70:K.wav
320,192,106391,1,0,0:0:0:70:K.wav
448,192,106391,1,0,0:0:0:70:C1.wav
64,192,106477,1,0,0:0:0:70:K.wav
320,192,106563,1,0,0:0:0:70:K.wav
192,192,106648,1,0,0:0:0:70:K.wav
64,192,106734,1,0,0:0:0:70:S.wav
448,192,106820,1,0,0:0:0:70:K.wav
192,192,106905,1,0,0:0:0:70:K.wav
320,192,106991,1,0,0:0:0:70:K.wav
448,192,107077,1,0,0:0:0:70:K.wav
192,192,107163,1,0,0:0:0:70:K.wav
320,192,107248,1,0,0:0:0:70:K.wav
64,192,107334,1,0,0:0:0:70:K.wav
192,192,107420,1,0,0:0:0:70:S.wav
448,192,107420,1,0,0:0:0:0:
448,192,107591,1,0,0:0:0:70:K.wav
64,192,107763,1,0,0:0:0:70:K.wav
192,192,107763,1,0,0:0:0:70:C1.wav
448,192,107848,1,0,0:0:0:70:K.wav
320,192,107934,1,0,0:0:0:70:K.wav
192,192,108020,1,0,0:0:0:70:K.wav
448,192,108105,1,0,0:0:0:70:S.wav
64,192,108191,1,0,0:0:0:70:K.wav
192,192,108277,1,0,0:0:0:70:K.wav
320,192,108363,1,0,0:0:0:70:K.wav
64,192,108448,1,0,0:0:0:70:K.wav
320,192,108534,1,0,0:0:0:70:K.wav
192,192,108620,1,0,0:0:0:70:K.wav
448,192,108705,1,0,0:0:0:70:K.wav
64,192,108791,1,0,0:0:0:70:S.wav
320,192,108791,1,0,0:0:0:0:
64,192,108963,1,0,0:0:0:70:K.wav
448,192,109134,1,0,0:0:0:70:K.wav
320,192,109220,1,0,0:0:0:70:K.wav
192,192,109305,1,0,0:0:0:70:K.wav
64,192,109391,1,0,0:0:0:70:K.wav
448,192,109477,1,0,0:0:0:70:C1.wav
192,192,109563,1,0,0:0:0:70:K.wav
320,192,109648,1,0,0:0:0:70:K.wav
64,192,109734,1,0,0:0:0:70:K.wav
448,192,109820,1,0,0:0:0:70:K.wav
320,192,109905,1,0,0:0:0:70:K.wav
192,192,109991,1,0,0:0:0:70:K.wav
64,192,110077,1,0,0:0:0:70:K.wav
448,192,110163,1,0,0:0:0:70:C1.wav
192,192,110248,1,0,0:0:0:70:K.wav
320,192,110334,1,0,0:0:0:70:K.wav
64,192,110420,1,0,0:0:0:70:K.wav
448,192,110505,1,0,0:0:0:70:K.wav
320,192,110591,1,0,0:0:0:70:K.wav
192,192,110677,1,0,0:0:0:70:K.wav
448,192,110763,1,0,0:0:0:70:K.wav
64,192,110848,1,0,0:0:0:70:C1.wav
192,192,110934,1,0,0:0:0:70:K.wav
320,192,111020,1,0,0:0:0:70:K.wav
64,192,111105,1,0,0:0:0:70:K.wav
448,192,111191,1,0,0:0:0:70:K.wav
320,192,111277,1,0,0:0:0:70:K.wav
192,192,111363,1,0,0:0:0:70:K.wav
448,192,111448,1,0,0:0:0:70:K.wav
64,192,111534,1,0,0:0:0:70:K.wav
320,192,111534,1,0,0:0:0:70:C1.wav
192,192,111705,1,0,0:0:0:70:K.wav
320,192,111791,1,0,0:0:0:70:K.wav
64,192,111877,1,0,0:0:0:70:K.wav
448,192,111877,128,0,112905:0:0:0:70:F-Kick.wav
192,192,112905,128,0,113248:0:0:0:0:
320,192,112905,1,0,0:0:0:0:
64,192,113248,1,0,0:0:0:0:
320,192,113248,128,0,114620:0:0:0:0:
192,192,114620,1,0,0:0:0:0:
448,192,114620,128,0,115648:0:0:0:0:
64,192,115648,128,0,115991:0:0:0:0:
192,192,115648,1,0,0:0:0:0:
192,192,115991,1,0,0:0:0:50:Kick_bass.wav
448,192,115991,1,0,0:0:0:0:
320,192,116077,1,0,0:0:0:0:
192,192,116163,128,0,117363:0:0:0:0:
448,192,116334,1,0,0:0:0:50:Kick_bass.wav
448,192,117363,1,0,0:0:0:50:Kick_bass.wav
64,192,117705,128,0,118220:0:0:0:50:Kick_bass.wav
320,192,117705,1,0,0:0:0:0:
320,192,118220,128,0,118734:0:0:0:0:
448,192,118220,1,0,0:0:0:0:
64,192,118734,1,0,0:0:0:50:Kick_bass.wav
448,192,118734,128,0,119934:0:0:0:0:
192,192,119077,1,0,0:0:0:50:Kick_bass.wav
320,192,119934,1,0,0:0:0:0:
192,192,119991,1,0,0:0:0:0:
64,192,120048,1,0,0:0:0:0:
320,192,120105,128,0,121134:0:0:0:50:Kick_bass.wav
448,192,120105,1,0,0:0:0:0:
192,192,120448,1,0,0:0:0:50:Kick_bass.wav
64,192,121134,128,0,121477:0:0:0:0:
192,192,121134,1,0,0:0:0:0:
320,192,121477,1,0,0:0:0:50:Kick_bass.wav
448,192,121477,128,0,122848:0:0:0:0:
320,192,121820,1,0,0:0:0:50:Kick_bass.wav
64,192,122848,1,0,0:0:0:50:Kick_bass.wav
320,192,122848,1,0,0:0:0:0:
192,192,123020,128,0,123191:0:0:0:0:
320,192,123191,128,0,123363:0:0:0:50:Kick_bass.wav
448,192,123191,1,0,0:0:0:0:
64,192,123363,128,0,123534:0:0:0:0:
192,192,123534,1,0,0:0:0:30:Impact_snare.wav
320,192,123534,1,0,0:0:0:0:
448,192,123534,128,0,123877:0:0:0:0:
320,192,123877,128,0,124220:0:0:0:0:
64,192,124220,1,0,0:0:0:50:Kick_bass.wav
192,192,124220,128,0,124905:0:0:0:0:
64,192,124563,1,0,0:0:0:50:Kick_bass.wav
320,192,124905,1,0,0:0:0:30:Impact_snare.wav
448,192,124905,1,0,0:0:0:0:
192,192,125591,1,0,0:0:0:50:Kick_bass.wav
320,192,125591,128,0,126277:0:0:0:0:
192,192,125934,1,0,0:0:0:50:Kick_bass.wav
64,192,126277,1,0,0:0:0:30:Impact_snare.wav
448,192,126277,1,0,0:0:0:0:
448,192,126620,128,0,126963:0:0:0:0:
64,192,126963,128,0,127648:0:0:0:50:Kick_bass.wav
320,192,126963,1,0,0:0:0:0:
320,192,127305,1,0,0:0:0:50:Kick_bass.wav
192,192,127648,1,0,0:0:0:30:Impact_snare.wav
448,192,127648,1,0,0:0:0:0:
192,192,128334,128,0,129020:0:0:0:50:Kick_bass.wav
448,192,128334,1,0,0:0:0:0:
448,192,128677,1,0,0:0:0:50:Kick_bass.wav
64,192,129020,1,0,0:0:0:30:Impact_snare.wav
320,192,129020,1,0,0:0:0:0:
320,192,129363,128,0,129705:0:0:0:0:
64,192,129705,128,0,130391:0:0:0:50:Kick_bass.wav
192,192,129705,1,0,0:0:0:0:
192,192,130048,1,0,0:0:0:50:Kick_bass.wav
320,192,130391,1,0,0:0:0:30:Impact_snare.wav
448,192,130391,128,0,131077:0:0:0:0:
192,192,131077,128,0,132105:0:0:0:50:Kick_bass.wav
320,192,131077,1,0,0:0:0:0:
320,192,131420,1,0,0:0:0:50:Kick_bass.wav
64,192,131763,1,0,0:0:0:30:Impact_snare.wav
448,192,131763,1,0,0:0:0:0:
64,192,132105,128,0,132448:0:0:0:0:
320,192,132448,128,0,133134:0:0:0:50:Kick_bass.wav
448,192,132448,1,0,0:0:0:0:
64,192,132620,1,0,0:0:0:0:
448,192,132791,1,0,0:0:0:50:Kick_bass.wav
192,192,132963,1,0,0:0:0:0:
64,192,133134,1,0,0:0:0:30:Impact_snare.wav
448,192,133134,1,0,0:0:0:0:
192,192,133305,1,0,0:0:0:0:
64,192,133477,1,0,0:0:0:0:
320,192,133477,1,0,0:0:0:0:
448,192,133648,1,0,0:0:0:0:
64,192,133820,128,0,134163:0:0:0:70:F-Kick.wav
192,192,133820,1,0,0:0:0:0:
320,192,134163,1,0,0:0:0:0:
192,192,134334,128,0,134677:0:0:0:0:
448,192,134677,1,0,0:0:0:0:
320,192,134848,128,0,135020:0:0:0:0:
192,192,135020,128,0,135191:0:0:0:0:
64,192,135191,128,0,136220:0:0:0:50:S3.wav
448,192,135191,1,0,0:0:0:0:
448,192,135534,1,0,0:0:0:50:S3.wav
448,192,135877,1,0,0:0:0:50:S3.wav
192,192,136220,1,0,0:0:0:50:Impact_snare.wav
320,192,136220,1,0,0:0:0:50:push_scratch.wav
448,192,136563,128,0,136905:0:0:0:70:F-Kick.wav
192,192,136905,1,0,0:0:0:0:
320,192,137077,128,0,137420:0:0:0:0:
64,192,137420,1,0,0:0:0:0:
192,192,137591,128,0,137763:0:0:0:0:
320,192,137763,128,0,137934:0:0:0:0:
64,192,137934,1,0,0:0:0:50:S3.wav
448,192,137934,128,0,138963:0:0:0:0:
64,192,138277,1,0,0:0:0:50:S3.wav
64,192,138620,1,0,0:0:0:50:S3.wav
192,192,138963,1,0,0:0:0:50:Impact_snare.wav
320,192,138963,1,0,0:0:0:50:push_scratch.wav
64,192,139134,1,0,0:0:0:50:S3.wav
192,192,139305,128,0,139648:0:0:0:70:F-Kick.wav
448,192,139648,1,0,0:0:0:0:
64,192,139820,128,0,140163:0:0:0:0:
320,192,140163,1,0,0:0:0:0:
192,192,140334,128,0,140505:0:0:0:0:
448,192,140505,128,0,140677:0:0:0:0:
64,192,140677,1,0,0:0:0:50:S3.wav
320,192,140677,128,0,141705:0:0:0:0:
64,192,141020,1,0,0:0:0:50:S3.wav
64,192,141363,1,0,0:0:0:50:S3.wav
192,192,141705,1,0,0:0:0:50:Impact_snare.wav
448,192,141705,1,0,0:0:0:50:push_scratch.wav
320,192,142048,128,0,142391:0:0:0:70:F-Kick.wav
64,192,142391,1,0,0:0:0:0:
448,192,142563,128,0,142905:0:0:0:0:
192,192,142905,1,0,0:0:0:0:
320,192,143077,128,0,143248:0:0:0:0:
448,192,143248,128,0,143420:0:0:0:0:
64,192,143420,1,0,0:0:0:50:S3.wav
192,192,143420,1,0,0:0:0:0:
448,192,143591,1,0,0:0:0:70:tom01.wav
320,192,143677,1,0,0:0:0:70:tom02.wav
192,192,143763,1,0,0:0:0:70:tom01.wav
64,192,143934,1,0,0:0:0:70:tom02.wav
320,192,144105,1,0,0:0:0:70:tom03.wav
192,192,144277,1,0,0:0:0:70:tom04.wav
448,192,144277,1,0,0:0:0:0:
64,192,144448,128,0,144791:0:0:0:50:push_scratch.wav
320,192,144448,1,0,0:0:0:50:Impact_snare.wav
320,192,144791,1,0,0:0:0:70:F-Kick.wav
448,192,144791,128,0,145134:0:0:0:0:
192,192,145134,1,0,0:0:0:0:
320,192,145305,128,0,145648:0:0:0:0:
64,192,145648,1,0,0:0:0:0:
192,192,145820,128,0,145991:0:0:0:0:
320,192,145991,128,0,146163:0:0:0:0:
64,192,146163,1,0,0:0:0:50:S3.wav
448,192,146163,128,0,147191:0:0:0:0:
64,192,146505,1,0,0:0:0:50:S3.wav
64,192,146848,1,0,0:0:0:50:S3.wav
64,192,147191,1,0,0:0:0:50:Impact_snare.wav
320,192,147191,1,0,0:0:0:50:push_scratch.wav
192,192,147363,1,0,0:0:0:0:
64,192,147534,128,0,147877:0:0:0:70:F-Kick.wav
320,192,147877,1,0,0:0:0:0:
192,192,148048,128,0,148391:0:0:0:0:
448,192,148391,1,0,0:0:0:0:
320,192,148563,128,0,148734:0:0:0:0:
192,192,148734,128,0,148905:0:0:0:0:
64,192,148905,128,0,149934:0:0:0:50:S3.wav
448,192,148905,1,0,0:0:0:0:
448,192,149248,1,0,0:0:0:50:S3.wav
448,192,149591,1,0,0:0:0:50:S3.wav
192,192,149934,1,0,0:0:0:50:Impact_snare.wav
320,192,149934,1,0,0:0:0:50:push_scratch.wav
448,192,150105,1,0,0:0:0:0:
320,192,150277,128,0,150620:0:0:0:70:F-Kick.wav
64,192,150620,1,0,0:0:0:0:
448,192,150791,128,0,151134:0:0:0:0:
192,192,151134,1,0,0:0:0:0:
320,192,151305,128,0,151477:0:0:0:0:
64,192,151477,128,0,151648:0:0:0:0:
192,192,151648,128,0,152677:0:0:0:50:S3.wav
448,192,151648,1,0,0:0:0:0:
448,192,151991,1,0,0:0:0:50:S3.wav
448,192,152334,1,0,0:0:0:50:S3.wav
64,192,152677,1,0,0:0:0:50:Impact_snare.wav
448,192,152677,1,0,0:0:0:50:push_scratch.wav
320,192,152848,1,0,0:0:0:0:
192,192,153020,128,0,153363:0:0:0:70:F-Kick.wav
448,192,153363,1,0,0:0:0:0:
64,192,153534,128,0,153877:0:0:0:0:
320,192,153877,1,0,0:0:0:0:
448,192,154048,128,0,154220:0:0:0:0:
192,192,154220,128,0,154391:0:0:0:0:
320,192,154391,1,0,0:0:0:50:S3.wav
448,192,154391,1,0,0:0:0:0:
64,192,154563,1,0,0:0:0:0:
192,192,154734,1,0,0:0:0:50:S3.wav
448,192,154905,1,0,0:0:0:50:R.wav
192,192,155077,1,0,0:0:0:50:S3.wav
64,192,155248,1,0,0:0:0:0:
320,192,155248,1,0,0:0:0:0:
448,192,155420,1,0,0:0:0:50:S3.wav
320,192,155505,1,0,0:0:0:50:S3.wav
192,192,155591,1,0,0:0:0:50:S3.wav
64,192,155677,1,0,0:0:0:50:S3.wav
192,192,155763,1,0,0:0:0:70:K.wav
320,192,155763,1,0,0:0:0:70:C1.wav
448,192,155763,1,0,0:0:0:0:
64,192,156105,1,0,0:0:0:0:
320,192,156105,1,0,0:0:0:0:
192,192,156448,1,0,0:0:0:0:
448,192,156448,1,0,0:0:0:0:
192,192,157134,1,0,0:0:0:70:K.wav
320,192,157134,1,0,0:0:0:70:C1.wav
448,192,157134,1,0,0:0:0:0:
192,192,157477,1,0,0:0:0:0:
448,192,157477,1,0,0:0:0:0:
64,192,157820,1,0,0:0:0:0:
320,192,157820,1,0,0:0:0:0:
64,192,158505,1,0,0:0:0:70:K.wav
192,192,158505,1,0,0:0:0:70:C1.wav
448,192,158505,1,0,0:0:0:0:
320,192,158848,1,0,0:0:0:0:
448,192,158848,1,0,0:0:0:0:
64,192,159191,128,0,159534:0:0:0:0:
192,192,159191,128,0,159705:0:0:0:0:
448,192,159534,128,0,159705:0:0:0:0:
64,192,159877,1,0,0:0:0:70:K.wav
320,192,159877,1,0,0:0:0:70:C1.wav
448,192,159877,1,0,0:0:0:0:
64,192,160220,1,0,0:0:0:0:
192,192,160220,1,0,0:0:0:0:
192,192,160391,1,0,0:0:0:70:K.wav
320,192,160391,1,0,0:0:0:70:C1.wav
448,192,160391,1,0,0:0:0:0:
64,192,160563,1,0,0:0:0:0:
64,192,160905,1,0,0:0:0:70:K.wav
192,192,160905,1,0,0:0:0:70:C1.wav
320,192,160905,1,0,0:0:0:0:
64,192,161248,1,0,0:0:0:70:K.wav
320,192,161248,1,0,0:0:0:70:C1.wav
448,192,161248,1,0,0:0:0:0:
192,192,161591,1,0,0:0:0:0:
320,192,161591,1,0,0:0:0:0:
64,192,161934,1,0,0:0:0:0:
448,192,161934,1,0,0:0:0:0:
64,192,162620,1,0,0:0:0:70:K.wav
192,192,162620,1,0,0:0:0:70:C1.wav
448,192,162620,1,0,0:0:0:0:
64,192,162963,1,0,0:0:0:0:
448,192,162963,1,0,0:0:0:0:
192,192,163305,1,0,0:0:0:0:
320,192,163305,1,0,0:0:0:0:
64,192,163991,1,0,0:0:0:70:K.wav
192,192,163991,1,0,0:0:0:70:C1.wav
320,192,163991,1,0,0:0:0:0:
64,192,164334,1,0,0:0:0:0:
320,192,164334,1,0,0:0:0:0:
192,192,164677,128,0,165191:0:0:0:0:
448,192,164677,128,0,165020:0:0:0:0:
320,192,165020,1,0,0:0:0:0:
192,192,165363,1,0,0:0:0:70:K.wav
320,192,165363,1,0,0:0:0:70:C1.wav
448,192,165363,1,0,0:0:0:0:
192,192,165705,1,0,0:0:0:0:
448,192,165705,1,0,0:0:0:0:
64,192,165877,1,0,0:0:0:70:K.wav
192,192,165877,1,0,0:0:0:70:C1.wav
320,192,165877,1,0,0:0:0:0:
448,192,166048,1,0,0:0:0:0:
320,192,166134,1,0,0:0:0:0:
192,192,166220,1,0,0:0:0:0:
64,192,166305,1,0,0:0:0:0:
192,192,166391,1,0,0:0:0:70:K.wav
320,192,166391,1,0,0:0:0:70:C1.wav
448,192,166391,1,0,0:0:0:0:
64,192,166734,1,0,0:0:0:70:K.wav
192,192,166734,1,0,0:0:0:70:C.wav
64,192,166991,1,0,0:0:0:70:K.wav
192,192,166991,1,0,0:0:0:0:
192,192,167248,1,0,0:0:0:70:K.wav
320,192,167248,1,0,0:0:0:0:
320,192,167420,1,0,0:0:0:70:K.wav
448,192,167420,1,0,0:0:0:0:
320,192,167677,1,0,0:0:0:70:K.wav
448,192,167677,1,0,0:0:0:0:
64,192,167934,1,0,0:0:0:70:K.wav
448,192,167934,1,0,0:0:0:0:
64,192,168105,1,0,0:0:0:70:K.wav
320,192,168105,1,0,0:0:0:0:
64,192,168363,1,0,0:0:0:70:K.wav
320,192,168363,1,0,0:0:0:0:
192,192,168620,1,0,0:0:0:70:K.wav
320,192,168620,1,0,0:0:0:0:
192,192,168791,1,0,0:0:0:70:K.wav
448,192,168791,1,0,0:0:0:0:
192,192,169048,1,0,0:0:0:70:K.wav
448,192,169048,1,0,0:0:0:0:
64,192,169305,1,0,0:0:0:70:K.wav
448,192,169305,1,0,0:0:0:0:
320,192,169391,1,0,0:0:0:70:K.wav
64,192,169477,1,0,0:0:0:70:K.wav
192,192,169477,1,0,0:0:0:0:
64,192,169734,1,0,0:0:0:70:K.wav
192,192,169734,1,0,0:0:0:0:
192,192,169991,1,0,0:0:0:70:K.wav
320,192,169991,1,0,0:0:0:0:
64,192,170163,1,0,0:0:0:70:K.wav
320,192,170163,1,0,0:0:0:0:
64,192,170420,1,0,0:0:0:70:K.wav
320,192,170420,1,0,0:0:0:0:
64,192,170677,1,0,0:0:0:70:K.wav
448,192,170677,1,0,0:0:0:0:
192,192,170848,1,0,0:0:0:70:K.wav
448,192,170848,1,0,0:0:0:0:
192,192,171105,1,0,0:0:0:70:K.wav
448,192,171105,1,0,0:0:0:0:
192,192,171363,1,0,0:0:0:70:K.wav
320,192,171363,1,0,0:0:0:0:
64,192,171534,1,0,0:0:0:70:K.wav
320,192,171534,1,0,0:0:0:0:
64,192,171791,1,0,0:0:0:70:K.wav
320,192,171791,1,0,0:0:0:0:
64,192,172048,1,0,0:0:0:70:K.wav
448,192,172048,1,0,0:0:0:0:
192,192,172134,1,0,0:0:0:70:K.wav
320,192,172220,1,0,0:0:0:70:K.wav
448,192,172220,1,0,0:0:0:70:F-Kick.wav
64,192,172305,1,0,0:0:0:70:K.wav
192,192,172391,1,0,0:0:0:70:K.wav
320,192,172477,1,0,0:0:0:70:K.wav
64,192,172563,1,0,0:0:0:70:K.wav
448,192,172648,1,0,0:0:0:70:K.wav
320,192,172734,1,0,0:0:0:70:K.wav
64,192,172820,1,0,0:0:0:70:K.wav
320,192,172905,1,0,0:0:0:70:K.wav
192,192,172991,1,0,0:0:0:70:K.wav
448,192,173077,1,0,0:0:0:70:K.wav
320,192,173163,1,0,0:0:0:70:K.wav
192,192,173248,1,0,0:0:0:70:K.wav
64,192,173334,1,0,0:0:0:70:K.wav
320,192,173420,1,0,0:0:0:70:K.wav
448,192,173505,1,0,0:0:0:70:K.wav
64,192,173591,1,0,0:0:0:70:K.wav
192,192,173677,1,0,0:0:0:70:K.wav
320,192,173763,1,0,0:0:0:70:K.wav
64,192,173848,1,0,0:0:0:70:K.wav
192,192,173934,1,0,0:0:0:70:K.wav
448,192,174020,1,0,0:0:0:70:K.wav
320,192,174105,1,0,0:0:0:70:K.wav
192,192,174191,1,0,0:0:0:70:K.wav
64,192,174277,1,0,0:0:0:70:K.wav
320,192,174363,1,0,0:0:0:70:K.wav
448,192,174448,1,0,0:0:0:70:K.wav
64,192,174534,1,0,0:0:0:70:K.wav
192,192,174620,1,0,0:0:0:70:K.wav
320,192,174705,1,0,0:0:0:70:K.wav
64,192,174791,1,0,0:0:0:70:K.wav
192,192,174877,1,0,0:0:0:70:K.wav
448,192,174963,128,0,175048:0:0:0:70:K.wav
320,192,175048,128,0,175134:0:0:0:70:K.wav
192,192,175134,128,0,175220:0:0:0:70:K.wav
64,192,175220,128,0,175305:0:0:0:70:K.wav
448,192,175305,128,0,175391:0:0:0:70:K.wav
320,192,175391,128,0,175477:0:0:0:70:K.wav
64,192,175477,128,0,175563:0:0:0:70:K.wav
192,192,175563,128,0,175648:0:0:0:70:K.wav
320,192,175648,128,0,175734:0:0:0:70:K.wav
448,192,175734,128,0,175820:0:0:0:70:K.wav
64,192,175820,128,0,175905:0:0:0:70:K.wav
192,192,175905,128,0,175991:0:0:0:70:K.wav
448,192,175991,128,0,176077:0:0:0:70:K.wav
320,192,176077,128,0,176163:0:0:0:70:K.wav
192,192,176163,128,0,176248:0:0:0:70:K.wav
64,192,176248,128,0,176334:0:0:0:70:K.wav
320,192,176334,128,0,176505:0:0:0:70:K.wav
448,192,176334,1,0,0:0:0:0:
320,192,176677,128,0,176848:0:0:0:0:
448,192,177020,1,0,0:0:0:0:
64,192,177020,128,0,177191:0:0:0:0:
320,192,177105,1,0,0:0:0:0:
192,192,177191,1,0,0:0:0:0:
64,192,177277,1,0,0:0:0:0:
320,192,177363,1,0,0:0:0:50:S4.wav
448,192,177363,1,0,0:0:0:50:push_scratch.wav
64,192,177448,1,0,0:0:0:0:
192,192,177534,1,0,0:0:0:0:
320,192,177620,1,0,0:0:0:0:
64,192,177705,1,0,0:0:0:70:K.wav
448,192,177705,1,0,0:0:0:70:F-Kick.wav
192,192,177791,1,0,0:0:0:0:
320,192,177877,1,0,0:0:0:0:
64,192,177963,1,0,0:0:0:0:
320,192,178048,1,0,0:0:0:70:S.wav
448,192,178048,1,0,0:0:0:0:
192,192,178134,1,0,0:0:0:0:
448,192,178220,1,0,0:0:0:0:
320,192,178305,1,0,0:0:0:0:
192,192,178391,1,0,0:0:0:70:K.wav
64,192,178477,1,0,0:0:0:0:
320,192,178563,1,0,0:0:0:0:
192,192,178648,1,0,0:0:0:0:
448,192,178734,1,0,0:0:0:70:S.wav
64,192,178734,1,0,0:0:0:0:
320,192,178820,1,0,0:0:0:0:
64,192,178905,1,0,0:0:0:0:
192,192,178991,1,0,0:0:0:0:
320,192,179077,1,0,0:0:0:70:K.wav
448,192,179163,1,0,0:0:0:0:
64,192,179248,1,0,0:0:0:0:
192,192,179334,1,0,0:0:0:0:
448,192,179420,1,0,0:0:0:70:S.wav
64,192,179420,1,0,0:0:0:0:
320,192,179505,1,0,0:0:0:0:
192,192,179591,1,0,0:0:0:0:
448,192,179677,1,0,0:0:0:0:
64,192,179763,1,0,0:0:0:70:K.wav
192,192,179848,1,0,0:0:0:0:
320,192,179934,1,0,0:0:0:0:
448,192,180020,1,0,0:0:0:0:
192,192,180105,1,0,0:0:0:70:S.wav
64,192,180105,1,0,0:0:0:0:
320,192,180191,1,0,0:0:0:0:
64,192,180277,1,0,0:0:0:0:
192,192,180363,1,0,0:0:0:0:
320,192,180448,1,0,0:0:0:70:K.wav
64,192,180620,128,0,180791:0:0:0:0:
192,192,180791,1,0,0:0:0:70:S.wav
448,192,180791,1,0,0:0:0:0:
320,192,180877,128,0,181048:0:0:0:0:
64,192,181134,128,0,181220:0:0:0:70:K.wav
448,192,181305,1,0,0:0:0:0:
192,192,181391,128,0,181477:0:0:0:0:
320,192,181477,1,0,0:0:0:70:S.wav
448,192,181477,1,0,0:0:0:0:
64,192,181563,1,0,0:0:0:0:
320,192,181648,128,0,181734:0:0:0:0:
448,192,181820,128,0,181905:0:0:0:70:K.wav
320,192,181991,1,0,0:0:0:0:
192,192,182077,1,0,0:0:0:0:
64,192,182163,1,0,0:0:0:70:S.wav
448,192,182163,128,0,182334:0:0:0:0:
64,192,182334,128,0,182505:0:0:0:0:
320,192,182505,1,0,0:0:0:70:K.wav
448,192,182591,1,0,0:0:0:0:
192,192,182677,1,0,0:0:0:50:S3.wav
320,192,182763,1,0,0:0:0:50:S3.wav
64,192,182848,1,0,0:0:0:70:S.wav
448,192,182848,1,0,0:0:0:0:
192,192,182934,1,0,0:0:0:0:
448,192,183020,1,0,0:0:0:50:S3.wav
320,192,183105,1,0,0:0:0:50:S3.wav
64,192,183191,128,0,184220:0:0:0:70:K.wav
192,192,183191,1,0,0:0:0:70:F-Kick.wav
320,192,183363,1,0,0:0:0:0:
192,192,183534,1,0,0:0:0:70:S.wav
448,192,183534,1,0,0:0:0:0:
320,192,183705,1,0,0:0:0:0:
448,192,183877,1,0,0:0:0:70:K.wav
192,192,184048,1,0,0:0:0:0:
320,192,184220,1,0,0:0:0:70:S.wav
448,192,184220,1,0,0:0:0:0:
192,192,184391,128,0,184563:0:0:0:0:
448,192,184563,1,0,0:0:0:70:K.wav
320,192,184648,128,0,184734:0:0:0:0:
64,192,184820,128,0,184905:0:0:0:0:
448,192,184905,1,0,0:0:0:70:S.wav
320,192,184905,1,0,0:0:0:0:
192,192,184991,128,0,185077:0:0:0:0:
320,192,185077,128,0,185163:0:0:0:0:
448,192,185163,128,0,185591:0:0:0:0:
64,192,185248,1,0,0:0:0:70:K.wav
64,192,185591,1,0,0:0:0:70:S.wav
192,192,185591,1,0,0:0:0:0:
320,192,185763,1,0,0:0:0:0:
192,192,185848,1,0,0:0:0:0:
64,192,185934,128,0,186105:0:0:0:70:K.wav
448,192,186105,1,0,0:0:0:0:
320,192,186191,1,0,0:0:0:0:
192,192,186277,128,0,186448:0:0:0:70:S.wav
448,192,186277,1,0,0:0:0:0:
64,192,186448,1,0,0:0:0:0:
448,192,186534,1,0,0:0:0:0:
320,192,186620,128,0,186791:0:0:0:70:K.wav
64,192,186791,1,0,0:0:0:0:
192,192,186877,1,0,0:0:0:0:
448,192,186963,128,0,187134:0:0:0:70:S.wav
320,192,186963,1,0,0:0:0:0:
192,192,187134,1,0,0:0:0:0:
320,192,187220,1,0,0:0:0:0:
64,192,187305,128,0,187477:0:0:0:70:K.wav
192,192,187305,1,0,0:0:0:50:1.wav
448,192,187477,128,0,187648:0:0:0:0:
192,192,187648,128,0,187820:0:0:0:70:S.wav
320,192,187648,1,0,0:0:0:50:2.wav
320,192,187820,128,0,187991:0:0:0:0:
64,192,187991,128,0,188163:0:0:0:70:K.wav
448,192,187991,1,0,0:0:0:50:3.wav
192,192,188163,1,0,0:0:0:0:
448,192,188248,1,0,0:0:0:0:
64,192,188334,1,0,0:0:0:70:S.wav
192,192,188334,1,0,0:0:0:50:S4.wav
320,192,188420,1,0,0:0:0:0:
192,192,188505,128,0,188677:0:0:0:0:
320,192,188677,1,0,0:0:0:70:K.wav
448,192,188677,1,0,0:0:0:70:F-Kick.wav
64,192,188763,1,0,0:0:0:0:
320,192,188848,1,0,0:0:0:0:
192,192,188934,1,0,0:0:0:0:
448,192,189020,1,0,0:0:0:70:S.wav
64,192,189020,1,0,0:0:0:0:
192,192,189105,1,0,0:0:0:0:
320,192,189191,1,0,0:0:0:0:
64,192,189277,1,0,0:0:0:0:
192,192,189448,1,0,0:0:0:0:
320,192,189534,1,0,0:0:0:0:
64,192,189620,1,0,0:0:0:0:
192,192,189705,1,0,0:0:0:70:S.wav
448,192,189705,1,0,0:0:0:0:
320,192,189791,1,0,0:0:0:0:
192,192,189877,1,0,0:0:0:0:
64,192,189963,1,0,0:0:0:0:
448,192,190134,1,0,0:0:0:0:
192,192,190220,1,0,0:0:0:0:
320,192,190305,1,0,0:0:0:0:
64,192,190391,1,0,0:0:0:70:S.wav
192,192,190391,1,0,0:0:0:0:
448,192,190477,1,0,0:0:0:0:
320,192,190563,1,0,0:0:0:0:
192,192,190648,1,0,0:0:0:0:
448,192,190820,1,0,0:0:0:0:
64,192,190905,1,0,0:0:0:0:
192,192,190991,1,0,0:0:0:0:
320,192,191077,1,0,0:0:0:70:S.wav
448,192,191077,1,0,0:0:0:0:
64,192,191163,1,0,0:0:0:0:
448,192,191248,1,0,0:0:0:0:
320,192,191334,1,0,0:0:0:0:
192,192,191505,1,0,0:0:0:0:
320,192,191591,1,0,0:0:0:0:
64,192,191677,1,0,0:0:0:0:
448,192,191763,1,0,0:0:0:70:S.wav
192,192,191763,1,0,0:0:0:0:
320,192,191848,1,0,0:0:0:0:
192,192,191934,1,0,0:0:0:0:
448,192,192020,1,0,0:0:0:0:
64,192,192191,1,0,0:0:0:0:
320,192,192277,1,0,0:0:0:0:
192,192,192363,1,0,0:0:0:0:
448,192,192448,1,0,0:0:0:70:S.wav
64,192,192448,1,0,0:0:0:0:
320,192,192534,1,0,0:0:0:0:
64,192,192620,1,0,0:0:0:0:
192,192,192705,1,0,0:0:0:0:
320,192,192877,1,0,0:0:0:0:
64,192,192963,1,0,0:0:0:50:S3.wav
448,192,193048,1,0,0:0:0:50:S3.wav
320,192,193134,1,0,0:0:0:70:S.wav
192,192,193134,1,0,0:0:0:0:
64,192,193220,1,0,0:0:0:0:
448,192,193305,1,0,0:0:0:70:K.wav
192,192,193391,1,0,0:0:0:0:
320,192,193477,128,0,193820:0:0:0:70:K.wav
448,192,193477,1,0,0:0:0:70:Bassdrop.wav
64,192,193820,128,0,194163:0:0:0:0:
192,192,194163,1,0,0:0:0:70:K.wav
448,192,194163,1,0,0:0:0:70:F-Kick.wav
320,192,194334,1,0,0:0:0:0:
192,192,194420,1,0,0:0:0:0:
64,192,194505,1,0,0:0:0:70:S.wav
448,192,194505,1,0,0:0:0:0:
320,192,194677,1,0,0:0:0:0:
448,192,194763,1,0,0:0:0:0:
64,192,194848,1,0,0:0:0:70:K.wav
192,192,194848,1,0,0:0:0:0:
448,192,195020,1,0,0:0:0:0:
192,192,195105,1,0,0:0:0:0:
64,192,195191,1,0,0:0:0:70:S.wav
320,192,195191,1,0,0:0:0:70:wou.wav
192,192,195363,1,0,0:0:0:0:
320,192,195448,1,0,0:0:0:0:
64,192,195534,1,0,0:0:0:70:K.wav
448,192,195534,1,0,0:0:0:0:
192,192,195705,1,0,0:0:0:0:
64,192,195791,1,0,0:0:0:0:
320,192,195877,1,0,0:0:0:70:S.wav
448,192,195877,1,0,0:0:0:0:
192,192,196048,1,0,0:0:0:0:
320,192,196134,1,0,0:0:0:0:
64,192,196220,1,0,0:0:0:70:K.wav
448,192,196220,1,0,0:0:0:0:
320,192,196391,1,0,0:0:0:0:
448,192,196477,1,0,0:0:0:0:
64,192,196563,1,0,0:0:0:70:S.wav
192,192,196563,1,0,0:0:0:100:what.wav
320,192,196734,1,0,0:0:0:0:
64,192,196820,1,0,0:0:0:0:
192,192,196905,1,0,0:0:0:70:K.wav
448,192,196905,1,0,0:0:0:0:
320,192,196991,1,0,0:0:0:70:K.wav
64,192,197077,1,0,0:0:0:70:K.wav
192,192,197163,1,0,0:0:0:70:K.wav
448,192,197248,1,0,0:0:0:70:S.wav
320,192,197334,1,0,0:0:0:70:K.wav
192,192,197420,1,0,0:0:0:70:K.wav
448,192,197505,1,0,0:0:0:70:K.wav
64,192,197591,1,0,0:0:0:70:K.wav
192,192,197677,1,0,0:0:0:70:K.wav
320,192,197763,1,0,0:0:0:70:K.wav
64,192,197848,1,0,0:0:0:70:K.wav
320,192,197934,1,0,0:0:0:70:S.wav
192,192,198020,1,0,0:0:0:70:K.wav
448,192,198105,1,0,0:0:0:70:K.wav
320,192,198191,1,0,0:0:0:70:K.wav
64,192,198277,1,0,0:0:0:70:K.wav
192,192,198277,128,0,198620:0:0:0:0:
320,192,198620,128,0,198963:0:0:0:0:
64,192,198963,128,0,199305:0:0:0:0:
448,192,198963,1,0,0:0:0:0:
192,192,199048,1,0,0:0:0:0:
320,192,199134,1,0,0:0:0:0:
448,192,199220,1,0,0:0:0:0:
192,192,199305,1,0,0:0:0:50:S4.wav
320,192,199391,1,0,0:0:0:0:
64,192,199477,1,0,0:0:0:0:
192,192,199563,1,0,0:0:0:0:
320,192,199648,1,0,0:0:0:70:K.wav
64,192,199734,1,0,0:0:0:70:K.wav
320,192,199820,1,0,0:0:0:70:K.wav
64,192,199905,1,0,0:0:0:70:K.wav
192,192,199991,1,0,0:0:0:70:S.wav
448,192,199991,1,0,0:0:0:70:F-Kick.wav
64,192,200163,1,0,0:0:0:0:
192,192,200220,1,0,0:0:0:0:
320,192,200277,1,0,0:0:0:0:
448,192,200334,1,0,0:0:0:70:K.wav
64,192,200420,1,0,0:0:0:0:
320,192,200505,1,0,0:0:0:0:
192,192,200591,1,0,0:0:0:0:
64,192,200677,1,0,0:0:0:70:S.wav
448,192,200677,1,0,0:0:0:0:
320,192,200763,1,0,0:0:0:0:
448,192,200848,1,0,0:0:0:0:
192,192,200934,1,0,0:0:0:0:
320,192,201020,1,0,0:0:0:70:K.wav
64,192,201105,1,0,0:0:0:0:
192,192,201191,1,0,0:0:0:0:
320,192,201277,1,0,0:0:0:0:
64,192,201363,1,0,0:0:0:70:S.wav
448,192,201363,1,0,0:0:0:0:
192,192,201448,1,0,0:0:0:0:
448,192,201534,1,0,0:0:0:0:
320,192,201591,1,0,0:0:0:0:
192,192,201648,1,0,0:0:0:0:
64,192,201705,1,0,0:0:0:70:K.wav
320,192,201791,1,0,0:0:0:0:
448,192,201877,1,0,0:0:0:0:
64,192,201963,1,0,0:0:0:0:
192,192,202048,1,0,0:0:0:70:S.wav
320,192,202048,1,0,0:0:0:0:
448,192,202134,1,0,0:0:0:0:
320,192,202220,1,0,0:0:0:0:
192,192,202305,1,0,0:0:0:0:
64,192,202391,1,0,0:0:0:70:K.wav
192,192,202563,1,0,0:0:0:0:
448,192,202648,1,0,0:0:0:0:
64,192,202734,1,0,0:0:0:70:S.wav
320,192,202734,1,0,0:0:0:0:
192,192,202905,1,0,0:0:0:0:
64,192,202991,1,0,0:0:0:0:
448,192,203077,1,0,0:0:0:70:K.wav
64,192,203163,1,0,0:0:0:0:
320,192,203248,1,0,0:0:0:0:
192,192,203334,1,0,0:0:0:0:
64,192,203420,1,0,0:0:0:70:S.wav
448,192,203420,1,0,0:0:0:0:
320,192,203505,1,0,0:0:0:0:
192,192,203591,1,0,0:0:0:0:
448,192,203677,1,0,0:0:0:0:
64,192,203763,1,0,0:0:0:70:K.wav
192,192,203848,1,0,0:0:0:0:
448,192,203934,1,0,0:0:0:0:
320,192,204020,1,0,0:0:0:0:
192,192,204105,128,0,204277:0:0:0:70:S.wav
64,192,204105,1,0,0:0:0:0:
320,192,204277,1,0,0:0:0:0:
64,192,204363,1,0,0:0:0:0:
448,192,204448,1,0,0:0:0:70:K.wav
320,192,204534,1,0,0:0:0:0:
64,192,204620,1,0,0:0:0:50:S3.wav
192,192,204705,1,0,0:0:0:50:S3.wav
448,192,204791,1,0,0:0:0:70:S.wav
320,192,204791,1,0,0:0:0:0:
64,192,204877,1,0,0:0:0:0:
320,192,204963,1,0,0:0:0:50:S3.wav
192,192,205048,1,0,0:0:0:50:S3.wav
64,192,205134,1,0,0:0:0:70:K.wav
448,192,205134,128,0,205477:0:0:0:70:F-Kick.wav
192,192,205305,1,0,0:0:0:0:
64,192,205477,128,0,205648:0:0:0:70:S.wav
320,192,205477,1,0,0:0:0:0:
192,192,205648,128,0,205820:0:0:0:0:
448,192,205820,1,0,0:0:0:70:K.wav
64,192,205905,1,0,0:0:0:0:
320,192,205991,1,0,0:0:0:0:
192,192,206077,1,0,0:0:0:0:
64,192,206163,1,0,0:0:0:70:S.wav
448,192,206163,1,0,0:0:0:0:
320,192,206248,1,0,0:0:0:0:
192,192,206334,128,0,206505:0:0:0:0:
448,192,206505,1,0,0:0:0:70:K.wav
320,192,206677,128,0,206848:0:0:0:0:
64,192,206848,1,0,0:0:0:70:S.wav
448,192,206848,1,0,0:0:0:0:
192,192,207020,128,0,207105:0:0:0:0:
64,192,207105,128,0,207534:0:0:0:0:
448,192,207191,1,0,0:0:0:70:K.wav
320,192,207534,1,0,0:0:0:70:S.wav
448,192,207534,1,0,0:0:0:0:
192,192,207705,1,0,0:0:0:0:
320,192,207791,1,0,0:0:0:0:
448,192,207877,128,0,208048:0:0:0:70:K.wav
64,192,208048,1,0,0:0:0:0:
192,192,208134,1,0,0:0:0:0:
320,192,208220,128,0,208391:0:0:0:70:S.wav
64,192,208220,1,0,0:0:0:0:
448,192,208391,1,0,0:0:0:0:
64,192,208477,1,0,0:0:0:0:
192,192,208563,128,0,208734:0:0:0:70:K.wav
448,192,208734,1,0,0:0:0:0:
320,192,208820,1,0,0:0:0:0:
64,192,208905,128,0,209077:0:0:0:70:S.wav
192,192,208905,1,0,0:0:0:0:
320,192,209077,1,0,0:0:0:0:
192,192,209163,1,0,0:0:0:0:
320,192,209248,1,0,0:0:0:70:K.wav
448,192,209248,128,0,209420:0:0:0:50:1.wav
64,192,209420,128,0,209591:0:0:0:0:
192,192,209591,1,0,0:0:0:70:S.wav
320,192,209591,128,0,209763:0:0:0:50:2.wav
192,192,209763,128,0,209934:0:0:0:0:
64,192,209934,1,0,0:0:0:50:S3.wav
448,192,209934,128,0,210105:0:0:0:50:3.wav
320,192,210105,1,0,0:0:0:0:
64,192,210191,1,0,0:0:0:50:K.wav
192,192,210277,128,0,210448:0:0:0:50:S4.wav
448,192,210277,1,0,0:0:0:0:
320,192,210448,128,0,210620:0:0:0:50:K.wav
64,192,210620,1,0,0:0:0:50:K.wav
448,192,210705,1,0,0:0:0:0:
64,192,210791,1,0,0:0:0:0:
320,192,210877,1,0,0:0:0:0:
192,192,210963,1,0,0:0:0:0:
64,192,210963,1,0,0:0:0:70:S.wav
448,192,211048,1,0,0:0:0:0:
320,192,211134,1,0,0:0:0:0:
64,192,211220,1,0,0:0:0:0:
64,192,211391,1,0,0:0:0:0:
192,192,211477,1,0,0:0:0:0:
448,192,211563,1,0,0:0:0:0:
320,192,211648,1,0,0:0:0:70:S.wav
64,192,211648,1,0,0:0:0:0:
192,192,211734,1,0,0:0:0:0:
320,192,211820,1,0,0:0:0:0:
448,192,211905,1,0,0:0:0:0:
64,192,212077,1,0,0:0:0:0:
320,192,212163,1,0,0:0:0:0:
192,192,212248,1,0,0:0:0:0:
448,192,212334,1,0,0:0:0:70:S.wav
320,192,212334,1,0,0:0:0:0:
64,192,212420,1,0,0:0:0:0:
192,192,212505,1,0,0:0:0:0:
320,192,212591,1,0,0:0:0:0:
64,192,212763,1,0,0:0:0:0:
448,192,212848,1,0,0:0:0:0:
320,192,212934,1,0,0:0:0:0:
192,192,213020,1,0,0:0:0:70:S.wav
64,192,213020,1,0,0:0:0:0:
448,192,213105,1,0,0:0:0:0:
64,192,213191,1,0,0:0:0:0:
192,192,213277,1,0,0:0:0:0:
320,192,213448,1,0,0:0:0:0:
192,192,213534,1,0,0:0:0:0:
448,192,213620,1,0,0:0:0:0:
64,192,213705,1,0,0:0:0:70:S.wav
320,192,213705,1,0,0:0:0:0:
192,192,213791,1,0,0:0:0:0:
320,192,213877,1,0,0:0:0:0:
448,192,213963,1,0,0:0:0:0:
448,192,214134,1,0,0:0:0:0:
192,192,214220,1,0,0:0:0:0:
320,192,214305,1,0,0:0:0:0:
64,192,214391,1,0,0:0:0:70:S.wav
448,192,214391,1,0,0:0:0:0:
192,192,214477,1,0,0:0:0:0:
448,192,214563,1,0,0:0:0:0:
320,192,214648,1,0,0:0:0:0:
320,192,214820,1,0,0:0:0:0:
448,192,214905,1,0,0:0:0:70:K.wav
192,192,214991,1,0,0:0:0:0:
64,192,215077,1,0,0:0:0:70:S.wav
320,192,215077,1,0,0:0:0:0:
448,192,215163,1,0,0:0:0:0:
192,192,215248,1,0,0:0:0:70:K.wav
320,192,215334,1,0,0:0:0:0:
64,192,215420,128,0,215763:0:0:0:70:K.wav
448,192,215420,1,0,0:0:0:70:Bassdrop.wav
448,192,215763,128,0,216105:0:0:0:0:
64,192,216105,1,0,0:0:0:70:K.wav
192,192,216105,1,0,0:0:0:70:F-Kick.wav
64,192,216363,1,0,0:0:0:70:K.wav
448,192,216363,1,0,0:0:0:0:
192,192,216620,1,0,0:0:0:70:K.wav
448,192,216620,1,0,0:0:0:0:
64,192,216791,1,0,0:0:0:70:K.wav
320,192,216791,1,0,0:0:0:0:
320,192,217048,1,0,0:0:0:70:K.wav
448,192,217048,1,0,0:0:0:0:
64,192,217305,1,0,0:0:0:70:K.wav
448,192,217305,1,0,0:0:0:0:
192,192,217477,1,0,0:0:0:70:K.wav
320,192,217477,1,0,0:0:0:0:
192,192,217734,1,0,0:0:0:70:K.wav
448,192,217734,1,0,0:0:0:0:
320,192,217991,1,0,0:0:0:70:K.wav
448,192,217991,1,0,0:0:0:0:
192,192,218163,1,0,0:0:0:70:K.wav
320,192,218163,1,0,0:0:0:0:
64,192,218420,1,0,0:0:0:70:K.wav
192,192,218420,1,0,0:0:0:0:
64,192,218677,1,0,0:0:0:70:K.wav
320,192,218677,1,0,0:0:0:0:
192,192,218763,1,0,0:0:0:0:
448,192,218848,128,0,218934:0:0:0:70:K.wav
320,192,218934,128,0,219020:0:0:0:70:K.wav
192,192,219020,128,0,219105:0:0:0:70:K.wav
64,192,219105,128,0,219191:0:0:0:70:K.wav
448,192,219191,128,0,219277:0:0:0:70:K.wav
320,192,219277,128,0,219363:0:0:0:70:K.wav
192,192,219363,128,0,219448:0:0:0:70:K.wav
64,192,219448,128,0,219534:0:0:0:70:K.wav
320,192,219534,1,0,0:0:0:70:K.wav
448,192,219620,1,0,0:0:0:70:K.wav
64,192,219705,1,0,0:0:0:70:K.wav
192,192,219791,1,0,0:0:0:70:K.wav
320,192,219877,1,0,0:0:0:70:K.wav
448,192,219963,1,0,0:0:0:70:K.wav
192,192,220048,1,0,0:0:0:70:K.wav
64,192,220134,1,0,0:0:0:70:K.wav
320,192,220220,1,0,0:0:0:70:K.wav
448,192,220220,128,0,220563:0:0:0:70:Bassdrop.wav
64,192,220563,128,0,220905:0:0:0:0:
320,192,220905,128,0,221248:0:0:0:0:
192,192,221077,1,0,0:0:0:0:
64,192,221248,1,0,0:0:0:70:Impact_snare.wav
448,192,221420,1,0,0:0:0:0:
64,192,221591,128,0,221934:0:0:0:70:F-Kick.wav
192,192,221591,1,0,0:0:0:0:
320,192,221934,128,0,222105:0:0:0:0:
192,192,222105,128,0,222448:0:0:0:0:
448,192,222448,128,0,222620:0:0:0:0:
320,192,222620,128,0,222791:0:0:0:0:
192,192,222791,128,0,222963:0:0:0:0:
64,192,222963,128,0,223991:0:0:0:0:
448,192,223134,1,0,0:0:0:70:tom01.wav
320,192,223220,1,0,0:0:0:70:tom02.wav
192,192,223305,1,0,0:0:0:70:tom01.wav
320,192,223477,1,0,0:0:0:70:tom01.wav
448,192,223648,1,0,0:0:0:70:tom02.wav
192,192,223820,1,0,0:0:0:70:tom03.wav
320,192,223991,1,0,0:0:0:70:tom04.wav
192,192,224163,1,0,0:0:0:0:
448,192,224163,1,0,0:0:0:0:
64,192,224334,128,0,224677:0:0:0:70:K.wav
192,192,224334,1,0,0:0:0:70:F-Kick.wav
448,192,224334,1,0,0:0:0:0:
320,192,224505,1,0,0:0:0:0:
320,192,224677,1,0,0:0:0:70:S.wav
448,192,224677,1,0,0:0:0:0:
64,192,224848,128,0,225191:0:0:0:0:
320,192,225020,1,0,0:0:0:70:K.wav
448,192,225020,1,0,0:0:0:0:
192,192,225191,1,0,0:0:0:0:
192,192,225363,1,0,0:0:0:70:S.wav
448,192,225363,128,0,225534:0:0:0:0:
320,192,225534,128,0,225705:0:0:0:0:
64,192,225705,128,0,226734:0:0:0:70:K.wav
192,192,225705,1,0,0:0:0:0:
448,192,225877,1,0,0:0:0:0:
320,192,226048,1,0,0:0:0:70:S.wav
448,192,226048,1,0,0:0:0:0:
192,192,226220,1,0,0:0:0:0:
192,192,226391,1,0,0:0:0:70:K.wav
320,192,226391,1,0,0:0:0:0:
320,192,226563,1,0,0:0:0:0:
192,192,226734,1,0,0:0:0:70:S.wav
448,192,226734,1,0,0:0:0:0:
64,192,226905,1,0,0:0:0:0:
192,192,227077,1,0,0:0:0:70:K.wav
448,192,227077,128,0,227420:0:0:0:0:
64,192,227248,1,0,0:0:0:0:
64,192,227420,1,0,0:0:0:70:S.wav
320,192,227420,1,0,0:0:0:0:
448,192,227591,128,0,227934:0:0:0:0:
64,192,227763,1,0,0:0:0:70:K.wav
192,192,227763,1,0,0:0:0:0:
320,192,227934,1,0,0:0:0:0:
64,192,228105,128,0,228277:0:0:0:70:S.wav
320,192,228105,1,0,0:0:0:0:
192,192,228277,128,0,228448:0:0:0:0:
64,192,228448,1,0,0:0:0:70:K.wav
448,192,228448,128,0,229477:0:0:0:0:
320,192,228620,1,0,0:0:0:0:
192,192,228791,1,0,0:0:0:70:S.wav
320,192,228791,1,0,0:0:0:0:
64,192,228963,1,0,0:0:0:0:
64,192,229134,1,0,0:0:0:70:K.wav
192,192,229134,1,0,0:0:0:0:
192,192,229305,1,0,0:0:0:50:S3.wav
64,192,229477,1,0,0:0:0:70:S.wav
320,192,229477,1,0,0:0:0:0:
448,192,229648,1,0,0:0:0:50:S3.wav
192,192,229820,128,0,230163:0:0:0:70:K.wav
320,192,229820,1,0,0:0:0:70:F-Kick.wav
448,192,229991,1,0,0:0:0:0:
64,192,230163,1,0,0:0:0:70:S.wav
320,192,230163,1,0,0:0:0:0:
192,192,230334,128,0,230677:0:0:0:0:
64,192,230505,1,0,0:0:0:70:K.wav
448,192,230505,1,0,0:0:0:0:
320,192,230677,128,0,230848:0:0:0:0:
192,192,230848,1,0,0:0:0:70:S.wav
448,192,230848,128,0,231020:0:0:0:0:
64,192,231020,128,0,231191:0:0:0:0:
192,192,231191,128,0,231534:0:0:0:70:K.wav
320,192,231191,1,0,0:0:0:0:
320,192,231534,1,0,0:0:0:70:S.wav
448,192,231534,1,0,0:0:0:0:
64,192,231705,1,0,0:0:0:70:K.wav
192,192,231705,1,0,0:0:0:0:
64,192,232048,1,0,0:0:0:70:K.wav
448,192,232048,1,0,0:0:0:0:
192,192,232220,1,0,0:0:0:70:S.wav
320,192,232220,1,0,0:0:0:0:
64,192,232391,1,0,0:0:0:70:K.wav
192,192,232477,1,0,0:0:0:70:K.wav
320,192,232563,1,0,0:0:0:70:K.wav
448,192,232563,128,0,232905:0:0:0:70:F-Kick.wav
64,192,232734,1,0,0:0:0:0:
64,192,232905,1,0,0:0:0:70:S.wav
192,192,232905,1,0,0:0:0:0:
448,192,233077,128,0,233420:0:0:0:0:
192,192,233248,1,0,0:0:0:70:K.wav
320,192,233248,1,0,0:0:0:0:
192,192,233420,1,0,0:0:0:0:
64,192,233591,128,0,233763:0:0:0:70:S.wav
320,192,233591,1,0,0:0:0:0:
192,192,233763,128,0,233934:0:0:0:0:
320,192,233934,1,0,0:0:0:70:K.wav
448,192,233934,128,0,234963:0:0:0:0:
320,192,234105,1,0,0:0:0:0:
64,192,234277,1,0,0:0:0:70:S.wav
192,192,234277,1,0,0:0:0:0:
64,192,234448,1,0,0:0:0:0:
192,192,234620,1,0,0:0:0:70:K.wav
320,192,234620,1,0,0:0:0:0:
192,192,234791,1,0,0:0:0:0:
64,192,234963,1,0,0:0:0:70:S.wav
320,192,234963,1,0,0:0:0:0:
448,192,235134,1,0,0:0:0:0:
64,192,235305,128,0,235648:0:0:0:70:K.wav
320,192,235305,1,0,0:0:0:0:
192,192,235477,1,0,0:0:0:0:
320,192,235648,1,0,0:0:0:70:S.wav
448,192,235648,1,0,0:0:0:0:
64,192,235820,128,0,236163:0:0:0:0:
192,192,235991,1,0,0:0:0:70:K.wav
448,192,235991,1,0,0:0:0:0:
320,192,236163,1,0,0:0:0:0:
64,192,236334,1,0,0:0:0:70:S.wav
448,192,236334,128,0,236505:0:0:0:0:
320,192,236505,128,0,236677:0:0:0:0:
192,192,236677,128,0,237020:0:0:0:70:K.wav
448,192,236677,1,0,0:0:0:0:
64,192,236848,1,0,0:0:0:0:
320,192,237020,1,0,0:0:0:70:S.wav
448,192,237020,1,0,0:0:0:0:
192,192,237191,1,0,0:0:0:0:
64,192,237363,1,0,0:0:0:70:K.wav
448,192,237363,1,0,0:0:0:0:
192,192,237448,1,0,0:0:0:70:K.wav
320,192,237534,1,0,0:0:0:70:K.wav
64,192,237620,1,0,0:0:0:70:K.wav
192,192,237705,1,0,0:0:0:70:S.wav
448,192,237705,1,0,0:0:0:0:
448,192,237877,1,0,0:0:0:70:K.wav
64,192,238048,1,0,0:0:0:70:K.wav
192,192,238048,1,0,0:0:0:70:C.wav
448,192,238134,1,0,0:0:0:70:K.wav
192,192,238220,1,0,0:0:0:70:K.wav
320,192,238305,1,0,0:0:0:70:K.wav
448,192,238391,1,0,0:0:0:70:S.wav
64,192,238477,1,0,0:0:0:70:K.wav
320,192,238563,1,0,0:0:0:70:K.wav
192,192,238648,1,0,0:0:0:70:K.wav
64,192,238734,1,0,0:0:0:70:K.wav
320,192,238820,1,0,0:0:0:70:K.wav
192,192,238905,1,0,0:0:0:70:K.wav
448,192,238991,1,0,0:0:0:70:K.wav
64,192,239077,1,0,0:0:0:70:S.wav
320,192,239077,1,0,0:0:0:0:
64,192,239248,1,0,0:0:0:70:K.wav
320,192,239420,1,0,0:0:0:70:K.wav
448,192,239420,1,0,0:0:0:70:C1.wav
64,192,239505,1,0,0:0:0:70:K.wav
192,192,239591,1,0,0:0:0:70:K.wav
320,192,239677,1,0,0:0:0:70:K.wav
64,192,239763,1,0,0:0:0:70:S.wav
448,192,239848,1,0,0:0:0:70:K.wav
320,192,239934,1,0,0:0:0:70:K.wav
192,192,240020,1,0,0:0:0:70:K.wav
448,192,240105,1,0,0:0:0:70:K.wav
192,192,240191,1,0,0:0:0:70:K.wav
320,192,240277,1,0,0:0:0:70:K.wav
64,192,240363,1,0,0:0:0:70:K.wav
192,192,240448,1,0,0:0:0:70:S.wav
448,192,240448,1,0,0:0:0:0:
448,192,240620,1,0,0:0:0:70:K.wav
64,192,240791,1,0,0:0:0:70:K.wav
192,192,240877,1,0,0:0:0:70:K.wav
320,192,240963,1,0,0:0:0:70:K.wav
448,192,241048,1,0,0:0:0:70:K.wav
64,192,241134,1,0,0:0:0:70:S.wav
320,192,241220,1,0,0:0:0:70:K.wav
192,192,241305,1,0,0:0:0:70:K.wav
448,192,241391,1,0,0:0:0:70:K.wav
64,192,241477,1,0,0:0:0:70:K.wav
192,192,241563,1,0,0:0:0:70:K.wav
320,192,241648,1,0,0:0:0:70:K.wav
448,192,241734,1,0,0:0:0:70:K.wav
64,192,241820,1,0,0:0:0:70:S.wav
320,192,241905,1,0,0:0:0:0:
192,192,241991,1,0,0:0:0:70:K.wav
448,192,242077,1,0,0:0:0:0:
64,192,242163,1,0,0:0:0:70:K.wav
192,192,242248,1,0,0:0:0:70:K.wav
320,192,242334,1,0,0:0:0:70:K.wav
64,192,242420,1,0,0:0:0:70:K.wav
448,192,242505,1,0,0:0:0:70:K.wav
320,192,242591,1,0,0:0:0:70:K.wav
192,192,242677,1,0,0:0:0:70:K.wav
448,192,242763,1,0,0:0:0:70:K.wav
64,192,242848,1,0,0:0:0:70:K.wav
192,192,242934,1,0,0:0:0:70:K.wav
320,192,243020,1,0,0:0:0:70:K.wav
64,192,243105,1,0,0:0:0:70:K.wav
192,192,243191,1,0,0:0:0:70:K.wav
448,192,243191,1,0,0:0:0:70:Bassdrop.wav
320,192,243363,1,0,0:0:0:0:
192,192,243448,1,0,0:0:0:0:
64,192,243534,1,0,0:0:0:70:K.wav
448,192,243534,1,0,0:0:0:70:F-Kick.wav
