osu file format v14

[General]
AudioFilename: audio.ogg
AudioLeadIn: 0
PreviewTime: 160434
Countdown: 0
SampleSet: Soft
StackLeniency: 0.7
Mode: 3
LetterboxInBreaks: 0
SpecialStyle: 0
WidescreenStoryboard: 1

[Editor]
Bookmarks: 49348,115177,181005
DistanceSpacing: 0.8
BeatDivisor: 8
GridSize: 16
TimelineZoom: 1.7

[Metadata]
Title:TRIPLE PLAY
TitleUnicode:TRIPLE PLAY
Artist:KASAI HARCORES
ArtistUnicode:葛西ハーコーズ
Creator:secXcscX
Version:Hanwha Eagles
Source:
Tags:hardcore featured artist fa camellia c-show dj genki かめりあ kamelcamellia かめるかめりあ cametek seulgi baseball sv EP Electronic Instrumental
BeatmapID:3552327
BeatmapSetID:1738026

[Difficulty]
HPDrainRate:9
CircleSize:4
OverallDifficulty:8.2
ApproachRate:5
SliderMultiplier:1.4
SliderTickRate:1

[Events]
//Background and Video events
0,0,"BG.jpg",0,0
//Break Periods
//Storyboard Layer 0 (Background)
//Storyboard Layer 1 (Fail)
//Storyboard Layer 2 (Pass)
//Storyboard Layer 3 (Foreground)
//Storyboard Layer 4 (Overlay)
//Storyboard Sound Samples

[TimingPoints]
2720,342.857142857143,4,2,1,40,1,0
2891,-52.6315789473684,4,2,1,40,0,0
2912,-142.857142857143,4,2,1,40,0,0
2977,-100,4,2,1,40,0,0
3234,-52.6315789473684,4,2,1,40,0,0
3261,-142.857142857143,4,2,1,40,0,0
3341,-100,4,2,1,40,0,0
3577,-52.6315789473684,4,2,1,40,0,0
3609,-142.857142857143,4,2,1,40,0,0
3705,-100,4,2,1,40,0,0
3920,-52.6315789473684,4,2,1,40,0,0
3958,-142.857142857143,4,2,1,40,0,0
4070,-100,4,2,1,40,0,0
4262,-52.6315789473684,4,2,1,40,0,0
4305,-142.857142857143,4,2,1,40,0,0
4433,-100,4,2,1,40,0,0
4605,-52.6315789473684,4,2,1,40,0,0
4648,-142.857142857143,4,2,1,40,0,0
4776,-100,4,2,1,40,0,0
4948,-52.6315789473684,4,2,1,40,0,0
4991,-142.857142857143,4,2,1,40,0,0
5120,-62.5,4,2,1,40,0,0
5162,-125,4,2,1,40,0,0
5291,-57.1428571428571,4,2,1,40,0,0
5320,-400,4,2,1,40,0,0
5348,-57.1428571428571,4,2,1,40,0,0
5377,-400,4,2,1,40,0,0
5405,-57.1428571428571,4,2,1,40,0,0
5434,-400,4,2,1,40,0,0
5462,-100,4,2,1,40,0,0
5634,-52.6315789473684,4,2,1,40,0,0
5677,-142.857142857143,4,2,1,40,0,0
5805,-100,4,2,1,40,0,0
5977,-52.6315789473684,4,2,1,40,0,0
6020,-142.857142857143,4,2,1,40,0,0
6148,-100,4,2,1,40,0,0
6320,-52.6315789473684,4,2,1,40,0,0
6363,-142.857142857143,4,2,1,40,0,0
6491,-100,4,2,1,40,0,0
6662,-52.6315789473684,4,2,1,40,0,0
6705,-142.857142857143,4,2,1,40,0,0
6833,-100,4,2,1,40,0,0
7005,-52.6315789473684,4,2,1,40,0,0
7048,-142.857142857143,4,2,1,40,0,0
7176,-100,4,2,1,40,0,0
7348,-52.6315789473684,4,2,1,40,0,0
7391,-142.857142857143,4,2,1,40,0,0
7519,-100,4,2,1,40,0,0
7691,-52.6315789473684,4,2,1,40,0,0
7734,-142.857142857143,4,2,1,40,0,0
7862,-100,4,2,1,40,0,0
8034,-52.6315789473684,4,2,1,40,0,0
8077,-142.857142857143,4,2,1,40,0,0
8205,-100,4,2,1,40,0,0
8377,-52.6315789473684,4,2,1,40,0,0
8398,-142.857142857143,4,2,1,40,0,0
8463,-100,4,2,1,40,0,0
8720,-52.6315789473684,4,2,1,40,0,0
8747,-142.857142857143,4,2,1,40,0,0
8827,-100,4,2,1,40,0,0
9063,-52.6315789473684,4,2,1,40,0,0
9095,-142.857142857143,4,2,1,40,0,0
9191,-100,4,2,1,40,0,0
9406,-52.6315789473684,4,2,1,40,0,0
9444,-142.857142857143,4,2,1,40,0,0
9556,-100,4,2,1,40,0,0
9748,-52.6315789473684,4,2,1,40,0,0
9791,-142.857142857143,4,2,1,40,0,0
9919,-100,4,2,1,40,0,0
10091,-52.6315789473684,4,2,1,40,0,0
10134,-142.857142857143,4,2,1,40,0,0
10262,-100,4,2,1,40,0,0
10434,-52.6315789473684,4,2,1,40,0,0
10477,-142.857142857143,4,2,1,40,0,0
10605,-62.5,4,2,1,40,0,0
10647,-125,4,2,1,40,0,0
10776,-57.1428571428571,4,2,1,40,0,0
10805,-400,4,2,1,40,0,0
10833,-57.1428571428571,4,2,1,40,0,0
10862,-400,4,2,1,40,0,0
10890,-57.1428571428571,4,2,1,40,0,0
10919,-400,4,2,1,40,0,0
10948,-100,4,2,1,40,0,0
11120,-52.6315789473684,4,2,1,40,0,0
11163,-142.857142857143,4,2,1,40,0,0
11291,-100,4,2,1,40,0,0
11462,-52.6315789473684,4,2,1,40,0,0
11505,-142.857142857143,4,2,1,40,0,0
11633,-100,4,2,1,40,0,0
11805,-52.6315789473684,4,2,1,40,0,0
11848,-142.857142857143,4,2,1,40,0,0
11976,-100,4,2,1,40,0,0
12148,-52.6315789473684,4,2,1,40,0,0
12191,-142.857142857143,4,2,1,40,0,0
12320,-76.9230769230769,4,2,1,40,0,0
12362,-142.857142857143,4,2,1,40,0,0
12405,-76.9230769230769,4,2,1,40,0,0
12447,-142.857142857143,4,2,1,40,0,0
12491,-76.9230769230769,4,2,1,40,0,0
12533,-142.857142857143,4,2,1,40,0,0
12576,-76.9230769230769,4,2,1,40,0,0
12618,-142.857142857143,4,2,1,40,0,0
12662,-71.4285714285714,4,2,1,40,0,0
12704,-166.666666666667,4,2,1,40,0,0
12747,-71.4285714285714,4,2,1,40,0,0
12789,-166.666666666667,4,2,1,40,0,0
12834,-71.4285714285714,4,2,1,40,0,0
12876,-166.666666666667,4,2,1,40,0,0
12919,-71.4285714285714,4,2,1,40,0,0
12961,-166.666666666667,4,2,1,40,0,0
13005,-66.6666666666667,4,2,1,40,0,0
13047,-200,4,2,1,40,0,0
13090,-66.6666666666667,4,2,1,40,0,0
13132,-200,4,2,1,40,0,0
13177,-66.6666666666667,4,2,1,40,0,0
13219,-200,4,2,1,40,0,0
13262,-66.6666666666667,4,2,1,40,0,0
13304,-200,4,2,1,40,0,0
13348,-55.5555555555556,4,2,1,40,0,0
13391,-125,4,2,1,40,0,0
13519,-100,4,2,1,40,0,0
13691,-52.6315789473684,4,2,1,40,0,0
13705,-1000,4,2,1,40,0,0
13719,-52.6315789473684,4,2,1,40,0,0
13734,-1000,4,2,1,40,0,0
13748,-55.5555555555556,4,2,1,40,0,0
13762,-500,4,2,1,40,0,0
13776,-55.5555555555556,4,2,1,40,0,0
13791,-500,4,2,1,40,0,0
13805,-58.8235294117647,4,2,1,40,0,0
13819,-333.333333333333,4,2,1,40,0,0
13833,-58.8235294117647,4,2,1,40,0,0
13848,-333.333333333333,4,2,1,40,0,0
13862,-52.6315789473684,4,2,1,40,0,0
13883,-142.857142857143,4,2,1,40,0,0
13948,-100,4,2,1,40,0,0
14034,-52.6315789473684,4,2,1,40,0,0
14048,-1000,4,2,1,40,0,0
14062,-52.6315789473684,4,2,1,40,0,0
14077,-1000,4,2,1,40,0,0
14091,-55.5555555555556,4,2,1,40,0,0
14105,-500,4,2,1,40,0,0
14119,-55.5555555555556,4,2,1,40,0,0
14134,-500,4,2,1,40,0,0
14148,-58.8235294117647,4,2,1,40,0,0
14162,-333.333333333333,4,2,1,40,0,0
14176,-58.8235294117647,4,2,1,40,0,0
14191,-333.333333333333,4,2,1,40,0,0
14205,-52.6315789473684,4,2,1,40,0,0
14232,-142.857142857143,4,2,1,40,0,0
14312,-100,4,2,1,40,0,0
14377,-52.6315789473684,4,2,1,40,0,0
14391,-1000,4,2,1,40,0,0
14405,-52.6315789473684,4,2,1,40,0,0
14420,-1000,4,2,1,40,0,0
14434,-55.5555555555556,4,2,1,40,0,0
14448,-500,4,2,1,40,0,0
14462,-55.5555555555556,4,2,1,40,0,0
14477,-500,4,2,1,40,0,0
14491,-58.8235294117647,4,2,1,40,0,0
14505,-333.333333333333,4,2,1,40,0,0
14519,-58.8235294117647,4,2,1,40,0,0
14534,-333.333333333333,4,2,1,40,0,0
14548,-52.6315789473684,4,2,1,40,0,0
14580,-142.857142857143,4,2,1,40,0,0
14676,-100,4,2,1,40,0,0
14891,-52.6315789473684,4,2,1,40,0,0
14929,-142.857142857143,4,2,1,40,0,0
15041,-100,4,2,1,40,0,0
15062,-52.6315789473684,4,2,1,40,0,0
15076,-1000,4,2,1,40,0,0
15090,-52.6315789473684,4,2,1,40,0,0
15105,-1000,4,2,1,40,0,0
15119,-55.5555555555556,4,2,1,40,0,0
15133,-500,4,2,1,40,0,0
15147,-55.5555555555556,4,2,1,40,0,0
15162,-500,4,2,1,40,0,0
15176,-58.8235294117647,4,2,1,40,0,0
15190,-333.333333333333,4,2,1,40,0,0
15204,-58.8235294117647,4,2,1,40,0,0
15219,-333.333333333333,4,2,1,40,0,0
15234,-52.6315789473684,4,2,1,40,0,0
15277,-142.857142857143,4,2,1,40,0,0
15405,-52.6315789473684,4,2,1,40,0,0
15419,-1000,4,2,1,40,0,0
15433,-52.6315789473684,4,2,1,40,0,0
15448,-1000,4,2,1,40,0,0
15462,-55.5555555555556,4,2,1,40,0,0
15476,-500,4,2,1,40,0,0
15490,-55.5555555555556,4,2,1,40,0,0
15505,-500,4,2,1,40,0,0
15519,-58.8235294117647,4,2,1,40,0,0
15533,-333.333333333333,4,2,1,40,0,0
15547,-58.8235294117647,4,2,1,40,0,0
15562,-333.333333333333,4,2,1,40,0,0
15577,-52.6315789473684,4,2,1,40,0,0
15620,-142.857142857143,4,2,1,40,0,0
15748,-52.6315789473684,4,2,1,40,0,0
15762,-1000,4,2,1,40,0,0
15776,-52.6315789473684,4,2,1,40,0,0
15791,-1000,4,2,1,40,0,0
15805,-55.5555555555556,4,2,1,40,0,0
15819,-500,4,2,1,40,0,0
15833,-55.5555555555556,4,2,1,40,0,0
15848,-500,4,2,1,40,0,0
15862,-58.8235294117647,4,2,1,40,0,0
15876,-333.333333333333,4,2,1,40,0,0
15890,-58.8235294117647,4,2,1,40,0,0
15905,-333.333333333333,4,2,1,40,0,0
15920,-52.6315789473684,4,2,1,40,0,0
15963,-142.857142857143,4,2,1,40,0,0
16091,-100,4,2,1,40,0,0
16262,-52.6315789473684,4,2,1,40,0,0
16305,-142.857142857143,4,2,1,40,0,0
16434,-52.6315789473684,4,2,1,40,0,0
16448,-1000,4,2,1,40,0,0
16462,-52.6315789473684,4,2,1,40,0,0
16477,-1000,4,2,1,40,0,0
16491,-55.5555555555556,4,2,1,40,0,0
16505,-500,4,2,1,40,0,0
16519,-55.5555555555556,4,2,1,40,0,0
16534,-500,4,2,1,40,0,0
16548,-58.8235294117647,4,2,1,40,0,0
16562,-333.333333333333,4,2,1,40,0,0
16576,-58.8235294117647,4,2,1,40,0,0
16591,-333.333333333333,4,2,1,40,0,0
16605,-52.6315789473684,4,2,1,40,0,0
16648,-142.857142857143,4,2,1,40,0,0
16777,-52.6315789473684,4,2,1,40,0,0
16791,-1000,4,2,1,40,0,0
16805,-52.6315789473684,4,2,1,40,0,0
16820,-1000,4,2,1,40,0,0
16834,-55.5555555555556,4,2,1,40,0,0
16848,-500,4,2,1,40,0,0
16862,-55.5555555555556,4,2,1,40,0,0
16877,-500,4,2,1,40,0,0
16891,-58.8235294117647,4,2,1,40,0,0
16905,-333.333333333333,4,2,1,40,0,0
16919,-58.8235294117647,4,2,1,40,0,0
16934,-333.333333333333,4,2,1,40,0,0
16948,-52.6315789473684,4,2,1,40,0,0
16991,-142.857142857143,4,2,1,40,0,0
17120,-52.6315789473684,4,2,1,40,0,0
17134,-1000,4,2,1,40,0,0
17148,-52.6315789473684,4,2,1,40,0,0
17163,-1000,4,2,1,40,0,0
17177,-55.5555555555556,4,2,1,40,0,0
17191,-500,4,2,1,40,0,0
17205,-55.5555555555556,4,2,1,40,0,0
17220,-500,4,2,1,40,0,0
17234,-58.8235294117647,4,2,1,40,0,0
17248,-333.333333333333,4,2,1,40,0,0
17262,-58.8235294117647,4,2,1,40,0,0
17277,-333.333333333333,4,2,1,40,0,0
17291,-52.6315789473684,4,2,1,40,0,0
17334,-142.857142857143,4,2,1,40,0,0
17462,-100,4,2,1,40,0,0
17634,-52.6315789473684,4,2,1,40,0,0
17677,-142.857142857143,4,2,1,40,0,0
17805,-52.6315789473684,4,2,1,40,0,0
17819,-1000,4,2,1,40,0,0
17833,-52.6315789473684,4,2,1,40,0,0
17848,-1000,4,2,1,40,0,0
17862,-55.5555555555556,4,2,1,40,0,0
17876,-500,4,2,1,40,0,0
17890,-55.5555555555556,4,2,1,40,0,0
17905,-500,4,2,1,40,0,0
17919,-58.8235294117647,4,2,1,40,0,0
17933,-333.333333333333,4,2,1,40,0,0
17947,-58.8235294117647,4,2,1,40,0,0
17962,-333.333333333333,4,2,1,40,0,0
17977,-52.6315789473684,4,2,1,40,0,0
18020,-142.857142857143,4,2,1,40,0,0
18148,-52.6315789473684,4,2,1,40,0,0
18162,-1000,4,2,1,40,0,0
18176,-52.6315789473684,4,2,1,40,0,0
18191,-1000,4,2,1,40,0,0
18205,-55.5555555555556,4,2,1,40,0,0
18219,-500,4,2,1,40,0,0
18233,-55.5555555555556,4,2,1,40,0,0
18248,-500,4,2,1,40,0,0
18262,-58.8235294117647,4,2,1,40,0,0
18276,-333.333333333333,4,2,1,40,0,0
18290,-58.8235294117647,4,2,1,40,0,0
18305,-333.333333333333,4,2,1,40,0,0
18320,-52.6315789473684,4,2,1,40,0,0
18363,-142.857142857143,4,2,1,40,0,0
18491,-52.6315789473684,4,2,1,40,0,0
18505,-1000,4,2,1,40,0,0
18519,-52.6315789473684,4,2,1,40,0,0
18534,-1000,4,2,1,40,0,0
18548,-55.5555555555556,4,2,1,40,0,0
18562,-500,4,2,1,40,0,0
18576,-55.5555555555556,4,2,1,40,0,0
18591,-500,4,2,1,40,0,0
18605,-58.8235294117647,4,2,1,40,0,0
18619,-333.333333333333,4,2,1,40,0,0
18633,-58.8235294117647,4,2,1,40,0,0
18648,-333.333333333333,4,2,1,40,0,0
18662,-52.6315789473684,4,2,1,40,0,0
18705,-142.857142857143,4,2,1,40,0,0
18834,-52.6315789473684,4,2,1,40,0,0
18877,-142.857142857143,4,2,1,40,0,0
19005,-100,4,2,1,40,0,0
19177,-66.6666666666667,4,2,1,40,0,0
19262,-200,4,2,1,40,0,0
19348,-100,4,2,1,40,0,0
19520,-66.6666666666667,4,2,1,40,0,0
19605,-200,4,2,1,40,0,0
19691,-100,4,2,1,40,0,0
19862,-66.6666666666667,4,2,1,40,0,0
19947,-200,4,2,1,40,0,0
20033,-100,4,2,1,40,0,0
20205,-66.6666666666667,4,2,1,40,0,0
20290,-200,4,2,1,40,0,0
20376,-100,4,2,1,40,0,0
20548,-57.1428571428571,4,2,1,40,0,0
20633,-400,4,2,1,40,0,0
20720,-66.6666666666667,4,2,1,40,0,0
20805,-200,4,2,1,40,0,0
20891,-57.1428571428571,4,2,1,40,0,0
20976,-400,4,2,1,40,0,0
21062,-66.6666666666667,4,2,1,40,0,0
21147,-200,4,2,1,40,0,0
21234,-57.1428571428571,4,2,1,40,0,0
21319,-400,4,2,1,40,0,0
21405,-66.6666666666667,4,2,1,40,0,0
21490,-200,4,2,1,40,0,0
21577,-57.1428571428571,4,2,1,40,0,0
21662,-400,4,2,1,40,0,0
21748,-66.6666666666667,4,2,1,40,0,0
21833,-200,4,2,1,40,0,0
21920,-52.6315789473684,4,2,1,40,0,0
21941,-142.857142857143,4,2,1,40,0,0
22005,-52.6315789473684,4,2,1,40,0,0
22026,-142.857142857143,4,2,1,40,0,0
22091,-52.6315789473684,4,2,1,40,0,0
22112,-142.857142857143,4,2,1,40,0,0
22177,-52.6315789473684,4,2,1,40,0,0
22198,-142.857142857143,4,2,1,40,0,0
22262,-45.4545454545455,4,2,1,40,0,0
22283,-166.666666666667,4,2,1,40,0,0
22348,-45.4545454545455,4,2,1,40,0,0
22369,-166.666666666667,4,2,1,40,0,0
22434,-45.4545454545455,4,2,1,40,0,0
22455,-166.666666666667,4,2,1,40,0,0
22520,-45.4545454545455,4,2,1,40,0,0
22541,-166.666666666667,4,2,1,40,0,0
22605,-40,4,2,1,40,0,0
22626,-200,4,2,1,40,0,0
22691,-40,4,2,1,40,0,0
22712,-200,4,2,1,40,0,0
22777,-40,4,2,1,40,0,0
22798,-200,4,2,1,40,0,0
22862,-40,4,2,1,40,0,0
22883,-200,4,2,1,40,0,0
22948,-35.7142857142857,4,2,1,40,0,0
22969,-250.000000000001,4,2,1,40,0,0
23034,-35.7142857142857,4,2,1,40,0,0
23055,-250.000000000001,4,2,1,40,0,0
23120,-35.7142857142857,4,2,1,40,0,0
23141,-250.000000000001,4,2,1,40,0,0
23205,-35.7142857142857,4,2,1,40,0,0
23226,-250.000000000001,4,2,1,40,0,0
23291,-40,4,2,1,40,0,0
23302,-200,4,2,1,40,0,0
23334,-40,4,2,1,40,0,0
23345,-200,4,2,1,40,0,0
23377,-40,4,2,1,40,0,0
23388,-200,4,2,1,40,0,0
23420,-40,4,2,1,40,0,0
23431,-200,4,2,1,40,0,0
23462,-40,4,2,1,40,0,0
23473,-200,4,2,1,40,0,0
23505,-40,4,2,1,40,0,0
23516,-200,4,2,1,40,0,0
23548,-40,4,2,1,40,0,0
23559,-200,4,2,1,40,0,0
23591,-40,4,2,1,40,0,0
23602,-200,4,2,1,40,0,0
23634,-40,4,2,1,40,0,0
23645,-200,4,2,1,40,0,0
23677,-40,4,2,1,40,0,0
23688,-200,4,2,1,40,0,0
23720,-40,4,2,1,40,0,0
23731,-200,4,2,1,40,0,0
23763,-40,4,2,1,40,0,0
23774,-200,4,2,1,40,0,0
23805,-40,4,2,1,40,0,0
23816,-200,4,2,1,40,0,0
23848,-40,4,2,1,40,0,0
23859,-200,4,2,1,40,0,0
23891,-40,4,2,1,40,0,0
23902,-200,4,2,1,40,0,0
23934,-40,4,2,1,40,0,0
23945,-200,4,2,1,40,0,0
23977,-32.258064516129,4,2,1,40,0,0
23988,-333.333333333333,4,2,1,40,0,0
24020,-32.258064516129,4,2,1,40,0,0
24031,-333.333333333333,4,2,1,40,0,0
24062,-32.258064516129,4,2,1,40,0,0
24073,-333.333333333333,4,2,1,40,0,0
24105,-32.258064516129,4,2,1,40,0,0
24116,-333.333333333333,4,2,1,40,0,0
24148,-32.258064516129,4,2,1,40,0,0
24159,-333.333333333333,4,2,1,40,0,0
24191,-32.258064516129,4,2,1,40,0,0
24202,-333.333333333333,4,2,1,40,0,0
24233,-32.258064516129,4,2,1,40,0,0
24244,-333.333333333333,4,2,1,40,0,0
24276,-32.258064516129,4,2,1,40,0,0
24287,-333.333333333333,4,2,1,40,0,0
24320,-32.258064516129,4,2,1,40,0,0
24331,-333.333333333333,4,2,1,40,0,0
24363,-32.258064516129,4,2,1,40,0,0
24374,-333.333333333333,4,2,1,40,0,0
24405,-32.258064516129,4,2,1,40,0,0
24416,-333.333333333333,4,2,1,40,0,0
24448,-32.258064516129,4,2,1,40,0,0
24459,-333.333333333333,4,2,1,40,0,0
24491,-32.258064516129,4,2,1,40,0,0
24502,-333.333333333333,4,2,1,40,0,0
24534,-32.258064516129,4,2,1,40,0,0
24545,-333.333333333333,4,2,1,40,0,0
24576,-32.258064516129,4,2,1,40,0,0
24587,-333.333333333333,4,2,1,40,0,0
24619,-32.258064516129,4,2,1,40,0,0
24630,-333.333333333333,4,2,1,40,0,0
24662,-10,4,2,1,40,0,0
24684,-1000,4,2,1,40,0,0
24767,-526.315789473684,4,2,1,40,0,0
24850,-357.142857142857,4,2,1,40,0,0
24933,-277.777777777778,4,2,1,40,0,0
25016,-222.222222222222,4,2,1,40,0,0
25099,-185.185185185185,4,2,1,40,0,0
25182,-158.730158730159,4,2,1,40,0,0
25265,-140.845070422535,4,2,1,40,0,0
25348,-125,4,2,1,40,0,0
25777,-119.047619047619,4,2,1,40,0,0
26205,-113.636363636364,4,2,1,40,0,0
26634,-108.695652173913,4,2,1,40,0,0
27062,-104.166666666667,4,2,1,40,0,0
27577,-100,4,2,1,40,0,0
28777,-52.6315789473684,4,2,1,40,0,0
28820,-142.857142857143,4,2,1,40,0,0
28948,-100,4,2,1,40,0,0
29120,-52.6315789473684,4,2,1,40,0,0
29163,-142.857142857143,4,2,1,40,0,0
29291,-100,4,2,1,40,0,0
29462,-52.6315789473684,4,2,1,40,0,0
29505,-142.857142857143,4,2,1,40,0,0
29634,-66.6666666666667,4,2,1,40,0,0
29677,-200,4,2,1,40,0,0
29720,-66.6666666666667,4,2,1,40,0,0
29763,-200,4,2,1,40,0,0
29805,-40,4,2,1,40,0,0
29848,-133.333333333333,4,2,1,40,0,0
30062,-100,4,2,1,40,0,0
30148,-66.6666666666667,4,2,1,40,0,0
30191,-200,4,2,1,40,0,0
30234,-100,4,2,1,40,0,0
30320,-66.6666666666667,4,2,1,40,0,0
30363,-200,4,2,1,40,0,0
30406,-100,4,2,1,40,0,0
30491,-66.6666666666667,4,2,1,40,0,0
30534,-200,4,2,1,40,0,0
30577,-100,4,2,1,40,0,0
30662,-66.6666666666667,4,2,1,40,0,0
30705,-200,4,2,1,40,0,0
30748,-100,4,2,1,40,0,0
30834,-66.6666666666667,4,2,1,40,0,0
30877,-200,4,2,1,40,0,0
30920,-60.6060606060606,4,2,1,40,0,0
30941,-222.222222222222,4,2,1,40,0,0
30962,-58.8235294117647,4,2,1,40,0,0
30983,-333.333333333333,4,2,1,40,0,0
31005,-57.1428571428571,4,2,1,40,0,0
31026,-400,4,2,1,40,0,0
31048,-55.5555555555556,4,2,1,40,0,0
31069,-500,4,2,1,40,0,0
31091,-54.054054054054,4,2,1,40,0,0
31112,-666.666666666667,4,2,1,40,0,0
31134,-52.6315789473684,4,2,1,40,0,0
31155,-1000,4,2,1,40,0,0
31177,-40,4,2,1,40,0,0
31220,-133.333333333333,4,2,1,40,0,0
31434,-100,4,2,1,40,0,0
31520,-66.6666666666667,4,2,1,40,0,0
31563,-200,4,2,1,40,0,0
31606,-100,4,2,1,40,0,0
31692,-66.6666666666667,4,2,1,40,0,0
31735,-200,4,2,1,40,0,0
31778,-100,4,2,1,40,0,0
31863,-66.6666666666667,4,2,1,40,0,0
31906,-200,4,2,1,40,0,0
31949,-100,4,2,1,40,0,0
32034,-66.6666666666667,4,2,1,40,0,0
32077,-200,4,2,1,40,0,0
32120,-100,4,2,1,40,0,0
32206,-66.6666666666667,4,2,1,40,0,0
32249,-200,4,2,1,40,0,0
32291,-100,4,2,1,40,0,0
32377,-45.4545454545455,4,2,1,40,0,0
32398,-166.666666666667,4,2,1,40,0,0
32462,-45.4545454545455,4,2,1,40,0,0
32483,-166.666666666667,4,2,1,40,0,0
32549,-40,4,2,1,40,0,0
32591,-200,4,2,1,40,0,0
32720,-66.6666666666667,4,2,1,40,0,0
32762,-200,4,2,1,40,0,0
32805,-100,4,2,1,40,0,0
32891,-66.6666666666667,4,2,1,40,0,0
32934,-200,4,2,1,40,0,0
32977,-100,4,2,1,40,0,0
33063,-66.6666666666667,4,2,1,40,0,0
33106,-200,4,2,1,40,0,0
33148,-18.1818181818182,4,2,1,40,0,0
33153,-142.857142857143,4,2,1,40,0,0
33234,-40,4,2,1,40,0,0
33255,-200,4,2,1,40,0,0
33320,-18.1818181818182,4,2,1,40,0,0
33325,-142.857142857143,4,2,1,40,0,0
33405,-18.1818181818182,4,2,1,40,0,0
33410,-142.857142857143,4,2,1,40,0,0
33491,-18.1818181818182,4,2,1,40,0,0
33496,-142.857142857143,4,2,1,40,0,0
33577,-66.6666666666667,4,2,1,40,0,0
33620,-200,4,2,1,40,0,0
33663,-100,4,2,1,40,0,0
33749,-66.6666666666667,4,2,1,40,0,0
33792,-200,4,2,1,40,0,0
33834,-18.1818181818182,4,2,1,40,0,0
33839,-142.857142857143,4,2,1,40,0,0
33920,-40,4,2,1,40,0,0
33941,-200,4,2,1,40,0,0
34005,-18.1818181818182,4,2,1,40,0,0
34010,-142.857142857143,4,2,1,40,0,0
34091,-18.1818181818182,4,2,1,40,0,0
34096,-142.857142857143,4,2,1,40,0,0
34177,-18.1818181818182,4,2,1,40,0,0
34182,-142.857142857143,4,2,1,40,0,0
34262,-40,4,2,1,40,0,0
34305,-200,4,2,1,40,0,0
34434,-40,4,2,1,40,0,0
34477,-200,4,2,1,40,0,0
34605,-35.7142857142857,4,2,1,40,0,0
34648,-250,4,2,1,40,0,0
34777,-35.7142857142857,4,2,1,40,0,0
34820,-250,4,2,1,40,0,0
34948,-32.258064516129,4,2,1,40,0,0
34970,-333.333333333333,4,2,1,40,0,0
35034,-50,4,2,1,40,0,0
35077,-166.666666666667,4,2,1,40,0,0
35090.375,-158.730158730159,4,2,1,40,0,0
35103.75,-153.846153846154,4,2,1,40,0,0
35117.125,-147.058823529412,4,2,1,40,0,0
35130.5,-142.857142857143,4,2,1,40,0,0
35143.875,-136.986301369863,4,2,1,40,0,0
35157.25,-133.333333333333,4,2,1,40,0,0
35170.625,-128.205128205128,4,2,1,40,0,0
35184,-125,4,2,1,40,0,0
35197.375,-120.481927710843,4,2,1,40,0,0
35210.75,-117.647058823529,4,2,1,40,0,0
35224.125,-113.636363636364,4,2,1,40,0,0
35237.5,-111.111111111111,4,2,1,40,0,0
35250.875,-107.52688172043,4,2,1,40,0,0
35264.25,-105.263157894737,4,2,1,40,0,0
35277.625,-102.040816326531,4,2,1,40,0,0
35291,-33.3333333333333,4,2,1,40,0,0
35334,-166.666666666667,4,2,1,40,0,0
35548,-100,4,2,1,40,0,0
35634,-66.6666666666667,4,2,1,40,0,0
35677,-80,4,2,1,40,0,0
35720,-133.333333333333,4,2,1,40,0,0
35762,-200,4,2,1,40,0,0
35805,-100,4,2,1,40,0,0
35977,-66.6666666666667,4,2,1,40,0,0
36020,-80,4,2,1,40,0,0
36063,-133.333333333333,4,2,1,40,0,0
36105,-200,4,2,1,40,0,0
36148,-100,4,2,1,40,0,0
36320,-66.6666666666667,4,2,1,40,0,0
36363,-80,4,2,1,40,0,0
36406,-133.333333333333,4,2,1,40,0,0
36448,-200,4,2,1,40,0,0
36491,-100,4,2,1,40,0,0
36662,-66.6666666666667,4,2,1,40,0,0
36705,-80,4,2,1,40,0,0
36748,-133.333333333333,4,2,1,40,0,0
36790,-200,4,2,1,40,0,0
36834,-66.6666666666667,4,2,1,40,0,0
36877,-80,4,2,1,40,0,0
36920,-133.333333333333,4,2,1,40,0,0
36962,-200,4,2,1,40,0,0
37005,-66.6666666666667,4,2,1,40,0,0
37048,-80,4,2,1,40,0,0
37091,-133.333333333333,4,2,1,40,0,0
37133,-200,4,2,1,40,0,0
37176,-100,4,2,1,40,0,0
37348,-66.6666666666667,4,2,1,40,0,0
37391,-80,4,2,1,40,0,0
37434,-133.333333333333,4,2,1,40,0,0
37476,-200,4,2,1,40,0,0
37519,-100,4,2,1,40,0,0
37691,-66.6666666666667,4,2,1,40,0,0
37734,-80,4,2,1,40,0,0
37777,-133.333333333333,4,2,1,40,0,0
37819,-200,4,2,1,40,0,0
37862,-66.6666666666667,4,2,1,40,0,0
37905,-80,4,2,1,40,0,0
37948,-133.333333333333,4,2,1,40,0,0
37990,-200,4,2,1,40,0,0
38034,-66.6666666666667,4,2,1,40,0,0
38077,-80,4,2,1,40,0,0
38120,-133.333333333333,4,2,1,40,0,0
38162,-200,4,2,1,40,0,0
38205,-100,4,2,1,40,0,0
38377,-52.6315789473684,4,2,1,40,0,0
38391,-1000,4,2,1,40,0,0
38405,-52.6315789473684,4,2,1,40,0,0
38420,-1000,4,2,1,40,0,0
38434,-55.5555555555556,4,2,1,40,0,0
38448,-500,4,2,1,40,0,0
38462,-55.5555555555556,4,2,1,40,0,0
38477,-500,4,2,1,40,0,0
38491,-58.8235294117647,4,2,1,40,0,0
38505,-333.333333333333,4,2,1,40,0,0
38519,-58.8235294117647,4,2,1,40,0,0
38534,-333.333333333333,4,2,1,40,0,0
38548,-100,4,2,1,40,0,0
38720,-52.6315789473684,4,2,1,40,0,0
38734,-1000,4,2,1,40,0,0
38748,-52.6315789473684,4,2,1,40,0,0
38763,-1000,4,2,1,40,0,0
38777,-52.6315789473684,4,2,1,40,0,0
38791,-1000,4,2,1,40,0,0
38805,-52.6315789473684,4,2,1,40,0,0
38820,-1000,4,2,1,40,0,0
38834,-52.6315789473684,4,2,1,40,0,0
38848,-1000,4,2,1,40,0,0
38862,-52.6315789473684,4,2,1,40,0,0
38877,-1000,4,2,1,40,0,0
38891,-52.6315789473684,4,2,1,40,0,0
38905,-1000,4,2,1,40,0,0
38919,-52.6315789473684,4,2,1,40,0,0
38934,-1000,4,2,1,40,0,0
38948,-55.5555555555556,4,2,1,40,0,0
38962,-500,4,2,1,40,0,0
38976,-55.5555555555556,4,2,1,40,0,0
38991,-500,4,2,1,40,0,0
39005,-58.8235294117647,4,2,1,40,0,0
39019,-333.333333333333,4,2,1,40,0,0
39033,-58.8235294117647,4,2,1,40,0,0
39048,-333.333333333333,4,2,1,40,0,0
39062,-45.4545454545455,4,2,1,40,0,0
39105,-166.666666666667,4,2,1,40,0,0
39234,-100,4,2,1,40,0,0
39405,-52.6315789473684,4,2,1,40,0,0
39448,-142.857142857143,4,2,1,40,0,0
39577,-100,4,2,1,40,0,0
39748,-52.6315789473684,4,2,1,40,0,0
39762,-1000,4,2,1,40,0,0
39776,-52.6315789473684,4,2,1,40,0,0
39791,-1000,4,2,1,40,0,0
39805,-55.5555555555556,4,2,1,40,0,0
39819,-500,4,2,1,40,0,0
39833,-55.5555555555556,4,2,1,40,0,0
39848,-500,4,2,1,40,0,0
39862,-58.8235294117647,4,2,1,40,0,0
39876,-333.333333333333,4,2,1,40,0,0
39890,-58.8235294117647,4,2,1,40,0,0
39905,-333.333333333333,4,2,1,40,0,0
39919,-100,4,2,1,40,0,0
40091,-52.6315789473684,4,2,1,40,0,0
40105,-1000,4,2,1,40,0,0
40119,-52.6315789473684,4,2,1,40,0,0
40134,-1000,4,2,1,40,0,0
40148,-52.6315789473684,4,2,1,40,0,0
40162,-1000,4,2,1,40,0,0
40176,-52.6315789473684,4,2,1,40,0,0
40191,-1000,4,2,1,40,0,0
40205,-52.6315789473684,4,2,1,40,0,0
40219,-1000,4,2,1,40,0,0
40233,-52.6315789473684,4,2,1,40,0,0
40248,-1000,4,2,1,40,0,0
40262,-52.6315789473684,4,2,1,40,0,0
40276,-1000,4,2,1,40,0,0
40290,-52.6315789473684,4,2,1,40,0,0
40305,-1000,4,2,1,40,0,0
40319,-55.5555555555556,4,2,1,40,0,0
40333,-500,4,2,1,40,0,0
40347,-55.5555555555556,4,2,1,40,0,0
40362,-500,4,2,1,40,0,0
40376,-58.8235294117647,4,2,1,40,0,0
40390,-333.333333333333,4,2,1,40,0,0
40404,-58.8235294117647,4,2,1,40,0,0
40419,-333.333333333333,4,2,1,40,0,0
40434,-45.4545454545455,4,2,1,40,0,0
40455,-166.666666666667,4,2,1,40,0,0
40520,-100,4,2,1,40,0,0
40776,-52.6315789473684,4,2,1,40,0,0
40819,-142.857142857143,4,2,1,40,0,0
40948,-100,4,2,1,40,0,0
41120,-66.6666666666667,4,2,1,40,0,0
41163,-80,4,2,1,40,0,0
41206,-133.333333333333,4,2,1,40,0,0
41248,-200,4,2,1,40,0,0
41291,-100,4,2,1,40,0,0
41463,-66.6666666666667,4,2,1,40,0,0
41506,-80,4,2,1,40,0,0
41549,-133.333333333333,4,2,1,40,0,0
41591,-200,4,2,1,40,0,0
41634,-100,4,2,1,40,0,0
41806,-66.6666666666667,4,2,1,40,0,0
41849,-80,4,2,1,40,0,0
41892,-133.333333333333,4,2,1,40,0,0
41934,-200,4,2,1,40,0,0
41977,-100,4,2,1,40,0,0
42148,-66.6666666666667,4,2,1,40,0,0
42191,-80,4,2,1,40,0,0
42234,-133.333333333333,4,2,1,40,0,0
42276,-200,4,2,1,40,0,0
42320,-66.6666666666667,4,2,1,40,0,0
42363,-80,4,2,1,40,0,0
42406,-133.333333333333,4,2,1,40,0,0
42448,-200,4,2,1,40,0,0
42491,-66.6666666666667,4,2,1,40,0,0
42534,-80,4,2,1,40,0,0
42577,-133.333333333333,4,2,1,40,0,0
42619,-200,4,2,1,40,0,0
42662,-100,4,2,1,40,0,0
42834,-66.6666666666667,4,2,1,40,0,0
42877,-80,4,2,1,40,0,0
42920,-133.333333333333,4,2,1,40,0,0
42962,-200,4,2,1,40,0,0
43005,-100,4,2,1,40,0,0
43177,-66.6666666666667,4,2,1,40,0,0
43220,-80,4,2,1,40,0,0
43263,-133.333333333333,4,2,1,40,0,0
43305,-200,4,2,1,40,0,0
43348,-66.6666666666667,4,2,1,40,0,0
43391,-200,4,2,1,40,0,0
43434,-66.6666666666667,4,2,1,40,0,0
43477,-200,4,2,1,40,0,0
43520,-66.6666666666667,4,2,1,40,0,0
43563,-200,4,2,1,40,0,0
43605,-66.6666666666667,4,2,1,40,0,0
43648,-200,4,2,1,40,0,0
43691,-66.6666666666667,4,2,1,40,0,0
43734,-200,4,2,1,40,0,0
43777,-66.6666666666667,4,2,1,40,0,0
43820,-200,4,2,1,40,0,0
43862,-66.6666666666667,4,2,1,40,0,0
43905,-200,4,2,1,40,0,0
43948,-100,4,2,1,40,0,0
44034,-66.6666666666667,4,2,1,40,0,0
44077,-200,4,2,1,40,0,0
44120,-100,4,2,1,40,0,0
44205,-66.6666666666667,4,2,1,40,0,0
44248,-200,4,2,1,40,0,0
44291,-100,4,2,1,40,0,0
44376,-66.6666666666667,4,2,1,40,0,0
44419,-200,4,2,1,40,0,0
44462,-100,4,2,1,40,0,0
44548,-66.6666666666667,4,2,1,40,0,0
44591,-200,4,2,1,40,0,0
44634,-60.6060606060606,4,2,1,40,0,0
44655,-222.222222222222,4,2,1,40,0,0
44676,-58.8235294117647,4,2,1,40,0,0
44697,-333.333333333333,4,2,1,40,0,0
44719,-57.1428571428571,4,2,1,40,0,0
44740,-400,4,2,1,40,0,0
44762,-55.5555555555556,4,2,1,40,0,0
44783,-500,4,2,1,40,0,0
44805,-54.054054054054,4,2,1,40,0,0
44826,-666.666666666667,4,2,1,40,0,0
44848,-52.6315789473684,4,2,1,40,0,0
44869,-1000,4,2,1,40,0,0
44891,-40,4,2,1,40,0,0
44934,-133.333333333333,4,2,1,40,0,0
45148,-100,4,2,1,40,0,0
45234,-66.6666666666667,4,2,1,40,0,0
45277,-200,4,2,1,40,0,0
45320,-100,4,2,1,40,0,0
45406,-66.6666666666667,4,2,1,40,0,0
45449,-200,4,2,1,40,0,0
45492,-100,4,2,1,40,0,0
45577,-66.6666666666667,4,2,1,40,0,0
45620,-200,4,2,1,40,0,0
45663,-100,4,2,1,40,0,0
45748,-66.6666666666667,4,2,1,40,0,0
45791,-200,4,2,1,40,0,0
45834,-100,4,2,1,40,0,0
45920,-66.6666666666667,4,2,1,40,0,0
45963,-200,4,2,1,40,0,0
46005,-100,4,2,1,40,0,0
46091,-45.4545454545455,4,2,1,40,0,0
46112,-166.666666666667,4,2,1,40,0,0
46176,-45.4545454545455,4,2,1,40,0,0
46197,-166.666666666667,4,2,1,40,0,0
46263,-40,4,2,1,40,0,0
46305,-200,4,2,1,40,0,0
46434,-66.6666666666667,4,2,1,40,0,0
46476,-200,4,2,1,40,0,0
46519,-100,4,2,1,40,0,0
46605,-66.6666666666667,4,2,1,40,0,0
46648,-200,4,2,1,40,0,0
46691,-100,4,2,1,40,0,0
46777,-66.6666666666667,4,2,1,40,0,0
46820,-200,4,2,1,40,0,0
46862,-18.1818181818182,4,2,1,40,0,0
46867,-142.857142857143,4,2,1,40,0,0
46948,-40,4,2,1,40,0,0
46969,-200,4,2,1,40,0,0
47033,-18.1818181818182,4,2,1,40,0,0
47038,-142.857142857143,4,2,1,40,0,0
47119,-18.1818181818182,4,2,1,40,0,0
47124,-142.857142857143,4,2,1,40,0,0
47205,-18.1818181818182,4,2,1,40,0,0
47210,-142.857142857143,4,2,1,40,0,0
47291,-66.6666666666667,4,2,1,40,0,0
47334,-200,4,2,1,40,0,0
47377,-100,4,2,1,40,0,0
47463,-66.6666666666667,4,2,1,40,0,0
47506,-200,4,2,1,40,0,0
47548,-18.1818181818182,4,2,1,40,0,0
47553,-142.857142857143,4,2,1,40,0,0
47634,-40,4,2,1,40,0,0
47655,-200,4,2,1,40,0,0
47719,-18.1818181818182,4,2,1,40,0,0
47724,-142.857142857143,4,2,1,40,0,0
47805,-18.1818181818182,4,2,1,40,0,0
47810,-142.857142857143,4,2,1,40,0,0
47891,-18.1818181818182,4,2,1,40,0,0
47896,-142.857142857143,4,2,1,40,0,0
47976,-40,4,2,1,40,0,0
48019,-200,4,2,1,40,0,0
48148,-40,4,2,1,40,0,0
48191,-200,4,2,1,40,0,0
48319,-35.7142857142857,4,2,1,40,0,0
48362,-250,4,2,1,40,0,0
48491,-35.7142857142857,4,2,1,40,0,0
48534,-250,4,2,1,40,0,0
48662,-32.258064516129,4,2,1,40,0,0
48684,-333.333333333333,4,2,1,40,0,0
48748,-50,4,2,1,40,0,0
48791,-166.666666666667,4,2,1,40,0,0
48804.375,-158.730158730159,4,2,1,40,0,0
48817.75,-153.846153846154,4,2,1,40,0,0
48831.125,-147.058823529412,4,2,1,40,0,0
48844.5,-142.857142857143,4,2,1,40,0,0
48857.875,-136.986301369863,4,2,1,40,0,0
48871.25,-133.333333333333,4,2,1,40,0,0
48884.625,-128.205128205128,4,2,1,40,0,0
48898,-125,4,2,1,40,0,0
48911.375,-120.481927710843,4,2,1,40,0,0
48924.75,-117.647058823529,4,2,1,40,0,0
48938.125,-113.636363636364,4,2,1,40,0,0
48951.5,-111.111111111111,4,2,1,40,0,0
48964.875,-107.52688172043,4,2,1,40,0,0
48978.25,-105.263157894737,4,2,1,40,0,0
48991.625,-102.040816326531,4,2,1,40,0,0
49005,-33.3333333333333,4,2,1,40,0,0
49048,-166.666666666667,4,2,1,40,0,0
49262,-111.111111111111,4,2,1,40,0,0
49305,-125,4,2,1,40,0,0
49348,-142.857142857143,4,2,1,40,0,0
49496.6,-138.888888888889,4,2,1,40,0,0
49645.2,-135.135135135135,4,2,1,40,0,0
49793.8,-131.578947368421,4,2,1,40,0,0
49942.4,-128.205128205128,4,2,1,40,0,0
50091,-125,4,2,1,40,0,0
50239.6,-121.951219512195,4,2,1,40,0,0
50388.2,-119.047619047619,4,2,1,40,0,0
50536.8,-116.279069767442,4,2,1,40,0,0
50685.4,-113.636363636364,4,2,1,40,0,0
50834,-111.111111111111,4,2,1,40,0,0
50982.6,-108.695652173913,4,2,1,40,0,0
51131.2,-106.382978723404,4,2,1,40,0,0
51279.8,-104.166666666667,4,2,1,40,0,0
51428.4,-102.040816326531,4,2,1,40,0,0
51577,-100,4,2,1,40,0,0
51748,-45.4545454545455,4,2,1,40,0,0
51834,-166.666666666667,4,2,1,40,0,0
52091,-52.6315789473684,4,2,1,40,0,0
52134,-142.857142857143,4,2,1,40,0,0
52262,-100,4,2,1,40,0,0
52434,-52.6315789473684,4,2,1,40,0,0
52477,-142.857142857143,4,2,1,40,0,0
52605,-100,4,2,1,40,0,0
52777,-52.6315789473684,4,2,1,40,0,0
52820,-142.857142857143,4,2,1,40,0,0
52948,-100,4,2,1,40,0,0
53462,-52.6315789473684,4,2,1,40,0,0
53505,-142.857142857143,4,2,1,40,0,0
53633,-100,4,2,1,40,0,0
53805,-52.6315789473684,4,2,1,40,0,0
53848,-142.857142857143,4,2,1,40,0,0
53976,-100,4,2,1,40,0,0
54148,-52.6315789473684,4,2,1,40,0,0
54191,-142.857142857143,4,2,1,40,0,0
54319,-100,4,2,1,40,0,0
54834,-52.6315789473684,4,2,1,40,0,0
54877,-142.857142857143,4,2,1,40,0,0
55005,-100,4,2,1,40,0,0
55520,-52.6315789473684,4,2,1,40,0,0
55563,-142.857142857143,4,2,1,40,0,0
55691,-100,4,2,1,40,0,0
56205,-52.6315789473684,4,2,1,40,0,0
56248,-142.857142857143,4,2,1,40,0,0
56376,-100,4,2,1,40,0,0
56548,-52.6315789473684,4,2,1,40,0,0
56591,-142.857142857143,4,2,1,40,0,0
56719,-100,4,2,1,40,0,0
56891,-45.4545454545455,4,2,1,40,0,0
56977,-166.666666666667,4,2,1,40,0,0
57234,-100,4,2,1,40,0,0
57577,-66.6666666666667,4,2,1,40,0,0
57662,-200,4,2,1,40,0,0
57748,-100,4,2,1,40,0,0
57920,-66.6666666666667,4,2,1,40,0,0
58005,-200,4,2,1,40,0,0
58091,-100,4,2,1,40,0,0
58262,-66.6666666666667,4,2,1,40,0,0
58347,-200,4,2,1,40,0,0
58433,-100,4,2,1,40,0,0
58605,-66.6666666666667,4,2,1,40,0,0
58690,-200,4,2,1,40,0,0
58776,-100,4,2,1,40,0,0
58948,-57.1428571428571,4,2,1,40,0,0
59033,-400,4,2,1,40,0,0
59120,-66.6666666666667,4,2,1,40,0,0
59205,-200,4,2,1,40,0,0
59291,-57.1428571428571,4,2,1,40,0,0
59376,-400,4,2,1,40,0,0
59462,-66.6666666666667,4,2,1,40,0,0
59547,-200,4,2,1,40,0,0
59634,-57.1428571428571,4,2,1,40,0,0
59719,-400,4,2,1,40,0,0
59805,-66.6666666666667,4,2,1,40,0,0
59890,-200,4,2,1,40,0,0
59977,-57.1428571428571,4,2,1,40,0,0
60062,-400,4,2,1,40,0,0
60148,-66.6666666666667,4,2,1,40,0,0
60233,-200,4,2,1,40,0,0
60320,-52.6315789473684,4,2,1,40,0,0
60341,-142.857142857143,4,2,1,40,0,0
60405,-52.6315789473684,4,2,1,40,0,0
60426,-142.857142857143,4,2,1,40,0,0
60491,-52.6315789473684,4,2,1,40,0,0
60512,-142.857142857143,4,2,1,40,0,0
60577,-52.6315789473684,4,2,1,40,0,0
60598,-142.857142857143,4,2,1,40,0,0
60662,-45.4545454545455,4,2,1,40,0,0
60683,-166.666666666667,4,2,1,40,0,0
60748,-45.4545454545455,4,2,1,40,0,0
60769,-166.666666666667,4,2,1,40,0,0
60834,-45.4545454545455,4,2,1,40,0,0
60855,-166.666666666667,4,2,1,40,0,0
60920,-45.4545454545455,4,2,1,40,0,0
60941,-166.666666666667,4,2,1,40,0,0
61005,-40,4,2,1,40,0,0
61026,-200,4,2,1,40,0,0
61091,-40,4,2,1,40,0,0
61112,-200,4,2,1,40,0,0
61177,-40,4,2,1,40,0,0
61198,-200,4,2,1,40,0,0
61262,-40,4,2,1,40,0,0
61283,-200,4,2,1,40,0,0
61348,-35.7142857142857,4,2,1,40,0,0
61369,-250.000000000001,4,2,1,40,0,0
61434,-35.7142857142857,4,2,1,40,0,0
61455,-250.000000000001,4,2,1,40,0,0
61520,-35.7142857142857,4,2,1,40,0,0
61541,-250.000000000001,4,2,1,40,0,0
61605,-35.7142857142857,4,2,1,40,0,0
61626,-250.000000000001,4,2,1,40,0,0
61691,-40,4,2,1,40,0,0
61702,-200,4,2,1,40,0,0
61734,-40,4,2,1,40,0,0
61745,-200,4,2,1,40,0,0
61777,-40,4,2,1,40,0,0
61788,-200,4,2,1,40,0,0
61820,-40,4,2,1,40,0,0
61831,-200,4,2,1,40,0,0
61862,-40,4,2,1,40,0,0
61873,-200,4,2,1,40,0,0
61905,-40,4,2,1,40,0,0
61916,-200,4,2,1,40,0,0
61948,-40,4,2,1,40,0,0
61959,-200,4,2,1,40,0,0
61991,-40,4,2,1,40,0,0
62002,-200,4,2,1,40,0,0
62034,-40,4,2,1,40,0,0
62045,-200,4,2,1,40,0,0
62077,-40,4,2,1,40,0,0
62088,-200,4,2,1,40,0,0
62120,-40,4,2,1,40,0,0
62131,-200,4,2,1,40,0,0
62163,-40,4,2,1,40,0,0
62174,-200,4,2,1,40,0,0
62205,-40,4,2,1,40,0,0
62216,-200,4,2,1,40,0,0
62248,-40,4,2,1,40,0,0
62259,-200,4,2,1,40,0,0
62291,-40,4,2,1,40,0,0
62302,-200,4,2,1,40,0,0
62334,-40,4,2,1,40,0,0
62345,-200,4,2,1,40,0,0
62377,-32.258064516129,4,2,1,40,0,0
62388,-333.333333333333,4,2,1,40,0,0
62420,-32.258064516129,4,2,1,40,0,0
62431,-333.333333333333,4,2,1,40,0,0
62462,-32.258064516129,4,2,1,40,0,0
62473,-333.333333333333,4,2,1,40,0,0
62505,-32.258064516129,4,2,1,40,0,0
62516,-333.333333333333,4,2,1,40,0,0
62548,-32.258064516129,4,2,1,40,0,0
62559,-333.333333333333,4,2,1,40,0,0
62591,-32.258064516129,4,2,1,40,0,0
62602,-333.333333333333,4,2,1,40,0,0
62633,-32.258064516129,4,2,1,40,0,0
62644,-333.333333333333,4,2,1,40,0,0
62676,-32.258064516129,4,2,1,40,0,0
62687,-333.333333333333,4,2,1,40,0,0
62720,-32.258064516129,4,2,1,40,0,0
62731,-333.333333333333,4,2,1,40,0,0
62763,-32.258064516129,4,2,1,40,0,0
62774,-333.333333333333,4,2,1,40,0,0
62805,-32.258064516129,4,2,1,40,0,0
62816,-333.333333333333,4,2,1,40,0,0
62848,-32.258064516129,4,2,1,40,0,0
62859,-333.333333333333,4,2,1,40,0,0
62891,-32.258064516129,4,2,1,40,0,0
62902,-333.333333333333,4,2,1,40,0,0
62934,-32.258064516129,4,2,1,40,0,0
62945,-333.333333333333,4,2,1,40,0,0
62976,-32.258064516129,4,2,1,40,0,0
62987,-333.333333333333,4,2,1,40,0,0
63019,-32.258064516129,4,2,1,40,0,0
63030,-333.333333333333,4,2,1,40,0,0
63062,-52.6315789473684,4,2,1,40,0,0
63105,-142.857142857143,4,2,1,40,0,0
63234,-100,4,2,1,40,0,0
63405,-52.6315789473684,4,2,1,40,0,0
63448,-142.857142857143,4,2,1,40,0,0
63577,-100,4,2,1,40,0,0
63748,-52.6315789473684,4,2,1,40,0,0
63791,-142.857142857143,4,2,1,40,0,0
63920,-100,4,2,1,40,0,0
64434,-52.6315789473684,4,2,1,40,0,0
64477,-142.857142857143,4,2,1,40,0,0
64606,-100,4,2,1,40,0,0
64777,-62.5,4,2,1,40,0,0
64798,-142.857142857143,4,2,1,40,0,0
64862,-100,4,2,1,40,0,0
65120,-52.6315789473684,4,2,1,40,0,0
65163,-142.857142857143,4,2,1,40,0,0
65292,-100,4,2,1,40,0,0
65805,-45.4545454545455,4,2,1,40,0,0
65848,-166.666666666667,4,2,1,40,0,0
65977,-100,4,2,1,40,0,0
66148,-62.5,4,2,1,40,0,0
66191,-125,4,2,1,40,0,0
66320,-100,4,2,1,40,0,0
66491,-45.4545454545455,4,2,1,40,0,0
66534,-166.666666666667,4,2,1,40,0,0
66663,-100,4,2,1,40,0,0
66834,-62.5,4,2,1,40,0,0
66877,-125,4,2,1,40,0,0
67006,-100,4,2,1,40,0,0
67177,-45.4545454545455,4,2,1,40,0,0
67220,-166.666666666667,4,2,1,40,0,0
67349,-100,4,2,1,40,0,0
67520,-45.4545454545455,4,2,1,40,0,0
67563,-166.666666666667,4,2,1,40,0,0
67692,-100,4,2,1,40,0,0
67862,-66.6666666666667,4,2,1,40,0,0
67948,-80,4,2,1,40,0,0
68034,-133.333333333333,4,2,1,40,0,0
68120,-200,4,2,1,40,0,0
68205,-40,4,2,1,40,0,0
68248,-142.857142857143,4,2,1,40,0,0
68462,-100,4,2,1,40,0,0
68548,-66.6666666666667,4,2,1,40,0,0
68591,-200,4,2,1,40,0,0
68634,-100,4,2,1,40,0,0
68891,-66.6666666666667,4,2,1,40,0,0
68934,-200,4,2,1,40,0,0
68977,-100,4,2,1,40,0,0
69234,-66.6666666666667,4,2,1,40,0,0
69277,-200,4,2,1,40,0,0
69320,-100,4,2,1,40,0,0
69577,-66.6666666666667,4,2,1,40,0,0
69620,-200,4,2,1,40,0,0
69663,-100,4,2,1,40,0,0
69920,-66.6666666666667,4,2,1,40,0,0
69963,-200,4,2,1,40,0,0
70006,-100,4,2,1,40,0,0
70262,-66.6666666666667,4,2,1,40,0,0
70305,-200,4,2,1,40,0,0
70348,-100,4,2,1,40,0,0
70605,-66.6666666666667,4,2,1,40,0,0
70648,-200,4,2,1,40,0,0
70691,-100,4,2,1,40,0,0
70948,-66.6666666666667,4,2,1,40,0,0
70991,-200,4,2,1,40,0,0
71034,-100,4,2,1,40,0,0
71291,-66.6666666666667,4,2,1,40,0,0
71334,-200,4,2,1,40,0,0
71377,-100,4,2,1,40,0,0
71634,-66.6666666666667,4,2,1,40,0,0
71677,-200,4,2,1,40,0,0
71720,-100,4,2,1,40,0,0
71977,-66.6666666666667,4,2,1,40,0,0
72020,-200,4,2,1,40,0,0
72063,-100,4,2,1,40,0,0
72320,-66.6666666666667,4,2,1,40,0,0
72363,-200,4,2,1,40,0,0
72406,-100,4,2,1,40,0,0
72662,-66.6666666666667,4,2,1,40,0,0
72705,-200,4,2,1,40,0,0
72748,-100,4,2,1,40,0,0
73005,-66.6666666666667,4,2,1,40,0,0
73048,-200,4,2,1,40,0,0
73091,-100,4,2,1,40,0,0
73348,-55.5555555555556,4,2,1,40,0,0
73377,-500,4,2,1,40,0,0
73405,-55.5555555555556,4,2,1,40,0,0
73434,-500,4,2,1,40,0,0
73462,-55.5555555555556,4,2,1,40,0,0
73491,-500,4,2,1,40,0,0
73520,-55.5555555555556,4,2,1,40,0,0
73549,-500,4,2,1,40,0,0
73577,-55.5555555555556,4,2,1,40,0,0
73606,-500,4,2,1,40,0,0
73634,-55.5555555555556,4,2,1,40,0,0
73663,-500,4,2,1,40,0,0
73691,-66.6666666666667,4,2,1,40,0,0
73734,-200,4,2,1,40,0,0
73777,-66.6666666666667,4,2,1,40,0,0
73820,-200,4,2,1,40,0,0
73862,-66.6666666666667,4,2,1,40,0,0
73905,-200,4,2,1,40,0,0
73948,-66.6666666666667,4,2,1,40,0,0
73991,-200,4,2,1,40,0,0
74034,-66.6666666666667,4,2,1,40,0,0
74077,-200,4,2,1,40,0,0
74120,-100,4,2,1,40,0,0
74377,-66.6666666666667,4,2,1,40,0,0
74420,-200,4,2,1,40,0,0
74463,-100,4,2,1,40,0,0
74720,-66.6666666666667,4,2,1,40,0,0
74763,-200,4,2,1,40,0,0
74806,-100,4,2,1,40,0,0
75063,-66.6666666666667,4,2,1,40,0,0
75106,-200,4,2,1,40,0,0
75149,-100,4,2,1,40,0,0
75406,-66.6666666666667,4,2,1,40,0,0
75449,-200,4,2,1,40,0,0
75492,-100,4,2,1,40,0,0
75748,-66.6666666666667,4,2,1,40,0,0
75791,-200,4,2,1,40,0,0
75834,-100,4,2,1,40,0,0
76091,-66.6666666666667,4,2,1,40,0,0
76134,-200,4,2,1,40,0,0
76177,-100,4,2,1,40,0,0
76434,-66.6666666666667,4,2,1,40,0,0
76477,-200,4,2,1,40,0,0
76520,-100,4,2,1,40,0,0
76777,-40,4,2,1,40,0,0
76805,-200,4,2,1,40,0,0
76891,-100,4,2,1,40,0,0
77120,-40,4,2,1,40,0,0
77148,-200,4,2,1,40,0,0
77234,-100,4,2,1,40,0,0
77462,-40,4,2,1,40,0,0
77484,-200,4,2,1,40,0,0
77548,-100,4,2,1,40,0,0
77634,-52.6315789473684,4,2,1,40,0,0
77648,-1000,4,2,1,40,0,0
77662,-55.5555555555556,4,2,1,40,0,0
77677,-500,4,2,1,40,0,0
77691,-58.8235294117647,4,2,1,40,0,0
77705,-333.333333333333,4,2,1,40,0,0
77719,-62.5,4,2,1,40,0,0
77734,-250,4,2,1,40,0,0
77748,-66.6666666666667,4,2,1,40,0,0
77762,-200,4,2,1,40,0,0
77776,-71.4285714285714,4,2,1,40,0,0
77791,-166.666666666667,4,2,1,40,0,0
77805,-40,4,2,1,40,0,0
77820,-200,4,2,1,40,0,0
77862,-100,4,2,1,40,0,0
77890,-62.5,4,2,1,40,0,0
77905,-250,4,2,1,40,0,0
77919,-66.6666666666667,4,2,1,40,0,0
77933,-200,4,2,1,40,0,0
77947,-71.4285714285714,4,2,1,40,0,0
77962,-166.666666666667,4,2,1,40,0,0
77977,-52.6315789473684,4,2,1,40,0,0
77991,-1000,4,2,1,40,0,0
78005,-55.5555555555556,4,2,1,40,0,0
78020,-500,4,2,1,40,0,0
78034,-58.8235294117647,4,2,1,40,0,0
78048,-333.333333333333,4,2,1,40,0,0
78062,-62.5,4,2,1,40,0,0
78077,-250,4,2,1,40,0,0
78091,-66.6666666666667,4,2,1,40,0,0
78105,-200,4,2,1,40,0,0
78119,-71.4285714285714,4,2,1,40,0,0
78134,-166.666666666667,4,2,1,40,0,0
78148,-18.1818181818182,4,2,1,40,0,0
78153,-142.857142857143,4,2,1,40,0,0
78234,-18.1818181818182,4,2,1,40,0,0
78239,-142.857142857143,4,2,1,40,0,0
78320,-18.1818181818182,4,2,1,40,0,0
78325,-142.857142857143,4,2,1,40,0,0
78405,-18.1818181818182,4,2,1,40,0,0
78410,-142.857142857143,4,2,1,40,0,0
78491,-18.1818181818182,4,2,1,40,0,0
78496,-142.857142857143,4,2,1,40,0,0
78577,-18.1818181818182,4,2,1,40,0,0
78582,-142.857142857143,4,2,1,40,0,0
78662,-18.1818181818182,4,2,1,40,0,0
78667,-142.857142857143,4,2,1,40,0,0
78748,-18.1818181818182,4,2,1,40,0,0
78753,-142.857142857143,4,2,1,40,0,0
78834,-11.7647058823529,4,2,1,40,0,0
78839,-200,4,2,1,40,0,0
78920,-11.7647058823529,4,2,1,40,0,0
78925,-200,4,2,1,40,0,0
79005,-11.7647058823529,4,2,1,40,0,0
79010,-200,4,2,1,40,0,0
79091,-11.7647058823529,4,2,1,40,0,0
79096,-200,4,2,1,40,0,0
79177,-11.7647058823529,4,2,1,40,0,0
79182,-200,4,2,1,40,0,0
79262,-11.7647058823529,4,2,1,40,0,0
79267,-200,4,2,1,40,0,0
79348,-11.7647058823529,4,2,1,40,0,0
79353,-200,4,2,1,40,0,0
79434,-11.7647058823529,4,2,1,40,0,0
79439,-200,4,2,1,40,0,0
79520,-57.1428571428571,4,2,1,40,0,0
79562,-400,4,2,1,40,0,0
79605,-100,4,2,1,40,0,0
79862,-57.1428571428571,4,2,1,40,0,0
79904,-400,4,2,1,40,0,0
79947,-100,4,2,1,40,0,0
80205,-57.1428571428571,4,2,1,40,0,0
80247,-400,4,2,1,40,0,0
80290,-100,4,2,1,40,0,0
80548,-57.1428571428571,4,2,1,40,0,0
80590,-400,4,2,1,40,0,0
80633,-100,4,2,1,40,0,0
80891,-57.1428571428571,4,2,1,40,0,0
80933,-400,4,2,1,40,0,0
80976,-100,4,2,1,40,0,0
81234,-57.1428571428571,4,2,1,40,0,0
81276,-400,4,2,1,40,0,0
81319,-100,4,2,1,40,0,0
81577,-57.1428571428571,4,2,1,40,0,0
81619,-400,4,2,1,40,0,0
81662,-100,4,2,1,40,0,0
81920,-57.1428571428571,4,2,1,40,0,0
81962,-400,4,2,1,40,0,0
82005,-100,4,2,1,40,0,0
82262,-57.1428571428571,4,2,1,40,0,0
82304,-400,4,2,1,40,0,0
82347,-100,4,2,1,40,0,0
82605,-14.2857142857143,4,2,1,40,0,0
82610,-166.666666666667,4,2,1,40,0,0
82691,-14.2857142857143,4,2,1,40,0,0
82696,-166.666666666667,4,2,1,40,0,0
82777,-14.2857142857143,4,2,1,40,0,0
82782,-166.666666666667,4,2,1,40,0,0
82862,-14.2857142857143,4,2,1,40,0,0
82867,-166.666666666667,4,2,1,40,0,0
82948,-57.1428571428571,4,2,1,40,0,0
82990,-400,4,2,1,40,0,0
83033,-100,4,2,1,40,0,0
83291,-57.1428571428571,4,2,1,40,0,0
83334,-76.9230769230769,4,2,1,40,0,0
83377,-142.857142857143,4,2,1,40,0,0
83420,-400,4,2,1,40,0,0
83462,-57.1428571428571,4,2,1,40,0,0
83505,-76.9230769230769,4,2,1,40,0,0
83548,-142.857142857143,4,2,1,40,0,0
83591,-400,4,2,1,40,0,0
83634,-57.1428571428571,4,2,1,40,0,0
83676,-400,4,2,1,40,0,0
83719,-100,4,2,1,40,0,0
83977,-57.1428571428571,4,2,1,40,0,0
84019,-400,4,2,1,40,0,0
84062,-100,4,2,1,40,0,0
84320,-55.5555555555556,4,2,1,40,0,0
84349,-500,4,2,1,40,0,0
84377,-55.5555555555556,4,2,1,40,0,0
84406,-500,4,2,1,40,0,0
84434,-55.5555555555556,4,2,1,40,0,0
84463,-500,4,2,1,40,0,0
84492,-55.5555555555556,4,2,1,40,0,0
84521,-500,4,2,1,40,0,0
84549,-55.5555555555556,4,2,1,40,0,0
84578,-500,4,2,1,40,0,0
84606,-55.5555555555556,4,2,1,40,0,0
84635,-500,4,2,1,40,0,0
84663,-66.6666666666667,4,2,1,40,0,0
84706,-200,4,2,1,40,0,0
84749,-66.6666666666667,4,2,1,40,0,0
84792,-200,4,2,1,40,0,0
84834,-66.6666666666667,4,2,1,40,0,0
84877,-200,4,2,1,40,0,0
84920,-66.6666666666667,4,2,1,40,0,0
84963,-200,4,2,1,40,0,0
85006,-23.2558139534884,4,2,1,40,0,0
85027,-142.857142857143,4,2,1,40,0,0
85177,-100,4,2,1,40,0,0
85348,-57.1428571428571,4,2,1,40,0,0
85390,-400,4,2,1,40,0,0
85433,-100,4,2,1,40,0,0
85691,-57.1428571428571,4,2,1,40,0,0
85733,-400,4,2,1,40,0,0
85776,-100,4,2,1,40,0,0
86034,-57.1428571428571,4,2,1,40,0,0
86076,-400,4,2,1,40,0,0
86119,-100,4,2,1,40,0,0
86377,-57.1428571428571,4,2,1,40,0,0
86419,-400,4,2,1,40,0,0
86462,-100,4,2,1,40,0,0
86720,-57.1428571428571,4,2,1,40,0,0
86762,-400,4,2,1,40,0,0
86805,-100,4,2,1,40,0,0
87062,-40,4,2,1,40,0,0
87084,-200,4,2,1,40,0,0
87148,-100,4,2,1,40,0,0
87234,-52.6315789473684,4,2,1,40,0,0
87255,-1000,4,2,1,40,0,0
87277,-57.1428571428571,4,2,1,40,0,0
87298,-400,4,2,1,40,0,0
87320,-62.5,4,2,1,40,0,0
87341,-250,4,2,1,40,0,0
87362,-68.9655172413793,4,2,1,40,0,0
87384,-181.818181818182,4,2,1,40,0,0
87405,-40,4,2,1,40,0,0
87427,-200,4,2,1,40,0,0
87491,-68.9655172413793,4,2,1,40,0,0
87512,-181.818181818182,4,2,1,40,0,0
87534,-62.5,4,2,1,40,0,0
87555,-250,4,2,1,40,0,0
87577,-57.1428571428571,4,2,1,40,0,0
87598,-400,4,2,1,40,0,0
87620,-52.6315789473684,4,2,1,40,0,0
87641,-1000,4,2,1,40,0,0
87662,-45.4545454545455,4,2,1,40,0,0
87684,-166.666666666667,4,2,1,40,0,0
87748,-57.1428571428571,4,2,1,40,0,0
87790,-400,4,2,1,40,0,0
87833,-100,4,2,1,40,0,0
87920,-80,4,2,1,40,0,0
87962,-133.333333333333,4,2,1,40,0,0
88005,-100,4,2,1,40,0,0
88091,-57.1428571428571,4,2,1,40,0,0
88133,-400,4,2,1,40,0,0
88176,-100,4,2,1,40,0,0
88262,-80,4,2,1,40,0,0
88304,-133.333333333333,4,2,1,40,0,0
88347,-100,4,2,1,40,0,0
88434,-57.1428571428571,4,2,1,40,0,0
88476,-400,4,2,1,40,0,0
88519,-100,4,2,1,40,0,0
88605,-80,4,2,1,40,0,0
88647,-133.333333333333,4,2,1,40,0,0
88690,-100,4,2,1,40,0,0
88777,-57.1428571428571,4,2,1,40,0,0
88819,-400,4,2,1,40,0,0
88862,-100,4,2,1,40,0,0
88948,-80,4,2,1,40,0,0
88990,-133.333333333333,4,2,1,40,0,0
89033,-100,4,2,1,40,0,0
89120,-40,4,2,1,40,0,0
89141,-200,4,2,1,40,0,0
89205,-100,4,2,1,40,0,0
89377,-40,4,2,1,40,0,0
89398,-200,4,2,1,40,0,0
89462,-100,4,2,1,40,0,0
89634,-40,4,2,1,40,0,0
89655,-200,4,2,1,40,0,0
89719,-100,4,2,1,40,0,0
89805,-40,4,2,1,40,0,0
89826,-200,4,2,1,40,0,0
89890,-100,4,2,1,40,0,0
90062,-40,4,2,1,40,0,0
90083,-200,4,2,1,40,0,0
90147,-100,4,2,1,40,0,0
90234,-40,4,2,1,40,0,0
90255,-200,4,2,1,40,0,0
90320,-40,4,2,1,40,0,0
90341,-200,4,2,1,40,0,0
90405,-100,4,2,1,40,0,0
90491,-10,4,2,1,40,0,0
90512,-10000,4,2,1,40,0,0
90662,-1000,4,2,1,40,0,0
90704.9166666667,-625,4,2,1,40,0,0
90747.8333333333,-434.782608695652,4,2,1,40,0,0
90790.75,-344.827586206897,4,2,1,40,0,0
90833.6666666667,-285.714285714286,4,2,1,40,0,0
90876.5833333333,-243.90243902439,4,2,1,40,0,0
90919.5,-208.333333333333,4,2,1,40,0,0
90962.4166666667,-185.185185185185,4,2,1,40,0,0
91005.3333333333,-166.666666666667,4,2,1,40,0,0
91048.25,-151.515151515152,4,2,1,40,0,0
91091.1666666667,-136.986301369863,4,2,1,40,0,0
91134.0833333333,-126.582278481013,4,2,1,40,0,0
91177,-117.647058823529,4,2,1,40,0,0
93234,-80,4,2,1,40,0,0
93277,-153.846153846154,4,2,1,40,0,0
93320,-111.111111111111,4,2,1,40,0,0
93577,-80,4,2,1,40,0,0
93620,-142.857142857143,4,2,1,40,0,0
93663,-105.263157894737,4,2,1,40,0,0
93920,-80,4,2,1,40,0,0
93963,-133.333333333333,4,2,1,40,0,0
94006,-100,4,2,1,40,0,0
94605,-45.4545454545455,4,2,1,40,0,0
94648,-166.666666666667,4,2,1,40,0,0
94777,-100,4,2,1,40,0,0
94948,-45.4545454545455,4,2,1,40,0,0
94991,-166.666666666667,4,2,1,40,0,0
95120,-100,4,2,1,40,0,0
95291,-45.4545454545455,4,2,1,40,0,0
95334,-166.666666666667,4,2,1,40,0,0
95463,-66.6666666666667,4,2,1,40,0,0
95505,-200,4,2,1,40,0,0
95548,-66.6666666666667,4,2,1,40,0,0
95591,-200,4,2,1,40,0,0
95634,-40,4,2,1,40,0,0
95677,-142.857142857143,4,2,1,40,0,0
95891,-100,4,2,1,40,0,0
95977,-66.6666666666667,4,2,1,40,0,0
96020,-200,4,2,1,40,0,0
96063,-100,4,2,1,40,0,0
96149,-66.6666666666667,4,2,1,40,0,0
96192,-200,4,2,1,40,0,0
96235,-100,4,2,1,40,0,0
96320,-66.6666666666667,4,2,1,40,0,0
96363,-200,4,2,1,40,0,0
96406,-100,4,2,1,40,0,0
96491,-66.6666666666667,4,2,1,40,0,0
96534,-200,4,2,1,40,0,0
96577,-100,4,2,1,40,0,0
96663,-66.6666666666667,4,2,1,40,0,0
96706,-200,4,2,1,40,0,0
96749,-60.6060606060606,4,2,1,40,0,0
96770,-222.222222222222,4,2,1,40,0,0
96791,-58.8235294117647,4,2,1,40,0,0
96812,-333.333333333333,4,2,1,40,0,0
96834,-57.1428571428571,4,2,1,40,0,0
96855,-400,4,2,1,40,0,0
96877,-55.5555555555556,4,2,1,40,0,0
96898,-500,4,2,1,40,0,0
96920,-54.054054054054,4,2,1,40,0,0
96941,-666.666666666667,4,2,1,40,0,0
96963,-52.6315789473684,4,2,1,40,0,0
96984,-1000,4,2,1,40,0,0
97006,-40,4,2,1,40,0,0
97049,-133.333333333333,4,2,1,40,0,0
97263,-100,4,2,1,40,0,0
97349,-66.6666666666667,4,2,1,40,0,0
97392,-200,4,2,1,40,0,0
97435,-100,4,2,1,40,0,0
97521,-66.6666666666667,4,2,1,40,0,0
97564,-200,4,2,1,40,0,0
97607,-100,4,2,1,40,0,0
97692,-66.6666666666667,4,2,1,40,0,0
97735,-200,4,2,1,40,0,0
97778,-100,4,2,1,40,0,0
97863,-66.6666666666667,4,2,1,40,0,0
97906,-200,4,2,1,40,0,0
97949,-100,4,2,1,40,0,0
98035,-66.6666666666667,4,2,1,40,0,0
98078,-200,4,2,1,40,0,0
98120,-100,4,2,1,40,0,0
98206,-45.4545454545455,4,2,1,40,0,0
98227,-166.666666666667,4,2,1,40,0,0
98291,-45.4545454545455,4,2,1,40,0,0
98312,-166.666666666667,4,2,1,40,0,0
98378,-40,4,2,1,40,0,0
98420,-200,4,2,1,40,0,0
98549,-66.6666666666667,4,2,1,40,0,0
98591,-200,4,2,1,40,0,0
98634,-100,4,2,1,40,0,0
98720,-66.6666666666667,4,2,1,40,0,0
98763,-200,4,2,1,40,0,0
98806,-100,4,2,1,40,0,0
98892,-66.6666666666667,4,2,1,40,0,0
98935,-200,4,2,1,40,0,0
98977,-18.1818181818182,4,2,1,40,0,0
98982,-142.857142857143,4,2,1,40,0,0
99063,-40,4,2,1,40,0,0
99084,-200,4,2,1,40,0,0
99149,-18.1818181818182,4,2,1,40,0,0
99154,-142.857142857143,4,2,1,40,0,0
99234,-18.1818181818182,4,2,1,40,0,0
99239,-142.857142857143,4,2,1,40,0,0
99320,-18.1818181818182,4,2,1,40,0,0
99325,-142.857142857143,4,2,1,40,0,0
99406,-66.6666666666667,4,2,1,40,0,0
99449,-200,4,2,1,40,0,0
99492,-100,4,2,1,40,0,0
99578,-66.6666666666667,4,2,1,40,0,0
99621,-200,4,2,1,40,0,0
99663,-18.1818181818182,4,2,1,40,0,0
99668,-142.857142857143,4,2,1,40,0,0
99749,-40,4,2,1,40,0,0
99770,-200,4,2,1,40,0,0
99834,-18.1818181818182,4,2,1,40,0,0
99839,-142.857142857143,4,2,1,40,0,0
99920,-18.1818181818182,4,2,1,40,0,0
99925,-142.857142857143,4,2,1,40,0,0
100006,-18.1818181818182,4,2,1,40,0,0
100011,-142.857142857143,4,2,1,40,0,0
100091,-40,4,2,1,40,0,0
100134,-200,4,2,1,40,0,0
100263,-40,4,2,1,40,0,0
100306,-200,4,2,1,40,0,0
100434,-35.7142857142857,4,2,1,40,0,0
100477,-250,4,2,1,40,0,0
100606,-35.7142857142857,4,2,1,40,0,0
100649,-250,4,2,1,40,0,0
100777,-32.258064516129,4,2,1,40,0,0
100799,-333.333333333333,4,2,1,40,0,0
100863,-50,4,2,1,40,0,0
100906,-166.666666666667,4,2,1,40,0,0
100919.375,-158.730158730159,4,2,1,40,0,0
100932.75,-153.846153846154,4,2,1,40,0,0
100946.125,-147.058823529412,4,2,1,40,0,0
100959.5,-142.857142857143,4,2,1,40,0,0
100972.875,-136.986301369863,4,2,1,40,0,0
100986.25,-133.333333333333,4,2,1,40,0,0
100999.625,-128.205128205128,4,2,1,40,0,0
101013,-125,4,2,1,40,0,0
101026.375,-120.481927710843,4,2,1,40,0,0
101039.75,-117.647058823529,4,2,1,40,0,0
101053.125,-113.636363636364,4,2,1,40,0,0
101066.5,-111.111111111111,4,2,1,40,0,0
101079.875,-107.52688172043,4,2,1,40,0,0
101093.25,-105.263157894737,4,2,1,40,0,0
101106.625,-102.040816326531,4,2,1,40,0,0
101120,-33.3333333333333,4,2,1,40,0,0
101163,-166.666666666667,4,2,1,40,0,0
101377,-100,4,2,1,40,0,0
101463,-66.6666666666667,4,2,1,40,0,0
101506,-80,4,2,1,40,0,0
101549,-133.333333333333,4,2,1,40,0,0
101591,-200,4,2,1,40,0,0
101634,-100,4,2,1,40,0,0
101806,-66.6666666666667,4,2,1,40,0,0
101849,-80,4,2,1,40,0,0
101892,-133.333333333333,4,2,1,40,0,0
101934,-200,4,2,1,40,0,0
101977,-100,4,2,1,40,0,0
102149,-66.6666666666667,4,2,1,40,0,0
102192,-80,4,2,1,40,0,0
102235,-133.333333333333,4,2,1,40,0,0
102277,-200,4,2,1,40,0,0
102320,-100,4,2,1,40,0,0
102491,-66.6666666666667,4,2,1,40,0,0
102534,-80,4,2,1,40,0,0
102577,-133.333333333333,4,2,1,40,0,0
102619,-200,4,2,1,40,0,0
102663,-66.6666666666667,4,2,1,40,0,0
102706,-80,4,2,1,40,0,0
102749,-133.333333333333,4,2,1,40,0,0
102791,-200,4,2,1,40,0,0
102834,-66.6666666666667,4,2,1,40,0,0
102877,-80,4,2,1,40,0,0
102920,-133.333333333333,4,2,1,40,0,0
102962,-200,4,2,1,40,0,0
103005,-100,4,2,1,40,0,0
103177,-66.6666666666667,4,2,1,40,0,0
103220,-80,4,2,1,40,0,0
103263,-133.333333333333,4,2,1,40,0,0
103305,-200,4,2,1,40,0,0
103348,-100,4,2,1,40,0,0
103520,-66.6666666666667,4,2,1,40,0,0
103563,-80,4,2,1,40,0,0
103606,-133.333333333333,4,2,1,40,0,0
103648,-200,4,2,1,40,0,0
103691,-66.6666666666667,4,2,1,40,0,0
103734,-80,4,2,1,40,0,0
103777,-133.333333333333,4,2,1,40,0,0
103819,-200,4,2,1,40,0,0
103863,-66.6666666666667,4,2,1,40,0,0
103906,-80,4,2,1,40,0,0
103949,-133.333333333333,4,2,1,40,0,0
103991,-200,4,2,1,40,0,0
104034,-100,4,2,1,40,0,0
104206,-52.6315789473684,4,2,1,40,0,0
104220,-1000,4,2,1,40,0,0
104234,-52.6315789473684,4,2,1,40,0,0
104249,-1000,4,2,1,40,0,0
104263,-55.5555555555556,4,2,1,40,0,0
104277,-500,4,2,1,40,0,0
104291,-55.5555555555556,4,2,1,40,0,0
104306,-500,4,2,1,40,0,0
104320,-58.8235294117647,4,2,1,40,0,0
104334,-333.333333333333,4,2,1,40,0,0
104348,-58.8235294117647,4,2,1,40,0,0
104363,-333.333333333333,4,2,1,40,0,0
104377,-100,4,2,1,40,0,0
104549,-52.6315789473684,4,2,1,40,0,0
104563,-1000,4,2,1,40,0,0
104577,-52.6315789473684,4,2,1,40,0,0
104592,-1000,4,2,1,40,0,0
104606,-52.6315789473684,4,2,1,40,0,0
104620,-1000,4,2,1,40,0,0
104634,-52.6315789473684,4,2,1,40,0,0
104649,-1000,4,2,1,40,0,0
104663,-52.6315789473684,4,2,1,40,0,0
104677,-1000,4,2,1,40,0,0
104691,-52.6315789473684,4,2,1,40,0,0
104706,-1000,4,2,1,40,0,0
104720,-52.6315789473684,4,2,1,40,0,0
104734,-1000,4,2,1,40,0,0
104748,-52.6315789473684,4,2,1,40,0,0
104763,-1000,4,2,1,40,0,0
104777,-55.5555555555556,4,2,1,40,0,0
104791,-500,4,2,1,40,0,0
104805,-55.5555555555556,4,2,1,40,0,0
104820,-500,4,2,1,40,0,0
104834,-58.8235294117647,4,2,1,40,0,0
104848,-333.333333333333,4,2,1,40,0,0
104862,-58.8235294117647,4,2,1,40,0,0
104877,-333.333333333333,4,2,1,40,0,0
104891,-45.4545454545455,4,2,1,40,0,0
104934,-166.666666666667,4,2,1,40,0,0
105063,-100,4,2,1,40,0,0
105234,-52.6315789473684,4,2,1,40,0,0
105277,-142.857142857143,4,2,1,40,0,0
105406,-100,4,2,1,40,0,0
105577,-52.6315789473684,4,2,1,40,0,0
105591,-1000,4,2,1,40,0,0
105605,-52.6315789473684,4,2,1,40,0,0
105620,-1000,4,2,1,40,0,0
105634,-55.5555555555556,4,2,1,40,0,0
105648,-500,4,2,1,40,0,0
105662,-55.5555555555556,4,2,1,40,0,0
105677,-500,4,2,1,40,0,0
105691,-58.8235294117647,4,2,1,40,0,0
105705,-333.333333333333,4,2,1,40,0,0
105719,-58.8235294117647,4,2,1,40,0,0
105734,-333.333333333333,4,2,1,40,0,0
105748,-100,4,2,1,40,0,0
105920,-52.6315789473684,4,2,1,40,0,0
105934,-1000,4,2,1,40,0,0
105948,-52.6315789473684,4,2,1,40,0,0
105963,-1000,4,2,1,40,0,0
105977,-52.6315789473684,4,2,1,40,0,0
105991,-1000,4,2,1,40,0,0
106005,-52.6315789473684,4,2,1,40,0,0
106020,-1000,4,2,1,40,0,0
106034,-52.6315789473684,4,2,1,40,0,0
106048,-1000,4,2,1,40,0,0
106062,-52.6315789473684,4,2,1,40,0,0
106077,-1000,4,2,1,40,0,0
106091,-52.6315789473684,4,2,1,40,0,0
106105,-1000,4,2,1,40,0,0
106119,-52.6315789473684,4,2,1,40,0,0
106134,-1000,4,2,1,40,0,0
106148,-55.5555555555556,4,2,1,40,0,0
106162,-500,4,2,1,40,0,0
106176,-55.5555555555556,4,2,1,40,0,0
106191,-500,4,2,1,40,0,0
106205,-58.8235294117647,4,2,1,40,0,0
106219,-333.333333333333,4,2,1,40,0,0
106233,-58.8235294117647,4,2,1,40,0,0
106248,-333.333333333333,4,2,1,40,0,0
106263,-45.4545454545455,4,2,1,40,0,0
106284,-166.666666666667,4,2,1,40,0,0
106349,-100,4,2,1,40,0,0
106605,-52.6315789473684,4,2,1,40,0,0
106648,-142.857142857143,4,2,1,40,0,0
106777,-100,4,2,1,40,0,0
106949,-66.6666666666667,4,2,1,40,0,0
106992,-80,4,2,1,40,0,0
107035,-133.333333333333,4,2,1,40,0,0
107077,-200,4,2,1,40,0,0
107120,-100,4,2,1,40,0,0
107292,-66.6666666666667,4,2,1,40,0,0
107335,-80,4,2,1,40,0,0
107378,-133.333333333333,4,2,1,40,0,0
107420,-200,4,2,1,40,0,0
107463,-100,4,2,1,40,0,0
107635,-66.6666666666667,4,2,1,40,0,0
107678,-80,4,2,1,40,0,0
107721,-133.333333333333,4,2,1,40,0,0
107763,-200,4,2,1,40,0,0
107806,-100,4,2,1,40,0,0
107977,-66.6666666666667,4,2,1,40,0,0
108020,-80,4,2,1,40,0,0
108063,-133.333333333333,4,2,1,40,0,0
108105,-200,4,2,1,40,0,0
108149,-66.6666666666667,4,2,1,40,0,0
108192,-80,4,2,1,40,0,0
108235,-133.333333333333,4,2,1,40,0,0
108277,-200,4,2,1,40,0,0
108320,-66.6666666666667,4,2,1,40,0,0
108363,-80,4,2,1,40,0,0
108406,-133.333333333333,4,2,1,40,0,0
108448,-200,4,2,1,40,0,0
108491,-100,4,2,1,40,0,0
108663,-66.6666666666667,4,2,1,40,0,0
108706,-80,4,2,1,40,0,0
108749,-133.333333333333,4,2,1,40,0,0
108791,-200,4,2,1,40,0,0
108834,-100,4,2,1,40,0,0
109006,-66.6666666666667,4,2,1,40,0,0
109049,-80,4,2,1,40,0,0
109092,-133.333333333333,4,2,1,40,0,0
109134,-200,4,2,1,40,0,0
109177,-66.6666666666667,4,2,1,40,0,0
109220,-200,4,2,1,40,0,0
109263,-66.6666666666667,4,2,1,40,0,0
109306,-200,4,2,1,40,0,0
109349,-66.6666666666667,4,2,1,40,0,0
109392,-200,4,2,1,40,0,0
109434,-66.6666666666667,4,2,1,40,0,0
109477,-200,4,2,1,40,0,0
109520,-66.6666666666667,4,2,1,40,0,0
109563,-200,4,2,1,40,0,0
109606,-66.6666666666667,4,2,1,40,0,0
109649,-200,4,2,1,40,0,0
109691,-66.6666666666667,4,2,1,40,0,0
109734,-200,4,2,1,40,0,0
109777,-100,4,2,1,40,0,0
109863,-66.6666666666667,4,2,1,40,0,0
109906,-200,4,2,1,40,0,0
109949,-100,4,2,1,40,0,0
110034,-66.6666666666667,4,2,1,40,0,0
110077,-200,4,2,1,40,0,0
110120,-100,4,2,1,40,0,0
110205,-66.6666666666667,4,2,1,40,0,0
110248,-200,4,2,1,40,0,0
110291,-100,4,2,1,40,0,0
110377,-66.6666666666667,4,2,1,40,0,0
110420,-200,4,2,1,40,0,0
110463,-60.6060606060606,4,2,1,40,0,0
110484,-222.222222222222,4,2,1,40,0,0
110505,-58.8235294117647,4,2,1,40,0,0
110526,-333.333333333333,4,2,1,40,0,0
110548,-57.1428571428571,4,2,1,40,0,0
110569,-400,4,2,1,40,0,0
110591,-55.5555555555556,4,2,1,40,0,0
110612,-500,4,2,1,40,0,0
110634,-54.054054054054,4,2,1,40,0,0
110655,-666.666666666667,4,2,1,40,0,0
110677,-52.6315789473684,4,2,1,40,0,0
110698,-1000,4,2,1,40,0,0
110720,-40,4,2,1,40,0,0
110763,-133.333333333333,4,2,1,40,0,0
110977,-100,4,2,1,40,0,0
111063,-66.6666666666667,4,2,1,40,0,0
111106,-200,4,2,1,40,0,0
111149,-100,4,2,1,40,0,0
111235,-66.6666666666667,4,2,1,40,0,0
111278,-200,4,2,1,40,0,0
111321,-100,4,2,1,40,0,0
111406,-66.6666666666667,4,2,1,40,0,0
111449,-200,4,2,1,40,0,0
111492,-100,4,2,1,40,0,0
111577,-66.6666666666667,4,2,1,40,0,0
111620,-200,4,2,1,40,0,0
111663,-100,4,2,1,40,0,0
111749,-66.6666666666667,4,2,1,40,0,0
111792,-200,4,2,1,40,0,0
111834,-100,4,2,1,40,0,0
111920,-45.4545454545455,4,2,1,40,0,0
111941,-166.666666666667,4,2,1,40,0,0
112005,-45.4545454545455,4,2,1,40,0,0
112026,-166.666666666667,4,2,1,40,0,0
112092,-40,4,2,1,40,0,0
112134,-200,4,2,1,40,0,0
112263,-66.6666666666667,4,2,1,40,0,0
112305,-200,4,2,1,40,0,0
112348,-100,4,2,1,40,0,0
112434,-66.6666666666667,4,2,1,40,0,0
112477,-200,4,2,1,40,0,0
112520,-100,4,2,1,40,0,0
112606,-66.6666666666667,4,2,1,40,0,0
112649,-200,4,2,1,40,0,0
112691,-18.1818181818182,4,2,1,40,0,0
112696,-142.857142857143,4,2,1,40,0,0
112777,-40,4,2,1,40,0,0
112798,-200,4,2,1,40,0,0
112862,-18.1818181818182,4,2,1,40,0,0
112867,-142.857142857143,4,2,1,40,0,0
112948,-18.1818181818182,4,2,1,40,0,0
112953,-142.857142857143,4,2,1,40,0,0
113034,-18.1818181818182,4,2,1,40,0,0
113039,-142.857142857143,4,2,1,40,0,0
113120,-66.6666666666667,4,2,1,40,0,0
113163,-200,4,2,1,40,0,0
113206,-100,4,2,1,40,0,0
113292,-66.6666666666667,4,2,1,40,0,0
113335,-200,4,2,1,40,0,0
113377,-18.1818181818182,4,2,1,40,0,0
113382,-142.857142857143,4,2,1,40,0,0
113463,-40,4,2,1,40,0,0
113484,-200,4,2,1,40,0,0
113548,-18.1818181818182,4,2,1,40,0,0
113553,-142.857142857143,4,2,1,40,0,0
113634,-18.1818181818182,4,2,1,40,0,0
113639,-142.857142857143,4,2,1,40,0,0
113720,-18.1818181818182,4,2,1,40,0,0
113725,-142.857142857143,4,2,1,40,0,0
113805,-40,4,2,1,40,0,0
113848,-200,4,2,1,40,0,0
113977,-40,4,2,1,40,0,0
114020,-200,4,2,1,40,0,0
114148,-35.7142857142857,4,2,1,40,0,0
114191,-250,4,2,1,40,0,0
114320,-35.7142857142857,4,2,1,40,0,0
114363,-250,4,2,1,40,0,0
114491,-32.258064516129,4,2,1,40,0,0
114513,-333.333333333333,4,2,1,40,0,0
114577,-50,4,2,1,40,0,0
114620,-166.666666666667,4,2,1,40,0,0
114633.375,-158.730158730159,4,2,1,40,0,0
114646.75,-153.846153846154,4,2,1,40,0,0
114660.125,-147.058823529412,4,2,1,40,0,0
114673.5,-142.857142857143,4,2,1,40,0,0
114686.875,-136.986301369863,4,2,1,40,0,0
114700.25,-133.333333333333,4,2,1,40,0,0
114713.625,-128.205128205128,4,2,1,40,0,0
114727,-125,4,2,1,40,0,0
114740.375,-120.481927710843,4,2,1,40,0,0
114753.75,-117.647058823529,4,2,1,40,0,0
114767.125,-113.636363636364,4,2,1,40,0,0
114780.5,-111.111111111111,4,2,1,40,0,0
114793.875,-107.52688172043,4,2,1,40,0,0
114807.25,-105.263157894737,4,2,1,40,0,0
114820.625,-102.040816326531,4,2,1,40,0,0
114834,-33.3333333333333,4,2,1,40,0,0
114877,-166.666666666667,4,2,1,40,0,0
115091,-111.111111111111,4,2,1,40,0,0
115134,-125,4,2,1,40,0,0
115177,-142.857142857143,4,2,1,40,0,0
115325.6,-138.888888888889,4,2,1,40,0,0
115474.2,-135.135135135135,4,2,1,40,0,0
115622.8,-131.578947368421,4,2,1,40,0,0
115771.4,-128.205128205128,4,2,1,40,0,0
115920,-125,4,2,1,40,0,0
116068.6,-121.951219512195,4,2,1,40,0,0
116217.2,-119.047619047619,4,2,1,40,0,0
116365.8,-116.279069767442,4,2,1,40,0,0
116514.4,-113.636363636364,4,2,1,40,0,0
116663,-111.111111111111,4,2,1,40,0,0
116811.6,-108.695652173913,4,2,1,40,0,0
116960.2,-106.382978723404,4,2,1,40,0,0
117108.8,-104.166666666667,4,2,1,40,0,0
117257.4,-102.040816326531,4,2,1,40,0,0
117406,-100,4,2,1,40,0,0
117577,-45.4545454545455,4,2,1,40,0,0
117663,-166.666666666667,4,2,1,40,0,0
117920,-52.6315789473684,4,2,1,40,0,0
117963,-142.857142857143,4,2,1,40,0,0
118091,-100,4,2,1,40,0,0
118263,-52.6315789473684,4,2,1,40,0,0
118306,-142.857142857143,4,2,1,40,0,0
118434,-100,4,2,1,40,0,0
118606,-52.6315789473684,4,2,1,40,0,0
118649,-142.857142857143,4,2,1,40,0,0
118777,-100,4,2,1,40,0,0
119291,-52.6315789473684,4,2,1,40,0,0
119334,-142.857142857143,4,2,1,40,0,0
119462,-100,4,2,1,40,0,0
119634,-52.6315789473684,4,2,1,40,0,0
119677,-142.857142857143,4,2,1,40,0,0
119805,-100,4,2,1,40,0,0
119977,-52.6315789473684,4,2,1,40,0,0
120020,-142.857142857143,4,2,1,40,0,0
120148,-100,4,2,1,40,0,0
120663,-52.6315789473684,4,2,1,40,0,0
120706,-142.857142857143,4,2,1,40,0,0
120834,-100,4,2,1,40,0,0
121349,-52.6315789473684,4,2,1,40,0,0
121392,-142.857142857143,4,2,1,40,0,0
121520,-100,4,2,1,40,0,0
122034,-52.6315789473684,4,2,1,40,0,0
122077,-142.857142857143,4,2,1,40,0,0
122205,-100,4,2,1,40,0,0
122377,-52.6315789473684,4,2,1,40,0,0
122420,-142.857142857143,4,2,1,40,0,0
122548,-100,4,2,1,40,0,0
122720,-45.4545454545455,4,2,1,40,0,0
122805,-166.666666666667,4,2,1,40,0,0
123062,-100,4,2,1,40,0,0
123406,-66.6666666666667,4,2,1,40,0,0
123491,-200,4,2,1,40,0,0
123577,-100,4,2,1,40,0,0
123749,-66.6666666666667,4,2,1,40,0,0
123834,-200,4,2,1,40,0,0
123920,-100,4,2,1,40,0,0
124091,-66.6666666666667,4,2,1,40,0,0
124176,-200,4,2,1,40,0,0
124262,-100,4,2,1,40,0,0
124434,-66.6666666666667,4,2,1,40,0,0
124519,-200,4,2,1,40,0,0
124605,-100,4,2,1,40,0,0
124777,-57.1428571428571,4,2,1,40,0,0
124862,-400,4,2,1,40,0,0
124949,-66.6666666666667,4,2,1,40,0,0
125034,-200,4,2,1,40,0,0
125120,-57.1428571428571,4,2,1,40,0,0
125205,-400,4,2,1,40,0,0
125291,-66.6666666666667,4,2,1,40,0,0
125376,-200,4,2,1,40,0,0
125463,-57.1428571428571,4,2,1,40,0,0
125548,-400,4,2,1,40,0,0
125634,-66.6666666666667,4,2,1,40,0,0
125719,-200,4,2,1,40,0,0
125806,-57.1428571428571,4,2,1,40,0,0
125891,-400,4,2,1,40,0,0
125977,-66.6666666666667,4,2,1,40,0,0
126062,-200,4,2,1,40,0,0
126149,-52.6315789473684,4,2,1,40,0,0
126170,-142.857142857143,4,2,1,40,0,0
126234,-52.6315789473684,4,2,1,40,0,0
126255,-142.857142857143,4,2,1,40,0,0
126320,-52.6315789473684,4,2,1,40,0,0
126341,-142.857142857143,4,2,1,40,0,0
126406,-52.6315789473684,4,2,1,40,0,0
126427,-142.857142857143,4,2,1,40,0,0
126491,-45.4545454545455,4,2,1,40,0,0
126512,-166.666666666667,4,2,1,40,0,0
126577,-45.4545454545455,4,2,1,40,0,0
126598,-166.666666666667,4,2,1,40,0,0
126663,-45.4545454545455,4,2,1,40,0,0
126684,-166.666666666667,4,2,1,40,0,0
126749,-45.4545454545455,4,2,1,40,0,0
126770,-166.666666666667,4,2,1,40,0,0
126834,-40,4,2,1,40,0,0
126855,-200,4,2,1,40,0,0
126920,-40,4,2,1,40,0,0
126941,-200,4,2,1,40,0,0
127006,-40,4,2,1,40,0,0
127027,-200,4,2,1,40,0,0
127091,-40,4,2,1,40,0,0
127112,-200,4,2,1,40,0,0
127177,-35.7142857142857,4,2,1,40,0,0
127198,-250.000000000001,4,2,1,40,0,0
127263,-35.7142857142857,4,2,1,40,0,0
127284,-250.000000000001,4,2,1,40,0,0
127349,-35.7142857142857,4,2,1,40,0,0
127370,-250.000000000001,4,2,1,40,0,0
127434,-35.7142857142857,4,2,1,40,0,0
127455,-250.000000000001,4,2,1,40,0,0
127520,-40,4,2,1,40,0,0
127531,-200,4,2,1,40,0,0
127563,-40,4,2,1,40,0,0
127574,-200,4,2,1,40,0,0
127606,-40,4,2,1,40,0,0
127617,-200,4,2,1,40,0,0
127649,-40,4,2,1,40,0,0
127660,-200,4,2,1,40,0,0
127691,-40,4,2,1,40,0,0
127702,-200,4,2,1,40,0,0
127734,-40,4,2,1,40,0,0
127745,-200,4,2,1,40,0,0
127777,-40,4,2,1,40,0,0
127788,-200,4,2,1,40,0,0
127820,-40,4,2,1,40,0,0
127831,-200,4,2,1,40,0,0
127863,-40,4,2,1,40,0,0
127874,-200,4,2,1,40,0,0
127906,-40,4,2,1,40,0,0
127917,-200,4,2,1,40,0,0
127949,-40,4,2,1,40,0,0
127960,-200,4,2,1,40,0,0
127992,-40,4,2,1,40,0,0
128003,-200,4,2,1,40,0,0
128034,-40,4,2,1,40,0,0
128045,-200,4,2,1,40,0,0
128077,-40,4,2,1,40,0,0
128088,-200,4,2,1,40,0,0
128120,-40,4,2,1,40,0,0
128131,-200,4,2,1,40,0,0
128163,-40,4,2,1,40,0,0
128174,-200,4,2,1,40,0,0
128206,-32.258064516129,4,2,1,40,0,0
128217,-333.333333333333,4,2,1,40,0,0
128249,-32.258064516129,4,2,1,40,0,0
128260,-333.333333333333,4,2,1,40,0,0
128291,-32.258064516129,4,2,1,40,0,0
128302,-333.333333333333,4,2,1,40,0,0
128334,-32.258064516129,4,2,1,40,0,0
128345,-333.333333333333,4,2,1,40,0,0
128377,-32.258064516129,4,2,1,40,0,0
128388,-333.333333333333,4,2,1,40,0,0
128420,-32.258064516129,4,2,1,40,0,0
128431,-333.333333333333,4,2,1,40,0,0
128462,-32.258064516129,4,2,1,40,0,0
128473,-333.333333333333,4,2,1,40,0,0
128505,-32.258064516129,4,2,1,40,0,0
128516,-333.333333333333,4,2,1,40,0,0
128549,-32.258064516129,4,2,1,40,0,0
128560,-333.333333333333,4,2,1,40,0,0
128592,-32.258064516129,4,2,1,40,0,0
128603,-333.333333333333,4,2,1,40,0,0
128634,-32.258064516129,4,2,1,40,0,0
128645,-333.333333333333,4,2,1,40,0,0
128677,-32.258064516129,4,2,1,40,0,0
128688,-333.333333333333,4,2,1,40,0,0
128720,-32.258064516129,4,2,1,40,0,0
128731,-333.333333333333,4,2,1,40,0,0
128763,-32.258064516129,4,2,1,40,0,0
128774,-333.333333333333,4,2,1,40,0,0
128805,-32.258064516129,4,2,1,40,0,0
128816,-333.333333333333,4,2,1,40,0,0
128848,-32.258064516129,4,2,1,40,0,0
128859,-333.333333333333,4,2,1,40,0,0
128891,-52.6315789473684,4,2,1,40,0,0
128934,-142.857142857143,4,2,1,40,0,0
129063,-100,4,2,1,40,0,0
129234,-52.6315789473684,4,2,1,40,0,0
129277,-142.857142857143,4,2,1,40,0,0
129406,-100,4,2,1,40,0,0
129577,-52.6315789473684,4,2,1,40,0,0
129620,-142.857142857143,4,2,1,40,0,0
129749,-100,4,2,1,40,0,0
130263,-52.6315789473684,4,2,1,40,0,0
130306,-142.857142857143,4,2,1,40,0,0
130435,-100,4,2,1,40,0,0
130606,-52.6315789473684,4,2,1,40,0,0
130649,-142.857142857143,4,2,1,40,0,0
130778,-100,4,2,1,40,0,0
130949,-52.6315789473684,4,2,1,40,0,0
130992,-142.857142857143,4,2,1,40,0,0
131121,-100,4,2,1,40,0,0
131634,-45.4545454545455,4,2,1,40,0,0
131655,-166.666666666667,4,2,1,40,0,0
131720,-100,4,2,1,40,0,0
131977,-62.5,4,2,1,40,0,0
132020,-125,4,2,1,40,0,0
132149,-100,4,2,1,40,0,0
132320,-45.4545454545455,4,2,1,40,0,0
132341,-166.666666666667,4,2,1,40,0,0
132405,-100,4,2,1,40,0,0
132663,-62.5,4,2,1,40,0,0
132706,-125,4,2,1,40,0,0
132835,-100,4,2,1,40,0,0
133006,-45.4545454545455,4,2,1,40,0,0
133049,-166.666666666667,4,2,1,40,0,0
133178,-100,4,2,1,40,0,0
133349,-45.4545454545455,4,2,1,40,0,0
133392,-166.666666666667,4,2,1,40,0,0
133521,-100,4,2,1,40,0,0
133691,-66.6666666666667,4,2,1,40,0,0
133777,-80,4,2,1,40,0,0
133863,-133.333333333333,4,2,1,40,0,0
133949,-200,4,2,1,40,0,0
134034,-50,4,2,1,40,0,0
134072,-200,4,2,1,40,0,0
134148,-50,4,2,1,40,0,0
134186,-200,4,2,1,40,0,0
134262,-50,4,2,1,40,0,0
134300,-200,4,2,1,40,0,0
134377,-45.4545454545455,4,2,1,40,0,0
134434,-111.111111111111,4,2,1,40,0,0
134448,-1000,4,2,1,40,0,0
134462,-111.111111111111,4,2,1,40,0,0
134476,-1000,4,2,1,40,0,0
134491,-111.111111111111,4,2,1,40,0,0
134505,-1000,4,2,1,40,0,0
134520,-111.111111111111,4,2,1,40,0,0
134534,-1000,4,2,1,40,0,0
134548,-111.111111111111,4,2,1,40,0,0
134562,-1000,4,2,1,40,0,0
134577,-111.111111111111,4,2,1,40,0,0
134591,-1000,4,2,1,40,0,0
134605,-52.6315789473684,4,2,1,40,0,0
134619,-1000,4,2,1,40,0,0
134634,-52.6315789473684,4,2,1,40,0,0
134648,-1000,4,2,1,40,0,0
134662,-52.6315789473684,4,2,1,40,0,0
134676,-1000,4,2,1,40,0,0
134691,-52.6315789473684,4,2,1,40,0,0
134705,-1000,4,2,1,40,0,0
134720,-66.6666666666667,4,2,1,40,0,0
134777,-200,4,2,1,40,0,0
134834,-50,4,2,1,40,0,0
134872,-200,4,2,1,40,0,0
134948,-50,4,2,1,40,0,0
134986,-200,4,2,1,40,0,0
135062,-66.6666666666667,4,2,1,40,0,0
135119,-200,4,2,1,40,0,0
135176,-50,4,2,1,40,0,0
135214,-200,4,2,1,40,0,0
135290,-50,4,2,1,40,0,0
135328,-200,4,2,1,40,0,0
135405,-34.4827586206897,4,2,1,40,0,0
135419,-1000,4,2,1,40,0,0
135434,-34.4827586206897,4,2,1,40,0,0
135448,-1000,4,2,1,40,0,0
135462,-111.111111111111,4,2,1,40,0,0
135476,-1000,4,2,1,40,0,0
135491,-111.111111111111,4,2,1,40,0,0
135505,-1000,4,2,1,40,0,0
135520,-34.4827586206897,4,2,1,40,0,0
135534,-1000,4,2,1,40,0,0
135549,-34.4827586206897,4,2,1,40,0,0
135563,-1000,4,2,1,40,0,0
135577,-111.111111111111,4,2,1,40,0,0
135591,-1000,4,2,1,40,0,0
135606,-111.111111111111,4,2,1,40,0,0
135620,-1000,4,2,1,40,0,0
135634,-34.4827586206897,4,2,1,40,0,0
135648,-1000,4,2,1,40,0,0
135663,-34.4827586206897,4,2,1,40,0,0
135677,-1000,4,2,1,40,0,0
135691,-111.111111111111,4,2,1,40,0,0
135705,-1000,4,2,1,40,0,0
135720,-111.111111111111,4,2,1,40,0,0
135734,-1000,4,2,1,40,0,0
135748,-34.4827586206897,4,2,1,40,0,0
135762,-1000,4,2,1,40,0,0
135777,-34.4827586206897,4,2,1,40,0,0
135791,-1000,4,2,1,40,0,0
135805,-41.6666666666667,4,2,1,40,0,0
135819,-1000,4,2,1,40,0,0
135834,-41.6666666666667,4,2,1,40,0,0
135848,-1000,4,2,1,40,0,0
135862,-71.4285714285714,4,2,1,40,0,0
135876,-1000,4,2,1,40,0,0
135891,-71.4285714285714,4,2,1,40,0,0
135905,-1000,4,2,1,40,0,0
135920,-111.111111111111,4,2,1,40,0,0
135934,-1000,4,2,1,40,0,0
135949,-111.111111111111,4,2,1,40,0,0
135963,-1000,4,2,1,40,0,0
135977,-100,4,2,1,40,0,0
136091,-66.6666666666667,4,2,1,40,0,0
136148,-200,4,2,1,40,0,0
136205,-50,4,2,1,40,0,0
136243,-200,4,2,1,40,0,0
136319,-50,4,2,1,40,0,0
136357,-200,4,2,1,40,0,0
136433,-66.6666666666667,4,2,1,40,0,0
136490,-200,4,2,1,40,0,0
136547,-50,4,2,1,40,0,0
136585,-200,4,2,1,40,0,0
136661,-50,4,2,1,40,0,0
136699,-200,4,2,1,40,0,0
136777,-52.6315789473684,4,2,1,40,0,0
136791,-1000,4,2,1,40,0,0
136806,-52.6315789473684,4,2,1,40,0,0
136820,-1000,4,2,1,40,0,0
136834,-52.6315789473684,4,2,1,40,0,0
136848,-1000,4,2,1,40,0,0
136863,-52.6315789473684,4,2,1,40,0,0
136877,-1000,4,2,1,40,0,0
136891,-52.6315789473684,4,2,1,40,0,0
136905,-1000,4,2,1,40,0,0
136920,-52.6315789473684,4,2,1,40,0,0
136934,-1000,4,2,1,40,0,0
136948,-52.6315789473684,4,2,1,40,0,0
136962,-1000,4,2,1,40,0,0
136977,-52.6315789473684,4,2,1,40,0,0
136991,-1000,4,2,1,40,0,0
137005,-52.6315789473684,4,2,1,40,0,0
137019,-1000,4,2,1,40,0,0
137034,-52.6315789473684,4,2,1,40,0,0
137048,-1000,4,2,1,40,0,0
137062,-52.6315789473684,4,2,1,40,0,0
137076,-1000,4,2,1,40,0,0
137091,-52.6315789473684,4,2,1,40,0,0
137105,-1000,4,2,1,40,0,0
137120,-45.4545454545455,4,2,1,40,0,0
137177,-111.111111111111,4,2,1,40,0,0
137191,-1000,4,2,1,40,0,0
137205,-111.111111111111,4,2,1,40,0,0
137219,-1000,4,2,1,40,0,0
137234,-111.111111111111,4,2,1,40,0,0
137248,-1000,4,2,1,40,0,0
137263,-111.111111111111,4,2,1,40,0,0
137277,-1000,4,2,1,40,0,0
137291,-111.111111111111,4,2,1,40,0,0
137305,-1000,4,2,1,40,0,0
137320,-111.111111111111,4,2,1,40,0,0
137334,-1000,4,2,1,40,0,0
137348,-52.6315789473684,4,2,1,40,0,0
137362,-1000,4,2,1,40,0,0
137377,-52.6315789473684,4,2,1,40,0,0
137391,-1000,4,2,1,40,0,0
137405,-52.6315789473684,4,2,1,40,0,0
137419,-1000,4,2,1,40,0,0
137434,-52.6315789473684,4,2,1,40,0,0
137448,-1000,4,2,1,40,0,0
137462,-66.6666666666667,4,2,1,40,0,0
137519,-200,4,2,1,40,0,0
137576,-50,4,2,1,40,0,0
137614,-200,4,2,1,40,0,0
137690,-50,4,2,1,40,0,0
137728,-200,4,2,1,40,0,0
137804,-66.6666666666667,4,2,1,40,0,0
137861,-200,4,2,1,40,0,0
137918,-50,4,2,1,40,0,0
137956,-200,4,2,1,40,0,0
138032,-50,4,2,1,40,0,0
138070,-200,4,2,1,40,0,0
138148,-34.4827586206897,4,2,1,40,0,0
138162,-1000,4,2,1,40,0,0
138177,-34.4827586206897,4,2,1,40,0,0
138191,-1000,4,2,1,40,0,0
138205,-111.111111111111,4,2,1,40,0,0
138219,-1000,4,2,1,40,0,0
138234,-111.111111111111,4,2,1,40,0,0
138248,-1000,4,2,1,40,0,0
138263,-34.4827586206897,4,2,1,40,0,0
138277,-1000,4,2,1,40,0,0
138292,-34.4827586206897,4,2,1,40,0,0
138306,-1000,4,2,1,40,0,0
138320,-111.111111111111,4,2,1,40,0,0
138334,-1000,4,2,1,40,0,0
138349,-111.111111111111,4,2,1,40,0,0
138363,-1000,4,2,1,40,0,0
138377,-34.4827586206897,4,2,1,40,0,0
138391,-1000,4,2,1,40,0,0
138406,-34.4827586206897,4,2,1,40,0,0
138420,-1000,4,2,1,40,0,0
138434,-111.111111111111,4,2,1,40,0,0
138448,-1000,4,2,1,40,0,0
138463,-111.111111111111,4,2,1,40,0,0
138477,-1000,4,2,1,40,0,0
138491,-66.6666666666667,4,2,1,40,0,0
138548,-200,4,2,1,40,0,0
138605,-50,4,2,1,40,0,0
138643,-200,4,2,1,40,0,0
138719,-50,4,2,1,40,0,0
138757,-200,4,2,1,40,0,0
138833,-66.6666666666667,4,2,1,40,0,0
138890,-200,4,2,1,40,0,0
138947,-50,4,2,1,40,0,0
138985,-200,4,2,1,40,0,0
139061,-50,4,2,1,40,0,0
139099,-200,4,2,1,40,0,0
139177,-66.6666666666667,4,2,1,40,0,0
139234,-200,4,2,1,40,0,0
139291,-50,4,2,1,40,0,0
139329,-200,4,2,1,40,0,0
139405,-50,4,2,1,40,0,0
139443,-200,4,2,1,40,0,0
139520,-45.4545454545455,4,2,1,40,0,0
139577,-111.111111111111,4,2,1,40,0,0
139591,-1000,4,2,1,40,0,0
139605,-111.111111111111,4,2,1,40,0,0
139619,-1000,4,2,1,40,0,0
139634,-111.111111111111,4,2,1,40,0,0
139648,-1000,4,2,1,40,0,0
139663,-111.111111111111,4,2,1,40,0,0
139677,-1000,4,2,1,40,0,0
139691,-111.111111111111,4,2,1,40,0,0
139705,-1000,4,2,1,40,0,0
139720,-111.111111111111,4,2,1,40,0,0
139734,-1000,4,2,1,40,0,0
139748,-52.6315789473684,4,2,1,40,0,0
139762,-1000,4,2,1,40,0,0
139777,-52.6315789473684,4,2,1,40,0,0
139791,-1000,4,2,1,40,0,0
139805,-52.6315789473684,4,2,1,40,0,0
139819,-1000,4,2,1,40,0,0
139834,-52.6315789473684,4,2,1,40,0,0
139848,-1000,4,2,1,40,0,0
139862,-45.4545454545455,4,2,1,40,0,0
139919,-111.111111111111,4,2,1,40,0,0
139933,-1000,4,2,1,40,0,0
139947,-111.111111111111,4,2,1,40,0,0
139961,-1000,4,2,1,40,0,0
139976,-111.111111111111,4,2,1,40,0,0
139990,-1000,4,2,1,40,0,0
140005,-111.111111111111,4,2,1,40,0,0
140019,-1000,4,2,1,40,0,0
140033,-111.111111111111,4,2,1,40,0,0
140047,-1000,4,2,1,40,0,0
140062,-111.111111111111,4,2,1,40,0,0
140076,-1000,4,2,1,40,0,0
140090,-52.6315789473684,4,2,1,40,0,0
140104,-1000,4,2,1,40,0,0
140119,-52.6315789473684,4,2,1,40,0,0
140133,-1000,4,2,1,40,0,0
140147,-52.6315789473684,4,2,1,40,0,0
140161,-1000,4,2,1,40,0,0
140176,-52.6315789473684,4,2,1,40,0,0
140190,-1000,4,2,1,40,0,0
140205,-50,4,2,1,40,0,0
140243,-200,4,2,1,40,0,0
140320,-22.2222222222222,4,2,1,40,0,0
140334,-200,4,2,1,40,0,0
140434,-22.2222222222222,4,2,1,40,0,0
140448,-200,4,2,1,40,0,0
140548,-50,4,2,1,40,0,0
140586,-200,4,2,1,40,0,0
140662,-22.2222222222222,4,2,1,40,0,0
140676,-200,4,2,1,40,0,0
140777,-22.2222222222222,4,2,1,40,0,0
140791,-200,4,2,1,40,0,0
140890,-34.4827586206897,4,2,1,40,0,0
140904,-1000,4,2,1,40,0,0
140919,-34.4827586206897,4,2,1,40,0,0
140933,-1000,4,2,1,40,0,0
140947,-111.111111111111,4,2,1,40,0,0
140961,-1000,4,2,1,40,0,0
140976,-111.111111111111,4,2,1,40,0,0
140990,-1000,4,2,1,40,0,0
141005,-34.4827586206897,4,2,1,40,0,0
141019,-1000,4,2,1,40,0,0
141034,-34.4827586206897,4,2,1,40,0,0
141048,-1000,4,2,1,40,0,0
141062,-111.111111111111,4,2,1,40,0,0
141076,-1000,4,2,1,40,0,0
141091,-111.111111111111,4,2,1,40,0,0
141105,-1000,4,2,1,40,0,0
141119,-34.4827586206897,4,2,1,40,0,0
141133,-1000,4,2,1,40,0,0
141148,-34.4827586206897,4,2,1,40,0,0
141162,-1000,4,2,1,40,0,0
141176,-111.111111111111,4,2,1,40,0,0
141190,-1000,4,2,1,40,0,0
141205,-111.111111111111,4,2,1,40,0,0
141219,-1000,4,2,1,40,0,0
141234,-34.4827586206897,4,2,1,40,0,0
141248,-1000,4,2,1,40,0,0
141263,-34.4827586206897,4,2,1,40,0,0
141277,-1000,4,2,1,40,0,0
141291,-41.6666666666667,4,2,1,40,0,0
141305,-1000,4,2,1,40,0,0
141320,-41.6666666666667,4,2,1,40,0,0
141334,-1000,4,2,1,40,0,0
141348,-71.4285714285714,4,2,1,40,0,0
141362,-1000,4,2,1,40,0,0
141377,-71.4285714285714,4,2,1,40,0,0
141391,-1000,4,2,1,40,0,0
141406,-111.111111111111,4,2,1,40,0,0
141420,-1000,4,2,1,40,0,0
141435,-111.111111111111,4,2,1,40,0,0
141449,-1000,4,2,1,40,0,0
141463,-100,4,2,1,40,0,0
141577,-50,4,2,1,40,0,0
141615,-200,4,2,1,40,0,0
141692,-22.2222222222222,4,2,1,40,0,0
141706,-200,4,2,1,40,0,0
141806,-22.2222222222222,4,2,1,40,0,0
141820,-200,4,2,1,40,0,0
141920,-50,4,2,1,40,0,0
141958,-200,4,2,1,40,0,0
142034,-22.2222222222222,4,2,1,40,0,0
142048,-200,4,2,1,40,0,0
142149,-22.2222222222222,4,2,1,40,0,0
142163,-200,4,2,1,40,0,0
142262,-52.6315789473684,4,2,1,40,0,0
142276,-1000,4,2,1,40,0,0
142291,-52.6315789473684,4,2,1,40,0,0
142305,-1000,4,2,1,40,0,0
142319,-52.6315789473684,4,2,1,40,0,0
142333,-1000,4,2,1,40,0,0
142348,-52.6315789473684,4,2,1,40,0,0
142362,-1000,4,2,1,40,0,0
142376,-52.6315789473684,4,2,1,40,0,0
142390,-1000,4,2,1,40,0,0
142405,-52.6315789473684,4,2,1,40,0,0
142419,-1000,4,2,1,40,0,0
142433,-52.6315789473684,4,2,1,40,0,0
142447,-1000,4,2,1,40,0,0
142462,-52.6315789473684,4,2,1,40,0,0
142476,-1000,4,2,1,40,0,0
142490,-52.6315789473684,4,2,1,40,0,0
142504,-1000,4,2,1,40,0,0
142519,-52.6315789473684,4,2,1,40,0,0
142533,-1000,4,2,1,40,0,0
142547,-52.6315789473684,4,2,1,40,0,0
142561,-1000,4,2,1,40,0,0
142576,-52.6315789473684,4,2,1,40,0,0
142590,-1000,4,2,1,40,0,0
142605,-45.4545454545455,4,2,1,40,0,0
142662,-111.111111111111,4,2,1,40,0,0
142676,-1000,4,2,1,40,0,0
142690,-111.111111111111,4,2,1,40,0,0
142704,-1000,4,2,1,40,0,0
142719,-111.111111111111,4,2,1,40,0,0
142733,-1000,4,2,1,40,0,0
142748,-111.111111111111,4,2,1,40,0,0
142762,-1000,4,2,1,40,0,0
142776,-111.111111111111,4,2,1,40,0,0
142790,-1000,4,2,1,40,0,0
142805,-111.111111111111,4,2,1,40,0,0
142819,-1000,4,2,1,40,0,0
142833,-52.6315789473684,4,2,1,40,0,0
142847,-1000,4,2,1,40,0,0
142862,-52.6315789473684,4,2,1,40,0,0
142876,-1000,4,2,1,40,0,0
142890,-52.6315789473684,4,2,1,40,0,0
142904,-1000,4,2,1,40,0,0
142919,-52.6315789473684,4,2,1,40,0,0
142933,-1000,4,2,1,40,0,0
142948,-50,4,2,1,40,0,0
142986,-200,4,2,1,40,0,0
143063,-22.2222222222222,4,2,1,40,0,0
143077,-200,4,2,1,40,0,0
143177,-22.2222222222222,4,2,1,40,0,0
143191,-200,4,2,1,40,0,0
143291,-50,4,2,1,40,0,0
143329,-200,4,2,1,40,0,0
143405,-22.2222222222222,4,2,1,40,0,0
143419,-200,4,2,1,40,0,0
143520,-22.2222222222222,4,2,1,40,0,0
143534,-200,4,2,1,40,0,0
143634,-34.4827586206897,4,2,1,40,0,0
143648,-1000,4,2,1,40,0,0
143663,-34.4827586206897,4,2,1,40,0,0
143677,-1000,4,2,1,40,0,0
143691,-111.111111111111,4,2,1,40,0,0
143705,-1000,4,2,1,40,0,0
143720,-111.111111111111,4,2,1,40,0,0
143734,-1000,4,2,1,40,0,0
143749,-34.4827586206897,4,2,1,40,0,0
143763,-1000,4,2,1,40,0,0
143778,-34.4827586206897,4,2,1,40,0,0
143792,-1000,4,2,1,40,0,0
143806,-111.111111111111,4,2,1,40,0,0
143820,-1000,4,2,1,40,0,0
143835,-111.111111111111,4,2,1,40,0,0
143849,-1000,4,2,1,40,0,0
143863,-34.4827586206897,4,2,1,40,0,0
143877,-1000,4,2,1,40,0,0
143892,-34.4827586206897,4,2,1,40,0,0
143906,-1000,4,2,1,40,0,0
143920,-111.111111111111,4,2,1,40,0,0
143934,-1000,4,2,1,40,0,0
143949,-111.111111111111,4,2,1,40,0,0
143963,-1000,4,2,1,40,0,0
143977,-76.9230769230769,4,2,1,40,0,0
143991,-1000,4,2,1,40,0,0
144006,-76.9230769230769,4,2,1,40,0,0
144020,-1000,4,2,1,40,0,0
144034,-76.9230769230769,4,2,1,40,0,0
144048,-1000,4,2,1,40,0,0
144063,-76.9230769230769,4,2,1,40,0,0
144077,-1000,4,2,1,40,0,0
144091,-76.9230769230769,4,2,1,40,0,0
144105,-1000,4,2,1,40,0,0
144120,-76.9230769230769,4,2,1,40,0,0
144134,-1000,4,2,1,40,0,0
144148,-76.9230769230769,4,2,1,40,0,0
144162,-1000,4,2,1,40,0,0
144177,-76.9230769230769,4,2,1,40,0,0
144191,-1000,4,2,1,40,0,0
144205,-76.9230769230769,4,2,1,40,0,0
144219,-1000,4,2,1,40,0,0
144234,-76.9230769230769,4,2,1,40,0,0
144248,-1000,4,2,1,40,0,0
144262,-76.9230769230769,4,2,1,40,0,0
144276,-1000,4,2,1,40,0,0
144291,-76.9230769230769,4,2,1,40,0,0
144305,-1000,4,2,1,40,0,0
144320,-66.6666666666667,4,2,1,40,0,0
144334,-1000,4,2,1,40,0,0
144349,-66.6666666666667,4,2,1,40,0,0
144363,-1000,4,2,1,40,0,0
144377,-66.6666666666667,4,2,1,40,0,0
144391,-1000,4,2,1,40,0,0
144406,-66.6666666666667,4,2,1,40,0,0
144420,-1000,4,2,1,40,0,0
144434,-66.6666666666667,4,2,1,40,0,0
144448,-1000,4,2,1,40,0,0
144463,-66.6666666666667,4,2,1,40,0,0
144477,-1000,4,2,1,40,0,0
144491,-66.6666666666667,4,2,1,40,0,0
144505,-1000,4,2,1,40,0,0
144520,-66.6666666666667,4,2,1,40,0,0
144534,-1000,4,2,1,40,0,0
144548,-66.6666666666667,4,2,1,40,0,0
144562,-1000,4,2,1,40,0,0
144577,-66.6666666666667,4,2,1,40,0,0
144591,-1000,4,2,1,40,0,0
144605,-66.6666666666667,4,2,1,40,0,0
144619,-1000,4,2,1,40,0,0
144634,-66.6666666666667,4,2,1,40,0,0
144648,-1000,4,2,1,40,0,0
144662,-58.8235294117647,4,2,1,40,0,0
144676,-1000,4,2,1,40,0,0
144691,-58.8235294117647,4,2,1,40,0,0
144705,-1000,4,2,1,40,0,0
144720,-58.8235294117647,4,2,1,40,0,0
144734,-1000,4,2,1,40,0,0
144749,-58.8235294117647,4,2,1,40,0,0
144763,-1000,4,2,1,40,0,0
144777,-58.8235294117647,4,2,1,40,0,0
144791,-1000,4,2,1,40,0,0
144806,-58.8235294117647,4,2,1,40,0,0
144820,-1000,4,2,1,40,0,0
144834,-58.8235294117647,4,2,1,40,0,0
144848,-1000,4,2,1,40,0,0
144863,-58.8235294117647,4,2,1,40,0,0
144877,-1000,4,2,1,40,0,0
144891,-58.8235294117647,4,2,1,40,0,0
144905,-1000,4,2,1,40,0,0
144920,-58.8235294117647,4,2,1,40,0,0
144934,-1000,4,2,1,40,0,0
144948,-58.8235294117647,4,2,1,40,0,0
144962,-1000,4,2,1,40,0,0
144977,-58.8235294117647,4,2,1,40,0,0
144991,-1000,4,2,1,40,0,0
145005,-23.2558139534884,4,2,1,40,0,0
145016,-1000,4,2,1,40,0,0
145027,-23.2558139534884,4,2,1,40,0,0
145038,-1000,4,2,1,40,0,0
145048,-90.9090909090909,4,2,1,40,0,0
145059,-1000,4,2,1,40,0,0
145070,-90.9090909090909,4,2,1,40,0,0
145081,-1000,4,2,1,40,0,0
145091,-90.9090909090909,4,2,1,40,0,0
145102,-1000,4,2,1,40,0,0
145113,-90.9090909090909,4,2,1,40,0,0
145124,-1000,4,2,1,40,0,0
145134,-90.9090909090909,4,2,1,40,0,0
145145,-1000,4,2,1,40,0,0
145156,-90.9090909090909,4,2,1,40,0,0
145167,-1000,4,2,1,40,0,0
145177,-34.4827586206897,4,2,1,40,0,0
145188,-1000,4,2,1,40,0,0
145199,-34.4827586206897,4,2,1,40,0,0
145210,-1000,4,2,1,40,0,0
145220,-111.111111111111,4,2,1,40,0,0
145231,-1000,4,2,1,40,0,0
145242,-111.111111111111,4,2,1,40,0,0
145253,-1000,4,2,1,40,0,0
145262,-34.4827586206897,4,2,1,40,0,0
145273,-1000,4,2,1,40,0,0
145284,-34.4827586206897,4,2,1,40,0,0
145295,-1000,4,2,1,40,0,0
145305,-111.111111111111,4,2,1,40,0,0
145316,-1000,4,2,1,40,0,0
145327,-111.111111111111,4,2,1,40,0,0
145338,-1000,4,2,1,40,0,0
145348,-45.4545454545455,4,2,1,40,0,0
145405,-111.111111111111,4,2,1,40,0,0
145419,-1000,4,2,1,40,0,0
145433,-111.111111111111,4,2,1,40,0,0
145447,-1000,4,2,1,40,0,0
145462,-111.111111111111,4,2,1,40,0,0
145476,-1000,4,2,1,40,0,0
145491,-111.111111111111,4,2,1,40,0,0
145505,-1000,4,2,1,40,0,0
145519,-111.111111111111,4,2,1,40,0,0
145533,-1000,4,2,1,40,0,0
145548,-111.111111111111,4,2,1,40,0,0
145562,-1000,4,2,1,40,0,0
145576,-52.6315789473684,4,2,1,40,0,0
145590,-1000,4,2,1,40,0,0
145605,-52.6315789473684,4,2,1,40,0,0
145619,-1000,4,2,1,40,0,0
145633,-52.6315789473684,4,2,1,40,0,0
145647,-1000,4,2,1,40,0,0
145662,-52.6315789473684,4,2,1,40,0,0
145676,-1000,4,2,1,40,0,0
145691,-40,4,2,1,40,0,0
145712,-200,4,2,1,40,0,0
145777,-100,4,2,1,40,0,0
146034,-40,4,2,1,40,0,0
146055,-200,4,2,1,40,0,0
146120,-100,4,2,1,40,0,0
146377,-40,4,2,1,40,0,0
146398,-200,4,2,1,40,0,0
146462,-52.6315789473684,4,2,1,40,0,0
146473,-1000,4,2,1,40,0,0
146484,-52.6315789473684,4,2,1,40,0,0
146495,-1000,4,2,1,40,0,0
146505,-52.6315789473684,4,2,1,40,0,0
146516,-1000,4,2,1,40,0,0
146527,-52.6315789473684,4,2,1,40,0,0
146538,-1000,4,2,1,40,0,0
146548,-100,4,2,1,40,0,0
146634,-52.6315789473684,4,2,1,40,0,0
146645,-1000,4,2,1,40,0,0
146656,-52.6315789473684,4,2,1,40,0,0
146667,-1000,4,2,1,40,0,0
146677,-52.6315789473684,4,2,1,40,0,0
146688,-1000,4,2,1,40,0,0
146699,-52.6315789473684,4,2,1,40,0,0
146710,-1000,4,2,1,40,0,0
146720,-34.4827586206897,4,2,1,40,0,0
146734,-1000,4,2,1,40,0,0
146749,-34.4827586206897,4,2,1,40,0,0
146763,-1000,4,2,1,40,0,0
146777,-41.6666666666667,4,2,1,40,0,0
146791,-1000,4,2,1,40,0,0
146806,-41.6666666666667,4,2,1,40,0,0
146820,-1000,4,2,1,40,0,0
146834,-71.4285714285714,4,2,1,40,0,0
146848,-1000,4,2,1,40,0,0
146863,-71.4285714285714,4,2,1,40,0,0
146877,-1000,4,2,1,40,0,0
146892,-111.111111111111,4,2,1,40,0,0
146906,-1000,4,2,1,40,0,0
146921,-111.111111111111,4,2,1,40,0,0
146935,-1000,4,2,1,40,0,0
146949,-100,4,2,1,40,0,0
147062,-40,4,2,1,40,0,0
147083,-200,4,2,1,40,0,0
147148,-100,4,2,1,40,0,0
147405,-40,4,2,1,40,0,0
147426,-200,4,2,1,40,0,0
147491,-100,4,2,1,40,0,0
147748,-52.6315789473684,4,2,1,40,0,0
147762,-1000,4,2,1,40,0,0
147777,-52.6315789473684,4,2,1,40,0,0
147791,-1000,4,2,1,40,0,0
147805,-52.6315789473684,4,2,1,40,0,0
147819,-1000,4,2,1,40,0,0
147834,-52.6315789473684,4,2,1,40,0,0
147848,-1000,4,2,1,40,0,0
147862,-52.6315789473684,4,2,1,40,0,0
147876,-1000,4,2,1,40,0,0
147891,-52.6315789473684,4,2,1,40,0,0
147905,-1000,4,2,1,40,0,0
147919,-52.6315789473684,4,2,1,40,0,0
147933,-1000,4,2,1,40,0,0
147948,-52.6315789473684,4,2,1,40,0,0
147962,-1000,4,2,1,40,0,0
147976,-52.6315789473684,4,2,1,40,0,0
147990,-1000,4,2,1,40,0,0
148005,-52.6315789473684,4,2,1,40,0,0
148019,-1000,4,2,1,40,0,0
148033,-52.6315789473684,4,2,1,40,0,0
148047,-1000,4,2,1,40,0,0
148062,-52.6315789473684,4,2,1,40,0,0
148076,-1000,4,2,1,40,0,0
148091,-45.4545454545455,4,2,1,40,0,0
148148,-111.111111111111,4,2,1,40,0,0
148162,-1000,4,2,1,40,0,0
148176,-111.111111111111,4,2,1,40,0,0
148190,-1000,4,2,1,40,0,0
148205,-111.111111111111,4,2,1,40,0,0
148219,-1000,4,2,1,40,0,0
148234,-111.111111111111,4,2,1,40,0,0
148248,-1000,4,2,1,40,0,0
148262,-111.111111111111,4,2,1,40,0,0
148276,-1000,4,2,1,40,0,0
148291,-111.111111111111,4,2,1,40,0,0
148305,-1000,4,2,1,40,0,0
148319,-52.6315789473684,4,2,1,40,0,0
148333,-1000,4,2,1,40,0,0
148348,-52.6315789473684,4,2,1,40,0,0
148362,-1000,4,2,1,40,0,0
148376,-52.6315789473684,4,2,1,40,0,0
148390,-1000,4,2,1,40,0,0
148405,-52.6315789473684,4,2,1,40,0,0
148419,-1000,4,2,1,40,0,0
148434,-40,4,2,1,40,0,0
148455,-200,4,2,1,40,0,0
148520,-100,4,2,1,40,0,0
148777,-40,4,2,1,40,0,0
148798,-200,4,2,1,40,0,0
148863,-100,4,2,1,40,0,0
149120,-52.6315789473684,4,2,1,40,0,0
149134,-1000,4,2,1,40,0,0
149149,-52.6315789473684,4,2,1,40,0,0
149163,-1000,4,2,1,40,0,0
149177,-52.6315789473684,4,2,1,40,0,0
149191,-1000,4,2,1,40,0,0
149206,-52.6315789473684,4,2,1,40,0,0
149220,-1000,4,2,1,40,0,0
149234,-52.6315789473684,4,2,1,40,0,0
149248,-1000,4,2,1,40,0,0
149263,-52.6315789473684,4,2,1,40,0,0
149277,-1000,4,2,1,40,0,0
149291,-52.6315789473684,4,2,1,40,0,0
149305,-1000,4,2,1,40,0,0
149320,-52.6315789473684,4,2,1,40,0,0
149334,-1000,4,2,1,40,0,0
149348,-52.6315789473684,4,2,1,40,0,0
149362,-1000,4,2,1,40,0,0
149377,-52.6315789473684,4,2,1,40,0,0
149391,-1000,4,2,1,40,0,0
149405,-52.6315789473684,4,2,1,40,0,0
149419,-1000,4,2,1,40,0,0
149434,-52.6315789473684,4,2,1,40,0,0
149448,-1000,4,2,1,40,0,0
149462,-40,4,2,1,40,0,0
149483,-200,4,2,1,40,0,0
149548,-100,4,2,1,40,0,0
149805,-40,4,2,1,40,0,0
149826,-200,4,2,1,40,0,0
149891,-100,4,2,1,40,0,0
150148,-40,4,2,1,40,0,0
150169,-200,4,2,1,40,0,0
150234,-100,4,2,1,40,0,0
150491,-45.4545454545455,4,2,1,40,0,0
150548,-111.111111111111,4,2,1,40,0,0
150562,-1000,4,2,1,40,0,0
150576,-111.111111111111,4,2,1,40,0,0
150590,-1000,4,2,1,40,0,0
150605,-111.111111111111,4,2,1,40,0,0
150619,-1000,4,2,1,40,0,0
150634,-111.111111111111,4,2,1,40,0,0
150648,-1000,4,2,1,40,0,0
150662,-111.111111111111,4,2,1,40,0,0
150676,-1000,4,2,1,40,0,0
150691,-111.111111111111,4,2,1,40,0,0
150705,-1000,4,2,1,40,0,0
150719,-52.6315789473684,4,2,1,40,0,0
150733,-1000,4,2,1,40,0,0
150748,-52.6315789473684,4,2,1,40,0,0
150762,-1000,4,2,1,40,0,0
150776,-52.6315789473684,4,2,1,40,0,0
150790,-1000,4,2,1,40,0,0
150805,-52.6315789473684,4,2,1,40,0,0
150819,-1000,4,2,1,40,0,0
150833,-45.4545454545455,4,2,1,40,0,0
150890,-111.111111111111,4,2,1,40,0,0
150904,-1000,4,2,1,40,0,0
150918,-111.111111111111,4,2,1,40,0,0
150932,-1000,4,2,1,40,0,0
150947,-111.111111111111,4,2,1,40,0,0
150961,-1000,4,2,1,40,0,0
150976,-111.111111111111,4,2,1,40,0,0
150990,-1000,4,2,1,40,0,0
151004,-111.111111111111,4,2,1,40,0,0
151018,-1000,4,2,1,40,0,0
151033,-111.111111111111,4,2,1,40,0,0
151047,-1000,4,2,1,40,0,0
151061,-52.6315789473684,4,2,1,40,0,0
151075,-1000,4,2,1,40,0,0
151090,-52.6315789473684,4,2,1,40,0,0
151104,-1000,4,2,1,40,0,0
151118,-52.6315789473684,4,2,1,40,0,0
151132,-1000,4,2,1,40,0,0
151147,-52.6315789473684,4,2,1,40,0,0
151161,-1000,4,2,1,40,0,0
151177,-40,4,2,1,40,0,0
151198,-200,4,2,1,40,0,0
151263,-100,4,2,1,40,0,0
151520,-40,4,2,1,40,0,0
151541,-200,4,2,1,40,0,0
151606,-100,4,2,1,40,0,0
151862,-40,4,2,1,40,0,0
151883,-200,4,2,1,40,0,0
151947,-52.6315789473684,4,2,1,40,0,0
151958,-1000,4,2,1,40,0,0
151969,-52.6315789473684,4,2,1,40,0,0
151980,-1000,4,2,1,40,0,0
151990,-52.6315789473684,4,2,1,40,0,0
152001,-1000,4,2,1,40,0,0
152012,-52.6315789473684,4,2,1,40,0,0
152023,-1000,4,2,1,40,0,0
152033,-100,4,2,1,40,0,0
152119,-52.6315789473684,4,2,1,40,0,0
152130,-1000,4,2,1,40,0,0
152141,-52.6315789473684,4,2,1,40,0,0
152152,-1000,4,2,1,40,0,0
152162,-52.6315789473684,4,2,1,40,0,0
152173,-1000,4,2,1,40,0,0
152184,-52.6315789473684,4,2,1,40,0,0
152195,-1000,4,2,1,40,0,0
152205,-34.4827586206897,4,2,1,40,0,0
152219,-1000,4,2,1,40,0,0
152234,-34.4827586206897,4,2,1,40,0,0
152248,-1000,4,2,1,40,0,0
152262,-41.6666666666667,4,2,1,40,0,0
152276,-1000,4,2,1,40,0,0
152291,-41.6666666666667,4,2,1,40,0,0
152305,-1000,4,2,1,40,0,0
152319,-71.4285714285714,4,2,1,40,0,0
152333,-1000,4,2,1,40,0,0
152348,-71.4285714285714,4,2,1,40,0,0
152362,-1000,4,2,1,40,0,0
152377,-111.111111111111,4,2,1,40,0,0
152391,-1000,4,2,1,40,0,0
152406,-111.111111111111,4,2,1,40,0,0
152420,-1000,4,2,1,40,0,0
152434,-100,4,2,1,40,0,0
152548,-40,4,2,1,40,0,0
152569,-200,4,2,1,40,0,0
152634,-100,4,2,1,40,0,0
152891,-40,4,2,1,40,0,0
152912,-200,4,2,1,40,0,0
152977,-100,4,2,1,40,0,0
153234,-52.6315789473684,4,2,1,40,0,0
153248,-1000,4,2,1,40,0,0
153263,-52.6315789473684,4,2,1,40,0,0
153277,-1000,4,2,1,40,0,0
153291,-52.6315789473684,4,2,1,40,0,0
153305,-1000,4,2,1,40,0,0
153320,-52.6315789473684,4,2,1,40,0,0
153334,-1000,4,2,1,40,0,0
153348,-52.6315789473684,4,2,1,40,0,0
153362,-1000,4,2,1,40,0,0
153377,-52.6315789473684,4,2,1,40,0,0
153391,-1000,4,2,1,40,0,0
153405,-52.6315789473684,4,2,1,40,0,0
153419,-1000,4,2,1,40,0,0
153434,-52.6315789473684,4,2,1,40,0,0
153448,-1000,4,2,1,40,0,0
153462,-52.6315789473684,4,2,1,40,0,0
153476,-1000,4,2,1,40,0,0
153491,-52.6315789473684,4,2,1,40,0,0
153505,-1000,4,2,1,40,0,0
153519,-52.6315789473684,4,2,1,40,0,0
153533,-1000,4,2,1,40,0,0
153548,-52.6315789473684,4,2,1,40,0,0
153562,-1000,4,2,1,40,0,0
153577,-45.4545454545455,4,2,1,40,0,0
153634,-111.111111111111,4,2,1,40,0,0
153648,-1000,4,2,1,40,0,0
153662,-111.111111111111,4,2,1,40,0,0
153676,-1000,4,2,1,40,0,0
153691,-111.111111111111,4,2,1,40,0,0
153705,-1000,4,2,1,40,0,0
153720,-111.111111111111,4,2,1,40,0,0
153734,-1000,4,2,1,40,0,0
153748,-111.111111111111,4,2,1,40,0,0
153762,-1000,4,2,1,40,0,0
153777,-111.111111111111,4,2,1,40,0,0
153791,-1000,4,2,1,40,0,0
153805,-52.6315789473684,4,2,1,40,0,0
153819,-1000,4,2,1,40,0,0
153834,-52.6315789473684,4,2,1,40,0,0
153848,-1000,4,2,1,40,0,0
153862,-52.6315789473684,4,2,1,40,0,0
153876,-1000,4,2,1,40,0,0
153891,-52.6315789473684,4,2,1,40,0,0
153905,-1000,4,2,1,40,0,0
153920,-40,4,2,1,40,0,0
153941,-200,4,2,1,40,0,0
154006,-100,4,2,1,40,0,0
154262,-45.4545454545455,4,2,1,40,0,0
154319,-111.111111111111,4,2,1,40,0,0
154333,-1000,4,2,1,40,0,0
154347,-111.111111111111,4,2,1,40,0,0
154361,-1000,4,2,1,40,0,0
154376,-111.111111111111,4,2,1,40,0,0
154390,-1000,4,2,1,40,0,0
154405,-111.111111111111,4,2,1,40,0,0
154419,-1000,4,2,1,40,0,0
154433,-111.111111111111,4,2,1,40,0,0
154447,-1000,4,2,1,40,0,0
154462,-111.111111111111,4,2,1,40,0,0
154476,-1000,4,2,1,40,0,0
154490,-52.6315789473684,4,2,1,40,0,0
154504,-1000,4,2,1,40,0,0
154519,-52.6315789473684,4,2,1,40,0,0
154533,-1000,4,2,1,40,0,0
154547,-52.6315789473684,4,2,1,40,0,0
154561,-1000,4,2,1,40,0,0
154576,-52.6315789473684,4,2,1,40,0,0
154590,-1000,4,2,1,40,0,0
154605,-40,4,2,1,40,0,0
154648,-200,4,2,1,40,0,0
154777,-100,4,2,1,40,0,0
154948,-25,4,2,1,40,0,0
154953,-125,4,2,1,40,0,0
155034,-25,4,2,1,40,0,0
155039,-125,4,2,1,40,0,0
155120,-25,4,2,1,40,0,0
155125,-125,4,2,1,40,0,0
155205,-25,4,2,1,40,0,0
155210,-125,4,2,1,40,0,0
155291,-18.1818181818182,4,2,1,40,0,0
155296,-142.857142857143,4,2,1,40,0,0
155377,-18.1818181818182,4,2,1,40,0,0
155382,-142.857142857143,4,2,1,40,0,0
155462,-18.1818181818182,4,2,1,40,0,0
155467,-142.857142857143,4,2,1,40,0,0
155548,-18.1818181818182,4,2,1,40,0,0
155553,-142.857142857143,4,2,1,40,0,0
155634,-14.2857142857143,4,2,1,40,0,0
155639,-166.666666666667,4,2,1,40,0,0
155720,-14.2857142857143,4,2,1,40,0,0
155725,-166.666666666667,4,2,1,40,0,0
155805,-14.2857142857143,4,2,1,40,0,0
155810,-166.666666666667,4,2,1,40,0,0
155891,-14.2857142857143,4,2,1,40,0,0
155896,-166.666666666667,4,2,1,40,0,0
155977,-11.7647058823529,4,2,1,40,0,0
155982,-200,4,2,1,40,0,0
156062,-11.7647058823529,4,2,1,40,0,0
156067,-200,4,2,1,40,0,0
156148,-11.7647058823529,4,2,1,40,0,0
156153,-200,4,2,1,40,0,0
156234,-11.7647058823529,4,2,1,40,0,0
156239,-200,4,2,1,40,0,0
156320,-10,4,2,1,40,0,0
156341,-10000,4,2,1,40,0,0
156491,-1000,4,2,1,40,0,0
156533.916666667,-625,4,2,1,40,0,0
156576.833333333,-434.782608695652,4,2,1,40,0,0
156619.75,-344.827586206897,4,2,1,40,0,0
156662.666666667,-285.714285714286,4,2,1,40,0,0
156705.583333333,-243.90243902439,4,2,1,40,0,0
156748.5,-208.333333333333,4,2,1,40,0,0
156791.416666667,-185.185185185185,4,2,1,40,0,0
156834.333333333,-166.666666666667,4,2,1,40,0,0
156877.25,-151.515151515152,4,2,1,40,0,0
156920.166666667,-136.986301369863,4,2,1,40,0,0
156963.083333333,-126.582278481013,4,2,1,40,0,0
157006,-117.647058823529,4,2,1,40,0,0
159063,-80,4,2,1,40,0,0
159106,-153.846153846154,4,2,1,40,0,0
159149,-111.111111111111,4,2,1,40,0,0
159406,-80,4,2,1,40,0,0
159449,-142.857142857143,4,2,1,40,0,0
159492,-105.263157894737,4,2,1,40,0,0
159749,-80,4,2,1,40,0,0
159792,-133.333333333333,4,2,1,40,0,0
159835,-100,4,2,1,40,0,0
160434,-45.4545454545455,4,2,1,40,0,0
160477,-166.666666666667,4,2,1,40,0,0
160606,-100,4,2,1,40,0,0
160777,-45.4545454545455,4,2,1,40,0,0
160820,-166.666666666667,4,2,1,40,0,0
160949,-100,4,2,1,40,0,0
161120,-45.4545454545455,4,2,1,40,0,0
161163,-166.666666666667,4,2,1,40,0,0
161292,-66.6666666666667,4,2,1,40,0,0
161334,-200,4,2,1,40,0,0
161377,-66.6666666666667,4,2,1,40,0,0
161420,-200,4,2,1,40,0,0
161463,-40,4,2,1,40,0,0
161506,-142.857142857143,4,2,1,40,0,0
161720,-100,4,2,1,40,0,0
161805,-66.6666666666667,4,2,1,40,0,0
161848,-200,4,2,1,40,0,0
161891,-100,4,2,1,40,0,0
161977,-66.6666666666667,4,2,1,40,0,0
162020,-200,4,2,1,40,0,0
162063,-100,4,2,1,40,0,0
162148,-66.6666666666667,4,2,1,40,0,0
162191,-200,4,2,1,40,0,0
162234,-100,4,2,1,40,0,0
162319,-66.6666666666667,4,2,1,40,0,0
162362,-200,4,2,1,40,0,0
162405,-100,4,2,1,40,0,0
162491,-66.6666666666667,4,2,1,40,0,0
162534,-200,4,2,1,40,0,0
162577,-60.6060606060606,4,2,1,40,0,0
162598,-222.222222222222,4,2,1,40,0,0
162619,-58.8235294117647,4,2,1,40,0,0
162640,-333.333333333333,4,2,1,40,0,0
162662,-57.1428571428571,4,2,1,40,0,0
162683,-400,4,2,1,40,0,0
162705,-55.5555555555556,4,2,1,40,0,0
162726,-500,4,2,1,40,0,0
162748,-54.054054054054,4,2,1,40,0,0
162769,-666.666666666667,4,2,1,40,0,0
162791,-52.6315789473684,4,2,1,40,0,0
162812,-1000,4,2,1,40,0,0
162834,-40,4,2,1,40,0,0
162877,-133.333333333333,4,2,1,40,0,0
163091,-100,4,2,1,40,0,0
163177,-66.6666666666667,4,2,1,40,0,0
163220,-200,4,2,1,40,0,0
163263,-100,4,2,1,40,0,0
163349,-66.6666666666667,4,2,1,40,0,0
163392,-200,4,2,1,40,0,0
163435,-100,4,2,1,40,0,0
163520,-66.6666666666667,4,2,1,40,0,0
163563,-200,4,2,1,40,0,0
163606,-100,4,2,1,40,0,0
163691,-66.6666666666667,4,2,1,40,0,0
163734,-200,4,2,1,40,0,0
163777,-100,4,2,1,40,0,0
163863,-66.6666666666667,4,2,1,40,0,0
163906,-200,4,2,1,40,0,0
163948,-100,4,2,1,40,0,0
164034,-45.4545454545455,4,2,1,40,0,0
164055,-166.666666666667,4,2,1,40,0,0
164119,-45.4545454545455,4,2,1,40,0,0
164140,-166.666666666667,4,2,1,40,0,0
164206,-40,4,2,1,40,0,0
164248,-200,4,2,1,40,0,0
164377,-66.6666666666667,4,2,1,40,0,0
164419,-200,4,2,1,40,0,0
164462,-100,4,2,1,40,0,0
164548,-66.6666666666667,4,2,1,40,0,0
164591,-200,4,2,1,40,0,0
164634,-100,4,2,1,40,0,0
164720,-66.6666666666667,4,2,1,40,0,0
164763,-200,4,2,1,40,0,0
164805,-18.1818181818182,4,2,1,40,0,0
164810,-142.857142857143,4,2,1,40,0,0
164891,-40,4,2,1,40,0,0
164912,-200,4,2,1,40,0,0
164977,-18.1818181818182,4,2,1,40,0,0
164982,-142.857142857143,4,2,1,40,0,0
165062,-18.1818181818182,4,2,1,40,0,0
165067,-142.857142857143,4,2,1,40,0,0
165148,-18.1818181818182,4,2,1,40,0,0
165153,-142.857142857143,4,2,1,40,0,0
165234,-66.6666666666667,4,2,1,40,0,0
165277,-200,4,2,1,40,0,0
165320,-100,4,2,1,40,0,0
165406,-66.6666666666667,4,2,1,40,0,0
165449,-200,4,2,1,40,0,0
165491,-18.1818181818182,4,2,1,40,0,0
165496,-142.857142857143,4,2,1,40,0,0
165577,-40,4,2,1,40,0,0
165598,-200,4,2,1,40,0,0
165662,-18.1818181818182,4,2,1,40,0,0
165667,-142.857142857143,4,2,1,40,0,0
165748,-18.1818181818182,4,2,1,40,0,0
165753,-142.857142857143,4,2,1,40,0,0
165834,-18.1818181818182,4,2,1,40,0,0
165839,-142.857142857143,4,2,1,40,0,0
165919,-40,4,2,1,40,0,0
165962,-200,4,2,1,40,0,0
166091,-40,4,2,1,40,0,0
166134,-200,4,2,1,40,0,0
166262,-35.7142857142857,4,2,1,40,0,0
166305,-250,4,2,1,40,0,0
166434,-35.7142857142857,4,2,1,40,0,0
166477,-250,4,2,1,40,0,0
166605,-32.258064516129,4,2,1,40,0,0
166627,-333.333333333333,4,2,1,40,0,0
166691,-50,4,2,1,40,0,0
166734,-166.666666666667,4,2,1,40,0,0
166747.375,-158.730158730159,4,2,1,40,0,0
166760.75,-153.846153846154,4,2,1,40,0,0
166774.125,-147.058823529412,4,2,1,40,0,0
166787.5,-142.857142857143,4,2,1,40,0,0
166800.875,-136.986301369863,4,2,1,40,0,0
166814.25,-133.333333333333,4,2,1,40,0,0
166827.625,-128.205128205128,4,2,1,40,0,0
166841,-125,4,2,1,40,0,0
166854.375,-120.481927710843,4,2,1,40,0,0
166867.75,-117.647058823529,4,2,1,40,0,0
166881.125,-113.636363636364,4,2,1,40,0,0
166894.5,-111.111111111111,4,2,1,40,0,0
166907.875,-107.52688172043,4,2,1,40,0,0
166921.25,-105.263157894737,4,2,1,40,0,0
166934.625,-102.040816326531,4,2,1,40,0,0
166948,-33.3333333333333,4,2,1,40,0,0
166991,-166.666666666667,4,2,1,40,0,0
167205,-100,4,2,1,40,0,0
167291,-66.6666666666667,4,2,1,40,0,0
167334,-80,4,2,1,40,0,0
167377,-133.333333333333,4,2,1,40,0,0
167419,-200,4,2,1,40,0,0
167462,-100,4,2,1,40,0,0
167634,-66.6666666666667,4,2,1,40,0,0
167677,-80,4,2,1,40,0,0
167720,-133.333333333333,4,2,1,40,0,0
167762,-200,4,2,1,40,0,0
167805,-100,4,2,1,40,0,0
167977,-66.6666666666667,4,2,1,40,0,0
168020,-80,4,2,1,40,0,0
168063,-133.333333333333,4,2,1,40,0,0
168105,-200,4,2,1,40,0,0
168148,-100,4,2,1,40,0,0
168319,-66.6666666666667,4,2,1,40,0,0
168362,-80,4,2,1,40,0,0
168405,-133.333333333333,4,2,1,40,0,0
168447,-200,4,2,1,40,0,0
168491,-66.6666666666667,4,2,1,40,0,0
168534,-80,4,2,1,40,0,0
168577,-133.333333333333,4,2,1,40,0,0
168619,-200,4,2,1,40,0,0
168662,-66.6666666666667,4,2,1,40,0,0
168705,-80,4,2,1,40,0,0
168748,-133.333333333333,4,2,1,40,0,0
168790,-200,4,2,1,40,0,0
168833,-100,4,2,1,40,0,0
169005,-66.6666666666667,4,2,1,40,0,0
169048,-80,4,2,1,40,0,0
169091,-133.333333333333,4,2,1,40,0,0
169133,-200,4,2,1,40,0,0
169176,-100,4,2,1,40,0,0
169348,-66.6666666666667,4,2,1,40,0,0
169391,-80,4,2,1,40,0,0
169434,-133.333333333333,4,2,1,40,0,0
169476,-200,4,2,1,40,0,0
169519,-66.6666666666667,4,2,1,40,0,0
169562,-80,4,2,1,40,0,0
169605,-133.333333333333,4,2,1,40,0,0
169647,-200,4,2,1,40,0,0
169691,-66.6666666666667,4,2,1,40,0,0
169734,-80,4,2,1,40,0,0
169777,-133.333333333333,4,2,1,40,0,0
169819,-200,4,2,1,40,0,0
169862,-100,4,2,1,40,0,0
170034,-52.6315789473684,4,2,1,40,0,0
170048,-1000,4,2,1,40,0,0
170062,-52.6315789473684,4,2,1,40,0,0
170077,-1000,4,2,1,40,0,0
170091,-55.5555555555556,4,2,1,40,0,0
170105,-500,4,2,1,40,0,0
170119,-55.5555555555556,4,2,1,40,0,0
170134,-500,4,2,1,40,0,0
170148,-58.8235294117647,4,2,1,40,0,0
170162,-333.333333333333,4,2,1,40,0,0
170176,-58.8235294117647,4,2,1,40,0,0
170191,-333.333333333333,4,2,1,40,0,0
170205,-100,4,2,1,40,0,0
170377,-52.6315789473684,4,2,1,40,0,0
170391,-1000,4,2,1,40,0,0
170405,-52.6315789473684,4,2,1,40,0,0
170420,-1000,4,2,1,40,0,0
170434,-52.6315789473684,4,2,1,40,0,0
170448,-1000,4,2,1,40,0,0
170462,-52.6315789473684,4,2,1,40,0,0
170477,-1000,4,2,1,40,0,0
170491,-52.6315789473684,4,2,1,40,0,0
170505,-1000,4,2,1,40,0,0
170519,-52.6315789473684,4,2,1,40,0,0
170534,-1000,4,2,1,40,0,0
170548,-52.6315789473684,4,2,1,40,0,0
170562,-1000,4,2,1,40,0,0
170576,-52.6315789473684,4,2,1,40,0,0
170591,-1000,4,2,1,40,0,0
170605,-55.5555555555556,4,2,1,40,0,0
170619,-500,4,2,1,40,0,0
170633,-55.5555555555556,4,2,1,40,0,0
170648,-500,4,2,1,40,0,0
170662,-58.8235294117647,4,2,1,40,0,0
170676,-333.333333333333,4,2,1,40,0,0
170690,-58.8235294117647,4,2,1,40,0,0
170705,-333.333333333333,4,2,1,40,0,0
170719,-45.4545454545455,4,2,1,40,0,0
170762,-166.666666666667,4,2,1,40,0,0
170891,-100,4,2,1,40,0,0
171062,-52.6315789473684,4,2,1,40,0,0
171105,-142.857142857143,4,2,1,40,0,0
171234,-100,4,2,1,40,0,0
171405,-52.6315789473684,4,2,1,40,0,0
171419,-1000,4,2,1,40,0,0
171433,-52.6315789473684,4,2,1,40,0,0
171448,-1000,4,2,1,40,0,0
171462,-55.5555555555556,4,2,1,40,0,0
171476,-500,4,2,1,40,0,0
171490,-55.5555555555556,4,2,1,40,0,0
171505,-500,4,2,1,40,0,0
171519,-58.8235294117647,4,2,1,40,0,0
171533,-333.333333333333,4,2,1,40,0,0
171547,-58.8235294117647,4,2,1,40,0,0
171562,-333.333333333333,4,2,1,40,0,0
171576,-100,4,2,1,40,0,0
171748,-52.6315789473684,4,2,1,40,0,0
171762,-1000,4,2,1,40,0,0
171776,-52.6315789473684,4,2,1,40,0,0
171791,-1000,4,2,1,40,0,0
171805,-52.6315789473684,4,2,1,40,0,0
171819,-1000,4,2,1,40,0,0
171833,-52.6315789473684,4,2,1,40,0,0
171848,-1000,4,2,1,40,0,0
171862,-52.6315789473684,4,2,1,40,0,0
171876,-1000,4,2,1,40,0,0
171890,-52.6315789473684,4,2,1,40,0,0
171905,-1000,4,2,1,40,0,0
171919,-52.6315789473684,4,2,1,40,0,0
171933,-1000,4,2,1,40,0,0
171947,-52.6315789473684,4,2,1,40,0,0
171962,-1000,4,2,1,40,0,0
171976,-55.5555555555556,4,2,1,40,0,0
171990,-500,4,2,1,40,0,0
172004,-55.5555555555556,4,2,1,40,0,0
172019,-500,4,2,1,40,0,0
172033,-58.8235294117647,4,2,1,40,0,0
172047,-333.333333333333,4,2,1,40,0,0
172061,-58.8235294117647,4,2,1,40,0,0
172076,-333.333333333333,4,2,1,40,0,0
172091,-45.4545454545455,4,2,1,40,0,0
172112,-166.666666666667,4,2,1,40,0,0
172177,-100,4,2,1,40,0,0
172433,-52.6315789473684,4,2,1,40,0,0
172476,-142.857142857143,4,2,1,40,0,0
172605,-100,4,2,1,40,0,0
172777,-66.6666666666667,4,2,1,40,0,0
172820,-80,4,2,1,40,0,0
172863,-133.333333333333,4,2,1,40,0,0
172905,-200,4,2,1,40,0,0
172948,-100,4,2,1,40,0,0
173120,-66.6666666666667,4,2,1,40,0,0
173163,-80,4,2,1,40,0,0
173206,-133.333333333333,4,2,1,40,0,0
173248,-200,4,2,1,40,0,0
173291,-100,4,2,1,40,0,0
173463,-66.6666666666667,4,2,1,40,0,0
173506,-80,4,2,1,40,0,0
173549,-133.333333333333,4,2,1,40,0,0
173591,-200,4,2,1,40,0,0
173634,-100,4,2,1,40,0,0
173805,-66.6666666666667,4,2,1,40,0,0
173848,-80,4,2,1,40,0,0
173891,-133.333333333333,4,2,1,40,0,0
173933,-200,4,2,1,40,0,0
173977,-66.6666666666667,4,2,1,40,0,0
174020,-80,4,2,1,40,0,0
174063,-133.333333333333,4,2,1,40,0,0
174105,-200,4,2,1,40,0,0
174148,-66.6666666666667,4,2,1,40,0,0
174191,-80,4,2,1,40,0,0
174234,-133.333333333333,4,2,1,40,0,0
174276,-200,4,2,1,40,0,0
174319,-100,4,2,1,40,0,0
174491,-66.6666666666667,4,2,1,40,0,0
174534,-80,4,2,1,40,0,0
174577,-133.333333333333,4,2,1,40,0,0
174619,-200,4,2,1,40,0,0
174662,-100,4,2,1,40,0,0
174834,-66.6666666666667,4,2,1,40,0,0
174877,-80,4,2,1,40,0,0
174920,-133.333333333333,4,2,1,40,0,0
174962,-200,4,2,1,40,0,0
175005,-66.6666666666667,4,2,1,40,0,0
175048,-200,4,2,1,40,0,0
175091,-66.6666666666667,4,2,1,40,0,0
175134,-200,4,2,1,40,0,0
175177,-66.6666666666667,4,2,1,40,0,0
175220,-200,4,2,1,40,0,0
175262,-66.6666666666667,4,2,1,40,0,0
175305,-200,4,2,1,40,0,0
175348,-66.6666666666667,4,2,1,40,0,0
175391,-200,4,2,1,40,0,0
175434,-66.6666666666667,4,2,1,40,0,0
175477,-200,4,2,1,40,0,0
175519,-66.6666666666667,4,2,1,40,0,0
175562,-200,4,2,1,40,0,0
175605,-100,4,2,1,40,0,0
175691,-66.6666666666667,4,2,1,40,0,0
175734,-200,4,2,1,40,0,0
175777,-100,4,2,1,40,0,0
175862,-66.6666666666667,4,2,1,40,0,0
175905,-200,4,2,1,40,0,0
175948,-100,4,2,1,40,0,0
176033,-66.6666666666667,4,2,1,40,0,0
176076,-200,4,2,1,40,0,0
176119,-100,4,2,1,40,0,0
176205,-66.6666666666667,4,2,1,40,0,0
176248,-200,4,2,1,40,0,0
176291,-60.6060606060606,4,2,1,40,0,0
176312,-222.222222222222,4,2,1,40,0,0
176333,-58.8235294117647,4,2,1,40,0,0
176354,-333.333333333333,4,2,1,40,0,0
176376,-57.1428571428571,4,2,1,40,0,0
176397,-400,4,2,1,40,0,0
176419,-55.5555555555556,4,2,1,40,0,0
176440,-500,4,2,1,40,0,0
176462,-54.054054054054,4,2,1,40,0,0
176483,-666.666666666667,4,2,1,40,0,0
176505,-52.6315789473684,4,2,1,40,0,0
176526,-1000,4,2,1,40,0,0
176548,-40,4,2,1,40,0,0
176591,-133.333333333333,4,2,1,40,0,0
176805,-100,4,2,1,40,0,0
176891,-66.6666666666667,4,2,1,40,0,0
176934,-200,4,2,1,40,0,0
176977,-100,4,2,1,40,0,0
177063,-66.6666666666667,4,2,1,40,0,0
177106,-200,4,2,1,40,0,0
177149,-100,4,2,1,40,0,0
177234,-66.6666666666667,4,2,1,40,0,0
177277,-200,4,2,1,40,0,0
177320,-100,4,2,1,40,0,0
177405,-66.6666666666667,4,2,1,40,0,0
177448,-200,4,2,1,40,0,0
177491,-100,4,2,1,40,0,0
177577,-66.6666666666667,4,2,1,40,0,0
177620,-200,4,2,1,40,0,0
177662,-100,4,2,1,40,0,0
177748,-45.4545454545455,4,2,1,40,0,0
177769,-166.666666666667,4,2,1,40,0,0
177833,-45.4545454545455,4,2,1,40,0,0
177854,-166.666666666667,4,2,1,40,0,0
177920,-40,4,2,1,40,0,0
177962,-200,4,2,1,40,0,0
178091,-66.6666666666667,4,2,1,40,0,0
178133,-200,4,2,1,40,0,0
178176,-100,4,2,1,40,0,0
178262,-66.6666666666667,4,2,1,40,0,0
178305,-200,4,2,1,40,0,0
178348,-100,4,2,1,40,0,0
178434,-66.6666666666667,4,2,1,40,0,0
178477,-200,4,2,1,40,0,0
178519,-18.1818181818182,4,2,1,40,0,0
178524,-142.857142857143,4,2,1,40,0,0
178605,-40,4,2,1,40,0,0
178626,-200,4,2,1,40,0,0
178690,-18.1818181818182,4,2,1,40,0,0
178695,-142.857142857143,4,2,1,40,0,0
178776,-18.1818181818182,4,2,1,40,0,0
178781,-142.857142857143,4,2,1,40,0,0
178862,-18.1818181818182,4,2,1,40,0,0
178867,-142.857142857143,4,2,1,40,0,0
178948,-66.6666666666667,4,2,1,40,0,0
178991,-200,4,2,1,40,0,0
179034,-100,4,2,1,40,0,0
179120,-66.6666666666667,4,2,1,40,0,0
179163,-200,4,2,1,40,0,0
179205,-18.1818181818182,4,2,1,40,0,0
179210,-142.857142857143,4,2,1,40,0,0
179291,-40,4,2,1,40,0,0
179312,-200,4,2,1,40,0,0
179376,-18.1818181818182,4,2,1,40,0,0
179381,-142.857142857143,4,2,1,40,0,0
179462,-18.1818181818182,4,2,1,40,0,0
179467,-142.857142857143,4,2,1,40,0,0
179548,-18.1818181818182,4,2,1,40,0,0
179553,-142.857142857143,4,2,1,40,0,0
179633,-40,4,2,1,40,0,0
179676,-200,4,2,1,40,0,0
179805,-40,4,2,1,40,0,0
179848,-200,4,2,1,40,0,0
179976,-35.7142857142857,4,2,1,40,0,0
180019,-250,4,2,1,40,0,0
180148,-35.7142857142857,4,2,1,40,0,0
180191,-250,4,2,1,40,0,0
180319,-32.258064516129,4,2,1,40,0,0
180341,-333.333333333333,4,2,1,40,0,0
180405,-50,4,2,1,40,0,0
180448,-166.666666666667,4,2,1,40,0,0
180461.375,-158.730158730159,4,2,1,40,0,0
180474.75,-153.846153846154,4,2,1,40,0,0
180488.125,-147.058823529412,4,2,1,40,0,0
180501.5,-142.857142857143,4,2,1,40,0,0
180514.875,-136.986301369863,4,2,1,40,0,0
180528.25,-133.333333333333,4,2,1,40,0,0
180541.625,-128.205128205128,4,2,1,40,0,0
180555,-125,4,2,1,40,0,0
180568.375,-120.481927710843,4,2,1,40,0,0
180581.75,-117.647058823529,4,2,1,40,0,0
180595.125,-113.636363636364,4,2,1,40,0,0
180608.5,-111.111111111111,4,2,1,40,0,0
180621.875,-107.52688172043,4,2,1,40,0,0
180635.25,-105.263157894737,4,2,1,40,0,0
180648.625,-102.040816326531,4,2,1,40,0,0
180662,-33.3333333333333,4,2,1,40,0,0
180705,-166.666666666667,4,2,1,40,0,0
180919,-100,4,2,1,40,0,0
180920,-111.111111111111,4,2,1,40,0,0
180963,-125,4,2,1,40,0,0
181005,-142.857142857143,4,2,1,40,0,0
181153.6,-138.888888888889,4,2,1,40,0,0
181302.2,-135.135135135135,4,2,1,40,0,0
181450.8,-131.578947368421,4,2,1,40,0,0
181599.4,-128.205128205128,4,2,1,40,0,0
181748,-125,4,2,1,40,0,0
181896.6,-121.951219512195,4,2,1,40,0,0
182045.2,-119.047619047619,4,2,1,40,0,0
182193.8,-116.279069767442,4,2,1,40,0,0
182342.4,-113.636363636364,4,2,1,40,0,0
182491,-111.111111111111,4,2,1,40,0,0
182639.6,-108.695652173913,4,2,1,40,0,0
182788.2,-106.382978723404,4,2,1,40,0,0
182936.8,-104.166666666667,4,2,1,40,0,0
183085.4,-102.040816326531,4,2,1,40,0,0
183234,-100,4,2,1,40,0,0
183405,-45.4545454545455,4,2,1,40,0,0
183491,-166.666666666667,4,2,1,40,0,0
183748,-52.6315789473684,4,2,1,40,0,0
183791,-142.857142857143,4,2,1,40,0,0
183919,-100,4,2,1,40,0,0
184091,-52.6315789473684,4,2,1,40,0,0
184134,-142.857142857143,4,2,1,40,0,0
184262,-100,4,2,1,40,0,0
184434,-52.6315789473684,4,2,1,40,0,0
184477,-142.857142857143,4,2,1,40,0,0
184605,-100,4,2,1,40,0,0
185119,-52.6315789473684,4,2,1,40,0,0
185162,-142.857142857143,4,2,1,40,0,0
185290,-100,4,2,1,40,0,0
185462,-52.6315789473684,4,2,1,40,0,0
185505,-142.857142857143,4,2,1,40,0,0
185633,-100,4,2,1,40,0,0
185805,-52.6315789473684,4,2,1,40,0,0
185848,-142.857142857143,4,2,1,40,0,0
185976,-100,4,2,1,40,0,0
186491,-52.6315789473684,4,2,1,40,0,0
186534,-142.857142857143,4,2,1,40,0,0
186662,-100,4,2,1,40,0,0
187177,-52.6315789473684,4,2,1,40,0,0
187220,-142.857142857143,4,2,1,40,0,0
187348,-100,4,2,1,40,0,0
187862,-52.6315789473684,4,2,1,40,0,0
187905,-142.857142857143,4,2,1,40,0,0
188033,-100,4,2,1,40,0,0
188205,-52.6315789473684,4,2,1,40,0,0
188248,-142.857142857143,4,2,1,40,0,0
188376,-100,4,2,1,40,0,0
188548,-45.4545454545455,4,2,1,40,0,0
188634,-166.666666666667,4,2,1,40,0,0
188891,-100,4,2,1,40,0,0
189234,-66.6666666666667,4,2,1,40,0,0
189319,-200,4,2,1,40,0,0
189405,-100,4,2,1,40,0,0
189577,-66.6666666666667,4,2,1,40,0,0
189662,-200,4,2,1,40,0,0
189748,-100,4,2,1,40,0,0
189919,-66.6666666666667,4,2,1,40,0,0
190004,-200,4,2,1,40,0,0
190090,-100,4,2,1,40,0,0
190262,-66.6666666666667,4,2,1,40,0,0
190347,-200,4,2,1,40,0,0
190433,-100,4,2,1,40,0,0
190605,-57.1428571428571,4,2,1,40,0,0
190690,-400,4,2,1,40,0,0
190777,-66.6666666666667,4,2,1,40,0,0
190862,-200,4,2,1,40,0,0
190948,-57.1428571428571,4,2,1,40,0,0
191033,-400,4,2,1,40,0,0
191119,-66.6666666666667,4,2,1,40,0,0
191204,-200,4,2,1,40,0,0
191291,-57.1428571428571,4,2,1,40,0,0
191376,-400,4,2,1,40,0,0
191462,-66.6666666666667,4,2,1,40,0,0
191547,-200,4,2,1,40,0,0
191634,-57.1428571428571,4,2,1,40,0,0
191719,-400,4,2,1,40,0,0
191805,-66.6666666666667,4,2,1,40,0,0
191890,-200,4,2,1,40,0,0
191977,-52.6315789473684,4,2,1,40,0,0
191998,-142.857142857143,4,2,1,40,0,0
192062,-52.6315789473684,4,2,1,40,0,0
192083,-142.857142857143,4,2,1,40,0,0
192148,-52.6315789473684,4,2,1,40,0,0
192169,-142.857142857143,4,2,1,40,0,0
192234,-52.6315789473684,4,2,1,40,0,0
192255,-142.857142857143,4,2,1,40,0,0
192319,-45.4545454545455,4,2,1,40,0,0
192340,-166.666666666667,4,2,1,40,0,0
192405,-45.4545454545455,4,2,1,40,0,0
192426,-166.666666666667,4,2,1,40,0,0
192491,-45.4545454545455,4,2,1,40,0,0
192512,-166.666666666667,4,2,1,40,0,0
192577,-45.4545454545455,4,2,1,40,0,0
192598,-166.666666666667,4,2,1,40,0,0
192662,-40,4,2,1,40,0,0
192683,-200,4,2,1,40,0,0
192748,-40,4,2,1,40,0,0
192769,-200,4,2,1,40,0,0
192834,-40,4,2,1,40,0,0
192855,-200,4,2,1,40,0,0
192919,-40,4,2,1,40,0,0
192940,-200,4,2,1,40,0,0
193005,-35.7142857142857,4,2,1,40,0,0
193026,-250.000000000001,4,2,1,40,0,0
193091,-35.7142857142857,4,2,1,40,0,0
193112,-250.000000000001,4,2,1,40,0,0
193177,-35.7142857142857,4,2,1,40,0,0
193198,-250.000000000001,4,2,1,40,0,0
193262,-35.7142857142857,4,2,1,40,0,0
193283,-250.000000000001,4,2,1,40,0,0
193348,-40,4,2,1,40,0,0
193359,-200,4,2,1,40,0,0
193391,-40,4,2,1,40,0,0
193402,-200,4,2,1,40,0,0
193434,-40,4,2,1,40,0,0
193445,-200,4,2,1,40,0,0
193477,-40,4,2,1,40,0,0
193488,-200,4,2,1,40,0,0
193519,-40,4,2,1,40,0,0
193530,-200,4,2,1,40,0,0
193562,-40,4,2,1,40,0,0
193573,-200,4,2,1,40,0,0
193605,-40,4,2,1,40,0,0
193616,-200,4,2,1,40,0,0
193648,-40,4,2,1,40,0,0
193659,-200,4,2,1,40,0,0
193691,-40,4,2,1,40,0,0
193702,-200,4,2,1,40,0,0
193734,-40,4,2,1,40,0,0
193745,-200,4,2,1,40,0,0
193777,-40,4,2,1,40,0,0
193788,-200,4,2,1,40,0,0
193820,-40,4,2,1,40,0,0
193831,-200,4,2,1,40,0,0
193862,-40,4,2,1,40,0,0
193873,-200,4,2,1,40,0,0
193905,-40,4,2,1,40,0,0
193916,-200,4,2,1,40,0,0
193948,-40,4,2,1,40,0,0
193959,-200,4,2,1,40,0,0
193991,-40,4,2,1,40,0,0
194002,-200,4,2,1,40,0,0
194034,-32.258064516129,4,2,1,40,0,0
194045,-333.333333333333,4,2,1,40,0,0
194077,-32.258064516129,4,2,1,40,0,0
194088,-333.333333333333,4,2,1,40,0,0
194119,-32.258064516129,4,2,1,40,0,0
194130,-333.333333333333,4,2,1,40,0,0
194162,-32.258064516129,4,2,1,40,0,0
194173,-333.333333333333,4,2,1,40,0,0
194205,-32.258064516129,4,2,1,40,0,0
194216,-333.333333333333,4,2,1,40,0,0
194248,-32.258064516129,4,2,1,40,0,0
194259,-333.333333333333,4,2,1,40,0,0
194290,-32.258064516129,4,2,1,40,0,0
194301,-333.333333333333,4,2,1,40,0,0
194333,-32.258064516129,4,2,1,40,0,0
194344,-333.333333333333,4,2,1,40,0,0
194377,-32.258064516129,4,2,1,40,0,0
194388,-333.333333333333,4,2,1,40,0,0
194420,-32.258064516129,4,2,1,40,0,0
194431,-333.333333333333,4,2,1,40,0,0
194462,-32.258064516129,4,2,1,40,0,0
194473,-333.333333333333,4,2,1,40,0,0
194505,-32.258064516129,4,2,1,40,0,0
194516,-333.333333333333,4,2,1,40,0,0
194548,-32.258064516129,4,2,1,40,0,0
194559,-333.333333333333,4,2,1,40,0,0
194591,-32.258064516129,4,2,1,40,0,0
194602,-333.333333333333,4,2,1,40,0,0
194633,-32.258064516129,4,2,1,40,0,0
194644,-333.333333333333,4,2,1,40,0,0
194676,-32.258064516129,4,2,1,40,0,0
194687,-333.333333333333,4,2,1,40,0,0
194719,-52.6315789473684,4,2,1,40,0,0
194762,-142.857142857143,4,2,1,40,0,0
194891,-100,4,2,1,40,0,0
195062,-52.6315789473684,4,2,1,40,0,0
195105,-142.857142857143,4,2,1,40,0,0
195234,-100,4,2,1,40,0,0
195405,-52.6315789473684,4,2,1,40,0,0
195448,-142.857142857143,4,2,1,40,0,0
195577,-100,4,2,1,40,0,0
196134,-55.5555555555556,4,2,1,40,0,0
196177,-166.666666666667,4,2,1,40,0,0
196262,-100,4,2,1,40,0,0
196477,-55.5555555555556,4,2,1,40,0,0
196520,-166.666666666667,4,2,1,40,0,0
196605,-100,4,2,1,40,0,0
196820,-55.5555555555556,4,2,1,40,0,0
196863,-166.666666666667,4,2,1,40,0,0
196948,-100,4,2,1,40,0,0
197120,-22.2222222222222,4,2,1,40,0,0
197162,-1000,4,2,1,40,0,0
197205,-500,4,2,1,40,0,0
197248,-333.333333333333,4,2,1,40,0,0
197291,-200,4,2,1,40,0,0
197334,-142.857142857143,4,2,1,40,0,0
197377,-125,4,2,1,40,0,0
197420,-111.111111111111,4,2,1,40,0,0
197462,-40,4,2,1,40,0,0
197483,-200.000000000001,4,2,1,40,0,0
197548,-40,4,2,1,40,0,0
197569,-200.000000000001,4,2,1,40,0,0
197634,-40,4,2,1,40,0,0
197655,-200.000000000001,4,2,1,40,0,0
197720,-40,4,2,1,40,0,0
197741,-200.000000000001,4,2,1,40,0,0
197805,-40,4,2,1,40,0,0
197826,-200.000000000001,4,2,1,40,0,0
197891,-40,4,2,1,40,0,0
197912,-200.000000000001,4,2,1,40,0,0
197977,-40,4,2,1,40,0,0
197998,-200.000000000001,4,2,1,40,0,0
198062,-40,4,2,1,40,0,0
198083,-200.000000000001,4,2,1,40,0,0
198148,-40,4,2,1,40,0,0
198169,-200.000000000001,4,2,1,40,0,0
198234,-40,4,2,1,40,0,0
198255,-200.000000000001,4,2,1,40,0,0
198320,-40,4,2,1,40,0,0
198341,-200.000000000001,4,2,1,40,0,0
198405,-40,4,2,1,40,0,0
198426,-200.000000000001,4,2,1,40,0,0
198491,-40,4,2,1,40,0,0
198502,-200,4,2,1,40,0,0
198534,-40,4,2,1,40,0,0
198545,-200,4,2,1,40,0,0
198577,-40,4,2,1,40,0,0
198588,-200,4,2,1,40,0,0
198620,-40,4,2,1,40,0,0
198631,-200,4,2,1,40,0,0
198662,-40,4,2,1,40,0,0
198673,-200,4,2,1,40,0,0
198705,-40,4,2,1,40,0,0
198716,-200,4,2,1,40,0,0
198748,-35.7142857142857,4,2,1,40,0,0
198769,-250.000000000001,4,2,1,40,0,0
198834,-52.6315789473684,4,2,1,40,0,0
198877,-142.857142857143,4,2,1,40,0,0
199006,-100,4,2,1,40,0,0
199177,-52.6315789473684,4,2,1,40,0,0
199220,-142.857142857143,4,2,1,40,0,0
199349,-100,4,2,1,40,0,0
199520,-45.4545454545455,4,2,1,40,0,0
199563,-166.666666666667,4,2,1,40,0,0
199691,-45.4545454545455,4,2,1,40,0,0
199734,-166.666666666667,4,2,1,40,0,0
199862,-40,4,2,1,40,0,0
199905,-142.857142857143,4,2,1,40,0,0
200119,-100,4,2,1,40,0,0
200205,-52.6315789473684,4,2,1,40,0,0
200216,-1000,4,2,1,40,0,0
200227,-52.6315789473684,4,2,1,40,0,0
200238,-1000,4,2,1,40,0,0
200248,-52.6315789473684,4,2,1,40,0,0
200259,-1000,4,2,1,40,0,0
200270,-52.6315789473684,4,2,1,40,0,0
200281,-1000,4,2,1,40,0,0
200291,-55.5555555555556,4,2,1,40,0,0
200302,-500,4,2,1,40,0,0
200313,-55.5555555555556,4,2,1,40,0,0
200324,-500,4,2,1,40,0,0
200334,-55.5555555555556,4,2,1,40,0,0
200345,-500,4,2,1,40,0,0
200356,-55.5555555555556,4,2,1,40,0,0
200367,-500,4,2,1,40,0,0
200377,-58.8235294117647,4,2,1,40,0,0
200388,-333.333333333333,4,2,1,40,0,0
200399,-58.8235294117647,4,2,1,40,0,0
200410,-333.333333333333,4,2,1,40,0,0
200420,-58.8235294117647,4,2,1,40,0,0
200431,-333.333333333333,4,2,1,40,0,0
200442,-58.8235294117647,4,2,1,40,0,0
200453,-333.333333333333,4,2,1,40,0,0
200462,-62.5,4,2,1,40,0,0
200473,-250,4,2,1,40,0,0
200484,-62.5,4,2,1,40,0,0
200495,-250,4,2,1,40,0,0
200505,-62.5,4,2,1,40,0,0
200516,-250,4,2,1,40,0,0
200527,-62.5,4,2,1,40,0,0
200538,-250,4,2,1,40,0,0
200548,-45.4545454545455,4,2,1,40,0,0
200570,-166.666666666667,4,2,1,40,0,0
200634,-100,4,2,1,40,0,0
200720,-52.6315789473684,4,2,1,40,0,0
200731,-1000,4,2,1,40,0,0
200742,-52.6315789473684,4,2,1,40,0,0
200753,-1000,4,2,1,40,0,0
200762,-52.6315789473684,4,2,1,40,0,0
200773,-1000,4,2,1,40,0,0
200784,-52.6315789473684,4,2,1,40,0,0
200795,-1000,4,2,1,40,0,0
200805,-52.6315789473684,4,2,1,40,0,0
200816,-1000,4,2,1,40,0,0
200827,-52.6315789473684,4,2,1,40,0,0
200838,-1000,4,2,1,40,0,0
200848,-52.6315789473684,4,2,1,40,0,0
200859,-1000,4,2,1,40,0,0
200870,-52.6315789473684,4,2,1,40,0,0
200881,-1000,4,2,1,40,0,0
200891,-66.6666666666667,4,2,1,40,0,0
200934,-200,4,2,1,40,0,0
200977,-100,4,2,1,40,0,0
201062,-52.6315789473684,4,2,1,40,0,0
201073,-1000,4,2,1,40,0,0
201084,-52.6315789473684,4,2,1,40,0,0
201095,-1000,4,2,1,40,0,0
201105,-52.6315789473684,4,2,1,40,0,0
201116,-1000,4,2,1,40,0,0
201127,-52.6315789473684,4,2,1,40,0,0
201138,-1000,4,2,1,40,0,0
201148,-52.6315789473684,4,2,1,40,0,0
201159,-1000,4,2,1,40,0,0
201170,-52.6315789473684,4,2,1,40,0,0
201181,-1000,4,2,1,40,0,0
201191,-52.6315789473684,4,2,1,40,0,0
201202,-1000,4,2,1,40,0,0
201213,-52.6315789473684,4,2,1,40,0,0
201224,-1000,4,2,1,40,0,0
201234,-45.4545454545455,4,2,1,40,0,0
201256,-166.666666666667,4,2,1,40,0,0
201320,-100,4,2,1,40,0,0
201405,-52.6315789473684,4,2,1,40,0,0
201416,-1000,4,2,1,40,0,0
201427,-52.6315789473684,4,2,1,40,0,0
201438,-1000,4,2,1,40,0,0
201448,-52.6315789473684,4,2,1,40,0,0
201459,-1000,4,2,1,40,0,0
201470,-52.6315789473684,4,2,1,40,0,0
201481,-1000,4,2,1,40,0,0
201491,-52.6315789473684,4,2,1,40,0,0
201502,-1000,4,2,1,40,0,0
201513,-52.6315789473684,4,2,1,40,0,0
201524,-1000,4,2,1,40,0,0
201534,-52.6315789473684,4,2,1,40,0,0
201545,-1000,4,2,1,40,0,0
201556,-52.6315789473684,4,2,1,40,0,0
201567,-1000,4,2,1,40,0,0
201577,-66.6666666666667,4,2,1,40,0,0
201620,-200,4,2,1,40,0,0
201663,-100,4,2,1,40,0,0
201748,-52.6315789473684,4,2,1,40,0,0
201759,-1000,4,2,1,40,0,0
201770,-52.6315789473684,4,2,1,40,0,0
201781,-1000,4,2,1,40,0,0
201791,-52.6315789473684,4,2,1,40,0,0
201802,-1000,4,2,1,40,0,0
201813,-52.6315789473684,4,2,1,40,0,0
201824,-1000,4,2,1,40,0,0
201834,-52.6315789473684,4,2,1,40,0,0
201845,-1000,4,2,1,40,0,0
201856,-52.6315789473684,4,2,1,40,0,0
201867,-1000,4,2,1,40,0,0
201877,-52.6315789473684,4,2,1,40,0,0
201888,-1000,4,2,1,40,0,0
201899,-52.6315789473684,4,2,1,40,0,0
201910,-1000,4,2,1,40,0,0
201920,-45.4545454545455,4,2,1,40,0,0
201942,-166.666666666667,4,2,1,40,0,0
202006,-100,4,2,1,40,0,0
202091,-52.6315789473684,4,2,1,40,0,0
202102,-1000,4,2,1,40,0,0
202113,-52.6315789473684,4,2,1,40,0,0
202124,-1000,4,2,1,40,0,0
202134,-52.6315789473684,4,2,1,40,0,0
202145,-1000,4,2,1,40,0,0
202156,-52.6315789473684,4,2,1,40,0,0
202167,-1000,4,2,1,40,0,0
202177,-52.6315789473684,4,2,1,40,0,0
202188,-1000,4,2,1,40,0,0
202199,-52.6315789473684,4,2,1,40,0,0
202210,-1000,4,2,1,40,0,0
202220,-52.6315789473684,4,2,1,40,0,0
202231,-1000,4,2,1,40,0,0
202242,-52.6315789473684,4,2,1,40,0,0
202253,-1000,4,2,1,40,0,0
202262,-66.6666666666667,4,2,1,40,0,0
202305,-200,4,2,1,40,0,0
202348,-100,4,2,1,40,0,0
202434,-52.6315789473684,4,2,1,40,0,0
202445,-1000,4,2,1,40,0,0
202456,-52.6315789473684,4,2,1,40,0,0
202467,-1000,4,2,1,40,0,0
202477,-52.6315789473684,4,2,1,40,0,0
202488,-1000,4,2,1,40,0,0
202499,-52.6315789473684,4,2,1,40,0,0
202510,-1000,4,2,1,40,0,0
202520,-52.6315789473684,4,2,1,40,0,0
202531,-1000,4,2,1,40,0,0
202542,-52.6315789473684,4,2,1,40,0,0
202553,-1000,4,2,1,40,0,0
202563,-52.6315789473684,4,2,1,40,0,0
202574,-1000,4,2,1,40,0,0
202585,-52.6315789473684,4,2,1,40,0,0
202596,-1000,4,2,1,40,0,0
202606,-45.4545454545455,4,2,1,40,0,0
202628,-166.666666666667,4,2,1,40,0,0
202692,-100,4,2,1,40,0,0
202777,-52.6315789473684,4,2,1,40,0,0
202788,-1000,4,2,1,40,0,0
202799,-52.6315789473684,4,2,1,40,0,0
202810,-1000,4,2,1,40,0,0
202820,-52.6315789473684,4,2,1,40,0,0
202831,-1000,4,2,1,40,0,0
202842,-52.6315789473684,4,2,1,40,0,0
202853,-1000,4,2,1,40,0,0
202863,-52.6315789473684,4,2,1,40,0,0
202874,-1000,4,2,1,40,0,0
202885,-52.6315789473684,4,2,1,40,0,0
202896,-1000,4,2,1,40,0,0
202906,-52.6315789473684,4,2,1,40,0,0
202917,-1000,4,2,1,40,0,0
202928,-52.6315789473684,4,2,1,40,0,0
202939,-1000,4,2,1,40,0,0
202948,-66.6666666666667,4,2,1,40,0,0
202991,-200,4,2,1,40,0,0
203034,-100,4,2,1,40,0,0
203120,-52.6315789473684,4,2,1,40,0,0
203131,-1000,4,2,1,40,0,0
203142,-52.6315789473684,4,2,1,40,0,0
203153,-1000,4,2,1,40,0,0
203163,-52.6315789473684,4,2,1,40,0,0
203174,-1000,4,2,1,40,0,0
203185,-52.6315789473684,4,2,1,40,0,0
203196,-1000,4,2,1,40,0,0
203206,-52.6315789473684,4,2,1,40,0,0
203217,-1000,4,2,1,40,0,0
203228,-52.6315789473684,4,2,1,40,0,0
203239,-1000,4,2,1,40,0,0
203249,-52.6315789473684,4,2,1,40,0,0
203260,-1000,4,2,1,40,0,0
203271,-52.6315789473684,4,2,1,40,0,0
203282,-1000,4,2,1,40,0,0
203292,-45.4545454545455,4,2,1,40,0,0
203314,-166.666666666667,4,2,1,40,0,0
203378,-100,4,2,1,40,0,0
203463,-52.6315789473684,4,2,1,40,0,0
203474,-1000,4,2,1,40,0,0
203485,-52.6315789473684,4,2,1,40,0,0
203496,-1000,4,2,1,40,0,0
203506,-52.6315789473684,4,2,1,40,0,0
203517,-1000,4,2,1,40,0,0
203528,-52.6315789473684,4,2,1,40,0,0
203539,-1000,4,2,1,40,0,0
203549,-52.6315789473684,4,2,1,40,0,0
203560,-1000,4,2,1,40,0,0
203571,-52.6315789473684,4,2,1,40,0,0
203582,-1000,4,2,1,40,0,0
203592,-52.6315789473684,4,2,1,40,0,0
203603,-1000,4,2,1,40,0,0
203614,-52.6315789473684,4,2,1,40,0,0
203625,-1000,4,2,1,40,0,0
203634,-66.6666666666667,4,2,1,40,0,0
203677,-200,4,2,1,40,0,0
203720,-100,4,2,1,40,0,0
203805,-52.6315789473684,4,2,1,40,0,0
203816,-1000,4,2,1,40,0,0
203827,-52.6315789473684,4,2,1,40,0,0
203838,-1000,4,2,1,40,0,0
203848,-52.6315789473684,4,2,1,40,0,0
203859,-1000,4,2,1,40,0,0
203870,-52.6315789473684,4,2,1,40,0,0
203881,-1000,4,2,1,40,0,0
203891,-52.6315789473684,4,2,1,40,0,0
203902,-1000,4,2,1,40,0,0
203913,-52.6315789473684,4,2,1,40,0,0
203924,-1000,4,2,1,40,0,0
203934,-52.6315789473684,4,2,1,40,0,0
203945,-1000,4,2,1,40,0,0
203956,-52.6315789473684,4,2,1,40,0,0
203967,-1000,4,2,1,40,0,0
203977,-45.4545454545455,4,2,1,40,0,0
203999,-166.666666666667,4,2,1,40,0,0
204063,-100,4,2,1,40,0,0
204148,-52.6315789473684,4,2,1,40,0,0
204159,-1000,4,2,1,40,0,0
204170,-52.6315789473684,4,2,1,40,0,0
204181,-1000,4,2,1,40,0,0
204191,-52.6315789473684,4,2,1,40,0,0
204202,-1000,4,2,1,40,0,0
204213,-52.6315789473684,4,2,1,40,0,0
204224,-1000,4,2,1,40,0,0
204234,-52.6315789473684,4,2,1,40,0,0
204245,-1000,4,2,1,40,0,0
204256,-52.6315789473684,4,2,1,40,0,0
204267,-1000,4,2,1,40,0,0
204277,-52.6315789473684,4,2,1,40,0,0
204288,-1000,4,2,1,40,0,0
204299,-52.6315789473684,4,2,1,40,0,0
204310,-1000,4,2,1,40,0,0
204320,-23.2558139534884,4,2,1,40,0,0
204331,-1000,4,2,1,40,0,0
204342,-23.2558139534884,4,2,1,40,0,0
204353,-1000,4,2,1,40,0,0
204362,-90.9090909090909,4,2,1,40,0,0
204373,-1000,4,2,1,40,0,0
204384,-90.9090909090909,4,2,1,40,0,0
204395,-1000,4,2,1,40,0,0
204405,-90.9090909090909,4,2,1,40,0,0
204416,-1000,4,2,1,40,0,0
204427,-90.9090909090909,4,2,1,40,0,0
204438,-1000,4,2,1,40,0,0
204448,-90.9090909090909,4,2,1,40,0,0
204459,-1000,4,2,1,40,0,0
204470,-90.9090909090909,4,2,1,40,0,0
204481,-1000,4,2,1,40,0,0
204491,-52.6315789473684,4,2,1,40,0,0
204502,-1000,4,2,1,40,0,0
204513,-52.6315789473684,4,2,1,40,0,0
204524,-1000,4,2,1,40,0,0
204534,-52.6315789473684,4,2,1,40,0,0
204545,-1000,4,2,1,40,0,0
204556,-52.6315789473684,4,2,1,40,0,0
204567,-1000,4,2,1,40,0,0
204577,-52.6315789473684,4,2,1,40,0,0
204588,-1000,4,2,1,40,0,0
204599,-52.6315789473684,4,2,1,40,0,0
204610,-1000,4,2,1,40,0,0
204620,-52.6315789473684,4,2,1,40,0,0
204631,-1000,4,2,1,40,0,0
204642,-52.6315789473684,4,2,1,40,0,0
204653,-1000,4,2,1,40,0,0
204662,-23.2558139534884,4,2,1,40,0,0
204673,-1000,4,2,1,40,0,0
204684,-23.2558139534884,4,2,1,40,0,0
204695,-1000,4,2,1,40,0,0
204704,-90.9090909090909,4,2,1,40,0,0
204715,-1000,4,2,1,40,0,0
204726,-90.9090909090909,4,2,1,40,0,0
204737,-1000,4,2,1,40,0,0
204747,-90.9090909090909,4,2,1,40,0,0
204758,-1000,4,2,1,40,0,0
204769,-90.9090909090909,4,2,1,40,0,0
204780,-1000,4,2,1,40,0,0
204790,-90.9090909090909,4,2,1,40,0,0
204801,-1000,4,2,1,40,0,0
204812,-90.9090909090909,4,2,1,40,0,0
204823,-1000,4,2,1,40,0,0
204833,-52.6315789473684,4,2,1,40,0,0
204844,-1000,4,2,1,40,0,0
204855,-52.6315789473684,4,2,1,40,0,0
204866,-1000,4,2,1,40,0,0
204876,-52.6315789473684,4,2,1,40,0,0
204887,-1000,4,2,1,40,0,0
204898,-52.6315789473684,4,2,1,40,0,0
204909,-1000,4,2,1,40,0,0
204919,-52.6315789473684,4,2,1,40,0,0
204930,-1000,4,2,1,40,0,0
204941,-52.6315789473684,4,2,1,40,0,0
204952,-1000,4,2,1,40,0,0
204962,-52.6315789473684,4,2,1,40,0,0
204973,-1000,4,2,1,40,0,0
204984,-52.6315789473684,4,2,1,40,0,0
204995,-1000,4,2,1,40,0,0
205005,-23.2558139534884,4,2,1,40,0,0
205016,-1000,4,2,1,40,0,0
205027,-23.2558139534884,4,2,1,40,0,0
205038,-1000,4,2,1,40,0,0
205047,-90.9090909090909,4,2,1,40,0,0
205058,-1000,4,2,1,40,0,0
205069,-90.9090909090909,4,2,1,40,0,0
205080,-1000,4,2,1,40,0,0
205090,-90.9090909090909,4,2,1,40,0,0
205101,-1000,4,2,1,40,0,0
205112,-90.9090909090909,4,2,1,40,0,0
205123,-1000,4,2,1,40,0,0
205133,-90.9090909090909,4,2,1,40,0,0
205144,-1000,4,2,1,40,0,0
205155,-90.9090909090909,4,2,1,40,0,0
205166,-1000,4,2,1,40,0,0
205176,-52.6315789473684,4,2,1,40,0,0
205187,-1000,4,2,1,40,0,0
205198,-52.6315789473684,4,2,1,40,0,0
205209,-1000,4,2,1,40,0,0
205219,-52.6315789473684,4,2,1,40,0,0
205230,-1000,4,2,1,40,0,0
205241,-52.6315789473684,4,2,1,40,0,0
205252,-1000,4,2,1,40,0,0
205262,-52.6315789473684,4,2,1,40,0,0
205273,-1000,4,2,1,40,0,0
205284,-52.6315789473684,4,2,1,40,0,0
205295,-1000,4,2,1,40,0,0
205305,-52.6315789473684,4,2,1,40,0,0
205316,-1000,4,2,1,40,0,0
205327,-52.6315789473684,4,2,1,40,0,0
205338,-1000,4,2,1,40,0,0
205348,-23.2558139534884,4,2,1,40,0,0
205359,-1000,4,2,1,40,0,0
205370,-23.2558139534884,4,2,1,40,0,0
205381,-1000,4,2,1,40,0,0
205390,-90.9090909090909,4,2,1,40,0,0
205401,-1000,4,2,1,40,0,0
205412,-90.9090909090909,4,2,1,40,0,0
205423,-1000,4,2,1,40,0,0
205433,-90.9090909090909,4,2,1,40,0,0
205444,-1000,4,2,1,40,0,0
205455,-90.9090909090909,4,2,1,40,0,0
205466,-1000,4,2,1,40,0,0
205476,-90.9090909090909,4,2,1,40,0,0
205487,-1000,4,2,1,40,0,0
205498,-90.9090909090909,4,2,1,40,0,0
205509,-1000,4,2,1,40,0,0
205519,-52.6315789473684,4,2,1,40,0,0
205530,-1000,4,2,1,40,0,0
205541,-52.6315789473684,4,2,1,40,0,0
205552,-1000,4,2,1,40,0,0
205562,-52.6315789473684,4,2,1,40,0,0
205573,-1000,4,2,1,40,0,0
205584,-52.6315789473684,4,2,1,40,0,0
205595,-1000,4,2,1,40,0,0
205605,-52.6315789473684,4,2,1,40,0,0
205616,-1000,4,2,1,40,0,0
205627,-52.6315789473684,4,2,1,40,0,0
205638,-1000,4,2,1,40,0,0
205648,-52.6315789473684,4,2,1,40,0,0
205659,-1000,4,2,1,40,0,0
205670,-52.6315789473684,4,2,1,40,0,0
205681,-1000,4,2,1,40,0,0
205691,-52.6315789473684,4,2,1,40,0,0
205702,-1000,4,2,1,40,0,0
205713,-52.6315789473684,4,2,1,40,0,0
205724,-1000,4,2,1,40,0,0
205734,-52.6315789473684,4,2,1,40,0,0
205745,-1000,4,2,1,40,0,0
205756,-52.6315789473684,4,2,1,40,0,0
205767,-1000,4,2,1,40,0,0
205777,-55.5555555555556,4,2,1,40,0,0
205788,-500,4,2,1,40,0,0
205799,-55.5555555555556,4,2,1,40,0,0
205810,-500,4,2,1,40,0,0
205820,-55.5555555555556,4,2,1,40,0,0
205831,-500,4,2,1,40,0,0
205842,-55.5555555555556,4,2,1,40,0,0
205853,-500,4,2,1,40,0,0
205863,-58.8235294117647,4,2,1,40,0,0
205874,-333.333333333333,4,2,1,40,0,0
205885,-58.8235294117647,4,2,1,40,0,0
205896,-333.333333333333,4,2,1,40,0,0
205906,-58.8235294117647,4,2,1,40,0,0
205917,-333.333333333333,4,2,1,40,0,0
205928,-58.8235294117647,4,2,1,40,0,0
205939,-333.333333333333,4,2,1,40,0,0
205948,-62.5,4,2,1,40,0,0
205959,-250,4,2,1,40,0,0
205970,-62.5,4,2,1,40,0,0
205981,-250,4,2,1,40,0,0
205991,-62.5,4,2,1,40,0,0
206002,-250,4,2,1,40,0,0
206013,-62.5,4,2,1,40,0,0
206024,-250,4,2,1,40,0,0
206034,-45.4545454545455,4,2,1,40,0,0
206056,-166.666666666667,4,2,1,40,0,0
206120,-100,4,2,1,40,0,0
206206,-52.6315789473684,4,2,1,40,0,0
206217,-1000,4,2,1,40,0,0
206228,-52.6315789473684,4,2,1,40,0,0
206239,-1000,4,2,1,40,0,0
206248,-52.6315789473684,4,2,1,40,0,0
206259,-1000,4,2,1,40,0,0
206270,-52.6315789473684,4,2,1,40,0,0
206281,-1000,4,2,1,40,0,0
206291,-52.6315789473684,4,2,1,40,0,0
206302,-1000,4,2,1,40,0,0
206313,-52.6315789473684,4,2,1,40,0,0
206324,-1000,4,2,1,40,0,0
206334,-52.6315789473684,4,2,1,40,0,0
206345,-1000,4,2,1,40,0,0
206356,-52.6315789473684,4,2,1,40,0,0
206367,-1000,4,2,1,40,0,0
206377,-66.6666666666667,4,2,1,40,0,0
206420,-200,4,2,1,40,0,0
206463,-100,4,2,1,40,0,0
206548,-52.6315789473684,4,2,1,40,0,0
206559,-1000,4,2,1,40,0,0
206570,-52.6315789473684,4,2,1,40,0,0
206581,-1000,4,2,1,40,0,0
206591,-52.6315789473684,4,2,1,40,0,0
206602,-1000,4,2,1,40,0,0
206613,-52.6315789473684,4,2,1,40,0,0
206624,-1000,4,2,1,40,0,0
206634,-52.6315789473684,4,2,1,40,0,0
206645,-1000,4,2,1,40,0,0
206656,-52.6315789473684,4,2,1,40,0,0
206667,-1000,4,2,1,40,0,0
206677,-52.6315789473684,4,2,1,40,0,0
206688,-1000,4,2,1,40,0,0
206699,-52.6315789473684,4,2,1,40,0,0
206710,-1000,4,2,1,40,0,0
206720,-45.4545454545455,4,2,1,40,0,0
206742,-166.666666666667,4,2,1,40,0,0
206806,-100,4,2,1,40,0,0
206891,-52.6315789473684,4,2,1,40,0,0
206902,-1000,4,2,1,40,0,0
206913,-52.6315789473684,4,2,1,40,0,0
206924,-1000,4,2,1,40,0,0
206934,-52.6315789473684,4,2,1,40,0,0
206945,-1000,4,2,1,40,0,0
206956,-52.6315789473684,4,2,1,40,0,0
206967,-1000,4,2,1,40,0,0
206977,-52.6315789473684,4,2,1,40,0,0
206988,-1000,4,2,1,40,0,0
206999,-52.6315789473684,4,2,1,40,0,0
207010,-1000,4,2,1,40,0,0
207020,-52.6315789473684,4,2,1,40,0,0
207031,-1000,4,2,1,40,0,0
207042,-52.6315789473684,4,2,1,40,0,0
207053,-1000,4,2,1,40,0,0
207063,-66.6666666666667,4,2,1,40,0,0
207106,-200,4,2,1,40,0,0
207149,-100,4,2,1,40,0,0
207234,-52.6315789473684,4,2,1,40,0,0
207245,-1000,4,2,1,40,0,0
207256,-52.6315789473684,4,2,1,40,0,0
207267,-1000,4,2,1,40,0,0
207277,-52.6315789473684,4,2,1,40,0,0
207288,-1000,4,2,1,40,0,0
207299,-52.6315789473684,4,2,1,40,0,0
207310,-1000,4,2,1,40,0,0
207320,-52.6315789473684,4,2,1,40,0,0
207331,-1000,4,2,1,40,0,0
207342,-52.6315789473684,4,2,1,40,0,0
207353,-1000,4,2,1,40,0,0
207363,-52.6315789473684,4,2,1,40,0,0
207374,-1000,4,2,1,40,0,0
207385,-52.6315789473684,4,2,1,40,0,0
207396,-1000,4,2,1,40,0,0
207406,-45.4545454545455,4,2,1,40,0,0
207428,-166.666666666667,4,2,1,40,0,0
207492,-100,4,2,1,40,0,0
207577,-52.6315789473684,4,2,1,40,0,0
207588,-1000,4,2,1,40,0,0
207599,-52.6315789473684,4,2,1,40,0,0
207610,-1000,4,2,1,40,0,0
207620,-52.6315789473684,4,2,1,40,0,0
207631,-1000,4,2,1,40,0,0
207642,-52.6315789473684,4,2,1,40,0,0
207653,-1000,4,2,1,40,0,0
207663,-52.6315789473684,4,2,1,40,0,0
207674,-1000,4,2,1,40,0,0
207685,-52.6315789473684,4,2,1,40,0,0
207696,-1000,4,2,1,40,0,0
207706,-52.6315789473684,4,2,1,40,0,0
207717,-1000,4,2,1,40,0,0
207728,-52.6315789473684,4,2,1,40,0,0
207739,-1000,4,2,1,40,0,0
207748,-66.6666666666667,4,2,1,40,0,0
207791,-200,4,2,1,40,0,0
207834,-100,4,2,1,40,0,0
207920,-52.6315789473684,4,2,1,40,0,0
207931,-1000,4,2,1,40,0,0
207942,-52.6315789473684,4,2,1,40,0,0
207953,-1000,4,2,1,40,0,0
207963,-52.6315789473684,4,2,1,40,0,0
207974,-1000,4,2,1,40,0,0
207985,-52.6315789473684,4,2,1,40,0,0
207996,-1000,4,2,1,40,0,0
208006,-52.6315789473684,4,2,1,40,0,0
208017,-1000,4,2,1,40,0,0
208028,-52.6315789473684,4,2,1,40,0,0
208039,-1000,4,2,1,40,0,0
208049,-52.6315789473684,4,2,1,40,0,0
208060,-1000,4,2,1,40,0,0
208071,-52.6315789473684,4,2,1,40,0,0
208082,-1000,4,2,1,40,0,0
208092,-45.4545454545455,4,2,1,40,0,0
208114,-166.666666666667,4,2,1,40,0,0
208178,-100,4,2,1,40,0,0
208263,-52.6315789473684,4,2,1,40,0,0
208274,-1000,4,2,1,40,0,0
208285,-52.6315789473684,4,2,1,40,0,0
208296,-1000,4,2,1,40,0,0
208306,-52.6315789473684,4,2,1,40,0,0
208317,-1000,4,2,1,40,0,0
208328,-52.6315789473684,4,2,1,40,0,0
208339,-1000,4,2,1,40,0,0
208349,-52.6315789473684,4,2,1,40,0,0
208360,-1000,4,2,1,40,0,0
208371,-52.6315789473684,4,2,1,40,0,0
208382,-1000,4,2,1,40,0,0
208392,-52.6315789473684,4,2,1,40,0,0
208403,-1000,4,2,1,40,0,0
208414,-52.6315789473684,4,2,1,40,0,0
208425,-1000,4,2,1,40,0,0
208434,-66.6666666666667,4,2,1,40,0,0
208477,-200,4,2,1,40,0,0
208520,-100,4,2,1,40,0,0
208606,-52.6315789473684,4,2,1,40,0,0
208617,-1000,4,2,1,40,0,0
208628,-52.6315789473684,4,2,1,40,0,0
208639,-1000,4,2,1,40,0,0
208649,-52.6315789473684,4,2,1,40,0,0
208660,-1000,4,2,1,40,0,0
208671,-52.6315789473684,4,2,1,40,0,0
208682,-1000,4,2,1,40,0,0
208692,-52.6315789473684,4,2,1,40,0,0
208703,-1000,4,2,1,40,0,0
208714,-52.6315789473684,4,2,1,40,0,0
208725,-1000,4,2,1,40,0,0
208735,-52.6315789473684,4,2,1,40,0,0
208746,-1000,4,2,1,40,0,0
208757,-52.6315789473684,4,2,1,40,0,0
208768,-1000,4,2,1,40,0,0
208778,-45.4545454545455,4,2,1,40,0,0
208800,-166.666666666667,4,2,1,40,0,0
208864,-100,4,2,1,40,0,0
208949,-52.6315789473684,4,2,1,40,0,0
208960,-1000,4,2,1,40,0,0
208971,-52.6315789473684,4,2,1,40,0,0
208982,-1000,4,2,1,40,0,0
208992,-52.6315789473684,4,2,1,40,0,0
209003,-1000,4,2,1,40,0,0
209014,-52.6315789473684,4,2,1,40,0,0
209025,-1000,4,2,1,40,0,0
209035,-52.6315789473684,4,2,1,40,0,0
209046,-1000,4,2,1,40,0,0
209057,-52.6315789473684,4,2,1,40,0,0
209068,-1000,4,2,1,40,0,0
209078,-52.6315789473684,4,2,1,40,0,0
209089,-1000,4,2,1,40,0,0
209100,-52.6315789473684,4,2,1,40,0,0
209111,-1000,4,2,1,40,0,0
209120,-66.6666666666667,4,2,1,40,0,0
209163,-200,4,2,1,40,0,0
209206,-100,4,2,1,40,0,0
209291,-52.6315789473684,4,2,1,40,0,0
209302,-1000,4,2,1,40,0,0
209313,-52.6315789473684,4,2,1,40,0,0
209324,-1000,4,2,1,40,0,0
209334,-52.6315789473684,4,2,1,40,0,0
209345,-1000,4,2,1,40,0,0
209356,-52.6315789473684,4,2,1,40,0,0
209367,-1000,4,2,1,40,0,0
209377,-52.6315789473684,4,2,1,40,0,0
209388,-1000,4,2,1,40,0,0
209399,-52.6315789473684,4,2,1,40,0,0
209410,-1000,4,2,1,40,0,0
209420,-52.6315789473684,4,2,1,40,0,0
209431,-1000,4,2,1,40,0,0
209442,-52.6315789473684,4,2,1,40,0,0
209453,-1000,4,2,1,40,0,0
209463,-45.4545454545455,4,2,1,40,0,0
209485,-166.666666666667,4,2,1,40,0,0
209549,-100,4,2,1,40,0,0
209634,-52.6315789473684,4,2,1,40,0,0
209645,-1000,4,2,1,40,0,0
209656,-52.6315789473684,4,2,1,40,0,0
209667,-1000,4,2,1,40,0,0
209677,-52.6315789473684,4,2,1,40,0,0
209688,-1000,4,2,1,40,0,0
209699,-52.6315789473684,4,2,1,40,0,0
209710,-1000,4,2,1,40,0,0
209720,-52.6315789473684,4,2,1,40,0,0
209731,-1000,4,2,1,40,0,0
209742,-52.6315789473684,4,2,1,40,0,0
209753,-1000,4,2,1,40,0,0
209763,-52.6315789473684,4,2,1,40,0,0
209774,-1000,4,2,1,40,0,0
209785,-52.6315789473684,4,2,1,40,0,0
209796,-1000,4,2,1,40,0,0
209806,-23.2558139534884,4,2,1,40,0,0
209817,-1000,4,2,1,40,0,0
209828,-23.2558139534884,4,2,1,40,0,0
209839,-1000,4,2,1,40,0,0
209848,-90.9090909090909,4,2,1,40,0,0
209859,-1000,4,2,1,40,0,0
209870,-90.9090909090909,4,2,1,40,0,0
209881,-1000,4,2,1,40,0,0
209891,-90.9090909090909,4,2,1,40,0,0
209902,-1000,4,2,1,40,0,0
209913,-90.9090909090909,4,2,1,40,0,0
209924,-1000,4,2,1,40,0,0
209934,-90.9090909090909,4,2,1,40,0,0
209945,-1000,4,2,1,40,0,0
209956,-90.9090909090909,4,2,1,40,0,0
209967,-1000,4,2,1,40,0,0
209977,-27.027027027027,4,2,1,40,0,0
209988,-1000,4,2,1,40,0,0
209999,-27.027027027027,4,2,1,40,0,0
210010,-1000,4,2,1,40,0,0
210019,-71.4285714285714,4,2,1,40,0,0
210030,-1000,4,2,1,40,0,0
210041,-71.4285714285714,4,2,1,40,0,0
210052,-1000,4,2,1,40,0,0
210062,-71.4285714285714,4,2,1,40,0,0
210073,-1000,4,2,1,40,0,0
210084,-71.4285714285714,4,2,1,40,0,0
210095,-1000,4,2,1,40,0,0
210105,-71.4285714285714,4,2,1,40,0,0
210116,-1000,4,2,1,40,0,0
210127,-71.4285714285714,4,2,1,40,0,0
210138,-1000,4,2,1,40,0,0
210148,-27.027027027027,4,2,1,40,0,0
210159,-1000,4,2,1,40,0,0
210170,-27.027027027027,4,2,1,40,0,0
210181,-1000,4,2,1,40,0,0
210190,-71.4285714285714,4,2,1,40,0,0
210201,-1000,4,2,1,40,0,0
210212,-71.4285714285714,4,2,1,40,0,0
210223,-1000,4,2,1,40,0,0
210233,-71.4285714285714,4,2,1,40,0,0
210244,-1000,4,2,1,40,0,0
210255,-71.4285714285714,4,2,1,40,0,0
210266,-1000,4,2,1,40,0,0
210276,-71.4285714285714,4,2,1,40,0,0
210287,-1000,4,2,1,40,0,0
210298,-71.4285714285714,4,2,1,40,0,0
210309,-1000,4,2,1,40,0,0
210320,-27.027027027027,4,2,1,40,0,0
210331,-1000,4,2,1,40,0,0
210342,-27.027027027027,4,2,1,40,0,0
210353,-1000,4,2,1,40,0,0
210362,-71.4285714285714,4,2,1,40,0,0
210373,-1000,4,2,1,40,0,0
210384,-71.4285714285714,4,2,1,40,0,0
210395,-1000,4,2,1,40,0,0
210405,-71.4285714285714,4,2,1,40,0,0
210416,-1000,4,2,1,40,0,0
210427,-71.4285714285714,4,2,1,40,0,0
210438,-1000,4,2,1,40,0,0
210448,-71.4285714285714,4,2,1,40,0,0
210459,-1000,4,2,1,40,0,0
210470,-71.4285714285714,4,2,1,40,0,0
210481,-1000,4,2,1,40,0,0
210491,-18.1818181818182,4,2,1,40,0,0
210496,-142.857142857143,4,2,1,40,0,0
210577,-18.1818181818182,4,2,1,40,0,0
210582,-142.857142857143,4,2,1,40,0,0
210662,-18.1818181818182,4,2,1,40,0,0
210667,-142.857142857143,4,2,1,40,0,0
210748,-18.1818181818182,4,2,1,40,0,0
210753,-142.857142857143,4,2,1,40,0,0
210834,-18.1818181818182,4,2,1,40,0,0
210839,-142.857142857143,4,2,1,40,0,0
210920,-18.1818181818182,4,2,1,40,0,0
210925,-142.857142857143,4,2,1,40,0,0
211005,-18.1818181818182,4,2,1,40,0,0
211010,-142.857142857143,4,2,1,40,0,0
211091,-18.1818181818182,4,2,1,40,0,0
211096,-142.857142857143,4,2,1,40,0,0
211177,-22.2222222222222,4,2,1,40,0,0
211182,-200,4,2,1,40,0,0
211220,-22.2222222222222,4,2,1,40,0,0
211225,-200,4,2,1,40,0,0
211262,-22.2222222222222,4,2,1,40,0,0
211267,-200,4,2,1,40,0,0
211305,-22.2222222222222,4,2,1,40,0,0
211310,-200,4,2,1,40,0,0
211348,-18.1818181818182,4,2,1,40,0,0
211353,-142.857142857143,4,2,1,40,0,0
211434,-18.1818181818182,4,2,1,40,0,0
211439,-142.857142857143,4,2,1,40,0,0
211520,-18.1818181818182,4,2,1,40,0,0
211525,-142.857142857143,4,2,1,40,0,0
211605,-18.1818181818182,4,2,1,40,0,0
211610,-142.857142857143,4,2,1,40,0,0
211691,-14.2857142857143,4,2,1,40,0,0
211696,-166.666666666667,4,2,1,40,0,0
211777,-11.7647058823529,4,2,1,40,0,0
211782,-200,4,2,1,40,0,0
211862,-16.9491525423729,4,2,1,40,0,0
211867,-333.333333333333,4,2,1,40,0,0
211905,-16.9491525423729,4,2,1,40,0,0
211910,-333.333333333333,4,2,1,40,0,0
211948,-16.9491525423729,4,2,1,40,0,0
211953,-333.333333333333,4,2,1,40,0,0
211991,-16.9491525423729,4,2,1,40,0,0
211996,-333.333333333333,4,2,1,40,0,0
212034,-16.9491525423729,4,2,1,40,0,0
212039,-333.333333333333,4,2,1,40,0,0
212077,-16.9491525423729,4,2,1,40,0,0
212082,-333.333333333333,4,2,1,40,0,0
212120,-11.7647058823529,4,2,1,40,0,0
212125,-200,4,2,1,40,0,0
212205,-45.4545454545455,4,2,1,40,0,0
212262,-111.111111111111,4,2,1,40,0,0
212276,-1000,4,2,1,40,0,0
212290,-111.111111111111,4,2,1,40,0,0
212304,-1000,4,2,1,40,0,0
212319,-111.111111111111,4,2,1,40,0,0
212333,-1000,4,2,1,40,0,0
212348,-111.111111111111,4,2,1,40,0,0
212362,-1000,4,2,1,40,0,0
212376,-111.111111111111,4,2,1,40,0,0
212390,-1000,4,2,1,40,0,0
212405,-111.111111111111,4,2,1,40,0,0
212419,-1000,4,2,1,40,0,0
212433,-52.6315789473684,4,2,1,40,0,0
212447,-1000,4,2,1,40,0,0
212462,-52.6315789473684,4,2,1,40,0,0
212476,-1000,4,2,1,40,0,0
212490,-52.6315789473684,4,2,1,40,0,0
212504,-1000,4,2,1,40,0,0
212519,-52.6315789473684,4,2,1,40,0,0
212533,-1000,4,2,1,40,0,0
212548,-66.6666666666667,4,2,1,40,0,0
212591,-200,4,2,1,40,0,0
212634,-100,4,2,1,40,0,0
212719,-52.6315789473684,4,2,1,40,0,0
212730,-1000,4,2,1,40,0,0
212741,-52.6315789473684,4,2,1,40,0,0
212752,-1000,4,2,1,40,0,0
212762,-52.6315789473684,4,2,1,40,0,0
212773,-1000,4,2,1,40,0,0
212784,-52.6315789473684,4,2,1,40,0,0
212795,-1000,4,2,1,40,0,0
212805,-52.6315789473684,4,2,1,40,0,0
212816,-1000,4,2,1,40,0,0
212827,-52.6315789473684,4,2,1,40,0,0
212838,-1000,4,2,1,40,0,0
212848,-52.6315789473684,4,2,1,40,0,0
212859,-1000,4,2,1,40,0,0
212870,-52.6315789473684,4,2,1,40,0,0
212881,-1000,4,2,1,40,0,0
212891,-45.4545454545455,4,2,1,40,0,0
212913,-166.666666666667,4,2,1,40,0,0
212977,-100,4,2,1,40,0,0
213062,-52.6315789473684,4,2,1,40,0,0
213073,-1000,4,2,1,40,0,0
213084,-52.6315789473684,4,2,1,40,0,0
213095,-1000,4,2,1,40,0,0
213105,-52.6315789473684,4,2,1,40,0,0
213116,-1000,4,2,1,40,0,0
213127,-52.6315789473684,4,2,1,40,0,0
213138,-1000,4,2,1,40,0,0
213148,-52.6315789473684,4,2,1,40,0,0
213159,-1000,4,2,1,40,0,0
213170,-52.6315789473684,4,2,1,40,0,0
213181,-1000,4,2,1,40,0,0
213191,-52.6315789473684,4,2,1,40,0,0
213202,-1000,4,2,1,40,0,0
213213,-52.6315789473684,4,2,1,40,0,0
213224,-1000,4,2,1,40,0,0
213234,-66.6666666666667,4,2,1,40,0,0
213277,-200,4,2,1,40,0,0
213320,-100,4,2,1,40,0,0
213405,-52.6315789473684,4,2,1,40,0,0
213416,-1000,4,2,1,40,0,0
213427,-52.6315789473684,4,2,1,40,0,0
213438,-1000,4,2,1,40,0,0
213448,-52.6315789473684,4,2,1,40,0,0
213459,-1000,4,2,1,40,0,0
213470,-52.6315789473684,4,2,1,40,0,0
213481,-1000,4,2,1,40,0,0
213491,-52.6315789473684,4,2,1,40,0,0
213502,-1000,4,2,1,40,0,0
213513,-52.6315789473684,4,2,1,40,0,0
213524,-1000,4,2,1,40,0,0
213534,-52.6315789473684,4,2,1,40,0,0
213545,-1000,4,2,1,40,0,0
213556,-52.6315789473684,4,2,1,40,0,0
213567,-1000,4,2,1,40,0,0
213577,-45.4545454545455,4,2,1,40,0,0
213599,-166.666666666667,4,2,1,40,0,0
213663,-100,4,2,1,40,0,0
213748,-52.6315789473684,4,2,1,40,0,0
213759,-1000,4,2,1,40,0,0
213770,-52.6315789473684,4,2,1,40,0,0
213781,-1000,4,2,1,40,0,0
213791,-52.6315789473684,4,2,1,40,0,0
213802,-1000,4,2,1,40,0,0
213813,-52.6315789473684,4,2,1,40,0,0
213824,-1000,4,2,1,40,0,0
213834,-52.6315789473684,4,2,1,40,0,0
213845,-1000,4,2,1,40,0,0
213856,-52.6315789473684,4,2,1,40,0,0
213867,-1000,4,2,1,40,0,0
213877,-52.6315789473684,4,2,1,40,0,0
213888,-1000,4,2,1,40,0,0
213899,-52.6315789473684,4,2,1,40,0,0
213910,-1000,4,2,1,40,0,0
213920,-66.6666666666667,4,2,1,40,0,0
213963,-200,4,2,1,40,0,0
214006,-100,4,2,1,40,0,0
214091,-52.6315789473684,4,2,1,40,0,0
214102,-1000,4,2,1,40,0,0
214113,-52.6315789473684,4,2,1,40,0,0
214124,-1000,4,2,1,40,0,0
214134,-52.6315789473684,4,2,1,40,0,0
214145,-1000,4,2,1,40,0,0
214156,-52.6315789473684,4,2,1,40,0,0
214167,-1000,4,2,1,40,0,0
214177,-52.6315789473684,4,2,1,40,0,0
214188,-1000,4,2,1,40,0,0
214199,-52.6315789473684,4,2,1,40,0,0
214210,-1000,4,2,1,40,0,0
214220,-52.6315789473684,4,2,1,40,0,0
214231,-1000,4,2,1,40,0,0
214242,-52.6315789473684,4,2,1,40,0,0
214253,-1000,4,2,1,40,0,0
214263,-45.4545454545455,4,2,1,40,0,0
214285,-166.666666666667,4,2,1,40,0,0
214349,-100,4,2,1,40,0,0
214434,-52.6315789473684,4,2,1,40,0,0
214445,-1000,4,2,1,40,0,0
214456,-52.6315789473684,4,2,1,40,0,0
214467,-1000,4,2,1,40,0,0
214477,-52.6315789473684,4,2,1,40,0,0
214488,-1000,4,2,1,40,0,0
214499,-52.6315789473684,4,2,1,40,0,0
214510,-1000,4,2,1,40,0,0
214520,-52.6315789473684,4,2,1,40,0,0
214531,-1000,4,2,1,40,0,0
214542,-52.6315789473684,4,2,1,40,0,0
214553,-1000,4,2,1,40,0,0
214563,-52.6315789473684,4,2,1,40,0,0
214574,-1000,4,2,1,40,0,0
214585,-52.6315789473684,4,2,1,40,0,0
214596,-1000,4,2,1,40,0,0
214605,-66.6666666666667,4,2,1,40,0,0
214648,-200,4,2,1,40,0,0
214691,-100,4,2,1,40,0,0
214776,-52.6315789473684,4,2,1,40,0,0
214787,-1000,4,2,1,40,0,0
214798,-52.6315789473684,4,2,1,40,0,0
214809,-1000,4,2,1,40,0,0
214819,-52.6315789473684,4,2,1,40,0,0
214830,-1000,4,2,1,40,0,0
214841,-52.6315789473684,4,2,1,40,0,0
214852,-1000,4,2,1,40,0,0
214862,-52.6315789473684,4,2,1,40,0,0
214873,-1000,4,2,1,40,0,0
214884,-52.6315789473684,4,2,1,40,0,0
214895,-1000,4,2,1,40,0,0
214905,-52.6315789473684,4,2,1,40,0,0
214916,-1000,4,2,1,40,0,0
214927,-52.6315789473684,4,2,1,40,0,0
214938,-1000,4,2,1,40,0,0
214948,-45.4545454545455,4,2,1,40,0,0
214970,-166.666666666667,4,2,1,40,0,0
215034,-100,4,2,1,40,0,0
215119,-52.6315789473684,4,2,1,40,0,0
215130,-1000,4,2,1,40,0,0
215141,-52.6315789473684,4,2,1,40,0,0
215152,-1000,4,2,1,40,0,0
215162,-52.6315789473684,4,2,1,40,0,0
215173,-1000,4,2,1,40,0,0
215184,-52.6315789473684,4,2,1,40,0,0
215195,-1000,4,2,1,40,0,0
215205,-52.6315789473684,4,2,1,40,0,0
215216,-1000,4,2,1,40,0,0
215227,-52.6315789473684,4,2,1,40,0,0
215238,-1000,4,2,1,40,0,0
215248,-52.6315789473684,4,2,1,40,0,0
215259,-1000,4,2,1,40,0,0
215270,-52.6315789473684,4,2,1,40,0,0
215281,-1000,4,2,1,40,0,0
215291,-23.2558139534884,4,2,1,40,0,0
215302,-1000,4,2,1,40,0,0
215313,-23.2558139534884,4,2,1,40,0,0
215324,-1000,4,2,1,40,0,0
215333,-90.9090909090909,4,2,1,40,0,0
215344,-1000,4,2,1,40,0,0
215355,-90.9090909090909,4,2,1,40,0,0
215366,-1000,4,2,1,40,0,0
215376,-90.9090909090909,4,2,1,40,0,0
215387,-1000,4,2,1,40,0,0
215398,-90.9090909090909,4,2,1,40,0,0
215409,-1000,4,2,1,40,0,0
215419,-90.9090909090909,4,2,1,40,0,0
215430,-1000,4,2,1,40,0,0
215441,-90.9090909090909,4,2,1,40,0,0
215452,-1000,4,2,1,40,0,0
215462,-52.6315789473684,4,2,1,40,0,0
215473,-1000,4,2,1,40,0,0
215484,-52.6315789473684,4,2,1,40,0,0
215495,-1000,4,2,1,40,0,0
215505,-52.6315789473684,4,2,1,40,0,0
215516,-1000,4,2,1,40,0,0
215527,-52.6315789473684,4,2,1,40,0,0
215538,-1000,4,2,1,40,0,0
215548,-52.6315789473684,4,2,1,40,0,0
215559,-1000,4,2,1,40,0,0
215570,-52.6315789473684,4,2,1,40,0,0
215581,-1000,4,2,1,40,0,0
215591,-52.6315789473684,4,2,1,40,0,0
215602,-1000,4,2,1,40,0,0
215613,-52.6315789473684,4,2,1,40,0,0
215624,-1000,4,2,1,40,0,0
215633,-23.2558139534884,4,2,1,40,0,0
215644,-1000,4,2,1,40,0,0
215655,-23.2558139534884,4,2,1,40,0,0
215666,-1000,4,2,1,40,0,0
215675,-90.9090909090909,4,2,1,40,0,0
215686,-1000,4,2,1,40,0,0
215697,-90.9090909090909,4,2,1,40,0,0
215708,-1000,4,2,1,40,0,0
215718,-90.9090909090909,4,2,1,40,0,0
215729,-1000,4,2,1,40,0,0
215740,-90.9090909090909,4,2,1,40,0,0
215751,-1000,4,2,1,40,0,0
215761,-90.9090909090909,4,2,1,40,0,0
215772,-1000,4,2,1,40,0,0
215783,-90.9090909090909,4,2,1,40,0,0
215794,-1000,4,2,1,40,0,0
215804,-52.6315789473684,4,2,1,40,0,0
215815,-1000,4,2,1,40,0,0
215826,-52.6315789473684,4,2,1,40,0,0
215837,-1000,4,2,1,40,0,0
215847,-52.6315789473684,4,2,1,40,0,0
215858,-1000,4,2,1,40,0,0
215869,-52.6315789473684,4,2,1,40,0,0
215880,-1000,4,2,1,40,0,0
215890,-52.6315789473684,4,2,1,40,0,0
215901,-1000,4,2,1,40,0,0
215912,-52.6315789473684,4,2,1,40,0,0
215923,-1000,4,2,1,40,0,0
215933,-52.6315789473684,4,2,1,40,0,0
215944,-1000,4,2,1,40,0,0
215955,-52.6315789473684,4,2,1,40,0,0
215966,-1000,4,2,1,40,0,0
215976,-23.2558139534884,4,2,1,40,0,0
215987,-1000,4,2,1,40,0,0
215998,-23.2558139534884,4,2,1,40,0,0
216009,-1000,4,2,1,40,0,0
216018,-90.9090909090909,4,2,1,40,0,0
216029,-1000,4,2,1,40,0,0
216040,-90.9090909090909,4,2,1,40,0,0
216051,-1000,4,2,1,40,0,0
216061,-90.9090909090909,4,2,1,40,0,0
216072,-1000,4,2,1,40,0,0
216083,-90.9090909090909,4,2,1,40,0,0
216094,-1000,4,2,1,40,0,0
216104,-90.9090909090909,4,2,1,40,0,0
216115,-1000,4,2,1,40,0,0
216126,-90.9090909090909,4,2,1,40,0,0
216137,-1000,4,2,1,40,0,0
216147,-52.6315789473684,4,2,1,40,0,0
216158,-1000,4,2,1,40,0,0
216169,-52.6315789473684,4,2,1,40,0,0
216180,-1000,4,2,1,40,0,0
216190,-52.6315789473684,4,2,1,40,0,0
216201,-1000,4,2,1,40,0,0
216212,-52.6315789473684,4,2,1,40,0,0
216223,-1000,4,2,1,40,0,0
216233,-52.6315789473684,4,2,1,40,0,0
216244,-1000,4,2,1,40,0,0
216255,-52.6315789473684,4,2,1,40,0,0
216266,-1000,4,2,1,40,0,0
216276,-52.6315789473684,4,2,1,40,0,0
216287,-1000,4,2,1,40,0,0
216298,-52.6315789473684,4,2,1,40,0,0
216309,-1000,4,2,1,40,0,0
216319,-23.2558139534884,4,2,1,40,0,0
216330,-1000,4,2,1,40,0,0
216341,-23.2558139534884,4,2,1,40,0,0
216352,-1000,4,2,1,40,0,0
216361,-90.9090909090909,4,2,1,40,0,0
216372,-1000,4,2,1,40,0,0
216383,-90.9090909090909,4,2,1,40,0,0
216394,-1000,4,2,1,40,0,0
216404,-90.9090909090909,4,2,1,40,0,0
216415,-1000,4,2,1,40,0,0
216426,-90.9090909090909,4,2,1,40,0,0
216437,-1000,4,2,1,40,0,0
216447,-90.9090909090909,4,2,1,40,0,0
216458,-1000,4,2,1,40,0,0
216469,-90.9090909090909,4,2,1,40,0,0
216480,-1000,4,2,1,40,0,0
216490,-52.6315789473684,4,2,1,40,0,0
216501,-1000,4,2,1,40,0,0
216512,-52.6315789473684,4,2,1,40,0,0
216523,-1000,4,2,1,40,0,0
216533,-52.6315789473684,4,2,1,40,0,0
216544,-1000,4,2,1,40,0,0
216555,-52.6315789473684,4,2,1,40,0,0
216566,-1000,4,2,1,40,0,0
216576,-52.6315789473684,4,2,1,40,0,0
216587,-1000,4,2,1,40,0,0
216598,-52.6315789473684,4,2,1,40,0,0
216609,-1000,4,2,1,40,0,0
216619,-52.6315789473684,4,2,1,40,0,0
216630,-1000,4,2,1,40,0,0
216641,-52.6315789473684,4,2,1,40,0,0
216652,-1000,4,2,1,40,0,0
216662,-52.6315789473684,4,2,1,40,0,0
216673,-1000,4,2,1,40,0,0
216684,-52.6315789473684,4,2,1,40,0,0
216695,-1000,4,2,1,40,0,0
216705,-52.6315789473684,4,2,1,40,0,0
216716,-1000,4,2,1,40,0,0
216727,-52.6315789473684,4,2,1,40,0,0
216738,-1000,4,2,1,40,0,0
216748,-55.5555555555556,4,2,1,40,0,0
216759,-500,4,2,1,40,0,0
216770,-55.5555555555556,4,2,1,40,0,0
216781,-500,4,2,1,40,0,0
216791,-55.5555555555556,4,2,1,40,0,0
216802,-500,4,2,1,40,0,0
216813,-55.5555555555556,4,2,1,40,0,0
216824,-500,4,2,1,40,0,0
216834,-58.8235294117647,4,2,1,40,0,0
216845,-333.333333333333,4,2,1,40,0,0
216856,-58.8235294117647,4,2,1,40,0,0
216867,-333.333333333333,4,2,1,40,0,0
216877,-58.8235294117647,4,2,1,40,0,0
216888,-333.333333333333,4,2,1,40,0,0
216899,-58.8235294117647,4,2,1,40,0,0
216910,-333.333333333333,4,2,1,40,0,0
216919,-62.5,4,2,1,40,0,0
216930,-250,4,2,1,40,0,0
216941,-62.5,4,2,1,40,0,0
216952,-250,4,2,1,40,0,0
216962,-62.5,4,2,1,40,0,0
216973,-250,4,2,1,40,0,0
216984,-62.5,4,2,1,40,0,0
216995,-250,4,2,1,40,0,0
217005,-45.4545454545455,4,2,1,40,0,0
217027,-166.666666666667,4,2,1,40,0,0
217091,-100,4,2,1,40,0,0
217177,-52.6315789473684,4,2,1,40,0,0
217188,-1000,4,2,1,40,0,0
217199,-52.6315789473684,4,2,1,40,0,0
217210,-1000,4,2,1,40,0,0
217220,-52.6315789473684,4,2,1,40,0,0
217231,-1000,4,2,1,40,0,0
217242,-52.6315789473684,4,2,1,40,0,0
217253,-1000,4,2,1,40,0,0
217262,-52.6315789473684,4,2,1,40,0,0
217273,-1000,4,2,1,40,0,0
217284,-52.6315789473684,4,2,1,40,0,0
217295,-1000,4,2,1,40,0,0
217305,-52.6315789473684,4,2,1,40,0,0
217316,-1000,4,2,1,40,0,0
217327,-52.6315789473684,4,2,1,40,0,0
217338,-1000,4,2,1,40,0,0
217348,-45.4545454545455,4,2,1,40,0,0
217370,-166.666666666667,4,2,1,40,0,0
217434,-100,4,2,1,40,0,0
217520,-52.6315789473684,4,2,1,40,0,0
217531,-1000,4,2,1,40,0,0
217542,-52.6315789473684,4,2,1,40,0,0
217553,-1000,4,2,1,40,0,0
217562,-52.6315789473684,4,2,1,40,0,0
217573,-1000,4,2,1,40,0,0
217584,-52.6315789473684,4,2,1,40,0,0
217595,-1000,4,2,1,40,0,0
217605,-52.6315789473684,4,2,1,40,0,0
217616,-1000,4,2,1,40,0,0
217627,-52.6315789473684,4,2,1,40,0,0
217638,-1000,4,2,1,40,0,0
217648,-52.6315789473684,4,2,1,40,0,0
217659,-1000,4,2,1,40,0,0
217670,-52.6315789473684,4,2,1,40,0,0
217681,-1000,4,2,1,40,0,0
217691,-45.4545454545455,4,2,1,40,0,0
217713,-166.666666666667,4,2,1,40,0,0
217777,-100,4,2,1,40,0,0
217862,-45.4545454545455,4,2,1,40,0,0
217884,-166.666666666667,4,2,1,40,0,0
217948,-52.6315789473684,4,2,1,40,0,0
217959,-1000,4,2,1,40,0,0
217970,-52.6315789473684,4,2,1,40,0,0
217981,-1000,4,2,1,40,0,0
217991,-52.6315789473684,4,2,1,40,0,0
218002,-1000,4,2,1,40,0,0
218013,-52.6315789473684,4,2,1,40,0,0
218024,-1000,4,2,1,40,0,0
218034,-45.4545454545455,4,2,1,40,0,0
218056,-166.666666666667,4,2,1,40,0,0
218120,-100,4,2,1,40,0,0
218205,-52.6315789473684,4,2,1,40,0,0
218216,-1000,4,2,1,40,0,0
218227,-52.6315789473684,4,2,1,40,0,0
218238,-1000,4,2,1,40,0,0
218248,-52.6315789473684,4,2,1,40,0,0
218259,-1000,4,2,1,40,0,0
218270,-52.6315789473684,4,2,1,40,0,0
218281,-1000,4,2,1,40,0,0
218291,-52.6315789473684,4,2,1,40,0,0
218302,-1000,4,2,1,40,0,0
218313,-52.6315789473684,4,2,1,40,0,0
218324,-1000,4,2,1,40,0,0
218334,-52.6315789473684,4,2,1,40,0,0
218345,-1000,4,2,1,40,0,0
218356,-52.6315789473684,4,2,1,40,0,0
218367,-1000,4,2,1,40,0,0
218377,-45.4545454545455,4,2,1,40,0,0
218399,-166.666666666667,4,2,1,40,0,0
218463,-100,4,2,1,40,0,0
218548,-52.6315789473684,4,2,1,40,0,0
218559,-1000,4,2,1,40,0,0
218570,-52.6315789473684,4,2,1,40,0,0
218581,-1000,4,2,1,40,0,0
218591,-52.6315789473684,4,2,1,40,0,0
218602,-1000,4,2,1,40,0,0
218613,-52.6315789473684,4,2,1,40,0,0
218624,-1000,4,2,1,40,0,0
218634,-52.6315789473684,4,2,1,40,0,0
218645,-1000,4,2,1,40,0,0
218656,-52.6315789473684,4,2,1,40,0,0
218667,-1000,4,2,1,40,0,0
218677,-52.6315789473684,4,2,1,40,0,0
218688,-1000,4,2,1,40,0,0
218699,-52.6315789473684,4,2,1,40,0,0
218710,-1000,4,2,1,40,0,0
218720,-45.4545454545455,4,2,1,40,0,0
218742,-166.666666666667,4,2,1,40,0,0
218806,-100,4,2,1,40,0,0
218891,-45.4545454545455,4,2,1,40,0,0
218913,-166.666666666667,4,2,1,40,0,0
218977,-100,4,2,1,40,0,0
219062,-45.4545454545455,4,2,1,40,0,0
219084,-166.666666666667,4,2,1,40,0,0
219148,-100,4,2,1,40,0,0
219234,-45.4545454545455,4,2,1,40,0,0
219256,-166.666666666667,4,2,1,40,0,0
219320,-100,4,2,1,40,0,0
219405,-45.4545454545455,4,2,1,40,0,0
219426,-166.666666666667,4,2,1,40,0,0
219491,-45.4545454545455,4,2,1,40,0,0
219512,-166.666666666667,4,2,1,40,0,0
219577,-45.4545454545455,4,2,1,40,0,0
219598,-166.666666666667,4,2,1,40,0,0
219663,-45.4545454545455,4,2,1,40,0,0
219684,-166.666666666667,4,2,1,40,0,0
219748,-45.4545454545455,4,2,1,40,0,0
219769,-166.666666666667,4,2,1,40,0,0
219834,-45.4545454545455,4,2,1,40,0,0
219855,-166.666666666667,4,2,1,40,0,0
219920,-45.4545454545455,4,2,1,40,0,0
219941,-166.666666666667,4,2,1,40,0,0
220006,-45.4545454545455,4,2,1,40,0,0
220027,-166.666666666667,4,2,1,40,0,0
220091,-40,4,2,1,40,0,0
220112,-200,4,2,1,40,0,0
220177,-40,4,2,1,40,0,0
220198,-200,4,2,1,40,0,0
220262,-40,4,2,1,40,0,0
220283,-200,4,2,1,40,0,0
220348,-40,4,2,1,40,0,0
220369,-200,4,2,1,40,0,0
220434,-40,4,2,1,40,0,0
220455,-200,4,2,1,40,0,0
220520,-40,4,2,1,40,0,0
220541,-200,4,2,1,40,0,0
220605,-40,4,2,1,40,0,0
220626,-200,4,2,1,40,0,0
220691,-40,4,2,1,40,0,0
220712,-200,4,2,1,40,0,0
220777,-14.2857142857143,4,2,1,40,0,0
220782,-166.666666666667,4,2,1,40,0,0
220863,-14.2857142857143,4,2,1,40,0,0
220868,-166.666666666667,4,2,1,40,0,0
220948,-14.2857142857143,4,2,1,40,0,0
220953,-166.666666666667,4,2,1,40,0,0
221034,-14.2857142857143,4,2,1,40,0,0
221039,-166.666666666667,4,2,1,40,0,0
221120,-14.2857142857143,4,2,1,40,0,0
221125,-166.666666666667,4,2,1,40,0,0
221205,-14.2857142857143,4,2,1,40,0,0
221210,-166.666666666667,4,2,1,40,0,0
221291,-14.2857142857143,4,2,1,40,0,0
221296,-166.666666666667,4,2,1,40,0,0
221377,-14.2857142857143,4,2,1,40,0,0
221382,-166.666666666667,4,2,1,40,0,0
221462,-14.2857142857143,4,2,1,40,0,0
221467,-166.666666666667,4,2,1,40,0,0
221548,-14.2857142857143,4,2,1,40,0,0
221553,-166.666666666667,4,2,1,40,0,0
221634,-14.2857142857143,4,2,1,40,0,0
221639,-166.666666666667,4,2,1,40,0,0
221720,-14.2857142857143,4,2,1,40,0,0
221725,-166.666666666667,4,2,1,40,0,0
221805,-14.2857142857143,4,2,1,40,0,0
221810,-166.666666666667,4,2,1,40,0,0
221891,-14.2857142857143,4,2,1,40,0,0
221896,-166.666666666667,4,2,1,40,0,0
221977,-14.2857142857143,4,2,1,40,0,0
221982,-166.666666666667,4,2,1,40,0,0
222062,-14.2857142857143,4,2,1,40,0,0
222067,-166.666666666667,4,2,1,40,0,0
222148,-100,4,2,1,40,0,0
222320,-52.6315789473684,4,2,1,40,0,0
222341,-142.857142857143,4,2,1,40,0,0
222406,-100,4,2,1,40,0,0
222663,-52.6315789473684,4,2,1,40,0,0
222690,-142.857142857143,4,2,1,40,0,0
222770,-100,4,2,1,40,0,0
223006,-52.6315789473684,4,2,1,40,0,0
223038,-142.857142857143,4,2,1,40,0,0
223134,-100,4,2,1,40,0,0
223349,-52.6315789473684,4,2,1,40,0,0
223387,-142.857142857143,4,2,1,40,0,0
223499,-100,4,2,1,40,0,0
223691,-52.6315789473684,4,2,1,40,0,0
223734,-142.857142857143,4,2,1,40,0,0
223862,-100,4,2,1,40,0,0
224034,-52.6315789473684,4,2,1,40,0,0
224077,-142.857142857143,4,2,1,40,0,0
224205,-100,4,2,1,40,0,0
224377,-52.6315789473684,4,2,1,40,0,0
224420,-142.857142857143,4,2,1,40,0,0
224549,-62.5,4,2,1,40,0,0
224591,-125,4,2,1,40,0,0
224720,-57.1428571428571,4,2,1,40,0,0
224749,-400,4,2,1,40,0,0
224777,-57.1428571428571,4,2,1,40,0,0
224806,-400,4,2,1,40,0,0
224834,-57.1428571428571,4,2,1,40,0,0
224863,-400,4,2,1,40,0,0
224891,-100,4,2,1,40,0,0
225063,-52.6315789473684,4,2,1,40,0,0
225106,-142.857142857143,4,2,1,40,0,0
225234,-100,4,2,1,40,0,0
225406,-52.6315789473684,4,2,1,40,0,0
225449,-142.857142857143,4,2,1,40,0,0
225577,-100,4,2,1,40,0,0
225749,-52.6315789473684,4,2,1,40,0,0
225792,-142.857142857143,4,2,1,40,0,0
225920,-100,4,2,1,40,0,0
226091,-52.6315789473684,4,2,1,40,0,0
226134,-142.857142857143,4,2,1,40,0,0
226262,-100,4,2,1,40,0,0
226434,-52.6315789473684,4,2,1,40,0,0
226477,-142.857142857143,4,2,1,40,0,0
226605,-100,4,2,1,40,0,0
226777,-52.6315789473684,4,2,1,40,0,0
226820,-142.857142857143,4,2,1,40,0,0
226948,-100,4,2,1,40,0,0
227120,-52.6315789473684,4,2,1,40,0,0
227163,-142.857142857143,4,2,1,40,0,0
227291,-100,4,2,1,40,0,0
227463,-52.6315789473684,4,2,1,40,0,0
227506,-142.857142857143,4,2,1,40,0,0
227634,-100,4,2,1,40,0,0
227806,-52.6315789473684,4,2,1,40,0,0
227827,-142.857142857143,4,2,1,40,0,0
227892,-100,4,2,1,40,0,0
228149,-52.6315789473684,4,2,1,40,0,0
228176,-142.857142857143,4,2,1,40,0,0
228256,-100,4,2,1,40,0,0
228492,-52.6315789473684,4,2,1,40,0,0
228524,-142.857142857143,4,2,1,40,0,0
228620,-100,4,2,1,40,0,0
228835,-52.6315789473684,4,2,1,40,0,0
228873,-142.857142857143,4,2,1,40,0,0
228985,-100,4,2,1,40,0,0
229177,-52.6315789473684,4,2,1,40,0,0
229220,-142.857142857143,4,2,1,40,0,0
229348,-100,4,2,1,40,0,0
229520,-52.6315789473684,4,2,1,40,0,0
229563,-142.857142857143,4,2,1,40,0,0
229691,-100,4,2,1,40,0,0
229863,-52.6315789473684,4,2,1,40,0,0
229906,-142.857142857143,4,2,1,40,0,0
230034,-62.5,4,2,1,40,0,0
230076,-125,4,2,1,40,0,0
230205,-57.1428571428571,4,2,1,40,0,0
230234,-400,4,2,1,40,0,0
230262,-57.1428571428571,4,2,1,40,0,0
230291,-400,4,2,1,40,0,0
230319,-57.1428571428571,4,2,1,40,0,0
230348,-400,4,2,1,40,0,0
230377,-100,4,2,1,40,0,0
230548,-45.4545454545455,4,2,1,40,0,0
230569,-166.666666666667,4,2,1,40,0,0
230633,-100,4,2,1,40,0,0
230891,-45.4545454545455,4,2,1,40,0,0
230912,-166.666666666667,4,2,1,40,0,0
230976,-100,4,2,1,40,0,0
231233,-45.4545454545455,4,2,1,40,0,0
231254,-166.666666666667,4,2,1,40,0,0
231318,-100,4,2,1,40,0,0
231577,-45.4545454545455,4,2,1,40,0,0
231598,-166.666666666667,4,2,1,40,0,0
231662,-100,4,2,1,40,0,0
231749,-76.9230769230769,4,2,1,40,0,0
231791,-142.857142857143,4,2,1,40,0,0
231834,-76.9230769230769,4,2,1,40,0,0
231876,-142.857142857143,4,2,1,40,0,0
231920,-76.9230769230769,4,2,1,40,0,0
231962,-142.857142857143,4,2,1,40,0,0
232005,-76.9230769230769,4,2,1,40,0,0
232047,-142.857142857143,4,2,1,40,0,0
232091,-71.4285714285714,4,2,1,40,0,0
232133,-166.666666666667,4,2,1,40,0,0
232176,-71.4285714285714,4,2,1,40,0,0
232218,-166.666666666667,4,2,1,40,0,0
232263,-71.4285714285714,4,2,1,40,0,0
232305,-166.666666666667,4,2,1,40,0,0
232348,-71.4285714285714,4,2,1,40,0,0
232390,-166.666666666667,4,2,1,40,0,0
232434,-66.6666666666667,4,2,1,40,0,0
232476,-200,4,2,1,40,0,0
232519,-66.6666666666667,4,2,1,40,0,0
232561,-200,4,2,1,40,0,0
232606,-66.6666666666667,4,2,1,40,0,0
232648,-200,4,2,1,40,0,0
232691,-66.6666666666667,4,2,1,40,0,0
232733,-200,4,2,1,40,0,0
232777,-55.5555555555556,4,2,1,40,0,0
232820,-125,4,2,1,40,0,0
232948,-100,4,2,1,40,0,0
233120,-52.6315789473684,4,2,1,40,0,0
233134,-1000,4,2,1,40,0,0
233148,-52.6315789473684,4,2,1,40,0,0
233163,-1000,4,2,1,40,0,0
233177,-55.5555555555556,4,2,1,40,0,0
233191,-500,4,2,1,40,0,0
233205,-55.5555555555556,4,2,1,40,0,0
233220,-500,4,2,1,40,0,0
233234,-58.8235294117647,4,2,1,40,0,0
233248,-333.333333333333,4,2,1,40,0,0
233262,-58.8235294117647,4,2,1,40,0,0
233277,-333.333333333333,4,2,1,40,0,0
233291,-52.6315789473684,4,2,1,40,0,0
233312,-142.857142857143,4,2,1,40,0,0
233377,-100,4,2,1,40,0,0
233463,-52.6315789473684,4,2,1,40,0,0
233477,-1000,4,2,1,40,0,0
233491,-52.6315789473684,4,2,1,40,0,0
233506,-1000,4,2,1,40,0,0
233520,-55.5555555555556,4,2,1,40,0,0
233534,-500,4,2,1,40,0,0
233548,-55.5555555555556,4,2,1,40,0,0
233563,-500,4,2,1,40,0,0
233577,-58.8235294117647,4,2,1,40,0,0
233591,-333.333333333333,4,2,1,40,0,0
233605,-58.8235294117647,4,2,1,40,0,0
233620,-333.333333333333,4,2,1,40,0,0
233634,-52.6315789473684,4,2,1,40,0,0
233661,-142.857142857143,4,2,1,40,0,0
233741,-100,4,2,1,40,0,0
233806,-52.6315789473684,4,2,1,40,0,0
233820,-1000,4,2,1,40,0,0
233834,-52.6315789473684,4,2,1,40,0,0
233849,-1000,4,2,1,40,0,0
233863,-55.5555555555556,4,2,1,40,0,0
233877,-500,4,2,1,40,0,0
233891,-55.5555555555556,4,2,1,40,0,0
233906,-500,4,2,1,40,0,0
233920,-58.8235294117647,4,2,1,40,0,0
233934,-333.333333333333,4,2,1,40,0,0
233948,-58.8235294117647,4,2,1,40,0,0
233963,-333.333333333333,4,2,1,40,0,0
233977,-52.6315789473684,4,2,1,40,0,0
234009,-142.857142857143,4,2,1,40,0,0
234105,-100,4,2,1,40,0,0
234320,-52.6315789473684,4,2,1,40,0,0
234358,-142.857142857143,4,2,1,40,0,0
234470,-100,4,2,1,40,0,0
234491,-52.6315789473684,4,2,1,40,0,0
234505,-1000,4,2,1,40,0,0
234519,-52.6315789473684,4,2,1,40,0,0
234534,-1000,4,2,1,40,0,0
234548,-55.5555555555556,4,2,1,40,0,0
234562,-500,4,2,1,40,0,0
234576,-55.5555555555556,4,2,1,40,0,0
234591,-500,4,2,1,40,0,0
234605,-58.8235294117647,4,2,1,40,0,0
234619,-333.333333333333,4,2,1,40,0,0
234633,-58.8235294117647,4,2,1,40,0,0
234648,-333.333333333333,4,2,1,40,0,0
234663,-52.6315789473684,4,2,1,40,0,0
234706,-142.857142857143,4,2,1,40,0,0
234834,-52.6315789473684,4,2,1,40,0,0
234848,-1000,4,2,1,40,0,0
234862,-52.6315789473684,4,2,1,40,0,0
234877,-1000,4,2,1,40,0,0
234891,-55.5555555555556,4,2,1,40,0,0
234905,-500,4,2,1,40,0,0
234919,-55.5555555555556,4,2,1,40,0,0
234934,-500,4,2,1,40,0,0
234948,-58.8235294117647,4,2,1,40,0,0
234962,-333.333333333333,4,2,1,40,0,0
234976,-58.8235294117647,4,2,1,40,0,0
234991,-333.333333333333,4,2,1,40,0,0
235006,-52.6315789473684,4,2,1,40,0,0
235049,-142.857142857143,4,2,1,40,0,0
235177,-52.6315789473684,4,2,1,40,0,0
235191,-1000,4,2,1,40,0,0
235205,-52.6315789473684,4,2,1,40,0,0
235220,-1000,4,2,1,40,0,0
235234,-55.5555555555556,4,2,1,40,0,0
235248,-500,4,2,1,40,0,0
235262,-55.5555555555556,4,2,1,40,0,0
235277,-500,4,2,1,40,0,0
235291,-58.8235294117647,4,2,1,40,0,0
235305,-333.333333333333,4,2,1,40,0,0
235319,-58.8235294117647,4,2,1,40,0,0
235334,-333.333333333333,4,2,1,40,0,0
235349,-52.6315789473684,4,2,1,40,0,0
235392,-142.857142857143,4,2,1,40,0,0
235520,-100,4,2,1,40,0,0
235691,-52.6315789473684,4,2,1,40,0,0
235734,-142.857142857143,4,2,1,40,0,0
235863,-52.6315789473684,4,2,1,40,0,0
235877,-1000,4,2,1,40,0,0
235891,-52.6315789473684,4,2,1,40,0,0
235906,-1000,4,2,1,40,0,0
235920,-55.5555555555556,4,2,1,40,0,0
235934,-500,4,2,1,40,0,0
235948,-55.5555555555556,4,2,1,40,0,0
235963,-500,4,2,1,40,0,0
235977,-58.8235294117647,4,2,1,40,0,0
235991,-333.333333333333,4,2,1,40,0,0
236005,-58.8235294117647,4,2,1,40,0,0
236020,-333.333333333333,4,2,1,40,0,0
236034,-52.6315789473684,4,2,1,40,0,0
236077,-142.857142857143,4,2,1,40,0,0
236206,-52.6315789473684,4,2,1,40,0,0
236220,-1000,4,2,1,40,0,0
236234,-52.6315789473684,4,2,1,40,0,0
236249,-1000,4,2,1,40,0,0
236263,-55.5555555555556,4,2,1,40,0,0
236277,-500,4,2,1,40,0,0
236291,-55.5555555555556,4,2,1,40,0,0
236306,-500,4,2,1,40,0,0
236320,-58.8235294117647,4,2,1,40,0,0
236334,-333.333333333333,4,2,1,40,0,0
236348,-58.8235294117647,4,2,1,40,0,0
236363,-333.333333333333,4,2,1,40,0,0
236377,-52.6315789473684,4,2,1,40,0,0
236420,-142.857142857143,4,2,1,40,0,0
236549,-52.6315789473684,4,2,1,40,0,0
236563,-1000,4,2,1,40,0,0
236577,-52.6315789473684,4,2,1,40,0,0
236592,-1000,4,2,1,40,0,0
236606,-55.5555555555556,4,2,1,40,0,0
236620,-500,4,2,1,40,0,0
236634,-55.5555555555556,4,2,1,40,0,0
236649,-500,4,2,1,40,0,0
236663,-58.8235294117647,4,2,1,40,0,0
236677,-333.333333333333,4,2,1,40,0,0
236691,-58.8235294117647,4,2,1,40,0,0
236706,-333.333333333333,4,2,1,40,0,0
236720,-52.6315789473684,4,2,1,40,0,0
236763,-142.857142857143,4,2,1,40,0,0
236891,-100,4,2,1,40,0,0
237063,-52.6315789473684,4,2,1,40,0,0
237106,-142.857142857143,4,2,1,40,0,0
237234,-52.6315789473684,4,2,1,40,0,0
237248,-1000,4,2,1,40,0,0
237262,-52.6315789473684,4,2,1,40,0,0
237277,-1000,4,2,1,40,0,0
237291,-55.5555555555556,4,2,1,40,0,0
237305,-500,4,2,1,40,0,0
237319,-55.5555555555556,4,2,1,40,0,0
237334,-500,4,2,1,40,0,0
237348,-58.8235294117647,4,2,1,40,0,0
237362,-333.333333333333,4,2,1,40,0,0
237376,-58.8235294117647,4,2,1,40,0,0
237391,-333.333333333333,4,2,1,40,0,0
237406,-52.6315789473684,4,2,1,40,0,0
237449,-142.857142857143,4,2,1,40,0,0
237577,-52.6315789473684,4,2,1,40,0,0
237591,-1000,4,2,1,40,0,0
237605,-52.6315789473684,4,2,1,40,0,0
237620,-1000,4,2,1,40,0,0
237634,-55.5555555555556,4,2,1,40,0,0
237648,-500,4,2,1,40,0,0
237662,-55.5555555555556,4,2,1,40,0,0
237677,-500,4,2,1,40,0,0
237691,-58.8235294117647,4,2,1,40,0,0
237705,-333.333333333333,4,2,1,40,0,0
237719,-58.8235294117647,4,2,1,40,0,0
237734,-333.333333333333,4,2,1,40,0,0
237749,-52.6315789473684,4,2,1,40,0,0
237792,-142.857142857143,4,2,1,40,0,0
237920,-52.6315789473684,4,2,1,40,0,0
237934,-1000,4,2,1,40,0,0
237948,-52.6315789473684,4,2,1,40,0,0
237963,-1000,4,2,1,40,0,0
237977,-55.5555555555556,4,2,1,40,0,0
237991,-500,4,2,1,40,0,0
238005,-55.5555555555556,4,2,1,40,0,0
238020,-500,4,2,1,40,0,0
238034,-58.8235294117647,4,2,1,40,0,0
238048,-333.333333333333,4,2,1,40,0,0
238062,-58.8235294117647,4,2,1,40,0,0
238077,-333.333333333333,4,2,1,40,0,0
238091,-52.6315789473684,4,2,1,40,0,0
238134,-142.857142857143,4,2,1,40,0,0
238263,-52.6315789473684,4,2,1,40,0,0
238306,-142.857142857143,4,2,1,40,0,0
238434,-100,4,2,1,40,0,0
238606,-66.6666666666667,4,2,1,40,0,0
238691,-200,4,2,1,40,0,0
238777,-100,4,2,1,40,0,0
238949,-66.6666666666667,4,2,1,40,0,0
239034,-200,4,2,1,40,0,0
239120,-100,4,2,1,40,0,0
239291,-66.6666666666667,4,2,1,40,0,0
239376,-200,4,2,1,40,0,0
239462,-100,4,2,1,40,0,0
239634,-66.6666666666667,4,2,1,40,0,0
239719,-200,4,2,1,40,0,0
239805,-100,4,2,1,40,0,0
239977,-57.1428571428571,4,2,1,40,0,0
240062,-400,4,2,1,40,0,0
240149,-66.6666666666667,4,2,1,40,0,0
240234,-200,4,2,1,40,0,0
240320,-57.1428571428571,4,2,1,40,0,0
240405,-400,4,2,1,40,0,0
240491,-66.6666666666667,4,2,1,40,0,0
240576,-200,4,2,1,40,0,0
240663,-57.1428571428571,4,2,1,40,0,0
240748,-400,4,2,1,40,0,0
240834,-66.6666666666667,4,2,1,40,0,0
240919,-200,4,2,1,40,0,0
241006,-57.1428571428571,4,2,1,40,0,0
241091,-400,4,2,1,40,0,0
241177,-66.6666666666667,4,2,1,40,0,0
241262,-200,4,2,1,40,0,0
241349,-52.6315789473684,4,2,1,40,0,0
241370,-142.857142857143,4,2,1,40,0,0
241434,-52.6315789473684,4,2,1,40,0,0
241455,-142.857142857143,4,2,1,40,0,0
241520,-52.6315789473684,4,2,1,40,0,0
241541,-142.857142857143,4,2,1,40,0,0
241606,-52.6315789473684,4,2,1,40,0,0
241627,-142.857142857143,4,2,1,40,0,0
241691,-45.4545454545455,4,2,1,40,0,0
241712,-166.666666666667,4,2,1,40,0,0
241777,-45.4545454545455,4,2,1,40,0,0
241798,-166.666666666667,4,2,1,40,0,0
241863,-45.4545454545455,4,2,1,40,0,0
241884,-166.666666666667,4,2,1,40,0,0
241949,-45.4545454545455,4,2,1,40,0,0
241970,-166.666666666667,4,2,1,40,0,0
242034,-40,4,2,1,40,0,0
242055,-200,4,2,1,40,0,0
242120,-40,4,2,1,40,0,0
242141,-200,4,2,1,40,0,0
242206,-40,4,2,1,40,0,0
242227,-200,4,2,1,40,0,0
242291,-40,4,2,1,40,0,0
242312,-200,4,2,1,40,0,0
242377,-35.7142857142857,4,2,1,40,0,0
242398,-250.000000000001,4,2,1,40,0,0
242463,-35.7142857142857,4,2,1,40,0,0
242484,-250.000000000001,4,2,1,40,0,0
242549,-35.7142857142857,4,2,1,40,0,0
242570,-250.000000000001,4,2,1,40,0,0
242634,-35.7142857142857,4,2,1,40,0,0
242655,-250.000000000001,4,2,1,40,0,0
242720,-40,4,2,1,40,0,0
242731,-200,4,2,1,40,0,0
242763,-40,4,2,1,40,0,0
242774,-200,4,2,1,40,0,0
242806,-40,4,2,1,40,0,0
242817,-200,4,2,1,40,0,0
242849,-40,4,2,1,40,0,0
242860,-200,4,2,1,40,0,0
242891,-40,4,2,1,40,0,0
242902,-200,4,2,1,40,0,0
242934,-40,4,2,1,40,0,0
242945,-200,4,2,1,40,0,0
242977,-40,4,2,1,40,0,0
242988,-200,4,2,1,40,0,0
243020,-40,4,2,1,40,0,0
243031,-200,4,2,1,40,0,0
243063,-40,4,2,1,40,0,0
243074,-200,4,2,1,40,0,0
243106,-40,4,2,1,40,0,0
243117,-200,4,2,1,40,0,0
243149,-40,4,2,1,40,0,0
243160,-200,4,2,1,40,0,0
243192,-40,4,2,1,40,0,0
243203,-200,4,2,1,40,0,0
243234,-40,4,2,1,40,0,0
243245,-200,4,2,1,40,0,0
243277,-40,4,2,1,40,0,0
243288,-200,4,2,1,40,0,0
243320,-40,4,2,1,40,0,0
243331,-200,4,2,1,40,0,0
243363,-40,4,2,1,40,0,0
243374,-200,4,2,1,40,0,0
243406,-32.258064516129,4,2,1,40,0,0
243417,-333.333333333333,4,2,1,40,0,0
243449,-32.258064516129,4,2,1,40,0,0
243460,-333.333333333333,4,2,1,40,0,0
243491,-32.258064516129,4,2,1,40,0,0
243502,-333.333333333333,4,2,1,40,0,0
243534,-32.258064516129,4,2,1,40,0,0
243545,-333.333333333333,4,2,1,40,0,0
243577,-32.258064516129,4,2,1,40,0,0
243588,-333.333333333333,4,2,1,40,0,0
243620,-32.258064516129,4,2,1,40,0,0
243631,-333.333333333333,4,2,1,40,0,0
243662,-32.258064516129,4,2,1,40,0,0
243673,-333.333333333333,4,2,1,40,0,0
243705,-32.258064516129,4,2,1,40,0,0
243716,-333.333333333333,4,2,1,40,0,0
243749,-32.258064516129,4,2,1,40,0,0
243760,-333.333333333333,4,2,1,40,0,0
243792,-32.258064516129,4,2,1,40,0,0
243803,-333.333333333333,4,2,1,40,0,0
243834,-32.258064516129,4,2,1,40,0,0
243845,-333.333333333333,4,2,1,40,0,0
243877,-32.258064516129,4,2,1,40,0,0
243888,-333.333333333333,4,2,1,40,0,0
243920,-32.258064516129,4,2,1,40,0,0
243931,-333.333333333333,4,2,1,40,0,0
243963,-32.258064516129,4,2,1,40,0,0
243974,-333.333333333333,4,2,1,40,0,0
244005,-32.258064516129,4,2,1,40,0,0
244016,-333.333333333333,4,2,1,40,0,0
244048,-32.258064516129,4,2,1,40,0,0
244059,-333.333333333333,4,2,1,40,0,0
244091,-10,4,2,1,40,0,0

[HitObjects]
64,192,2719,5,0,0:0:0:0:
448,192,2719,1,0,0:0:0:0:
320,192,2719,1,0,0:0:0:0:
192,192,2891,128,0,2977:0:0:0:0:
320,192,3062,1,0,0:0:0:0:
448,192,3062,1,0,0:0:0:0:
64,192,3234,128,0,3341:0:0:0:0:
320,192,3405,1,0,0:0:0:0:
448,192,3405,1,0,0:0:0:0:
192,192,3577,128,0,3705:0:0:0:0:
320,192,3748,1,0,0:0:0:0:
448,192,3748,1,0,0:0:0:0:
64,192,3920,128,0,4070:0:0:0:0:
320,192,4091,1,0,0:0:0:0:
448,192,4091,1,0,0:0:0:0:
192,192,4262,128,0,4434:0:0:0:0:
64,192,4434,1,0,0:0:0:0:
448,192,4434,1,0,0:0:0:0:
320,192,4605,128,0,4777:0:0:0:0:
64,192,4777,1,0,0:0:0:0:
192,192,4777,1,0,0:0:0:0:
448,192,4948,128,0,5120:0:0:0:0:
320,192,5120,1,0,0:0:0:0:
192,192,5120,1,0,0:0:0:0:
64,192,5291,1,0,0:0:0:0:
192,192,5348,1,0,0:0:0:0:
320,192,5405,1,0,0:0:0:0:
64,192,5462,1,0,0:0:0:0:
448,192,5462,1,0,0:0:0:0:
448,192,5634,128,0,5805:0:0:0:0:
320,192,5805,1,0,0:0:0:0:
64,192,5805,1,0,0:0:0:0:
64,192,5977,128,0,6148:0:0:0:0:
192,192,6148,1,0,0:0:0:0:
448,192,6148,1,0,0:0:0:0:
448,192,6320,128,0,6491:0:0:0:0:
320,192,6491,1,0,0:0:0:0:
64,192,6491,1,0,0:0:0:0:
64,192,6662,128,0,6834:0:0:0:0:
192,192,6834,1,0,0:0:0:0:
448,192,6834,1,0,0:0:0:0:
448,192,7005,128,0,7177:0:0:0:0:
320,192,7177,1,0,0:0:0:0:
64,192,7177,1,0,0:0:0:0:
64,192,7348,128,0,7520:0:0:0:0:
192,192,7520,1,0,0:0:0:0:
448,192,7520,1,0,0:0:0:0:
448,192,7691,128,0,7862:0:0:0:0:
64,192,7862,1,0,0:0:0:0:
320,192,7862,1,0,0:0:0:0:
320,192,8034,1,0,0:0:0:0:
448,192,8205,1,0,0:0:0:0:
64,192,8205,1,0,0:0:0:0:
320,192,8377,128,0,8462:0:0:0:0:
192,192,8548,1,0,0:0:0:0:
64,192,8548,1,0,0:0:0:0:
448,192,8720,128,0,8827:0:0:0:0:
192,192,8891,1,0,0:0:0:0:
64,192,8891,1,0,0:0:0:0:
320,192,9062,128,0,9191:0:0:0:0:
192,192,9234,1,0,0:0:0:0:
64,192,9234,1,0,0:0:0:0:
448,192,9405,128,0,9555:0:0:0:0:
192,192,9577,1,0,0:0:0:0:
64,192,9577,1,0,0:0:0:0:
320,192,9748,128,0,9920:0:0:0:0:
448,192,9920,1,0,0:0:0:0:
64,192,9920,1,0,0:0:0:0:
192,192,10091,128,0,10262:0:0:0:0:
448,192,10262,1,0,0:0:0:0:
320,192,10262,1,0,0:0:0:0:
64,192,10434,128,0,10605:0:0:0:0:
192,192,10605,1,0,0:0:0:0:
320,192,10605,1,0,0:0:0:0:
448,192,10777,1,0,0:0:0:0:
320,192,10834,1,0,0:0:0:0:
192,192,10891,1,0,0:0:0:0:
64,192,10948,1,0,0:0:0:0:
448,192,10948,128,0,12320:0:0:0:0:
64,192,11120,128,0,11291:0:0:0:0:
192,192,11291,1,0,0:0:0:0:
320,192,11291,1,0,0:0:0:0:
320,192,11462,128,0,11634:0:0:0:0:
192,192,11634,1,0,0:0:0:0:
64,192,11634,1,0,0:0:0:0:
64,192,11805,128,0,11977:0:0:0:0:
192,192,11977,1,0,0:0:0:0:
320,192,11977,1,0,0:0:0:0:
320,192,12148,128,0,12320:0:0:0:0:
192,192,12320,1,0,0:0:0:0:
64,192,12320,1,0,0:0:0:0:
448,192,12405,1,0,0:0:0:0:
320,192,12405,1,0,0:0:0:0:
192,192,12491,1,0,0:0:0:0:
64,192,12491,1,0,0:0:0:0:
448,192,12577,1,0,0:0:0:0:
320,192,12577,1,0,0:0:0:0:
192,192,12662,1,0,0:0:0:0:
64,192,12662,1,0,0:0:0:0:
448,192,12748,1,0,0:0:0:0:
320,192,12748,1,0,0:0:0:0:
192,192,12834,1,0,0:0:0:0:
64,192,12834,1,0,0:0:0:0:
320,192,12920,1,0,0:0:0:0:
448,192,12920,1,0,0:0:0:0:
192,192,13005,1,0,0:0:0:0:
64,192,13005,1,0,0:0:0:0:
320,192,13091,1,0,0:0:0:0:
448,192,13091,1,0,0:0:0:0:
192,192,13177,1,0,0:0:0:0:
64,192,13177,1,0,0:0:0:0:
320,192,13262,1,0,0:0:0:0:
448,192,13348,1,0,0:0:0:0:
64,192,13348,1,0,0:0:0:0:
192,192,13348,1,0,0:0:0:0:
320,192,13520,1,0,0:0:0:0:
448,192,13520,1,0,0:0:0:0:
192,192,13605,1,0,0:0:0:0:
64,192,13691,5,0,0:0:0:0:
320,192,13691,128,0,13862:0:0:0:0:
448,192,13691,128,0,13862:0:0:0:0:
64,192,13862,128,0,13948:0:0:0:0:
320,192,14034,128,0,14205:0:0:0:0:
448,192,14034,128,0,14205:0:0:0:0:
192,192,14205,128,0,14312:0:0:0:0:
320,192,14377,128,0,14548:0:0:0:0:
448,192,14377,128,0,14548:0:0:0:0:
64,192,14548,128,0,14677:0:0:0:0:
192,192,14720,1,0,0:0:0:0:
448,192,14720,1,0,0:0:0:0:
320,192,14891,128,0,15041:0:0:0:0:
192,192,15062,128,0,15234:0:0:0:0:
64,192,15062,128,0,15234:0:0:0:0:
448,192,15234,128,0,15405:0:0:0:0:
64,192,15405,128,0,15577:0:0:0:0:
192,192,15405,128,0,15577:0:0:0:0:
320,192,15577,128,0,15748:0:0:0:0:
64,192,15748,128,0,15920:0:0:0:0:
192,192,15748,128,0,15920:0:0:0:0:
448,192,15920,128,0,16091:0:0:0:0:
64,192,16091,1,0,0:0:0:0:
320,192,16091,1,0,0:0:0:0:
192,192,16262,128,0,16434:0:0:0:0:
320,192,16434,128,0,16605:0:0:0:0:
448,192,16434,128,0,16605:0:0:0:0:
64,192,16605,128,0,16777:0:0:0:0:
320,192,16777,128,0,16948:0:0:0:0:
192,192,16777,128,0,16948:0:0:0:0:
448,192,16948,128,0,17120:0:0:0:0:
192,192,17120,128,0,17291:0:0:0:0:
64,192,17120,128,0,17291:0:0:0:0:
320,192,17291,128,0,17462:0:0:0:0:
64,192,17462,1,0,0:0:0:0:
448,192,17462,1,0,0:0:0:0:
192,192,17634,128,0,17805:0:0:0:0:
64,192,17805,128,0,17977:0:0:0:0:
448,192,17805,128,0,17977:0:0:0:0:
320,192,17977,128,0,18148:0:0:0:0:
64,192,18148,128,0,18320:0:0:0:0:
192,192,18148,128,0,18320:0:0:0:0:
448,192,18320,128,0,18491:0:0:0:0:
320,192,18491,128,0,18662:0:0:0:0:
192,192,18491,128,0,18662:0:0:0:0:
64,192,18662,1,0,0:0:0:0:
448,192,18662,1,0,0:0:0:0:
64,192,18834,1,0,0:0:0:0:
320,192,18834,1,0,0:0:0:0:
192,192,18834,1,0,0:0:0:0:
192,192,19005,1,0,0:0:0:0:
64,192,19177,1,0,0:0:0:0:
448,192,19177,1,0,0:0:0:0:
320,192,19177,1,0,0:0:0:0:
320,192,19348,1,0,0:0:0:0:
448,192,19348,1,0,0:0:0:0:
64,192,19520,1,0,0:0:0:0:
192,192,19520,1,0,0:0:0:0:
448,192,19520,1,0,0:0:0:0:
64,192,19691,1,0,0:0:0:0:
192,192,19691,1,0,0:0:0:0:
448,192,19862,1,0,0:0:0:0:
64,192,19862,1,0,0:0:0:0:
320,192,19862,1,0,0:0:0:0:
320,192,20034,1,0,0:0:0:0:
448,192,20034,1,0,0:0:0:0:
64,192,20205,1,0,0:0:0:0:
192,192,20205,1,0,0:0:0:0:
448,192,20205,1,0,0:0:0:0:
192,192,20377,1,0,0:0:0:0:
64,192,20377,1,0,0:0:0:0:
448,192,20548,1,0,0:0:0:0:
320,192,20548,1,0,0:0:0:0:
192,192,20548,1,0,0:0:0:0:
448,192,20720,1,0,0:0:0:0:
320,192,20720,1,0,0:0:0:0:
320,192,20891,1,0,0:0:0:0:
192,192,20891,1,0,0:0:0:0:
64,192,20891,1,0,0:0:0:0:
192,192,21062,1,0,0:0:0:0:
64,192,21062,1,0,0:0:0:0:
448,192,21234,1,0,0:0:0:0:
192,192,21234,1,0,0:0:0:0:
320,192,21234,1,0,0:0:0:0:
448,192,21405,1,0,0:0:0:0:
320,192,21405,1,0,0:0:0:0:
320,192,21577,1,0,0:0:0:0:
192,192,21577,1,0,0:0:0:0:
64,192,21577,1,0,0:0:0:0:
192,192,21748,1,0,0:0:0:0:
64,192,21748,1,0,0:0:0:0:
320,192,21920,1,0,0:0:0:0:
448,192,21920,1,0,0:0:0:0:
192,192,22005,1,0,0:0:0:0:
64,192,22005,1,0,0:0:0:0:
320,192,22091,1,0,0:0:0:0:
448,192,22091,1,0,0:0:0:0:
192,192,22177,1,0,0:0:0:0:
64,192,22177,1,0,0:0:0:0:
320,192,22262,1,0,0:0:0:0:
448,192,22262,1,0,0:0:0:0:
192,192,22348,1,0,0:0:0:0:
64,192,22348,1,0,0:0:0:0:
320,192,22434,1,0,0:0:0:0:
448,192,22434,1,0,0:0:0:0:
64,192,22520,1,0,0:0:0:0:
192,192,22520,1,0,0:0:0:0:
448,192,22605,1,0,0:0:0:0:
320,192,22605,1,0,0:0:0:0:
192,192,22691,1,0,0:0:0:0:
64,192,22691,1,0,0:0:0:0:
320,192,22777,1,0,0:0:0:0:
448,192,22777,1,0,0:0:0:0:
192,192,22862,1,0,0:0:0:0:
64,192,22862,1,0,0:0:0:0:
320,192,22948,1,0,0:0:0:0:
448,192,22948,1,0,0:0:0:0:
192,192,23034,1,0,0:0:0:0:
64,192,23034,1,0,0:0:0:0:
320,192,23120,1,0,0:0:0:0:
448,192,23120,1,0,0:0:0:0:
192,192,23205,1,0,0:0:0:0:
64,192,23205,1,0,0:0:0:0:
448,192,23291,1,0,0:0:0:0:
320,192,23334,1,0,0:0:0:0:
192,192,23377,1,0,0:0:0:0:
64,192,23420,1,0,0:0:0:0:
448,192,23462,1,0,0:0:0:0:
320,192,23505,1,0,0:0:0:0:
192,192,23548,1,0,0:0:0:0:
64,192,23591,1,0,0:0:0:0:
448,192,23634,1,0,0:0:0:0:
320,192,23677,1,0,0:0:0:0:
192,192,23720,1,0,0:0:0:0:
64,192,23762,1,0,0:0:0:0:
448,192,23805,1,0,0:0:0:0:
320,192,23848,1,0,0:0:0:0:
192,192,23891,1,0,0:0:0:0:
64,192,23934,1,0,0:0:0:0:
320,192,23977,1,0,0:0:0:0:
448,192,24020,1,0,0:0:0:0:
64,192,24062,1,0,0:0:0:0:
192,192,24105,1,0,0:0:0:0:
320,192,24148,1,0,0:0:0:0:
448,192,24191,1,0,0:0:0:0:
64,192,24234,1,0,0:0:0:0:
192,192,24277,1,0,0:0:0:0:
320,192,24320,1,0,0:0:0:0:
448,192,24362,1,0,0:0:0:0:
64,192,24405,1,0,0:0:0:0:
192,192,24448,1,0,0:0:0:0:
320,192,24491,1,0,0:0:0:0:
448,192,24534,1,0,0:0:0:0:
64,192,24577,1,0,0:0:0:0:
192,192,24620,1,0,0:0:0:0:
320,192,24662,1,0,0:0:0:0:
448,192,24662,1,0,0:0:0:0:
64,192,25348,1,0,0:0:0:0:
192,192,25434,1,0,0:0:0:0:
320,192,25520,1,0,0:0:0:0:
64,192,25777,1,0,0:0:0:0:
192,192,25862,1,0,0:0:0:0:
320,192,25948,1,0,0:0:0:0:
64,192,26205,1,0,0:0:0:0:
192,192,26291,1,0,0:0:0:0:
320,192,26377,1,0,0:0:0:0:
64,192,26634,1,0,0:0:0:0:
192,192,26720,1,0,0:0:0:0:
320,192,26805,1,0,0:0:0:0:
64,192,27062,1,0,0:0:0:0:
192,192,27148,1,0,0:0:0:0:
320,192,27234,1,0,0:0:0:0:
64,192,27405,128,0,28691:0:0:0:0:
448,192,27405,128,0,28691:0:0:0:0:
192,192,28091,128,0,28691:0:0:0:0:
64,192,28777,128,0,28948:0:0:0:0:
320,192,28777,128,0,28948:0:0:0:0:
448,192,28777,128,0,28948:0:0:0:0:
64,192,29120,128,0,29291:0:0:0:0:
320,192,29120,128,0,29291:0:0:0:0:
448,192,29120,128,0,29291:0:0:0:0:
64,192,29462,128,0,29634:0:0:0:0:
320,192,29462,128,0,29634:0:0:0:0:
448,192,29462,128,0,29634:0:0:0:0:
192,192,29634,1,0,0:0:0:0:
320,192,29720,1,0,0:0:0:0:
64,192,29805,128,0,30062:0:0:0:0:
192,192,29805,128,0,30062:0:0:0:0:
448,192,29805,128,0,30062:0:0:0:0:
64,192,30148,1,0,0:0:0:0:
320,192,30148,128,0,30234:0:0:0:0:
448,192,30148,128,0,30234:0:0:0:0:
320,192,30320,128,0,30405:0:0:0:0:
448,192,30320,128,0,30405:0:0:0:0:
448,192,30491,1,0,0:0:0:0:
192,192,30491,128,0,30577:0:0:0:0:
64,192,30491,128,0,30577:0:0:0:0:
64,192,30662,128,0,30748:0:0:0:0:
192,192,30662,128,0,30748:0:0:0:0:
320,192,30834,128,0,31005:0:0:0:0:
448,192,30834,128,0,31434:0:0:0:0:
64,192,30834,128,0,31005:0:0:0:0:
64,192,31177,128,0,31434:0:0:0:0:
192,192,31177,128,0,31434:0:0:0:0:
320,192,31177,128,0,31434:0:0:0:0:
448,192,31520,1,0,0:0:0:0:
192,192,31520,128,0,31605:0:0:0:0:
64,192,31520,128,0,31605:0:0:0:0:
192,192,31691,128,0,31777:0:0:0:0:
64,192,31691,128,0,31777:0:0:0:0:
64,192,31862,1,0,0:0:0:0:
320,192,31862,128,0,31948:0:0:0:0:
448,192,31862,128,0,31948:0:0:0:0:
448,192,32034,128,0,32120:0:0:0:0:
320,192,32034,128,0,32120:0:0:0:0:
192,192,32205,128,0,32291:0:0:0:0:
64,192,32205,128,0,32805:0:0:0:0:
448,192,32205,128,0,32291:0:0:0:0:
448,192,32377,128,0,32462:0:0:0:0:
320,192,32462,128,0,32548:0:0:0:0:
192,192,32548,128,0,32805:0:0:0:0:
320,192,32720,128,0,32805:0:0:0:0:
448,192,32720,128,0,32805:0:0:0:0:
192,192,32891,128,0,32977:0:0:0:0:
64,192,32891,128,0,32977:0:0:0:0:
448,192,32891,1,0,0:0:0:0:
192,192,33062,128,0,33148:0:0:0:0:
64,192,33062,128,0,33148:0:0:0:0:
320,192,33148,1,0,0:0:0:0:
64,192,33234,1,0,0:0:0:0:
448,192,33234,1,0,0:0:0:0:
192,192,33320,1,0,0:0:0:0:
448,192,33405,1,0,0:0:0:0:
320,192,33491,1,0,0:0:0:0:
192,192,33577,128,0,33662:0:0:0:0:
64,192,33577,128,0,33662:0:0:0:0:
448,192,33577,1,0,0:0:0:0:
64,192,33748,128,0,33834:0:0:0:0:
192,192,33748,128,0,33834:0:0:0:0:
320,192,33834,1,0,0:0:0:0:
448,192,33920,1,0,0:0:0:0:
64,192,33920,1,0,0:0:0:0:
192,192,34005,1,0,0:0:0:0:
448,192,34091,1,0,0:0:0:0:
320,192,34177,1,0,0:0:0:0:
448,192,34262,1,0,0:0:0:0:
64,192,34262,1,0,0:0:0:0:
192,192,34262,1,0,0:0:0:0:
64,192,34434,1,0,0:0:0:0:
192,192,34434,1,0,0:0:0:0:
320,192,34434,1,0,0:0:0:0:
192,192,34605,1,0,0:0:0:0:
320,192,34605,1,0,0:0:0:0:
448,192,34605,1,0,0:0:0:0:
64,192,34777,1,0,0:0:0:0:
320,192,34777,1,0,0:0:0:0:
448,192,34777,1,0,0:0:0:0:
64,192,34948,128,0,35548:0:0:0:0:
192,192,34948,128,0,35120:0:0:0:0:
448,192,34948,128,0,35120:0:0:0:0:
192,192,35291,128,0,35548:0:0:0:0:
320,192,35291,128,0,35548:0:0:0:0:
448,192,35291,128,0,35548:0:0:0:0:
448,192,35634,128,0,35805:0:0:0:0:
192,192,35634,1,0,0:0:0:0:
64,192,35634,128,0,35805:0:0:0:0:
320,192,35805,1,0,0:0:0:0:
448,192,35977,128,0,36148:0:0:0:0:
64,192,35977,128,0,36148:0:0:0:0:
192,192,36148,1,0,0:0:0:0:
448,192,36320,128,0,36491:0:0:0:0:
320,192,36320,128,0,36491:0:0:0:0:
64,192,36491,1,0,0:0:0:0:
192,192,36662,128,0,36834:0:0:0:0:
320,192,36662,1,0,0:0:0:0:
448,192,36834,128,0,37005:0:0:0:0:
192,192,37005,128,0,37177:0:0:0:0:
320,192,37005,1,0,0:0:0:0:
64,192,37005,128,0,37177:0:0:0:0:
448,192,37177,1,0,0:0:0:0:
192,192,37348,128,0,37520:0:0:0:0:
64,192,37348,128,0,37520:0:0:0:0:
448,192,37520,1,0,0:0:0:0:
192,192,37691,128,0,37862:0:0:0:0:
320,192,37691,128,0,37862:0:0:0:0:
448,192,37862,128,0,38034:0:0:0:0:
64,192,38034,128,0,38205:0:0:0:0:
192,192,38034,1,0,0:0:0:0:
320,192,38205,1,0,0:0:0:0:
192,192,38377,1,0,0:0:0:0:
448,192,38377,128,0,38548:0:0:0:0:
64,192,38377,128,0,38891:0:0:0:0:
192,192,38548,1,0,0:0:0:0:
448,192,38720,128,0,39062:0:0:0:0:
320,192,38720,1,0,0:0:0:0:
320,192,38891,1,0,0:0:0:0:
64,192,39062,128,0,39577:0:0:0:0:
192,192,39062,128,0,39577:0:0:0:0:
448,192,39234,1,0,0:0:0:0:
320,192,39405,128,0,39577:0:0:0:0:
448,192,39405,128,0,39577:0:0:0:0:
192,192,39748,1,0,0:0:0:0:
448,192,39748,128,0,39920:0:0:0:0:
64,192,39748,1,0,0:0:0:0:
64,192,39920,1,0,0:0:0:0:
448,192,40091,128,0,40434:0:0:0:0:
320,192,40091,1,0,0:0:0:0:
320,192,40262,1,0,0:0:0:0:
64,192,40434,128,0,40948:0:0:0:0:
192,192,40434,128,0,40777:0:0:0:0:
320,192,40520,1,0,0:0:0:0:
448,192,40605,1,0,0:0:0:0:
320,192,40777,128,0,40948:0:0:0:0:
448,192,40777,128,0,40948:0:0:0:0:
192,192,40948,1,0,0:0:0:0:
64,192,41120,128,0,41291:0:0:0:0:
320,192,41120,1,0,0:0:0:0:
448,192,41120,128,0,41291:0:0:0:0:
192,192,41291,1,0,0:0:0:0:
64,192,41462,128,0,41634:0:0:0:0:
448,192,41462,128,0,41634:0:0:0:0:
320,192,41634,1,0,0:0:0:0:
64,192,41805,128,0,41977:0:0:0:0:
192,192,41805,128,0,41977:0:0:0:0:
448,192,41977,1,0,0:0:0:0:
320,192,42148,128,0,42320:0:0:0:0:
192,192,42148,1,0,0:0:0:0:
64,192,42320,128,0,42491:0:0:0:0:
320,192,42491,128,0,42662:0:0:0:0:
192,192,42491,1,0,0:0:0:0:
448,192,42491,128,0,42662:0:0:0:0:
64,192,42662,1,0,0:0:0:0:
320,192,42834,128,0,43005:0:0:0:0:
448,192,42834,128,0,43005:0:0:0:0:
64,192,43005,1,0,0:0:0:0:
320,192,43177,128,0,43348:0:0:0:0:
192,192,43177,128,0,43348:0:0:0:0:
448,192,43348,1,0,0:0:0:0:
192,192,43434,1,0,0:0:0:0:
448,192,43520,1,0,0:0:0:0:
192,192,43605,1,0,0:0:0:0:
448,192,43691,1,0,0:0:0:0:
192,192,43777,1,0,0:0:0:0:
64,192,43862,1,0,0:0:0:0:
320,192,43862,128,0,43948:0:0:0:0:
448,192,43862,128,0,43948:0:0:0:0:
320,192,44034,128,0,44120:0:0:0:0:
448,192,44034,128,0,44120:0:0:0:0:
448,192,44205,1,0,0:0:0:0:
192,192,44205,128,0,44291:0:0:0:0:
64,192,44205,128,0,44291:0:0:0:0:
64,192,44377,128,0,44462:0:0:0:0:
192,192,44377,128,0,44462:0:0:0:0:
320,192,44548,128,0,44720:0:0:0:0:
448,192,44548,128,0,45148:0:0:0:0:
64,192,44548,128,0,44720:0:0:0:0:
64,192,44891,128,0,45148:0:0:0:0:
192,192,44891,128,0,45148:0:0:0:0:
320,192,44891,128,0,45148:0:0:0:0:
448,192,45234,1,0,0:0:0:0:
192,192,45234,128,0,45320:0:0:0:0:
64,192,45234,128,0,45320:0:0:0:0:
192,192,45405,128,0,45491:0:0:0:0:
64,192,45405,128,0,45491:0:0:0:0:
64,192,45577,1,0,0:0:0:0:
320,192,45577,128,0,45662:0:0:0:0:
448,192,45577,128,0,45662:0:0:0:0:
448,192,45748,128,0,45834:0:0:0:0:
320,192,45748,128,0,45834:0:0:0:0:
192,192,45920,128,0,46005:0:0:0:0:
64,192,45920,128,0,46520:0:0:0:0:
448,192,45920,128,0,46005:0:0:0:0:
448,192,46091,128,0,46177:0:0:0:0:
320,192,46177,128,0,46262:0:0:0:0:
192,192,46262,128,0,46520:0:0:0:0:
320,192,46434,128,0,46520:0:0:0:0:
448,192,46434,128,0,46520:0:0:0:0:
192,192,46605,128,0,46691:0:0:0:0:
64,192,46605,128,0,46691:0:0:0:0:
448,192,46605,1,0,0:0:0:0:
192,192,46777,128,0,46862:0:0:0:0:
64,192,46777,128,0,46862:0:0:0:0:
448,192,46862,1,0,0:0:0:0:
64,192,46948,1,0,0:0:0:0:
320,192,46948,1,0,0:0:0:0:
192,192,47034,1,0,0:0:0:0:
448,192,47120,1,0,0:0:0:0:
320,192,47205,1,0,0:0:0:0:
192,192,47291,128,0,47377:0:0:0:0:
64,192,47291,128,0,47377:0:0:0:0:
448,192,47291,1,0,0:0:0:0:
64,192,47462,128,0,47548:0:0:0:0:
192,192,47462,128,0,47548:0:0:0:0:
448,192,47548,1,0,0:0:0:0:
320,192,47634,1,0,0:0:0:0:
64,192,47634,1,0,0:0:0:0:
192,192,47720,1,0,0:0:0:0:
448,192,47805,1,0,0:0:0:0:
320,192,47891,1,0,0:0:0:0:
448,192,47977,1,0,0:0:0:0:
64,192,47977,1,0,0:0:0:0:
192,192,47977,1,0,0:0:0:0:
64,192,48148,1,0,0:0:0:0:
192,192,48148,1,0,0:0:0:0:
448,192,48148,1,0,0:0:0:0:
64,192,48320,1,0,0:0:0:0:
320,192,48320,1,0,0:0:0:0:
448,192,48320,1,0,0:0:0:0:
64,192,48491,1,0,0:0:0:0:
320,192,48491,1,0,0:0:0:0:
448,192,48491,1,0,0:0:0:0:
64,192,48662,128,0,49262:0:0:0:0:
448,192,48662,128,0,48834:0:0:0:0:
192,192,48662,128,0,48834:0:0:0:0:
192,192,49005,128,0,49262:0:0:0:0:
320,192,49005,128,0,49262:0:0:0:0:
448,192,49005,128,0,49262:0:0:0:0:
64,192,49348,128,0,49520:0:0:0:0:
192,192,49348,128,0,49520:0:0:0:0:
448,192,49348,128,0,49520:0:0:0:0:
64,192,49691,128,0,49862:0:0:0:0:
192,192,49691,128,0,49862:0:0:0:0:
448,192,49691,128,0,49862:0:0:0:0:
64,192,50034,128,0,50548:0:0:0:0:
192,192,50034,128,0,50548:0:0:0:0:
448,192,50034,128,0,50548:0:0:0:0:
448,192,50720,128,0,50891:0:0:0:0:
320,192,50720,128,0,50891:0:0:0:0:
64,192,50720,128,0,50891:0:0:0:0:
448,192,51062,128,0,51234:0:0:0:0:
320,192,51062,128,0,51234:0:0:0:0:
64,192,51062,128,0,51148:0:0:0:0:
64,192,51291,128,0,51577:0:0:0:0:
320,192,51405,128,0,51577:0:0:0:0:
448,192,51405,128,0,51577:0:0:0:0:
192,192,51577,1,0,0:0:0:0:
320,192,51748,128,0,51920:0:0:0:0:
192,192,51748,128,0,51920:0:0:0:0:
64,192,52091,1,0,0:0:0:0:
320,192,52091,1,0,0:0:0:0:
448,192,52091,128,0,52434:0:0:0:0:
64,192,52262,128,0,52605:0:0:0:0:
320,192,52434,1,0,0:0:0:0:
192,192,52434,128,0,52605:0:0:0:0:
448,192,52605,1,0,0:0:0:0:
192,192,52777,1,0,0:0:0:0:
448,192,52777,1,0,0:0:0:0:
64,192,52777,128,0,53120:0:0:0:0:
448,192,52948,128,0,53291:0:0:0:0:
192,192,53120,1,0,0:0:0:0:
320,192,53120,128,0,53291:0:0:0:0:
64,192,53291,1,0,0:0:0:0:
64,192,53462,1,0,0:0:0:0:
320,192,53462,1,0,0:0:0:0:
448,192,53462,128,0,53805:0:0:0:0:
64,192,53634,128,0,53977:0:0:0:0:
320,192,53805,1,0,0:0:0:0:
192,192,53805,128,0,53977:0:0:0:0:
448,192,53977,1,0,0:0:0:0:
192,192,54148,1,0,0:0:0:0:
448,192,54148,1,0,0:0:0:0:
64,192,54148,128,0,54491:0:0:0:0:
448,192,54320,128,0,54662:0:0:0:0:
192,192,54491,1,0,0:0:0:0:
320,192,54491,128,0,54662:0:0:0:0:
64,192,54662,1,0,0:0:0:0:
448,192,54834,1,0,0:0:0:0:
64,192,54834,128,0,55005:0:0:0:0:
192,192,54834,128,0,55005:0:0:0:0:
320,192,55005,1,0,0:0:0:0:
192,192,55177,128,0,55348:0:0:0:0:
64,192,55177,128,0,55348:0:0:0:0:
448,192,55348,1,0,0:0:0:0:
192,192,55520,128,0,55691:0:0:0:0:
64,192,55520,128,0,55691:0:0:0:0:
320,192,55520,1,0,0:0:0:0:
448,192,55691,1,0,0:0:0:0:
64,192,55862,128,0,56034:0:0:0:0:
192,192,55862,128,0,56034:0:0:0:0:
320,192,56034,1,0,0:0:0:0:
64,192,56205,128,0,57234:0:0:0:0:
448,192,56205,128,0,56377:0:0:0:0:
192,192,56205,1,0,0:0:0:0:
320,192,56377,1,0,0:0:0:0:
448,192,56548,1,0,0:0:0:0:
320,192,56548,1,0,0:0:0:0:
192,192,56720,1,0,0:0:0:0:
320,192,56891,128,0,57234:0:0:0:0:
192,192,56891,128,0,57234:0:0:0:0:
448,192,57234,1,0,0:0:0:0:
192,192,57405,1,0,0:0:0:0:
64,192,57577,1,0,0:0:0:0:
320,192,57577,1,0,0:0:0:0:
448,192,57577,1,0,0:0:0:0:
320,192,57748,1,0,0:0:0:0:
448,192,57748,1,0,0:0:0:0:
64,192,57920,1,0,0:0:0:0:
192,192,57920,1,0,0:0:0:0:
448,192,57920,1,0,0:0:0:0:
192,192,58091,1,0,0:0:0:0:
64,192,58091,1,0,0:0:0:0:
64,192,58262,1,0,0:0:0:0:
320,192,58262,1,0,0:0:0:0:
448,192,58262,1,0,0:0:0:0:
320,192,58434,1,0,0:0:0:0:
448,192,58434,1,0,0:0:0:0:
192,192,58605,1,0,0:0:0:0:
64,192,58605,1,0,0:0:0:0:
448,192,58605,1,0,0:0:0:0:
192,192,58777,1,0,0:0:0:0:
64,192,58777,1,0,0:0:0:0:
192,192,58948,1,0,0:0:0:0:
320,192,58948,1,0,0:0:0:0:
448,192,58948,1,0,0:0:0:0:
448,192,59120,1,0,0:0:0:0:
320,192,59120,1,0,0:0:0:0:
192,192,59291,1,0,0:0:0:0:
64,192,59291,1,0,0:0:0:0:
320,192,59291,1,0,0:0:0:0:
192,192,59462,1,0,0:0:0:0:
64,192,59462,1,0,0:0:0:0:
192,192,59634,1,0,0:0:0:0:
320,192,59634,1,0,0:0:0:0:
448,192,59634,1,0,0:0:0:0:
320,192,59805,1,0,0:0:0:0:
448,192,59805,1,0,0:0:0:0:
320,192,59977,1,0,0:0:0:0:
192,192,59977,1,0,0:0:0:0:
64,192,59977,1,0,0:0:0:0:
64,192,60148,1,0,0:0:0:0:
192,192,60148,1,0,0:0:0:0:
320,192,60320,1,0,0:0:0:0:
448,192,60320,1,0,0:0:0:0:
192,192,60405,1,0,0:0:0:0:
64,192,60405,1,0,0:0:0:0:
320,192,60491,1,0,0:0:0:0:
448,192,60491,1,0,0:0:0:0:
192,192,60577,1,0,0:0:0:0:
64,192,60577,1,0,0:0:0:0:
320,192,60662,1,0,0:0:0:0:
448,192,60662,1,0,0:0:0:0:
192,192,60748,1,0,0:0:0:0:
64,192,60748,1,0,0:0:0:0:
320,192,60834,1,0,0:0:0:0:
448,192,60834,1,0,0:0:0:0:
64,192,60920,1,0,0:0:0:0:
192,192,60920,1,0,0:0:0:0:
448,192,61005,1,0,0:0:0:0:
320,192,61005,1,0,0:0:0:0:
192,192,61091,1,0,0:0:0:0:
64,192,61091,1,0,0:0:0:0:
320,192,61177,1,0,0:0:0:0:
448,192,61177,1,0,0:0:0:0:
192,192,61262,1,0,0:0:0:0:
64,192,61262,1,0,0:0:0:0:
320,192,61348,1,0,0:0:0:0:
448,192,61348,1,0,0:0:0:0:
192,192,61434,1,0,0:0:0:0:
64,192,61434,1,0,0:0:0:0:
320,192,61520,1,0,0:0:0:0:
448,192,61520,1,0,0:0:0:0:
192,192,61605,1,0,0:0:0:0:
64,192,61605,1,0,0:0:0:0:
448,192,61691,1,0,0:0:0:0:
320,192,61734,1,0,0:0:0:0:
192,192,61777,1,0,0:0:0:0:
64,192,61820,1,0,0:0:0:0:
448,192,61862,1,0,0:0:0:0:
320,192,61905,1,0,0:0:0:0:
192,192,61948,1,0,0:0:0:0:
64,192,61991,1,0,0:0:0:0:
448,192,62034,1,0,0:0:0:0:
320,192,62077,1,0,0:0:0:0:
192,192,62120,1,0,0:0:0:0:
64,192,62162,1,0,0:0:0:0:
448,192,62205,1,0,0:0:0:0:
320,192,62248,1,0,0:0:0:0:
192,192,62291,1,0,0:0:0:0:
64,192,62334,1,0,0:0:0:0:
320,192,62377,1,0,0:0:0:0:
448,192,62420,1,0,0:0:0:0:
64,192,62462,1,0,0:0:0:0:
192,192,62505,1,0,0:0:0:0:
320,192,62548,1,0,0:0:0:0:
448,192,62591,1,0,0:0:0:0:
64,192,62634,1,0,0:0:0:0:
192,192,62677,1,0,0:0:0:0:
320,192,62720,1,0,0:0:0:0:
448,192,62762,1,0,0:0:0:0:
64,192,62805,1,0,0:0:0:0:
192,192,62848,1,0,0:0:0:0:
320,192,62891,1,0,0:0:0:0:
448,192,62934,1,0,0:0:0:0:
192,192,62977,1,0,0:0:0:0:
448,192,63062,128,0,63234:0:0:0:0:
320,192,63062,128,0,63234:0:0:0:0:
64,192,63062,128,0,63234:0:0:0:0:
448,192,63405,128,0,63577:0:0:0:0:
320,192,63405,128,0,63577:0:0:0:0:
64,192,63405,128,0,63577:0:0:0:0:
448,192,63748,128,0,64262:0:0:0:0:
320,192,63748,128,0,64262:0:0:0:0:
64,192,63748,128,0,64262:0:0:0:0:
64,192,64434,128,0,64605:0:0:0:0:
192,192,64434,128,0,64605:0:0:0:0:
448,192,64434,128,0,64605:0:0:0:0:
64,192,64777,128,0,64948:0:0:0:0:
192,192,64777,128,0,64948:0:0:0:0:
448,192,64777,128,0,64862:0:0:0:0:
448,192,65005,128,0,65291:0:0:0:0:
192,192,65120,128,0,65291:0:0:0:0:
64,192,65120,128,0,65291:0:0:0:0:
320,192,65291,1,0,0:0:0:0:
320,192,65462,128,0,65634:0:0:0:0:
448,192,65805,1,0,0:0:0:0:
64,192,65805,128,0,65977:0:0:0:0:
192,192,65805,128,0,65977:0:0:0:0:
448,192,65977,1,0,0:0:0:0:
192,192,66148,128,0,66320:0:0:0:0:
64,192,66148,128,0,66320:0:0:0:0:
448,192,66320,1,0,0:0:0:0:
192,192,66491,128,0,66662:0:0:0:0:
64,192,66491,128,0,66662:0:0:0:0:
320,192,66491,1,0,0:0:0:0:
320,192,66662,1,0,0:0:0:0:
64,192,66834,128,0,67005:0:0:0:0:
192,192,66834,128,0,67005:0:0:0:0:
320,192,67005,1,0,0:0:0:0:
192,192,67177,1,0,0:0:0:0:
64,192,67177,1,0,0:0:0:0:
448,192,67177,1,0,0:0:0:0:
192,192,67348,1,0,0:0:0:0:
448,192,67520,1,0,0:0:0:0:
320,192,67520,1,0,0:0:0:0:
64,192,67520,1,0,0:0:0:0:
320,192,67691,1,0,0:0:0:0:
64,192,67862,128,0,68462:0:0:0:0:
192,192,67862,1,0,0:0:0:0:
448,192,67862,128,0,68462:0:0:0:0:
320,192,68205,128,0,68462:0:0:0:0:
192,192,68205,128,0,68462:0:0:0:0:
64,192,68548,1,0,0:0:0:0:
320,192,68548,1,0,0:0:0:0:
448,192,68548,128,0,68720:0:0:0:0:
192,192,68720,128,0,68891:0:0:0:0:
320,192,68805,128,0,68977:0:0:0:0:
64,192,68891,1,0,0:0:0:0:
448,192,68891,128,0,69062:0:0:0:0:
192,192,69062,128,0,69234:0:0:0:0:
320,192,69148,128,0,69320:0:0:0:0:
448,192,69234,128,0,69405:0:0:0:0:
64,192,69234,1,0,0:0:0:0:
192,192,69405,128,0,69577:0:0:0:0:
320,192,69491,128,0,69662:0:0:0:0:
448,192,69577,128,0,69748:0:0:0:0:
64,192,69577,1,0,0:0:0:0:
192,192,69748,128,0,69920:0:0:0:0:
320,192,69834,128,0,70005:0:0:0:0:
448,192,69920,128,0,70091:0:0:0:0:
64,192,69920,1,0,0:0:0:0:
192,192,70091,1,0,0:0:0:0:
320,192,70177,1,0,0:0:0:0:
448,192,70262,1,0,0:0:0:0:
192,192,70262,1,0,0:0:0:0:
64,192,70434,1,0,0:0:0:0:
192,192,70520,1,0,0:0:0:0:
320,192,70605,1,0,0:0:0:0:
448,192,70605,1,0,0:0:0:0:
192,192,70691,1,0,0:0:0:0:
64,192,70777,1,0,0:0:0:0:
320,192,70862,1,0,0:0:0:0:
192,192,70948,1,0,0:0:0:0:
448,192,70948,1,0,0:0:0:0:
64,192,71034,1,0,0:0:0:0:
192,192,71120,1,0,0:0:0:0:
320,192,71205,1,0,0:0:0:0:
64,192,71291,1,0,0:0:0:0:
448,192,71291,1,0,0:0:0:0:
192,192,71462,1,0,0:0:0:0:
448,192,71548,1,0,0:0:0:0:
320,192,71634,1,0,0:0:0:0:
64,192,71634,1,0,0:0:0:0:
192,192,71805,1,0,0:0:0:0:
320,192,71891,1,0,0:0:0:0:
192,192,71977,1,0,0:0:0:0:
448,192,71977,1,0,0:0:0:0:
64,192,72062,1,0,0:0:0:0:
320,192,72148,1,0,0:0:0:0:
448,192,72234,1,0,0:0:0:0:
192,192,72320,1,0,0:0:0:0:
64,192,72320,1,0,0:0:0:0:
320,192,72405,1,0,0:0:0:0:
192,192,72491,1,0,0:0:0:0:
64,192,72577,1,0,0:0:0:0:
320,192,72662,1,0,0:0:0:0:
448,192,72662,1,0,0:0:0:0:
192,192,72748,1,0,0:0:0:0:
320,192,72834,1,0,0:0:0:0:
64,192,72920,1,0,0:0:0:0:
192,192,73005,1,0,0:0:0:0:
448,192,73005,1,0,0:0:0:0:
320,192,73177,1,0,0:0:0:0:
192,192,73262,1,0,0:0:0:0:
448,192,73348,1,0,0:0:0:0:
64,192,73348,1,0,0:0:0:0:
320,192,73405,1,0,0:0:0:0:
192,192,73462,1,0,0:0:0:0:
64,192,73520,1,0,0:0:0:0:
448,192,73577,1,0,0:0:0:0:
320,192,73634,1,0,0:0:0:0:
64,192,73691,1,0,0:0:0:0:
192,192,73691,1,0,0:0:0:0:
448,192,73777,1,0,0:0:0:0:
320,192,73777,1,0,0:0:0:0:
64,192,73862,1,0,0:0:0:0:
192,192,73862,1,0,0:0:0:0:
320,192,73948,1,0,0:0:0:0:
448,192,74034,1,0,0:0:0:0:
192,192,74034,1,0,0:0:0:0:
64,192,74034,128,0,74205:0:0:0:0:
320,192,74205,128,0,74377:0:0:0:0:
192,192,74291,128,0,74462:0:0:0:0:
448,192,74377,1,0,0:0:0:0:
64,192,74377,128,0,74548:0:0:0:0:
320,192,74548,128,0,74720:0:0:0:0:
192,192,74634,128,0,74805:0:0:0:0:
64,192,74720,128,0,74891:0:0:0:0:
448,192,74720,1,0,0:0:0:0:
320,192,74891,128,0,75062:0:0:0:0:
192,192,74977,128,0,75148:0:0:0:0:
64,192,75062,128,0,75234:0:0:0:0:
448,192,75062,1,0,0:0:0:0:
320,192,75234,128,0,75405:0:0:0:0:
192,192,75320,128,0,75491:0:0:0:0:
64,192,75405,128,0,75577:0:0:0:0:
448,192,75405,1,0,0:0:0:0:
320,192,75577,1,0,0:0:0:0:
192,192,75662,1,0,0:0:0:0:
64,192,75748,1,0,0:0:0:0:
320,192,75748,1,0,0:0:0:0:
448,192,75920,1,0,0:0:0:0:
320,192,76005,1,0,0:0:0:0:
192,192,76091,1,0,0:0:0:0:
64,192,76091,1,0,0:0:0:0:
320,192,76177,1,0,0:0:0:0:
448,192,76262,1,0,0:0:0:0:
192,192,76348,1,0,0:0:0:0:
320,192,76434,1,0,0:0:0:0:
64,192,76434,1,0,0:0:0:0:
448,192,76520,1,0,0:0:0:0:
192,192,76605,1,0,0:0:0:0:
320,192,76691,1,0,0:0:0:0:
64,192,76777,128,0,76948:0:0:0:0:
448,192,76777,128,0,76948:0:0:0:0:
320,192,76948,1,0,0:0:0:0:
192,192,77034,1,0,0:0:0:0:
64,192,77120,128,0,77291:0:0:0:0:
448,192,77120,128,0,77291:0:0:0:0:
192,192,77291,1,0,0:0:0:0:
320,192,77377,1,0,0:0:0:0:
448,192,77462,1,0,0:0:0:0:
64,192,77462,1,0,0:0:0:0:
192,192,77548,1,0,0:0:0:0:
320,192,77634,1,0,0:0:0:0:
64,192,77691,1,0,0:0:0:0:
448,192,77805,1,0,0:0:0:0:
320,192,77805,1,0,0:0:0:0:
192,192,77862,1,0,0:0:0:0:
320,192,77977,1,0,0:0:0:0:
64,192,78034,1,0,0:0:0:0:
192,192,78148,1,0,0:0:0:0:
448,192,78148,1,0,0:0:0:0:
320,192,78234,1,0,0:0:0:0:
192,192,78320,1,0,0:0:0:0:
448,192,78405,1,0,0:0:0:0:
64,192,78491,1,0,0:0:0:0:
192,192,78577,1,0,0:0:0:0:
320,192,78662,1,0,0:0:0:0:
448,192,78748,1,0,0:0:0:0:
192,192,78834,1,0,0:0:0:0:
64,192,78920,1,0,0:0:0:0:
320,192,79005,1,0,0:0:0:0:
192,192,79091,1,0,0:0:0:0:
448,192,79177,1,0,0:0:0:0:
320,192,79262,1,0,0:0:0:0:
64,192,79348,1,0,0:0:0:0:
192,192,79434,1,0,0:0:0:0:
320,192,79520,1,0,0:0:0:0:
448,192,79520,1,0,0:0:0:0:
64,192,79520,1,0,0:0:0:0:
192,192,79605,128,0,79777:0:0:0:0:
320,192,79691,128,0,79862:0:0:0:0:
448,192,79777,128,0,79948:0:0:0:0:
64,192,79862,1,0,0:0:0:0:
192,192,79948,128,0,80120:0:0:0:0:
320,192,80034,128,0,80205:0:0:0:0:
448,192,80120,128,0,80291:0:0:0:0:
64,192,80205,1,0,0:0:0:0:
192,192,80291,128,0,80462:0:0:0:0:
320,192,80377,128,0,80548:0:0:0:0:
448,192,80462,128,0,80634:0:0:0:0:
64,192,80548,1,0,0:0:0:0:
192,192,80634,128,0,80805:0:0:0:0:
320,192,80720,128,0,80891:0:0:0:0:
448,192,80805,128,0,80977:0:0:0:0:
64,192,80891,1,0,0:0:0:0:
192,192,80977,1,0,0:0:0:0:
320,192,81062,1,0,0:0:0:0:
64,192,81148,1,0,0:0:0:0:
192,192,81234,1,0,0:0:0:0:
448,192,81234,1,0,0:0:0:0:
64,192,81320,1,0,0:0:0:0:
320,192,81405,1,0,0:0:0:0:
192,192,81491,1,0,0:0:0:0:
320,192,81577,1,0,0:0:0:0:
448,192,81577,1,0,0:0:0:0:
64,192,81662,1,0,0:0:0:0:
448,192,81748,1,0,0:0:0:0:
192,192,81834,1,0,0:0:0:0:
320,192,81920,1,0,0:0:0:0:
448,192,81920,1,0,0:0:0:0:
64,192,82005,1,0,0:0:0:0:
320,192,82091,1,0,0:0:0:0:
192,192,82177,1,0,0:0:0:0:
64,192,82262,1,0,0:0:0:0:
448,192,82262,1,0,0:0:0:0:
320,192,82348,1,0,0:0:0:0:
448,192,82434,1,0,0:0:0:0:
64,192,82520,1,0,0:0:0:0:
320,192,82605,1,0,0:0:0:0:
448,192,82605,1,0,0:0:0:0:
64,192,82691,1,0,0:0:0:0:
192,192,82691,1,0,0:0:0:0:
448,192,82777,1,0,0:0:0:0:
320,192,82777,1,0,0:0:0:0:
192,192,82862,1,0,0:0:0:0:
64,192,82948,1,0,0:0:0:0:
448,192,82948,1,0,0:0:0:0:
320,192,83034,1,0,0:0:0:0:
192,192,83120,1,0,0:0:0:0:
320,192,83205,1,0,0:0:0:0:
64,192,83291,1,0,0:0:0:0:
192,192,83291,1,0,0:0:0:0:
448,192,83291,1,0,0:0:0:0:
64,192,83462,1,0,0:0:0:0:
192,192,83462,1,0,0:0:0:0:
448,192,83462,1,0,0:0:0:0:
64,192,83634,1,0,0:0:0:0:
320,192,83634,1,0,0:0:0:0:
192,192,83720,1,0,0:0:0:0:
448,192,83805,1,0,0:0:0:0:
320,192,83805,1,0,0:0:0:0:
64,192,83891,1,0,0:0:0:0:
192,192,83977,1,0,0:0:0:0:
448,192,83977,1,0,0:0:0:0:
320,192,84062,1,0,0:0:0:0:
64,192,84148,1,0,0:0:0:0:
192,192,84148,1,0,0:0:0:0:
320,192,84234,1,0,0:0:0:0:
64,192,84320,1,0,0:0:0:0:
448,192,84320,1,0,0:0:0:0:
192,192,84377,1,0,0:0:0:0:
320,192,84434,1,0,0:0:0:0:
448,192,84491,1,0,0:0:0:0:
64,192,84548,1,0,0:0:0:0:
192,192,84605,1,0,0:0:0:0:
320,192,84662,1,0,0:0:0:0:
448,192,84662,1,0,0:0:0:0:
64,192,84748,1,0,0:0:0:0:
192,192,84748,1,0,0:0:0:0:
320,192,84834,1,0,0:0:0:0:
448,192,84834,1,0,0:0:0:0:
192,192,84920,1,0,0:0:0:0:
64,192,85005,128,0,85177:0:0:0:0:
320,192,85005,128,0,85177:0:0:0:0:
448,192,85005,128,0,85177:0:0:0:0:
448,192,85348,1,0,0:0:0:0:
64,192,85348,1,0,0:0:0:0:
192,192,85348,1,0,0:0:0:0:
320,192,85434,128,0,85605:0:0:0:0:
192,192,85520,128,0,85691:0:0:0:0:
64,192,85605,128,0,85777:0:0:0:0:
448,192,85691,1,0,0:0:0:0:
320,192,85777,128,0,85948:0:0:0:0:
192,192,85862,128,0,86034:0:0:0:0:
64,192,85948,128,0,86120:0:0:0:0:
448,192,86034,1,0,0:0:0:0:
320,192,86120,128,0,86291:0:0:0:0:
192,192,86205,128,0,86377:0:0:0:0:
64,192,86291,128,0,86462:0:0:0:0:
448,192,86377,1,0,0:0:0:0:
320,192,86462,1,0,0:0:0:0:
192,192,86548,1,0,0:0:0:0:
448,192,86634,1,0,0:0:0:0:
64,192,86720,1,0,0:0:0:0:
320,192,86720,1,0,0:0:0:0:
192,192,86805,1,0,0:0:0:0:
448,192,86891,1,0,0:0:0:0:
64,192,86977,1,0,0:0:0:0:
192,192,87062,1,0,0:0:0:0:
448,192,87062,1,0,0:0:0:0:
320,192,87148,1,0,0:0:0:0:
64,192,87234,1,0,0:0:0:0:
192,192,87277,1,0,0:0:0:0:
320,192,87320,1,0,0:0:0:0:
64,192,87405,1,0,0:0:0:0:
448,192,87491,1,0,0:0:0:0:
320,192,87534,1,0,0:0:0:0:
192,192,87577,1,0,0:0:0:0:
448,192,87662,1,0,0:0:0:0:
192,192,87748,1,0,0:0:0:0:
320,192,87748,1,0,0:0:0:0:
64,192,87834,1,0,0:0:0:0:
320,192,87920,1,0,0:0:0:0:
448,192,87920,1,0,0:0:0:0:
192,192,88005,1,0,0:0:0:0:
64,192,88091,1,0,0:0:0:0:
448,192,88091,1,0,0:0:0:0:
320,192,88177,1,0,0:0:0:0:
192,192,88262,1,0,0:0:0:0:
64,192,88262,1,0,0:0:0:0:
448,192,88348,1,0,0:0:0:0:
320,192,88434,1,0,0:0:0:0:
192,192,88434,1,0,0:0:0:0:
64,192,88520,1,0,0:0:0:0:
320,192,88605,1,0,0:0:0:0:
448,192,88605,1,0,0:0:0:0:
192,192,88691,1,0,0:0:0:0:
64,192,88777,1,0,0:0:0:0:
448,192,88777,1,0,0:0:0:0:
320,192,88862,1,0,0:0:0:0:
64,192,88948,1,0,0:0:0:0:
448,192,88948,1,0,0:0:0:0:
192,192,89034,1,0,0:0:0:0:
320,192,89120,1,0,0:0:0:0:
448,192,89120,1,0,0:0:0:0:
64,192,89205,1,0,0:0:0:0:
192,192,89291,1,0,0:0:0:0:
320,192,89377,1,0,0:0:0:0:
64,192,89377,1,0,0:0:0:0:
448,192,89462,1,0,0:0:0:0:
192,192,89548,1,0,0:0:0:0:
320,192,89634,1,0,0:0:0:0:
64,192,89634,1,0,0:0:0:0:
448,192,89720,1,0,0:0:0:0:
192,192,89805,1,0,0:0:0:0:
64,192,89805,1,0,0:0:0:0:
320,192,89891,1,0,0:0:0:0:
448,192,89977,1,0,0:0:0:0:
64,192,90062,1,0,0:0:0:0:
320,192,90062,1,0,0:0:0:0:
192,192,90148,1,0,0:0:0:0:
320,192,90234,1,0,0:0:0:0:
448,192,90234,1,0,0:0:0:0:
192,192,90320,1,0,0:0:0:0:
64,192,90320,1,0,0:0:0:0:
320,192,90405,1,0,0:0:0:0:
448,192,90491,128,0,93234:0:0:0:0:
64,192,90491,128,0,93234:0:0:0:0:
192,192,91177,128,0,91262:0:0:0:0:
192,192,91862,128,0,91948:0:0:0:0:
192,192,92205,128,0,92291:0:0:0:0:
192,192,92548,128,0,92634:0:0:0:0:
192,192,93234,128,0,93320:0:0:0:0:
320,192,93234,1,0,0:0:0:0:
448,192,93348,1,0,0:0:0:0:
64,192,93462,1,0,0:0:0:0:
192,192,93577,128,0,93662:0:0:0:0:
320,192,93577,1,0,0:0:0:0:
448,192,93805,1,0,0:0:0:0:
192,192,93920,128,0,94005:0:0:0:0:
320,192,93920,1,0,0:0:0:0:
448,192,94034,1,0,0:0:0:0:
64,192,94148,1,0,0:0:0:0:
320,192,94262,1,0,0:0:0:0:
448,192,94491,1,0,0:0:0:0:
192,192,94605,128,0,94777:0:0:0:0:
64,192,94605,128,0,94777:0:0:0:0:
320,192,94605,128,0,94777:0:0:0:0:
448,192,94834,1,0,0:0:0:0:
64,192,94948,128,0,95120:0:0:0:0:
192,192,94948,128,0,95120:0:0:0:0:
320,192,94948,128,0,95120:0:0:0:0:
448,192,95177,1,0,0:0:0:0:
64,192,95291,128,0,95462:0:0:0:0:
192,192,95291,128,0,95462:0:0:0:0:
320,192,95291,128,0,95462:0:0:0:0:
448,192,95462,1,0,0:0:0:0:
192,192,95548,1,0,0:0:0:0:
64,192,95634,128,0,95891:0:0:0:0:
320,192,95634,128,0,95891:0:0:0:0:
448,192,95634,128,0,95891:0:0:0:0:
448,192,95977,1,0,0:0:0:0:
192,192,95977,128,0,96062:0:0:0:0:
64,192,95977,128,0,96062:0:0:0:0:
192,192,96148,128,0,96234:0:0:0:0:
64,192,96148,128,0,96234:0:0:0:0:
64,192,96320,1,0,0:0:0:0:
320,192,96320,128,0,96405:0:0:0:0:
448,192,96320,128,0,96405:0:0:0:0:
448,192,96491,128,0,96577:0:0:0:0:
320,192,96491,128,0,96577:0:0:0:0:
192,192,96662,128,0,96834:0:0:0:0:
64,192,96662,128,0,97262:0:0:0:0:
448,192,96662,128,0,96834:0:0:0:0:
448,192,97005,128,0,97262:0:0:0:0:
320,192,97005,128,0,97262:0:0:0:0:
192,192,97005,128,0,97262:0:0:0:0:
64,192,97348,1,0,0:0:0:0:
320,192,97348,128,0,97434:0:0:0:0:
448,192,97348,128,0,97434:0:0:0:0:
320,192,97520,128,0,97605:0:0:0:0:
448,192,97520,128,0,97605:0:0:0:0:
448,192,97691,1,0,0:0:0:0:
192,192,97691,128,0,97777:0:0:0:0:
64,192,97691,128,0,97777:0:0:0:0:
64,192,97862,128,0,97948:0:0:0:0:
192,192,97862,128,0,97948:0:0:0:0:
320,192,98034,128,0,98120:0:0:0:0:
448,192,98034,128,0,98634:0:0:0:0:
64,192,98034,1,0,0:0:0:0:
64,192,98205,128,0,98291:0:0:0:0:
192,192,98291,128,0,98377:0:0:0:0:
320,192,98377,128,0,98634:0:0:0:0:
192,192,98548,128,0,98634:0:0:0:0:
64,192,98548,128,0,98634:0:0:0:0:
320,192,98720,128,0,98805:0:0:0:0:
448,192,98720,128,0,98805:0:0:0:0:
64,192,98720,1,0,0:0:0:0:
320,192,98891,128,0,98977:0:0:0:0:
448,192,98891,128,0,98977:0:0:0:0:
192,192,98977,1,0,0:0:0:0:
448,192,99062,1,0,0:0:0:0:
64,192,99062,1,0,0:0:0:0:
320,192,99148,1,0,0:0:0:0:
64,192,99234,1,0,0:0:0:0:
192,192,99320,1,0,0:0:0:0:
320,192,99405,128,0,99491:0:0:0:0:
448,192,99405,128,0,99491:0:0:0:0:
64,192,99405,1,0,0:0:0:0:
448,192,99577,128,0,99662:0:0:0:0:
320,192,99577,128,0,99662:0:0:0:0:
192,192,99662,1,0,0:0:0:0:
64,192,99748,1,0,0:0:0:0:
448,192,99748,1,0,0:0:0:0:
320,192,99834,1,0,0:0:0:0:
64,192,99920,1,0,0:0:0:0:
192,192,100005,1,0,0:0:0:0:
64,192,100091,1,0,0:0:0:0:
448,192,100091,1,0,0:0:0:0:
320,192,100091,1,0,0:0:0:0:
448,192,100262,1,0,0:0:0:0:
320,192,100262,1,0,0:0:0:0:
192,192,100262,1,0,0:0:0:0:
320,192,100434,1,0,0:0:0:0:
192,192,100434,1,0,0:0:0:0:
64,192,100434,1,0,0:0:0:0:
448,192,100605,1,0,0:0:0:0:
192,192,100605,1,0,0:0:0:0:
64,192,100605,1,0,0:0:0:0:
448,192,100777,128,0,101377:0:0:0:0:
320,192,100777,128,0,100948:0:0:0:0:
64,192,100777,128,0,100948:0:0:0:0:
320,192,101120,128,0,101377:0:0:0:0:
192,192,101120,128,0,101377:0:0:0:0:
64,192,101120,128,0,101377:0:0:0:0:
64,192,101462,128,0,101634:0:0:0:0:
320,192,101462,1,0,0:0:0:0:
448,192,101462,128,0,101634:0:0:0:0:
192,192,101634,1,0,0:0:0:0:
64,192,101805,128,0,101977:0:0:0:0:
448,192,101805,128,0,101977:0:0:0:0:
320,192,101977,1,0,0:0:0:0:
64,192,102148,128,0,102320:0:0:0:0:
192,192,102148,128,0,102320:0:0:0:0:
448,192,102320,1,0,0:0:0:0:
320,192,102491,128,0,102662:0:0:0:0:
192,192,102491,1,0,0:0:0:0:
64,192,102662,128,0,102834:0:0:0:0:
320,192,102834,128,0,103005:0:0:0:0:
192,192,102834,1,0,0:0:0:0:
448,192,102834,128,0,103005:0:0:0:0:
64,192,103005,1,0,0:0:0:0:
320,192,103177,128,0,103348:0:0:0:0:
448,192,103177,128,0,103348:0:0:0:0:
64,192,103348,1,0,0:0:0:0:
320,192,103520,128,0,103691:0:0:0:0:
192,192,103520,128,0,103691:0:0:0:0:
64,192,103691,128,0,103862:0:0:0:0:
448,192,103862,128,0,104034:0:0:0:0:
320,192,103862,1,0,0:0:0:0:
192,192,104034,1,0,0:0:0:0:
320,192,104205,1,0,0:0:0:0:
64,192,104205,128,0,104377:0:0:0:0:
448,192,104205,128,0,104720:0:0:0:0:
320,192,104377,1,0,0:0:0:0:
64,192,104548,128,0,104891:0:0:0:0:
192,192,104548,1,0,0:0:0:0:
192,192,104720,1,0,0:0:0:0:
448,192,104891,128,0,105405:0:0:0:0:
320,192,104891,128,0,105405:0:0:0:0:
64,192,105062,1,0,0:0:0:0:
192,192,105234,128,0,105405:0:0:0:0:
64,192,105234,128,0,105405:0:0:0:0:
320,192,105577,1,0,0:0:0:0:
64,192,105577,128,0,105748:0:0:0:0:
448,192,105577,1,0,0:0:0:0:
448,192,105748,1,0,0:0:0:0:
64,192,105920,128,0,106262:0:0:0:0:
192,192,105920,1,0,0:0:0:0:
192,192,106091,1,0,0:0:0:0:
448,192,106262,128,0,106777:0:0:0:0:
320,192,106262,128,0,106605:0:0:0:0:
192,192,106348,1,0,0:0:0:0:
64,192,106434,1,0,0:0:0:0:
192,192,106605,128,0,106777:0:0:0:0:
64,192,106605,128,0,106777:0:0:0:0:
320,192,106777,1,0,0:0:0:0:
448,192,106948,128,0,107120:0:0:0:0:
192,192,106948,1,0,0:0:0:0:
64,192,106948,128,0,107120:0:0:0:0:
320,192,107120,1,0,0:0:0:0:
448,192,107291,128,0,107462:0:0:0:0:
64,192,107291,128,0,107462:0:0:0:0:
192,192,107462,1,0,0:0:0:0:
448,192,107634,128,0,107805:0:0:0:0:
320,192,107634,128,0,107805:0:0:0:0:
64,192,107805,1,0,0:0:0:0:
192,192,107977,128,0,108148:0:0:0:0:
320,192,107977,1,0,0:0:0:0:
448,192,108148,128,0,108320:0:0:0:0:
192,192,108320,128,0,108491:0:0:0:0:
320,192,108320,1,0,0:0:0:0:
64,192,108320,128,0,108491:0:0:0:0:
448,192,108491,1,0,0:0:0:0:
192,192,108662,128,0,108834:0:0:0:0:
64,192,108662,128,0,108834:0:0:0:0:
448,192,108834,1,0,0:0:0:0:
192,192,109005,128,0,109177:0:0:0:0:
320,192,109005,128,0,109177:0:0:0:0:
64,192,109177,1,0,0:0:0:0:
320,192,109262,1,0,0:0:0:0:
64,192,109348,1,0,0:0:0:0:
320,192,109434,1,0,0:0:0:0:
64,192,109520,1,0,0:0:0:0:
320,192,109605,1,0,0:0:0:0:
448,192,109691,1,0,0:0:0:0:
192,192,109691,128,0,109777:0:0:0:0:
64,192,109691,128,0,109777:0:0:0:0:
192,192,109862,128,0,109948:0:0:0:0:
64,192,109862,128,0,109948:0:0:0:0:
64,192,110034,1,0,0:0:0:0:
320,192,110034,128,0,110120:0:0:0:0:
448,192,110034,128,0,110120:0:0:0:0:
448,192,110205,128,0,110291:0:0:0:0:
320,192,110205,128,0,110291:0:0:0:0:
192,192,110377,128,0,110548:0:0:0:0:
64,192,110377,128,0,110977:0:0:0:0:
448,192,110377,128,0,110548:0:0:0:0:
448,192,110720,128,0,110977:0:0:0:0:
320,192,110720,128,0,110977:0:0:0:0:
192,192,110720,128,0,110977:0:0:0:0:
64,192,111062,1,0,0:0:0:0:
320,192,111062,128,0,111148:0:0:0:0:
448,192,111062,128,0,111148:0:0:0:0:
320,192,111234,128,0,111320:0:0:0:0:
448,192,111234,128,0,111320:0:0:0:0:
448,192,111405,1,0,0:0:0:0:
192,192,111405,128,0,111491:0:0:0:0:
64,192,111405,128,0,111491:0:0:0:0:
64,192,111577,128,0,111662:0:0:0:0:
192,192,111577,128,0,111662:0:0:0:0:
320,192,111748,128,0,111834:0:0:0:0:
448,192,111748,128,0,112348:0:0:0:0:
64,192,111748,128,0,111834:0:0:0:0:
64,192,111920,128,0,112005:0:0:0:0:
192,192,112005,128,0,112091:0:0:0:0:
320,192,112091,128,0,112348:0:0:0:0:
192,192,112262,128,0,112348:0:0:0:0:
64,192,112262,128,0,112348:0:0:0:0:
320,192,112434,128,0,112520:0:0:0:0:
448,192,112434,128,0,112520:0:0:0:0:
64,192,112434,1,0,0:0:0:0:
320,192,112605,128,0,112691:0:0:0:0:
448,192,112605,128,0,112691:0:0:0:0:
192,192,112691,1,0,0:0:0:0:
320,192,112777,1,0,0:0:0:0:
64,192,112777,1,0,0:0:0:0:
192,192,112862,1,0,0:0:0:0:
448,192,112948,1,0,0:0:0:0:
192,192,113034,1,0,0:0:0:0:
320,192,113120,128,0,113205:0:0:0:0:
448,192,113120,128,0,113205:0:0:0:0:
64,192,113120,1,0,0:0:0:0:
448,192,113291,128,0,113377:0:0:0:0:
320,192,113291,128,0,113377:0:0:0:0:
192,192,113377,1,0,0:0:0:0:
64,192,113462,1,0,0:0:0:0:
320,192,113462,1,0,0:0:0:0:
192,192,113548,1,0,0:0:0:0:
448,192,113634,1,0,0:0:0:0:
192,192,113720,1,0,0:0:0:0:
64,192,113805,1,0,0:0:0:0:
448,192,113805,1,0,0:0:0:0:
320,192,113805,1,0,0:0:0:0:
448,192,113977,1,0,0:0:0:0:
320,192,113977,1,0,0:0:0:0:
64,192,113977,1,0,0:0:0:0:
448,192,114148,1,0,0:0:0:0:
192,192,114148,1,0,0:0:0:0:
64,192,114148,1,0,0:0:0:0:
448,192,114320,1,0,0:0:0:0:
192,192,114320,1,0,0:0:0:0:
64,192,114320,1,0,0:0:0:0:
448,192,114491,128,0,115091:0:0:0:0:
64,192,114491,128,0,114662:0:0:0:0:
320,192,114491,128,0,114662:0:0:0:0:
320,192,114834,128,0,115091:0:0:0:0:
192,192,114834,128,0,115091:0:0:0:0:
64,192,114834,128,0,115091:0:0:0:0:
448,192,115177,128,0,115348:0:0:0:0:
320,192,115177,128,0,115348:0:0:0:0:
64,192,115177,128,0,115348:0:0:0:0:
448,192,115520,128,0,115691:0:0:0:0:
320,192,115520,128,0,115691:0:0:0:0:
64,192,115520,128,0,115691:0:0:0:0:
448,192,115862,128,0,116377:0:0:0:0:
320,192,115862,128,0,116377:0:0:0:0:
64,192,115862,128,0,116377:0:0:0:0:
64,192,116548,128,0,116720:0:0:0:0:
192,192,116548,1,0,0:0:0:0:
448,192,116548,128,0,116720:0:0:0:0:
320,192,116720,1,0,0:0:0:0:
64,192,116891,128,0,117062:0:0:0:0:
192,192,116891,1,0,0:0:0:0:
448,192,116891,128,0,117062:0:0:0:0:
320,192,117062,1,0,0:0:0:0:
64,192,117234,128,0,117405:0:0:0:0:
192,192,117234,1,0,0:0:0:0:
448,192,117234,128,0,117405:0:0:0:0:
320,192,117405,1,0,0:0:0:0:
64,192,117577,128,0,117748:0:0:0:0:
192,192,117577,128,0,117748:0:0:0:0:
64,192,117920,1,0,0:0:0:0:
320,192,117920,1,0,0:0:0:0:
448,192,117920,128,0,118262:0:0:0:0:
64,192,118091,128,0,118434:0:0:0:0:
320,192,118262,1,0,0:0:0:0:
192,192,118262,128,0,118605:0:0:0:0:
320,192,118434,1,0,0:0:0:0:
448,192,118605,1,0,0:0:0:0:
64,192,118605,128,0,118948:0:0:0:0:
448,192,118777,128,0,119120:0:0:0:0:
320,192,118948,128,0,119291:0:0:0:0:
192,192,118948,1,0,0:0:0:0:
192,192,119120,1,0,0:0:0:0:
64,192,119291,1,0,0:0:0:0:
448,192,119291,128,0,119634:0:0:0:0:
64,192,119462,128,0,119805:0:0:0:0:
320,192,119634,1,0,0:0:0:0:
192,192,119634,128,0,119977:0:0:0:0:
320,192,119805,1,0,0:0:0:0:
448,192,119977,1,0,0:0:0:0:
64,192,119977,128,0,120320:0:0:0:0:
448,192,120148,128,0,120491:0:0:0:0:
320,192,120320,128,0,120662:0:0:0:0:
192,192,120320,1,0,0:0:0:0:
192,192,120491,1,0,0:0:0:0:
448,192,120662,1,0,0:0:0:0:
64,192,120662,128,0,120834:0:0:0:0:
192,192,120662,128,0,120834:0:0:0:0:
448,192,120834,1,0,0:0:0:0:
192,192,121005,128,0,121177:0:0:0:0:
64,192,121005,128,0,121177:0:0:0:0:
448,192,121177,1,0,0:0:0:0:
192,192,121348,128,0,121520:0:0:0:0:
64,192,121348,128,0,121520:0:0:0:0:
320,192,121348,1,0,0:0:0:0:
320,192,121520,1,0,0:0:0:0:
64,192,121691,128,0,121862:0:0:0:0:
192,192,121691,128,0,121862:0:0:0:0:
320,192,121862,1,0,0:0:0:0:
64,192,122034,128,0,123062:0:0:0:0:
448,192,122034,128,0,122205:0:0:0:0:
192,192,122034,1,0,0:0:0:0:
320,192,122205,1,0,0:0:0:0:
192,192,122377,1,0,0:0:0:0:
320,192,122377,1,0,0:0:0:0:
448,192,122548,1,0,0:0:0:0:
320,192,122720,128,0,123062:0:0:0:0:
448,192,122720,128,0,123062:0:0:0:0:
192,192,123062,1,0,0:0:0:0:
320,192,123234,1,0,0:0:0:0:
448,192,123405,1,0,0:0:0:0:
192,192,123405,1,0,0:0:0:0:
64,192,123405,1,0,0:0:0:0:
192,192,123577,1,0,0:0:0:0:
64,192,123577,1,0,0:0:0:0:
448,192,123748,1,0,0:0:0:0:
320,192,123748,1,0,0:0:0:0:
64,192,123748,1,0,0:0:0:0:
320,192,123920,1,0,0:0:0:0:
448,192,123920,1,0,0:0:0:0:
448,192,124091,1,0,0:0:0:0:
192,192,124091,1,0,0:0:0:0:
64,192,124091,1,0,0:0:0:0:
192,192,124262,1,0,0:0:0:0:
64,192,124262,1,0,0:0:0:0:
320,192,124434,1,0,0:0:0:0:
448,192,124434,1,0,0:0:0:0:
64,192,124434,1,0,0:0:0:0:
320,192,124605,1,0,0:0:0:0:
448,192,124605,1,0,0:0:0:0:
320,192,124777,1,0,0:0:0:0:
192,192,124777,1,0,0:0:0:0:
64,192,124777,1,0,0:0:0:0:
64,192,124948,1,0,0:0:0:0:
192,192,124948,1,0,0:0:0:0:
320,192,125120,1,0,0:0:0:0:
448,192,125120,1,0,0:0:0:0:
192,192,125120,1,0,0:0:0:0:
320,192,125291,1,0,0:0:0:0:
448,192,125291,1,0,0:0:0:0:
320,192,125462,1,0,0:0:0:0:
192,192,125462,1,0,0:0:0:0:
64,192,125462,1,0,0:0:0:0:
192,192,125634,1,0,0:0:0:0:
64,192,125634,1,0,0:0:0:0:
192,192,125805,1,0,0:0:0:0:
320,192,125805,1,0,0:0:0:0:
448,192,125805,1,0,0:0:0:0:
448,192,125977,1,0,0:0:0:0:
320,192,125977,1,0,0:0:0:0:
192,192,126148,1,0,0:0:0:0:
64,192,126148,1,0,0:0:0:0:
320,192,126234,1,0,0:0:0:0:
448,192,126234,1,0,0:0:0:0:
192,192,126320,1,0,0:0:0:0:
64,192,126320,1,0,0:0:0:0:
320,192,126405,1,0,0:0:0:0:
448,192,126405,1,0,0:0:0:0:
192,192,126491,1,0,0:0:0:0:
64,192,126491,1,0,0:0:0:0:
320,192,126577,1,0,0:0:0:0:
448,192,126577,1,0,0:0:0:0:
192,192,126662,1,0,0:0:0:0:
64,192,126662,1,0,0:0:0:0:
448,192,126748,1,0,0:0:0:0:
320,192,126748,1,0,0:0:0:0:
64,192,126834,1,0,0:0:0:0:
192,192,126834,1,0,0:0:0:0:
320,192,126920,1,0,0:0:0:0:
448,192,126920,1,0,0:0:0:0:
192,192,127005,1,0,0:0:0:0:
64,192,127005,1,0,0:0:0:0:
320,192,127091,1,0,0:0:0:0:
448,192,127091,1,0,0:0:0:0:
192,192,127177,1,0,0:0:0:0:
64,192,127177,1,0,0:0:0:0:
320,192,127262,1,0,0:0:0:0:
448,192,127262,1,0,0:0:0:0:
192,192,127348,1,0,0:0:0:0:
64,192,127348,1,0,0:0:0:0:
320,192,127434,1,0,0:0:0:0:
448,192,127434,1,0,0:0:0:0:
64,192,127520,1,0,0:0:0:0:
192,192,127562,1,0,0:0:0:0:
320,192,127605,1,0,0:0:0:0:
448,192,127648,1,0,0:0:0:0:
64,192,127691,1,0,0:0:0:0:
192,192,127734,1,0,0:0:0:0:
320,192,127777,1,0,0:0:0:0:
448,192,127820,1,0,0:0:0:0:
64,192,127862,1,0,0:0:0:0:
192,192,127905,1,0,0:0:0:0:
320,192,127948,1,0,0:0:0:0:
448,192,127991,1,0,0:0:0:0:
64,192,128034,1,0,0:0:0:0:
192,192,128077,1,0,0:0:0:0:
320,192,128120,1,0,0:0:0:0:
448,192,128162,1,0,0:0:0:0:
192,192,128205,1,0,0:0:0:0:
64,192,128248,1,0,0:0:0:0:
448,192,128291,1,0,0:0:0:0:
320,192,128334,1,0,0:0:0:0:
192,192,128377,1,0,0:0:0:0:
64,192,128420,1,0,0:0:0:0:
448,192,128462,1,0,0:0:0:0:
320,192,128505,1,0,0:0:0:0:
192,192,128548,1,0,0:0:0:0:
64,192,128591,1,0,0:0:0:0:
448,192,128634,1,0,0:0:0:0:
320,192,128677,1,0,0:0:0:0:
192,192,128720,1,0,0:0:0:0:
64,192,128762,1,0,0:0:0:0:
320,192,128805,1,0,0:0:0:0:
64,192,128891,128,0,129062:0:0:0:0:
192,192,128891,128,0,129062:0:0:0:0:
448,192,128891,128,0,129062:0:0:0:0:
64,192,129234,128,0,129405:0:0:0:0:
192,192,129234,128,0,129405:0:0:0:0:
448,192,129234,128,0,129405:0:0:0:0:
64,192,129577,128,0,130091:0:0:0:0:
192,192,129577,128,0,130091:0:0:0:0:
448,192,129577,128,0,130091:0:0:0:0:
448,192,130262,128,0,130434:0:0:0:0:
64,192,130262,128,0,130434:0:0:0:0:
192,192,130262,1,0,0:0:0:0:
320,192,130434,1,0,0:0:0:0:
448,192,130605,128,0,130777:0:0:0:0:
64,192,130605,128,0,130777:0:0:0:0:
192,192,130605,1,0,0:0:0:0:
320,192,130777,1,0,0:0:0:0:
448,192,130948,128,0,131120:0:0:0:0:
64,192,130948,128,0,131120:0:0:0:0:
192,192,130948,1,0,0:0:0:0:
320,192,131120,1,0,0:0:0:0:
192,192,131291,128,0,131634:0:0:0:0:
448,192,131634,128,0,131805:0:0:0:0:
64,192,131634,128,0,131805:0:0:0:0:
320,192,131720,1,0,0:0:0:0:
192,192,131805,1,0,0:0:0:0:
64,192,131891,1,0,0:0:0:0:
320,192,131977,128,0,132148:0:0:0:0:
448,192,131977,128,0,132148:0:0:0:0:
192,192,132148,1,0,0:0:0:0:
448,192,132320,128,0,132491:0:0:0:0:
64,192,132320,128,0,132491:0:0:0:0:
192,192,132405,1,0,0:0:0:0:
320,192,132491,1,0,0:0:0:0:
448,192,132577,1,0,0:0:0:0:
192,192,132662,128,0,132834:0:0:0:0:
64,192,132662,128,0,132834:0:0:0:0:
320,192,132834,1,0,0:0:0:0:
192,192,133005,1,0,0:0:0:0:
64,192,133005,1,0,0:0:0:0:
448,192,133005,1,0,0:0:0:0:
192,192,133177,1,0,0:0:0:0:
448,192,133348,1,0,0:0:0:0:
320,192,133348,1,0,0:0:0:0:
64,192,133348,1,0,0:0:0:0:
320,192,133520,1,0,0:0:0:0:
192,192,133691,1,0,0:0:0:0:
448,192,133691,128,0,134262:0:0:0:0:
64,192,133691,128,0,134262:0:0:0:0:
320,192,134034,1,0,0:0:0:0:
192,192,134148,1,0,0:0:0:0:
320,192,134262,1,0,0:0:0:0:
192,192,134377,128,0,134605:0:0:0:0:
64,192,134377,128,0,134605:0:0:0:0:
448,192,134377,128,0,134605:0:0:0:0:
64,192,134720,1,0,0:0:0:0:
192,192,134720,1,0,0:0:0:0:
448,192,134834,1,0,0:0:0:0:
448,192,134948,1,0,0:0:0:0:
64,192,135062,1,0,0:0:0:0:
192,192,135062,1,0,0:0:0:0:
320,192,135177,1,0,0:0:0:0:
320,192,135291,1,0,0:0:0:0:
64,192,135405,128,0,135520:0:0:0:0:
448,192,135405,128,0,135520:0:0:0:0:
192,192,135520,128,0,135634:0:0:0:0:
320,192,135634,128,0,135748:0:0:0:0:
64,192,135748,128,0,135977:0:0:0:0:
448,192,135748,128,0,135977:0:0:0:0:
192,192,135748,1,0,0:0:0:0:
320,192,136091,1,0,0:0:0:0:
448,192,136091,1,0,0:0:0:0:
64,192,136205,1,0,0:0:0:0:
64,192,136320,1,0,0:0:0:0:
320,192,136434,1,0,0:0:0:0:
448,192,136434,1,0,0:0:0:0:
192,192,136548,1,0,0:0:0:0:
192,192,136662,1,0,0:0:0:0:
64,192,136777,1,0,0:0:0:0:
448,192,136777,1,0,0:0:0:0:
320,192,136834,1,0,0:0:0:0:
192,192,136891,1,0,0:0:0:0:
64,192,136948,1,0,0:0:0:0:
320,192,137005,1,0,0:0:0:0:
64,192,137120,128,0,137348:0:0:0:0:
448,192,137120,128,0,137348:0:0:0:0:
192,192,137120,128,0,137348:0:0:0:0:
64,192,137462,1,0,0:0:0:0:
448,192,137462,1,0,0:0:0:0:
320,192,137577,1,0,0:0:0:0:
320,192,137691,1,0,0:0:0:0:
192,192,137805,1,0,0:0:0:0:
64,192,137805,1,0,0:0:0:0:
448,192,137920,1,0,0:0:0:0:
448,192,138034,1,0,0:0:0:0:
320,192,138148,1,0,0:0:0:0:
64,192,138148,1,0,0:0:0:0:
192,192,138262,128,0,138491:0:0:0:0:
320,192,138377,128,0,138491:0:0:0:0:
64,192,138491,1,0,0:0:0:0:
448,192,138491,1,0,0:0:0:0:
192,192,138605,1,0,0:0:0:0:
192,192,138720,1,0,0:0:0:0:
448,192,138834,1,0,0:0:0:0:
320,192,138834,1,0,0:0:0:0:
64,192,138948,1,0,0:0:0:0:
64,192,139062,1,0,0:0:0:0:
320,192,139177,1,0,0:0:0:0:
448,192,139177,1,0,0:0:0:0:
192,192,139291,1,0,0:0:0:0:
192,192,139405,1,0,0:0:0:0:
64,192,139520,128,0,139748:0:0:0:0:
320,192,139520,128,0,139748:0:0:0:0:
448,192,139520,128,0,139748:0:0:0:0:
64,192,139862,128,0,140091:0:0:0:0:
192,192,139862,128,0,140091:0:0:0:0:
448,192,139862,128,0,140091:0:0:0:0:
448,192,140205,128,0,140320:0:0:0:0:
64,192,140205,128,0,140320:0:0:0:0:
320,192,140320,1,0,0:0:0:0:
320,192,140434,1,0,0:0:0:0:
64,192,140548,128,0,140662:0:0:0:0:
448,192,140548,128,0,140662:0:0:0:0:
192,192,140662,1,0,0:0:0:0:
192,192,140777,1,0,0:0:0:0:
448,192,140891,128,0,141005:0:0:0:0:
64,192,140891,128,0,141005:0:0:0:0:
320,192,141005,128,0,141120:0:0:0:0:
192,192,141120,128,0,141234:0:0:0:0:
64,192,141234,128,0,141462:0:0:0:0:
448,192,141234,128,0,141462:0:0:0:0:
320,192,141234,1,0,0:0:0:0:
192,192,141577,128,0,141691:0:0:0:0:
64,192,141577,128,0,141691:0:0:0:0:
448,192,141691,1,0,0:0:0:0:
448,192,141805,1,0,0:0:0:0:
64,192,141920,128,0,142034:0:0:0:0:
192,192,141920,128,0,142034:0:0:0:0:
320,192,142034,1,0,0:0:0:0:
320,192,142148,1,0,0:0:0:0:
64,192,142262,1,0,0:0:0:0:
448,192,142262,1,0,0:0:0:0:
320,192,142320,1,0,0:0:0:0:
192,192,142377,1,0,0:0:0:0:
64,192,142434,1,0,0:0:0:0:
320,192,142491,1,0,0:0:0:0:
64,192,142605,128,0,142834:0:0:0:0:
448,192,142605,128,0,142834:0:0:0:0:
192,192,142605,128,0,142834:0:0:0:0:
448,192,142948,128,0,143062:0:0:0:0:
64,192,142948,128,0,143062:0:0:0:0:
192,192,143062,1,0,0:0:0:0:
192,192,143177,1,0,0:0:0:0:
320,192,143291,128,0,143405:0:0:0:0:
448,192,143291,128,0,143405:0:0:0:0:
64,192,143405,1,0,0:0:0:0:
64,192,143520,1,0,0:0:0:0:
192,192,143634,1,0,0:0:0:0:
448,192,143634,1,0,0:0:0:0:
320,192,143748,128,0,143862:0:0:0:0:
192,192,143862,128,0,143977:0:0:0:0:
64,192,143977,128,0,144834:0:0:0:0:
448,192,143977,128,0,144834:0:0:0:0:
320,192,143977,128,0,144148:0:0:0:0:
192,192,144320,128,0,144491:0:0:0:0:
320,192,144662,128,0,144834:0:0:0:0:
192,192,144891,1,0,0:0:0:0:
448,192,145005,1,0,0:0:0:0:
320,192,145005,1,0,0:0:0:0:
64,192,145005,1,0,0:0:0:0:
192,192,145177,1,0,0:0:0:0:
320,192,145262,1,0,0:0:0:0:
192,192,145348,128,0,145577:0:0:0:0:
64,192,145348,128,0,145577:0:0:0:0:
448,192,145348,128,0,145577:0:0:0:0:
64,192,145691,1,0,0:0:0:0:
448,192,145691,1,0,0:0:0:0:
320,192,145777,1,0,0:0:0:0:
192,192,145862,1,0,0:0:0:0:
64,192,145948,1,0,0:0:0:0:
320,192,146034,1,0,0:0:0:0:
448,192,146034,1,0,0:0:0:0:
192,192,146120,1,0,0:0:0:0:
320,192,146205,1,0,0:0:0:0:
448,192,146291,1,0,0:0:0:0:
64,192,146377,1,0,0:0:0:0:
192,192,146462,128,0,146548:0:0:0:0:
448,192,146548,1,0,0:0:0:0:
320,192,146634,128,0,146720:0:0:0:0:
64,192,146720,128,0,146948:0:0:0:0:
448,192,146720,128,0,146948:0:0:0:0:
192,192,146720,1,0,0:0:0:0:
64,192,147062,1,0,0:0:0:0:
320,192,147062,1,0,0:0:0:0:
448,192,147148,1,0,0:0:0:0:
192,192,147234,1,0,0:0:0:0:
320,192,147320,1,0,0:0:0:0:
64,192,147405,1,0,0:0:0:0:
448,192,147405,1,0,0:0:0:0:
192,192,147491,1,0,0:0:0:0:
320,192,147577,1,0,0:0:0:0:
192,192,147662,1,0,0:0:0:0:
448,192,147748,1,0,0:0:0:0:
64,192,147748,1,0,0:0:0:0:
320,192,147805,1,0,0:0:0:0:
192,192,147862,1,0,0:0:0:0:
64,192,147920,1,0,0:0:0:0:
320,192,147977,1,0,0:0:0:0:
64,192,148091,128,0,148320:0:0:0:0:
448,192,148091,128,0,148320:0:0:0:0:
192,192,148091,128,0,148320:0:0:0:0:
320,192,148434,1,0,0:0:0:0:
448,192,148434,1,0,0:0:0:0:
192,192,148520,1,0,0:0:0:0:
448,192,148605,1,0,0:0:0:0:
64,192,148691,1,0,0:0:0:0:
192,192,148777,1,0,0:0:0:0:
320,192,148777,1,0,0:0:0:0:
64,192,148862,1,0,0:0:0:0:
320,192,148948,1,0,0:0:0:0:
448,192,149034,1,0,0:0:0:0:
64,192,149120,1,0,0:0:0:0:
192,192,149120,1,0,0:0:0:0:
320,192,149177,1,0,0:0:0:0:
448,192,149291,1,0,0:0:0:0:
192,192,149348,1,0,0:0:0:0:
64,192,149462,1,0,0:0:0:0:
320,192,149462,1,0,0:0:0:0:
448,192,149548,1,0,0:0:0:0:
192,192,149634,1,0,0:0:0:0:
64,192,149720,1,0,0:0:0:0:
320,192,149805,1,0,0:0:0:0:
448,192,149805,1,0,0:0:0:0:
192,192,149891,1,0,0:0:0:0:
448,192,149977,1,0,0:0:0:0:
320,192,150062,1,0,0:0:0:0:
192,192,150148,1,0,0:0:0:0:
64,192,150148,1,0,0:0:0:0:
320,192,150234,1,0,0:0:0:0:
448,192,150320,1,0,0:0:0:0:
192,192,150405,1,0,0:0:0:0:
320,192,150491,128,0,150720:0:0:0:0:
448,192,150491,128,0,150720:0:0:0:0:
64,192,150491,128,0,150720:0:0:0:0:
64,192,150834,128,0,151062:0:0:0:0:
192,192,150834,128,0,151062:0:0:0:0:
448,192,150834,128,0,151062:0:0:0:0:
64,192,151177,1,0,0:0:0:0:
448,192,151177,1,0,0:0:0:0:
320,192,151262,1,0,0:0:0:0:
192,192,151348,1,0,0:0:0:0:
448,192,151434,1,0,0:0:0:0:
64,192,151520,1,0,0:0:0:0:
320,192,151520,1,0,0:0:0:0:
192,192,151605,1,0,0:0:0:0:
448,192,151691,1,0,0:0:0:0:
64,192,151777,1,0,0:0:0:0:
320,192,151862,1,0,0:0:0:0:
448,192,151862,1,0,0:0:0:0:
192,192,151948,128,0,152034:0:0:0:0:
448,192,152034,1,0,0:0:0:0:
320,192,152120,128,0,152205:0:0:0:0:
64,192,152205,128,0,152434:0:0:0:0:
448,192,152205,128,0,152434:0:0:0:0:
192,192,152205,1,0,0:0:0:0:
320,192,152548,1,0,0:0:0:0:
448,192,152548,1,0,0:0:0:0:
64,192,152634,1,0,0:0:0:0:
192,192,152720,1,0,0:0:0:0:
320,192,152805,1,0,0:0:0:0:
64,192,152891,1,0,0:0:0:0:
448,192,152891,1,0,0:0:0:0:
192,192,152977,1,0,0:0:0:0:
448,192,153062,1,0,0:0:0:0:
192,192,153148,1,0,0:0:0:0:
448,192,153234,1,0,0:0:0:0:
64,192,153234,1,0,0:0:0:0:
320,192,153291,1,0,0:0:0:0:
192,192,153348,1,0,0:0:0:0:
64,192,153405,1,0,0:0:0:0:
320,192,153462,1,0,0:0:0:0:
64,192,153577,128,0,153805:0:0:0:0:
448,192,153577,128,0,153805:0:0:0:0:
192,192,153577,128,0,153805:0:0:0:0:
64,192,153920,1,0,0:0:0:0:
448,192,153920,1,0,0:0:0:0:
192,192,153920,1,0,0:0:0:0:
320,192,154005,1,0,0:0:0:0:
64,192,154091,1,0,0:0:0:0:
320,192,154177,1,0,0:0:0:0:
64,192,154262,128,0,154491:0:0:0:0:
192,192,154262,128,0,154491:0:0:0:0:
448,192,154262,128,0,154491:0:0:0:0:
64,192,154605,1,0,0:0:0:0:
448,192,154605,1,0,0:0:0:0:
192,192,154605,1,0,0:0:0:0:
192,192,154777,1,0,0:0:0:0:
320,192,154948,1,0,0:0:0:0:
448,192,154948,1,0,0:0:0:0:
192,192,155034,1,0,0:0:0:0:
64,192,155034,1,0,0:0:0:0:
448,192,155120,1,0,0:0:0:0:
320,192,155120,1,0,0:0:0:0:
192,192,155205,1,0,0:0:0:0:
64,192,155205,1,0,0:0:0:0:
320,192,155291,1,0,0:0:0:0:
448,192,155291,1,0,0:0:0:0:
192,192,155377,1,0,0:0:0:0:
64,192,155377,1,0,0:0:0:0:
320,192,155462,1,0,0:0:0:0:
448,192,155462,1,0,0:0:0:0:
192,192,155548,1,0,0:0:0:0:
64,192,155548,1,0,0:0:0:0:
320,192,155634,1,0,0:0:0:0:
448,192,155634,1,0,0:0:0:0:
192,192,155720,1,0,0:0:0:0:
64,192,155720,1,0,0:0:0:0:
320,192,155805,1,0,0:0:0:0:
448,192,155805,1,0,0:0:0:0:
192,192,155891,1,0,0:0:0:0:
64,192,155891,1,0,0:0:0:0:
320,192,155977,1,0,0:0:0:0:
448,192,155977,1,0,0:0:0:0:
64,192,156062,1,0,0:0:0:0:
192,192,156062,1,0,0:0:0:0:
320,192,156148,1,0,0:0:0:0:
448,192,156148,1,0,0:0:0:0:
192,192,156234,1,0,0:0:0:0:
320,192,156320,1,0,0:0:0:0:
64,192,156320,128,0,159062:0:0:0:0:
448,192,156320,128,0,159062:0:0:0:0:
192,192,157005,128,0,157091:0:0:0:0:
192,192,157691,128,0,157777:0:0:0:0:
192,192,158034,128,0,158120:0:0:0:0:
192,192,158377,128,0,158462:0:0:0:0:
192,192,159062,128,0,159148:0:0:0:0:
320,192,159062,128,0,159234:0:0:0:0:
448,192,159234,1,0,0:0:0:0:
192,192,159405,128,0,159491:0:0:0:0:
320,192,159405,128,0,159577:0:0:0:0:
64,192,159577,1,0,0:0:0:0:
192,192,159748,128,0,159834:0:0:0:0:
320,192,159748,128,0,160262:0:0:0:0:
448,192,159920,1,0,0:0:0:0:
64,192,160005,1,0,0:0:0:0:
192,192,160091,1,0,0:0:0:0:
448,192,160177,1,0,0:0:0:0:
64,192,160262,1,0,0:0:0:0:
192,192,160348,1,0,0:0:0:0:
448,192,160434,128,0,160605:0:0:0:0:
64,192,160434,128,0,160605:0:0:0:0:
320,192,160434,128,0,160605:0:0:0:0:
64,192,160777,128,0,160948:0:0:0:0:
448,192,160777,128,0,160948:0:0:0:0:
320,192,160777,128,0,160948:0:0:0:0:
64,192,161120,128,0,161291:0:0:0:0:
448,192,161120,128,0,161291:0:0:0:0:
320,192,161120,128,0,161291:0:0:0:0:
192,192,161291,1,0,0:0:0:0:
64,192,161377,1,0,0:0:0:0:
192,192,161462,128,0,161720:0:0:0:0:
320,192,161462,128,0,161720:0:0:0:0:
448,192,161462,128,0,161720:0:0:0:0:
64,192,161805,1,0,0:0:0:0:
320,192,161805,128,0,161891:0:0:0:0:
448,192,161805,128,0,161891:0:0:0:0:
320,192,161977,128,0,162062:0:0:0:0:
448,192,161977,128,0,162062:0:0:0:0:
448,192,162148,1,0,0:0:0:0:
192,192,162148,128,0,162234:0:0:0:0:
64,192,162148,128,0,162234:0:0:0:0:
64,192,162320,128,0,162405:0:0:0:0:
192,192,162320,128,0,162405:0:0:0:0:
320,192,162491,128,0,162662:0:0:0:0:
448,192,162491,128,0,163091:0:0:0:0:
64,192,162491,128,0,162662:0:0:0:0:
64,192,162834,128,0,163091:0:0:0:0:
192,192,162834,128,0,163091:0:0:0:0:
320,192,162834,128,0,163091:0:0:0:0:
448,192,163177,1,0,0:0:0:0:
192,192,163177,128,0,163262:0:0:0:0:
64,192,163177,128,0,163262:0:0:0:0:
192,192,163348,128,0,163434:0:0:0:0:
64,192,163348,128,0,163434:0:0:0:0:
64,192,163520,1,0,0:0:0:0:
320,192,163520,128,0,163605:0:0:0:0:
448,192,163520,128,0,163605:0:0:0:0:
448,192,163691,128,0,163777:0:0:0:0:
320,192,163691,128,0,163777:0:0:0:0:
192,192,163862,128,0,163948:0:0:0:0:
64,192,163862,128,0,164462:0:0:0:0:
448,192,163862,128,0,163948:0:0:0:0:
448,192,164034,128,0,164120:0:0:0:0:
320,192,164120,128,0,164205:0:0:0:0:
192,192,164205,128,0,164462:0:0:0:0:
320,192,164377,128,0,164462:0:0:0:0:
448,192,164377,128,0,164462:0:0:0:0:
192,192,164548,128,0,164634:0:0:0:0:
64,192,164548,128,0,164634:0:0:0:0:
448,192,164548,1,0,0:0:0:0:
192,192,164720,128,0,164805:0:0:0:0:
64,192,164720,128,0,164805:0:0:0:0:
448,192,164805,1,0,0:0:0:0:
64,192,164891,1,0,0:0:0:0:
192,192,164891,1,0,0:0:0:0:
320,192,164977,1,0,0:0:0:0:
64,192,165062,1,0,0:0:0:0:
320,192,165148,1,0,0:0:0:0:
192,192,165234,128,0,165320:0:0:0:0:
64,192,165234,128,0,165320:0:0:0:0:
448,192,165234,1,0,0:0:0:0:
64,192,165405,128,0,165491:0:0:0:0:
192,192,165405,128,0,165491:0:0:0:0:
448,192,165491,1,0,0:0:0:0:
192,192,165577,1,0,0:0:0:0:
64,192,165577,1,0,0:0:0:0:
320,192,165662,1,0,0:0:0:0:
64,192,165748,1,0,0:0:0:0:
320,192,165834,1,0,0:0:0:0:
448,192,165920,1,0,0:0:0:0:
64,192,165920,1,0,0:0:0:0:
192,192,165920,1,0,0:0:0:0:
448,192,166091,1,0,0:0:0:0:
192,192,166091,1,0,0:0:0:0:
320,192,166091,1,0,0:0:0:0:
192,192,166262,1,0,0:0:0:0:
320,192,166262,1,0,0:0:0:0:
64,192,166262,1,0,0:0:0:0:
64,192,166434,1,0,0:0:0:0:
320,192,166434,1,0,0:0:0:0:
448,192,166434,1,0,0:0:0:0:
64,192,166605,128,0,167205:0:0:0:0:
192,192,166605,128,0,166777:0:0:0:0:
448,192,166605,128,0,166777:0:0:0:0:
192,192,166948,128,0,167205:0:0:0:0:
320,192,166948,128,0,167205:0:0:0:0:
448,192,166948,128,0,167205:0:0:0:0:
448,192,167291,128,0,167462:0:0:0:0:
192,192,167291,1,0,0:0:0:0:
64,192,167291,128,0,167462:0:0:0:0:
320,192,167462,1,0,0:0:0:0:
448,192,167634,128,0,167805:0:0:0:0:
64,192,167634,128,0,167805:0:0:0:0:
192,192,167805,1,0,0:0:0:0:
448,192,167977,128,0,168148:0:0:0:0:
320,192,167977,128,0,168148:0:0:0:0:
64,192,168148,1,0,0:0:0:0:
192,192,168320,128,0,168491:0:0:0:0:
320,192,168320,1,0,0:0:0:0:
448,192,168491,128,0,168662:0:0:0:0:
192,192,168662,128,0,168834:0:0:0:0:
320,192,168662,1,0,0:0:0:0:
64,192,168662,128,0,168834:0:0:0:0:
448,192,168834,1,0,0:0:0:0:
192,192,169005,128,0,169177:0:0:0:0:
64,192,169005,128,0,169177:0:0:0:0:
448,192,169177,1,0,0:0:0:0:
192,192,169348,128,0,169520:0:0:0:0:
320,192,169348,128,0,169520:0:0:0:0:
448,192,169520,128,0,169691:0:0:0:0:
64,192,169691,128,0,169862:0:0:0:0:
192,192,169691,1,0,0:0:0:0:
320,192,169862,1,0,0:0:0:0:
192,192,170034,1,0,0:0:0:0:
448,192,170034,128,0,170205:0:0:0:0:
64,192,170034,128,0,170548:0:0:0:0:
192,192,170205,1,0,0:0:0:0:
448,192,170377,128,0,170720:0:0:0:0:
320,192,170377,1,0,0:0:0:0:
320,192,170548,1,0,0:0:0:0:
64,192,170720,128,0,171234:0:0:0:0:
192,192,170720,128,0,171234:0:0:0:0:
448,192,170891,1,0,0:0:0:0:
320,192,171062,128,0,171234:0:0:0:0:
448,192,171062,128,0,171234:0:0:0:0:
192,192,171405,1,0,0:0:0:0:
448,192,171405,128,0,171577:0:0:0:0:
64,192,171405,1,0,0:0:0:0:
64,192,171577,1,0,0:0:0:0:
448,192,171748,128,0,172091:0:0:0:0:
320,192,171748,1,0,0:0:0:0:
320,192,171920,1,0,0:0:0:0:
64,192,172091,128,0,172605:0:0:0:0:
192,192,172091,128,0,172434:0:0:0:0:
320,192,172177,1,0,0:0:0:0:
448,192,172262,1,0,0:0:0:0:
320,192,172434,128,0,172605:0:0:0:0:
448,192,172434,128,0,172605:0:0:0:0:
192,192,172605,1,0,0:0:0:0:
64,192,172777,128,0,172948:0:0:0:0:
320,192,172777,1,0,0:0:0:0:
448,192,172777,128,0,172948:0:0:0:0:
192,192,172948,1,0,0:0:0:0:
64,192,173120,128,0,173291:0:0:0:0:
448,192,173120,128,0,173291:0:0:0:0:
320,192,173291,1,0,0:0:0:0:
64,192,173462,128,0,173634:0:0:0:0:
192,192,173462,128,0,173634:0:0:0:0:
448,192,173634,1,0,0:0:0:0:
320,192,173805,128,0,173977:0:0:0:0:
192,192,173805,1,0,0:0:0:0:
64,192,173977,128,0,174148:0:0:0:0:
320,192,174148,128,0,174320:0:0:0:0:
192,192,174148,1,0,0:0:0:0:
448,192,174148,128,0,174320:0:0:0:0:
64,192,174320,1,0,0:0:0:0:
320,192,174491,128,0,174662:0:0:0:0:
448,192,174491,128,0,174662:0:0:0:0:
64,192,174662,1,0,0:0:0:0:
320,192,174834,128,0,175005:0:0:0:0:
192,192,174834,128,0,175005:0:0:0:0:
448,192,175005,1,0,0:0:0:0:
192,192,175091,1,0,0:0:0:0:
448,192,175177,1,0,0:0:0:0:
192,192,175262,1,0,0:0:0:0:
448,192,175348,1,0,0:0:0:0:
192,192,175434,1,0,0:0:0:0:
64,192,175520,1,0,0:0:0:0:
320,192,175520,128,0,175605:0:0:0:0:
448,192,175520,128,0,175605:0:0:0:0:
320,192,175691,128,0,175777:0:0:0:0:
448,192,175691,128,0,175777:0:0:0:0:
448,192,175862,1,0,0:0:0:0:
192,192,175862,128,0,175948:0:0:0:0:
64,192,175862,128,0,175948:0:0:0:0:
64,192,176034,128,0,176120:0:0:0:0:
192,192,176034,128,0,176120:0:0:0:0:
320,192,176205,128,0,176377:0:0:0:0:
448,192,176205,128,0,176805:0:0:0:0:
64,192,176205,128,0,176377:0:0:0:0:
64,192,176548,128,0,176805:0:0:0:0:
192,192,176548,128,0,176805:0:0:0:0:
320,192,176548,128,0,176805:0:0:0:0:
448,192,176891,1,0,0:0:0:0:
192,192,176891,128,0,176977:0:0:0:0:
64,192,176891,128,0,176977:0:0:0:0:
192,192,177062,128,0,177148:0:0:0:0:
64,192,177062,128,0,177148:0:0:0:0:
64,192,177234,1,0,0:0:0:0:
320,192,177234,128,0,177320:0:0:0:0:
448,192,177234,128,0,177320:0:0:0:0:
448,192,177405,128,0,177491:0:0:0:0:
320,192,177405,128,0,177491:0:0:0:0:
192,192,177577,128,0,177662:0:0:0:0:
64,192,177577,128,0,178177:0:0:0:0:
448,192,177577,128,0,177662:0:0:0:0:
448,192,177748,128,0,177834:0:0:0:0:
320,192,177834,128,0,177920:0:0:0:0:
192,192,177920,128,0,178177:0:0:0:0:
320,192,178091,128,0,178177:0:0:0:0:
448,192,178091,128,0,178177:0:0:0:0:
192,192,178262,128,0,178348:0:0:0:0:
64,192,178262,128,0,178348:0:0:0:0:
448,192,178262,1,0,0:0:0:0:
192,192,178434,128,0,178520:0:0:0:0:
64,192,178434,128,0,178520:0:0:0:0:
448,192,178520,1,0,0:0:0:0:
64,192,178605,1,0,0:0:0:0:
192,192,178605,1,0,0:0:0:0:
320,192,178691,1,0,0:0:0:0:
448,192,178777,1,0,0:0:0:0:
320,192,178862,1,0,0:0:0:0:
192,192,178948,128,0,179034:0:0:0:0:
64,192,178948,128,0,179034:0:0:0:0:
448,192,178948,1,0,0:0:0:0:
64,192,179120,128,0,179205:0:0:0:0:
192,192,179120,128,0,179205:0:0:0:0:
448,192,179205,1,0,0:0:0:0:
192,192,179291,1,0,0:0:0:0:
64,192,179291,1,0,0:0:0:0:
320,192,179377,1,0,0:0:0:0:
448,192,179462,1,0,0:0:0:0:
320,192,179548,1,0,0:0:0:0:
448,192,179634,1,0,0:0:0:0:
64,192,179634,1,0,0:0:0:0:
192,192,179634,1,0,0:0:0:0:
64,192,179805,1,0,0:0:0:0:
192,192,179805,1,0,0:0:0:0:
448,192,179805,1,0,0:0:0:0:
64,192,179977,1,0,0:0:0:0:
320,192,179977,1,0,0:0:0:0:
448,192,179977,1,0,0:0:0:0:
64,192,180148,1,0,0:0:0:0:
320,192,180148,1,0,0:0:0:0:
448,192,180148,1,0,0:0:0:0:
64,192,180320,128,0,180920:0:0:0:0:
448,192,180320,128,0,180491:0:0:0:0:
192,192,180320,128,0,180491:0:0:0:0:
192,192,180662,128,0,180920:0:0:0:0:
320,192,180662,128,0,180920:0:0:0:0:
448,192,180662,128,0,180920:0:0:0:0:
64,192,181005,128,0,181177:0:0:0:0:
192,192,181005,128,0,181177:0:0:0:0:
448,192,181005,128,0,181177:0:0:0:0:
64,192,181348,128,0,181520:0:0:0:0:
192,192,181348,128,0,181520:0:0:0:0:
448,192,181348,128,0,181520:0:0:0:0:
64,192,181691,128,0,182205:0:0:0:0:
192,192,181691,128,0,182205:0:0:0:0:
448,192,181691,128,0,182205:0:0:0:0:
448,192,182377,128,0,182548:0:0:0:0:
64,192,182377,128,0,182548:0:0:0:0:
320,192,182420,128,0,182548:0:0:0:0:
448,192,182720,128,0,182891:0:0:0:0:
64,192,182720,128,0,182891:0:0:0:0:
320,192,182762,128,0,182891:0:0:0:0:
448,192,183062,128,0,183234:0:0:0:0:
64,192,183062,128,0,183234:0:0:0:0:
320,192,183105,128,0,183234:0:0:0:0:
192,192,183234,1,0,0:0:0:0:
192,192,183405,128,0,183577:0:0:0:0:
320,192,183405,128,0,183577:0:0:0:0:
64,192,183748,1,0,0:0:0:0:
320,192,183748,1,0,0:0:0:0:
448,192,183748,128,0,183920:0:0:0:0:
192,192,183920,128,0,184262:0:0:0:0:
320,192,184091,1,0,0:0:0:0:
448,192,184091,128,0,184262:0:0:0:0:
64,192,184262,1,0,0:0:0:0:
448,192,184434,128,0,184605:0:0:0:0:
192,192,184434,1,0,0:0:0:0:
320,192,184434,1,0,0:0:0:0:
64,192,184605,128,0,184948:0:0:0:0:
448,192,184777,128,0,184948:0:0:0:0:
192,192,184777,1,0,0:0:0:0:
320,192,184948,1,0,0:0:0:0:
448,192,185120,1,0,0:0:0:0:
192,192,185120,1,0,0:0:0:0:
64,192,185120,128,0,185291:0:0:0:0:
320,192,185291,128,0,185634:0:0:0:0:
192,192,185462,1,0,0:0:0:0:
64,192,185462,128,0,185634:0:0:0:0:
448,192,185634,1,0,0:0:0:0:
64,192,185805,128,0,185977:0:0:0:0:
320,192,185805,1,0,0:0:0:0:
192,192,185805,1,0,0:0:0:0:
448,192,185977,128,0,186320:0:0:0:0:
64,192,186148,128,0,186320:0:0:0:0:
320,192,186148,1,0,0:0:0:0:
192,192,186320,1,0,0:0:0:0:
64,192,186491,1,0,0:0:0:0:
448,192,186491,128,0,186662:0:0:0:0:
320,192,186491,128,0,186662:0:0:0:0:
192,192,186662,1,0,0:0:0:0:
320,192,186834,128,0,187005:0:0:0:0:
448,192,186834,128,0,187005:0:0:0:0:
192,192,187005,1,0,0:0:0:0:
320,192,187177,128,0,187348:0:0:0:0:
448,192,187177,128,0,187348:0:0:0:0:
64,192,187177,1,0,0:0:0:0:
192,192,187348,1,0,0:0:0:0:
448,192,187520,128,0,187691:0:0:0:0:
320,192,187520,128,0,187691:0:0:0:0:
192,192,187691,1,0,0:0:0:0:
448,192,187862,128,0,188891:0:0:0:0:
64,192,187862,128,0,188034:0:0:0:0:
320,192,187862,1,0,0:0:0:0:
192,192,188034,1,0,0:0:0:0:
64,192,188205,1,0,0:0:0:0:
192,192,188205,1,0,0:0:0:0:
320,192,188377,1,0,0:0:0:0:
64,192,188548,128,0,188891:0:0:0:0:
320,192,188548,128,0,188891:0:0:0:0:
192,192,188891,1,0,0:0:0:0:
320,192,189062,1,0,0:0:0:0:
448,192,189234,1,0,0:0:0:0:
192,192,189234,1,0,0:0:0:0:
64,192,189234,1,0,0:0:0:0:
192,192,189405,1,0,0:0:0:0:
64,192,189405,1,0,0:0:0:0:
448,192,189577,1,0,0:0:0:0:
320,192,189577,1,0,0:0:0:0:
64,192,189577,1,0,0:0:0:0:
320,192,189748,1,0,0:0:0:0:
448,192,189748,1,0,0:0:0:0:
448,192,189920,1,0,0:0:0:0:
192,192,189920,1,0,0:0:0:0:
64,192,189920,1,0,0:0:0:0:
192,192,190091,1,0,0:0:0:0:
64,192,190091,1,0,0:0:0:0:
320,192,190262,1,0,0:0:0:0:
448,192,190262,1,0,0:0:0:0:
64,192,190262,1,0,0:0:0:0:
320,192,190434,1,0,0:0:0:0:
448,192,190434,1,0,0:0:0:0:
320,192,190605,1,0,0:0:0:0:
192,192,190605,1,0,0:0:0:0:
64,192,190605,1,0,0:0:0:0:
64,192,190777,1,0,0:0:0:0:
192,192,190777,1,0,0:0:0:0:
320,192,190948,1,0,0:0:0:0:
448,192,190948,1,0,0:0:0:0:
192,192,190948,1,0,0:0:0:0:
320,192,191120,1,0,0:0:0:0:
448,192,191120,1,0,0:0:0:0:
320,192,191291,1,0,0:0:0:0:
192,192,191291,1,0,0:0:0:0:
64,192,191291,1,0,0:0:0:0:
192,192,191462,1,0,0:0:0:0:
64,192,191462,1,0,0:0:0:0:
192,192,191634,1,0,0:0:0:0:
320,192,191634,1,0,0:0:0:0:
448,192,191634,1,0,0:0:0:0:
448,192,191805,1,0,0:0:0:0:
320,192,191805,1,0,0:0:0:0:
192,192,191977,1,0,0:0:0:0:
64,192,191977,1,0,0:0:0:0:
320,192,192062,1,0,0:0:0:0:
448,192,192062,1,0,0:0:0:0:
192,192,192148,1,0,0:0:0:0:
64,192,192148,1,0,0:0:0:0:
320,192,192234,1,0,0:0:0:0:
448,192,192234,1,0,0:0:0:0:
192,192,192320,1,0,0:0:0:0:
64,192,192320,1,0,0:0:0:0:
320,192,192405,1,0,0:0:0:0:
448,192,192405,1,0,0:0:0:0:
192,192,192491,1,0,0:0:0:0:
64,192,192491,1,0,0:0:0:0:
448,192,192577,1,0,0:0:0:0:
320,192,192577,1,0,0:0:0:0:
64,192,192662,1,0,0:0:0:0:
192,192,192662,1,0,0:0:0:0:
320,192,192748,1,0,0:0:0:0:
448,192,192748,1,0,0:0:0:0:
192,192,192834,1,0,0:0:0:0:
64,192,192834,1,0,0:0:0:0:
320,192,192920,1,0,0:0:0:0:
448,192,192920,1,0,0:0:0:0:
192,192,193005,1,0,0:0:0:0:
64,192,193005,1,0,0:0:0:0:
320,192,193091,1,0,0:0:0:0:
448,192,193091,1,0,0:0:0:0:
192,192,193177,1,0,0:0:0:0:
64,192,193177,1,0,0:0:0:0:
320,192,193262,1,0,0:0:0:0:
448,192,193262,1,0,0:0:0:0:
64,192,193348,1,0,0:0:0:0:
192,192,193391,1,0,0:0:0:0:
320,192,193434,1,0,0:0:0:0:
448,192,193477,1,0,0:0:0:0:
64,192,193520,1,0,0:0:0:0:
192,192,193562,1,0,0:0:0:0:
320,192,193605,1,0,0:0:0:0:
448,192,193648,1,0,0:0:0:0:
64,192,193691,1,0,0:0:0:0:
192,192,193734,1,0,0:0:0:0:
320,192,193777,1,0,0:0:0:0:
448,192,193820,1,0,0:0:0:0:
64,192,193862,1,0,0:0:0:0:
192,192,193905,1,0,0:0:0:0:
320,192,193948,1,0,0:0:0:0:
448,192,193991,1,0,0:0:0:0:
192,192,194034,1,0,0:0:0:0:
64,192,194077,1,0,0:0:0:0:
448,192,194120,1,0,0:0:0:0:
320,192,194162,1,0,0:0:0:0:
192,192,194205,1,0,0:0:0:0:
64,192,194248,1,0,0:0:0:0:
448,192,194291,1,0,0:0:0:0:
320,192,194334,1,0,0:0:0:0:
192,192,194377,1,0,0:0:0:0:
64,192,194420,1,0,0:0:0:0:
448,192,194462,1,0,0:0:0:0:
320,192,194505,1,0,0:0:0:0:
192,192,194548,1,0,0:0:0:0:
64,192,194591,1,0,0:0:0:0:
320,192,194634,1,0,0:0:0:0:
64,192,194720,128,0,194891:0:0:0:0:
192,192,194720,128,0,194891:0:0:0:0:
448,192,194720,128,0,194891:0:0:0:0:
64,192,195062,128,0,195234:0:0:0:0:
192,192,195062,128,0,195234:0:0:0:0:
448,192,195062,128,0,195234:0:0:0:0:
64,192,195405,128,0,195920:0:0:0:0:
192,192,195405,128,0,195920:0:0:0:0:
448,192,195405,128,0,195920:0:0:0:0:
448,192,196091,128,0,196262:0:0:0:0:
64,192,196091,128,0,196262:0:0:0:0:
320,192,196134,128,0,196262:0:0:0:0:
448,192,196434,128,0,196605:0:0:0:0:
64,192,196434,128,0,196605:0:0:0:0:
320,192,196477,128,0,196605:0:0:0:0:
448,192,196777,128,0,196948:0:0:0:0:
64,192,196777,128,0,196948:0:0:0:0:
320,192,196820,128,0,196948:0:0:0:0:
192,192,197120,128,0,197462:0:0:0:0:
320,192,197462,1,0,0:0:0:0:
448,192,197462,1,0,0:0:0:0:
192,192,197548,1,0,0:0:0:0:
64,192,197548,1,0,0:0:0:0:
320,192,197634,1,0,0:0:0:0:
448,192,197634,1,0,0:0:0:0:
192,192,197720,1,0,0:0:0:0:
64,192,197720,1,0,0:0:0:0:
320,192,197805,1,0,0:0:0:0:
448,192,197805,1,0,0:0:0:0:
192,192,197891,1,0,0:0:0:0:
64,192,197891,1,0,0:0:0:0:
320,192,197977,1,0,0:0:0:0:
448,192,197977,1,0,0:0:0:0:
192,192,198062,1,0,0:0:0:0:
64,192,198062,1,0,0:0:0:0:
320,192,198148,1,0,0:0:0:0:
448,192,198148,1,0,0:0:0:0:
192,192,198234,1,0,0:0:0:0:
64,192,198234,1,0,0:0:0:0:
320,192,198320,1,0,0:0:0:0:
448,192,198320,1,0,0:0:0:0:
192,192,198405,1,0,0:0:0:0:
64,192,198405,1,0,0:0:0:0:
448,192,198491,1,0,0:0:0:0:
320,192,198534,1,0,0:0:0:0:
192,192,198577,1,0,0:0:0:0:
64,192,198620,1,0,0:0:0:0:
320,192,198662,1,0,0:0:0:0:
448,192,198705,1,0,0:0:0:0:
192,192,198748,1,0,0:0:0:0:
64,192,198834,1,0,0:0:0:0:
320,192,198834,128,0,199005:0:0:0:0:
448,192,198834,128,0,199005:0:0:0:0:
64,192,199005,1,0,0:0:0:0:
192,192,199005,1,0,0:0:0:0:
448,192,199177,1,0,0:0:0:0:
192,192,199177,128,0,199348:0:0:0:0:
64,192,199177,128,0,199348:0:0:0:0:
320,192,199348,1,0,0:0:0:0:
448,192,199348,1,0,0:0:0:0:
192,192,199434,1,0,0:0:0:0:
64,192,199520,1,0,0:0:0:0:
320,192,199520,1,0,0:0:0:0:
448,192,199520,1,0,0:0:0:0:
64,192,199691,1,0,0:0:0:0:
320,192,199691,1,0,0:0:0:0:
448,192,199691,1,0,0:0:0:0:
64,192,199862,128,0,200120:0:0:0:0:
320,192,199862,128,0,200120:0:0:0:0:
448,192,199862,128,0,200120:0:0:0:0:
192,192,199862,128,0,200120:0:0:0:0:
64,192,200205,1,0,0:0:0:0:
320,192,200205,128,0,200377:0:0:0:0:
192,192,200205,128,0,200462:0:0:0:0:
448,192,200205,128,0,200291:0:0:0:0:
64,192,200548,1,0,0:0:0:0:
448,192,200548,1,0,0:0:0:0:
320,192,200548,1,0,0:0:0:0:
320,192,200720,128,0,200891:0:0:0:0:
448,192,200805,128,0,200977:0:0:0:0:
192,192,200891,1,0,0:0:0:0:
64,192,200891,1,0,0:0:0:0:
320,192,201062,128,0,201234:0:0:0:0:
448,192,201148,128,0,201320:0:0:0:0:
192,192,201234,1,0,0:0:0:0:
64,192,201234,1,0,0:0:0:0:
64,192,201405,128,0,201662:0:0:0:0:
320,192,201577,1,0,0:0:0:0:
448,192,201577,1,0,0:0:0:0:
192,192,201577,1,0,0:0:0:0:
192,192,201748,128,0,201920:0:0:0:0:
64,192,201834,128,0,202005:0:0:0:0:
448,192,201920,1,0,0:0:0:0:
320,192,201920,1,0,0:0:0:0:
448,192,202091,128,0,202348:0:0:0:0:
320,192,202262,1,0,0:0:0:0:
64,192,202262,1,0,0:0:0:0:
192,192,202434,1,0,0:0:0:0:
320,192,202520,1,0,0:0:0:0:
64,192,202605,1,0,0:0:0:0:
448,192,202605,1,0,0:0:0:0:
192,192,202605,1,0,0:0:0:0:
320,192,202777,1,0,0:0:0:0:
192,192,202948,1,0,0:0:0:0:
64,192,202948,1,0,0:0:0:0:
448,192,203034,1,0,0:0:0:0:
320,192,203120,1,0,0:0:0:0:
192,192,203205,1,0,0:0:0:0:
64,192,203291,1,0,0:0:0:0:
448,192,203291,1,0,0:0:0:0:
320,192,203291,1,0,0:0:0:0:
192,192,203462,1,0,0:0:0:0:
320,192,203548,1,0,0:0:0:0:
64,192,203634,1,0,0:0:0:0:
448,192,203634,1,0,0:0:0:0:
192,192,203720,1,0,0:0:0:0:
320,192,203805,1,0,0:0:0:0:
448,192,203891,1,0,0:0:0:0:
64,192,203977,1,0,0:0:0:0:
192,192,203977,1,0,0:0:0:0:
320,192,204148,1,0,0:0:0:0:
192,192,204234,1,0,0:0:0:0:
64,192,204320,128,0,204491:0:0:0:0:
320,192,204320,128,0,204834:0:0:0:0:
448,192,204320,128,0,204834:0:0:0:0:
192,192,204662,128,0,205177:0:0:0:0:
64,192,204662,128,0,205177:0:0:0:0:
320,192,205005,128,0,205520:0:0:0:0:
448,192,205005,128,0,205520:0:0:0:0:
192,192,205348,128,0,205520:0:0:0:0:
64,192,205348,128,0,205520:0:0:0:0:
448,192,205691,1,0,0:0:0:0:
192,192,205691,128,0,205862:0:0:0:0:
320,192,205691,128,0,205948:0:0:0:0:
64,192,205691,128,0,205777:0:0:0:0:
448,192,206034,1,0,0:0:0:0:
64,192,206034,1,0,0:0:0:0:
192,192,206034,1,0,0:0:0:0:
192,192,206205,128,0,206377:0:0:0:0:
64,192,206291,128,0,206462:0:0:0:0:
320,192,206377,1,0,0:0:0:0:
448,192,206377,1,0,0:0:0:0:
192,192,206548,128,0,206720:0:0:0:0:
64,192,206634,128,0,206805:0:0:0:0:
320,192,206720,1,0,0:0:0:0:
448,192,206720,1,0,0:0:0:0:
448,192,206891,128,0,207148:0:0:0:0:
192,192,207062,1,0,0:0:0:0:
64,192,207062,1,0,0:0:0:0:
320,192,207062,1,0,0:0:0:0:
320,192,207234,128,0,207405:0:0:0:0:
448,192,207320,128,0,207491:0:0:0:0:
64,192,207405,1,0,0:0:0:0:
192,192,207405,1,0,0:0:0:0:
64,192,207577,128,0,207834:0:0:0:0:
192,192,207748,1,0,0:0:0:0:
448,192,207748,1,0,0:0:0:0:
320,192,207920,1,0,0:0:0:0:
192,192,208005,1,0,0:0:0:0:
448,192,208091,1,0,0:0:0:0:
64,192,208091,1,0,0:0:0:0:
320,192,208091,1,0,0:0:0:0:
192,192,208262,1,0,0:0:0:0:
320,192,208434,128,0,208605:0:0:0:0:
448,192,208434,128,0,208605:0:0:0:0:
64,192,208520,1,0,0:0:0:0:
192,192,208605,1,0,0:0:0:0:
320,192,208691,1,0,0:0:0:0:
448,192,208777,1,0,0:0:0:0:
192,192,208777,128,0,208948:0:0:0:0:
64,192,208777,128,0,208948:0:0:0:0:
320,192,208948,1,0,0:0:0:0:
320,192,209120,128,0,209291:0:0:0:0:
448,192,209120,128,0,209291:0:0:0:0:
64,192,209205,1,0,0:0:0:0:
192,192,209291,1,0,0:0:0:0:
320,192,209377,1,0,0:0:0:0:
192,192,209462,128,0,209634:0:0:0:0:
64,192,209462,128,0,209634:0:0:0:0:
448,192,209462,1,0,0:0:0:0:
448,192,209634,1,0,0:0:0:0:
320,192,209720,1,0,0:0:0:0:
448,192,209805,128,0,210320:0:0:0:0:
192,192,209805,1,0,0:0:0:0:
64,192,209805,1,0,0:0:0:0:
64,192,209977,1,0,0:0:0:0:
192,192,209977,1,0,0:0:0:0:
192,192,210148,1,0,0:0:0:0:
64,192,210148,1,0,0:0:0:0:
64,192,210320,1,0,0:0:0:0:
192,192,210320,1,0,0:0:0:0:
320,192,210491,1,0,0:0:0:0:
448,192,210491,1,0,0:0:0:0:
64,192,210577,1,0,0:0:0:0:
192,192,210577,1,0,0:0:0:0:
320,192,210662,1,0,0:0:0:0:
448,192,210662,1,0,0:0:0:0:
64,192,210748,1,0,0:0:0:0:
192,192,210748,1,0,0:0:0:0:
320,192,210834,1,0,0:0:0:0:
448,192,210834,1,0,0:0:0:0:
192,192,210920,1,0,0:0:0:0:
64,192,210920,1,0,0:0:0:0:
320,192,211005,1,0,0:0:0:0:
448,192,211005,1,0,0:0:0:0:
192,192,211091,1,0,0:0:0:0:
64,192,211091,1,0,0:0:0:0:
448,192,211177,1,0,0:0:0:0:
320,192,211220,1,0,0:0:0:0:
192,192,211262,1,0,0:0:0:0:
64,192,211305,1,0,0:0:0:0:
320,192,211348,1,0,0:0:0:0:
448,192,211434,1,0,0:0:0:0:
64,192,211520,1,0,0:0:0:0:
192,192,211520,1,0,0:0:0:0:
320,192,211605,1,0,0:0:0:0:
448,192,211605,1,0,0:0:0:0:
192,192,211691,1,0,0:0:0:0:
64,192,211691,1,0,0:0:0:0:
320,192,211777,1,0,0:0:0:0:
448,192,211777,1,0,0:0:0:0:
64,192,211862,1,0,0:0:0:0:
192,192,211905,1,0,0:0:0:0:
320,192,211948,1,0,0:0:0:0:
448,192,211991,1,0,0:0:0:0:
192,192,212034,1,0,0:0:0:0:
64,192,212077,1,0,0:0:0:0:
320,192,212120,1,0,0:0:0:0:
64,192,212205,128,0,212434:0:0:0:0:
192,192,212205,128,0,212434:0:0:0:0:
448,192,212205,128,0,212434:0:0:0:0:
320,192,212548,1,0,0:0:0:0:
448,192,212548,1,0,0:0:0:0:
64,192,212548,1,0,0:0:0:0:
192,192,212720,128,0,212891:0:0:0:0:
320,192,212805,128,0,212977:0:0:0:0:
448,192,212891,1,0,0:0:0:0:
64,192,212891,1,0,0:0:0:0:
192,192,213062,128,0,213320:0:0:0:0:
448,192,213234,1,0,0:0:0:0:
320,192,213234,1,0,0:0:0:0:
64,192,213234,1,0,0:0:0:0:
320,192,213405,1,0,0:0:0:0:
192,192,213491,1,0,0:0:0:0:
64,192,213577,1,0,0:0:0:0:
448,192,213577,1,0,0:0:0:0:
320,192,213577,1,0,0:0:0:0:
192,192,213748,1,0,0:0:0:0:
320,192,213920,1,0,0:0:0:0:
448,192,213920,1,0,0:0:0:0:
64,192,214005,1,0,0:0:0:0:
192,192,214091,1,0,0:0:0:0:
320,192,214177,1,0,0:0:0:0:
448,192,214262,1,0,0:0:0:0:
64,192,214262,1,0,0:0:0:0:
192,192,214262,1,0,0:0:0:0:
320,192,214434,1,0,0:0:0:0:
192,192,214520,1,0,0:0:0:0:
64,192,214605,1,0,0:0:0:0:
448,192,214605,1,0,0:0:0:0:
320,192,214691,1,0,0:0:0:0:
192,192,214777,1,0,0:0:0:0:
64,192,214862,1,0,0:0:0:0:
448,192,214948,1,0,0:0:0:0:
192,192,214948,1,0,0:0:0:0:
320,192,215120,1,0,0:0:0:0:
192,192,215205,1,0,0:0:0:0:
64,192,215291,128,0,215462:0:0:0:0:
320,192,215291,128,0,215805:0:0:0:0:
448,192,215291,128,0,215805:0:0:0:0:
192,192,215634,128,0,216148:0:0:0:0:
64,192,215634,128,0,216148:0:0:0:0:
320,192,215977,128,0,216491:0:0:0:0:
448,192,215977,128,0,216491:0:0:0:0:
192,192,216320,128,0,216491:0:0:0:0:
64,192,216320,128,0,216491:0:0:0:0:
64,192,216662,1,0,0:0:0:0:
320,192,216662,128,0,216834:0:0:0:0:
192,192,216662,128,0,216920:0:0:0:0:
448,192,216662,128,0,216748:0:0:0:0:
64,192,217005,1,0,0:0:0:0:
448,192,217005,1,0,0:0:0:0:
320,192,217005,1,0,0:0:0:0:
320,192,217177,128,0,217348:0:0:0:0:
192,192,217262,128,0,217434:0:0:0:0:
448,192,217348,1,0,0:0:0:0:
64,192,217348,1,0,0:0:0:0:
320,192,217520,128,0,217691:0:0:0:0:
192,192,217605,128,0,217777:0:0:0:0:
448,192,217691,1,0,0:0:0:0:
64,192,217691,1,0,0:0:0:0:
320,192,217862,128,0,218120:0:0:0:0:
192,192,217862,1,0,0:0:0:0:
64,192,218034,1,0,0:0:0:0:
448,192,218034,1,0,0:0:0:0:
192,192,218205,128,0,218377:0:0:0:0:
320,192,218291,128,0,218462:0:0:0:0:
448,192,218377,1,0,0:0:0:0:
64,192,218377,1,0,0:0:0:0:
192,192,218548,128,0,218805:0:0:0:0:
448,192,218720,1,0,0:0:0:0:
320,192,218720,1,0,0:0:0:0:
64,192,218720,1,0,0:0:0:0:
320,192,218891,1,0,0:0:0:0:
64,192,218891,1,0,0:0:0:0:
64,192,219062,1,0,0:0:0:0:
448,192,219062,1,0,0:0:0:0:
192,192,219062,1,0,0:0:0:0:
192,192,219234,1,0,0:0:0:0:
448,192,219234,1,0,0:0:0:0:
320,192,219320,1,0,0:0:0:0:
64,192,219405,1,0,0:0:0:0:
192,192,219405,1,0,0:0:0:0:
320,192,219491,1,0,0:0:0:0:
448,192,219491,1,0,0:0:0:0:
64,192,219577,1,0,0:0:0:0:
192,192,219577,1,0,0:0:0:0:
320,192,219662,1,0,0:0:0:0:
448,192,219662,1,0,0:0:0:0:
64,192,219748,1,0,0:0:0:0:
192,192,219748,1,0,0:0:0:0:
320,192,219834,1,0,0:0:0:0:
448,192,219834,1,0,0:0:0:0:
192,192,219920,1,0,0:0:0:0:
64,192,219920,1,0,0:0:0:0:
448,192,220005,1,0,0:0:0:0:
320,192,220005,1,0,0:0:0:0:
192,192,220091,1,0,0:0:0:0:
64,192,220091,1,0,0:0:0:0:
448,192,220177,1,0,0:0:0:0:
320,192,220177,1,0,0:0:0:0:
64,192,220262,1,0,0:0:0:0:
192,192,220262,1,0,0:0:0:0:
320,192,220348,1,0,0:0:0:0:
448,192,220348,1,0,0:0:0:0:
64,192,220434,1,0,0:0:0:0:
192,192,220434,1,0,0:0:0:0:
320,192,220520,1,0,0:0:0:0:
448,192,220520,1,0,0:0:0:0:
64,192,220605,1,0,0:0:0:0:
192,192,220605,1,0,0:0:0:0:
320,192,220691,1,0,0:0:0:0:
448,192,220777,1,0,0:0:0:0:
192,192,220777,1,0,0:0:0:0:
64,192,220777,1,0,0:0:0:0:
320,192,220862,1,0,0:0:0:0:
64,192,220948,1,0,0:0:0:0:
192,192,220948,1,0,0:0:0:0:
320,192,221034,1,0,0:0:0:0:
448,192,221120,1,0,0:0:0:0:
64,192,221120,1,0,0:0:0:0:
192,192,221120,1,0,0:0:0:0:
320,192,221205,1,0,0:0:0:0:
64,192,221291,1,0,0:0:0:0:
448,192,221291,1,0,0:0:0:0:
192,192,221377,1,0,0:0:0:0:
320,192,221462,1,0,0:0:0:0:
448,192,221462,1,0,0:0:0:0:
64,192,221462,1,0,0:0:0:0:
192,192,221548,1,0,0:0:0:0:
320,192,221634,1,0,0:0:0:0:
448,192,221634,1,0,0:0:0:0:
192,192,221720,1,0,0:0:0:0:
64,192,221805,1,0,0:0:0:0:
320,192,221805,1,0,0:0:0:0:
448,192,221805,1,0,0:0:0:0:
192,192,221891,1,0,0:0:0:0:
448,192,221977,1,0,0:0:0:0:
64,192,221977,1,0,0:0:0:0:
320,192,222062,1,0,0:0:0:0:
448,192,222148,5,0,0:0:0:0:
64,192,222148,128,0,222320:0:0:0:0:
192,192,222148,128,0,222320:0:0:0:0:
320,192,222320,128,0,222405:0:0:0:0:
192,192,222491,128,0,222641:0:0:0:0:
64,192,222491,128,0,222641:0:0:0:0:
448,192,222662,128,0,222770:0:0:0:0:
192,192,222834,128,0,222962:0:0:0:0:
64,192,222834,128,0,222962:0:0:0:0:
320,192,223005,128,0,223134:0:0:0:0:
192,192,223177,128,0,223284:0:0:0:0:
64,192,223177,128,0,223284:0:0:0:0:
448,192,223348,128,0,223498:0:0:0:0:
192,192,223520,128,0,223605:0:0:0:0:
64,192,223520,128,0,223605:0:0:0:0:
320,192,223691,128,0,223862:0:0:0:0:
64,192,223862,128,0,223948:0:0:0:0:
448,192,223862,128,0,223948:0:0:0:0:
192,192,224034,128,0,224205:0:0:0:0:
320,192,224205,128,0,224291:0:0:0:0:
448,192,224205,128,0,224291:0:0:0:0:
64,192,224377,128,0,224548:0:0:0:0:
192,192,224548,128,0,224634:0:0:0:0:
320,192,224548,128,0,224634:0:0:0:0:
448,192,224720,1,0,0:0:0:0:
320,192,224777,1,0,0:0:0:0:
192,192,224834,1,0,0:0:0:0:
64,192,224891,128,0,224977:0:0:0:0:
448,192,224891,128,0,224977:0:0:0:0:
64,192,225062,128,0,225234:0:0:0:0:
192,192,225234,128,0,225320:0:0:0:0:
448,192,225234,128,0,225320:0:0:0:0:
448,192,225405,128,0,225577:0:0:0:0:
320,192,225577,128,0,225662:0:0:0:0:
64,192,225577,128,0,225662:0:0:0:0:
64,192,225748,128,0,225920:0:0:0:0:
192,192,225920,128,0,226005:0:0:0:0:
448,192,225920,128,0,226005:0:0:0:0:
448,192,226091,128,0,226262:0:0:0:0:
320,192,226262,128,0,226348:0:0:0:0:
64,192,226262,128,0,226348:0:0:0:0:
64,192,226434,128,0,226605:0:0:0:0:
192,192,226605,128,0,226691:0:0:0:0:
448,192,226605,128,0,226691:0:0:0:0:
448,192,226777,128,0,226948:0:0:0:0:
320,192,226948,128,0,227034:0:0:0:0:
64,192,226948,128,0,227034:0:0:0:0:
64,192,227120,128,0,227291:0:0:0:0:
320,192,227120,1,0,0:0:0:0:
448,192,227291,128,0,227377:0:0:0:0:
192,192,227291,128,0,227377:0:0:0:0:
192,192,227462,1,0,0:0:0:0:
64,192,227634,1,0,0:0:0:0:
320,192,227634,128,0,227720:0:0:0:0:
448,192,227634,128,0,227720:0:0:0:0:
192,192,227805,128,0,227891:0:0:0:0:
320,192,227977,128,0,228062:0:0:0:0:
448,192,227977,128,0,228062:0:0:0:0:
64,192,228148,128,0,228255:0:0:0:0:
448,192,228320,128,0,228405:0:0:0:0:
320,192,228320,128,0,228405:0:0:0:0:
192,192,228491,128,0,228620:0:0:0:0:
320,192,228662,128,0,228748:0:0:0:0:
448,192,228662,128,0,228748:0:0:0:0:
64,192,228834,128,0,228984:0:0:0:0:
320,192,229005,128,0,229091:0:0:0:0:
448,192,229005,128,0,229091:0:0:0:0:
192,192,229177,128,0,229348:0:0:0:0:
64,192,229348,128,0,229434:0:0:0:0:
448,192,229348,128,0,229434:0:0:0:0:
320,192,229520,128,0,229691:0:0:0:0:
192,192,229691,128,0,229777:0:0:0:0:
64,192,229691,128,0,229777:0:0:0:0:
448,192,229862,128,0,230034:0:0:0:0:
192,192,230034,128,0,230120:0:0:0:0:
320,192,230034,128,0,230120:0:0:0:0:
64,192,230205,1,0,0:0:0:0:
192,192,230262,1,0,0:0:0:0:
320,192,230320,1,0,0:0:0:0:
64,192,230377,128,0,231748:0:0:0:0:
448,192,230377,128,0,230462:0:0:0:0:
448,192,230548,128,0,230720:0:0:0:0:
192,192,230720,128,0,230805:0:0:0:0:
320,192,230720,128,0,230805:0:0:0:0:
320,192,230891,128,0,231062:0:0:0:0:
192,192,231062,128,0,231148:0:0:0:0:
448,192,231062,128,0,231148:0:0:0:0:
448,192,231234,128,0,231405:0:0:0:0:
320,192,231405,128,0,231491:0:0:0:0:
192,192,231405,128,0,231491:0:0:0:0:
192,192,231577,128,0,231748:0:0:0:0:
320,192,231748,1,0,0:0:0:0:
448,192,231748,1,0,0:0:0:0:
64,192,231834,1,0,0:0:0:0:
192,192,231834,1,0,0:0:0:0:
320,192,231920,1,0,0:0:0:0:
448,192,231920,1,0,0:0:0:0:
64,192,232005,1,0,0:0:0:0:
192,192,232005,1,0,0:0:0:0:
320,192,232091,1,0,0:0:0:0:
448,192,232091,1,0,0:0:0:0:
64,192,232177,1,0,0:0:0:0:
192,192,232177,1,0,0:0:0:0:
320,192,232262,1,0,0:0:0:0:
448,192,232262,1,0,0:0:0:0:
192,192,232348,1,0,0:0:0:0:
64,192,232348,1,0,0:0:0:0:
320,192,232434,1,0,0:0:0:0:
448,192,232434,1,0,0:0:0:0:
192,192,232520,1,0,0:0:0:0:
64,192,232520,1,0,0:0:0:0:
320,192,232605,1,0,0:0:0:0:
448,192,232605,1,0,0:0:0:0:
192,192,232691,1,0,0:0:0:0:
64,192,232777,1,0,0:0:0:0:
448,192,232777,1,0,0:0:0:0:
320,192,232777,1,0,0:0:0:0:
192,192,232948,1,0,0:0:0:0:
64,192,232948,1,0,0:0:0:0:
320,192,233034,1,0,0:0:0:0:
448,192,233120,5,0,0:0:0:0:
192,192,233120,128,0,233291:0:0:0:0:
64,192,233120,128,0,233291:0:0:0:0:
448,192,233291,128,0,233377:0:0:0:0:
192,192,233462,128,0,233634:0:0:0:0:
64,192,233462,128,0,233634:0:0:0:0:
320,192,233634,128,0,233741:0:0:0:0:
192,192,233805,128,0,233977:0:0:0:0:
64,192,233805,128,0,233977:0:0:0:0:
448,192,233977,128,0,234105:0:0:0:0:
320,192,234148,1,0,0:0:0:0:
64,192,234148,1,0,0:0:0:0:
192,192,234320,128,0,234470:0:0:0:0:
320,192,234491,128,0,234662:0:0:0:0:
448,192,234491,128,0,234662:0:0:0:0:
64,192,234662,128,0,234834:0:0:0:0:
448,192,234834,128,0,235005:0:0:0:0:
320,192,234834,128,0,235005:0:0:0:0:
192,192,235005,128,0,235177:0:0:0:0:
448,192,235177,128,0,235348:0:0:0:0:
320,192,235177,128,0,235348:0:0:0:0:
64,192,235348,128,0,235520:0:0:0:0:
448,192,235520,1,0,0:0:0:0:
192,192,235520,1,0,0:0:0:0:
320,192,235691,128,0,235862:0:0:0:0:
192,192,235862,128,0,236034:0:0:0:0:
64,192,235862,128,0,236034:0:0:0:0:
448,192,236034,128,0,236205:0:0:0:0:
192,192,236205,128,0,236377:0:0:0:0:
320,192,236205,128,0,236377:0:0:0:0:
64,192,236377,128,0,236548:0:0:0:0:
320,192,236548,128,0,236720:0:0:0:0:
448,192,236548,128,0,236720:0:0:0:0:
192,192,236720,128,0,236891:0:0:0:0:
448,192,236891,1,0,0:0:0:0:
64,192,236891,1,0,0:0:0:0:
320,192,237062,128,0,237234:0:0:0:0:
448,192,237234,128,0,237405:0:0:0:0:
64,192,237234,128,0,237405:0:0:0:0:
192,192,237405,128,0,237577:0:0:0:0:
448,192,237577,128,0,237748:0:0:0:0:
320,192,237577,128,0,237748:0:0:0:0:
64,192,237748,128,0,237920:0:0:0:0:
320,192,237920,128,0,238091:0:0:0:0:
192,192,237920,128,0,238091:0:0:0:0:
448,192,238091,1,0,0:0:0:0:
64,192,238091,1,0,0:0:0:0:
192,192,238262,1,0,0:0:0:0:
320,192,238262,1,0,0:0:0:0:
320,192,238434,1,0,0:0:0:0:
448,192,238605,1,0,0:0:0:0:
64,192,238605,1,0,0:0:0:0:
192,192,238605,1,0,0:0:0:0:
192,192,238777,1,0,0:0:0:0:
64,192,238777,1,0,0:0:0:0:
448,192,238948,1,0,0:0:0:0:
320,192,238948,1,0,0:0:0:0:
64,192,238948,1,0,0:0:0:0:
448,192,239120,1,0,0:0:0:0:
320,192,239120,1,0,0:0:0:0:
64,192,239291,1,0,0:0:0:0:
448,192,239291,1,0,0:0:0:0:
192,192,239291,1,0,0:0:0:0:
192,192,239462,1,0,0:0:0:0:
64,192,239462,1,0,0:0:0:0:
448,192,239634,1,0,0:0:0:0:
320,192,239634,1,0,0:0:0:0:
64,192,239634,1,0,0:0:0:0:
320,192,239805,1,0,0:0:0:0:
448,192,239805,1,0,0:0:0:0:
64,192,239977,1,0,0:0:0:0:
192,192,239977,1,0,0:0:0:0:
320,192,239977,1,0,0:0:0:0:
64,192,240148,1,0,0:0:0:0:
192,192,240148,1,0,0:0:0:0:
192,192,240320,1,0,0:0:0:0:
320,192,240320,1,0,0:0:0:0:
448,192,240320,1,0,0:0:0:0:
320,192,240491,1,0,0:0:0:0:
448,192,240491,1,0,0:0:0:0:
64,192,240662,1,0,0:0:0:0:
320,192,240662,1,0,0:0:0:0:
192,192,240662,1,0,0:0:0:0:
64,192,240834,1,0,0:0:0:0:
192,192,240834,1,0,0:0:0:0:
192,192,241005,1,0,0:0:0:0:
320,192,241005,1,0,0:0:0:0:
448,192,241005,1,0,0:0:0:0:
320,192,241177,1,0,0:0:0:0:
448,192,241177,1,0,0:0:0:0:
192,192,241348,1,0,0:0:0:0:
64,192,241348,1,0,0:0:0:0:
320,192,241434,1,0,0:0:0:0:
448,192,241434,1,0,0:0:0:0:
192,192,241520,1,0,0:0:0:0:
64,192,241520,1,0,0:0:0:0:
320,192,241605,1,0,0:0:0:0:
448,192,241605,1,0,0:0:0:0:
192,192,241691,1,0,0:0:0:0:
64,192,241691,1,0,0:0:0:0:
320,192,241777,1,0,0:0:0:0:
448,192,241777,1,0,0:0:0:0:
192,192,241862,1,0,0:0:0:0:
64,192,241862,1,0,0:0:0:0:
448,192,241948,1,0,0:0:0:0:
320,192,241948,1,0,0:0:0:0:
64,192,242034,1,0,0:0:0:0:
192,192,242034,1,0,0:0:0:0:
320,192,242120,1,0,0:0:0:0:
448,192,242120,1,0,0:0:0:0:
192,192,242205,1,0,0:0:0:0:
64,192,242205,1,0,0:0:0:0:
320,192,242291,1,0,0:0:0:0:
448,192,242291,1,0,0:0:0:0:
192,192,242377,1,0,0:0:0:0:
64,192,242377,1,0,0:0:0:0:
320,192,242462,1,0,0:0:0:0:
448,192,242462,1,0,0:0:0:0:
192,192,242548,1,0,0:0:0:0:
64,192,242548,1,0,0:0:0:0:
320,192,242634,1,0,0:0:0:0:
448,192,242634,1,0,0:0:0:0:
64,192,242720,1,0,0:0:0:0:
192,192,242762,1,0,0:0:0:0:
320,192,242805,1,0,0:0:0:0:
448,192,242848,1,0,0:0:0:0:
64,192,242891,1,0,0:0:0:0:
192,192,242934,1,0,0:0:0:0:
320,192,242977,1,0,0:0:0:0:
448,192,243020,1,0,0:0:0:0:
64,192,243062,1,0,0:0:0:0:
192,192,243105,1,0,0:0:0:0:
320,192,243148,1,0,0:0:0:0:
448,192,243191,1,0,0:0:0:0:
64,192,243234,1,0,0:0:0:0:
192,192,243277,1,0,0:0:0:0:
320,192,243320,1,0,0:0:0:0:
448,192,243362,1,0,0:0:0:0:
192,192,243405,1,0,0:0:0:0:
64,192,243448,1,0,0:0:0:0:
448,192,243491,1,0,0:0:0:0:
320,192,243534,1,0,0:0:0:0:
192,192,243577,1,0,0:0:0:0:
64,192,243620,1,0,0:0:0:0:
448,192,243662,1,0,0:0:0:0:
320,192,243705,1,0,0:0:0:0:
192,192,243748,1,0,0:0:0:0:
64,192,243791,1,0,0:0:0:0:
448,192,243834,1,0,0:0:0:0:
320,192,243877,1,0,0:0:0:0:
192,192,243920,1,0,0:0:0:0:
64,192,243962,1,0,0:0:0:0:
448,192,244005,1,0,0:0:0:0:
320,192,244048,1,0,0:0:0:0:
192,192,244091,1,0,0:0:0:0:
64,192,244091,1,0,0:0:0:0:
