osu file format v14

[General]
AudioFilename: audio.mp3
AudioLeadIn: 0
PreviewTime: 34184
Countdown: 0
SampleSet: Normal
StackLeniency: 0.2
Mode: 0
LetterboxInBreaks: 0
WidescreenStoryboard: 0

[Editor]
Bookmarks: 6863,10978,12349,25612,31612,32298,42412,47898,56127,58870,60241,61612,67098,69841,71898,75327,78070,80812,83898,86298,87670,89041,94527,97441,98127,111155,111841,113727,116470,121955,124698,127441,132584,132927,142527,143898,154870,160355,165841,174070,179555,180070,182298,187784,190527,191898,193270,196012,197041,197384,198755,209041,220698,239898,242641
DistanceSpacing: 1.1
BeatDivisor: 4
GridSize: 8
TimelineZoom: 3.999999

[Metadata]
Title:TRIPLE PLAY
TitleUnicode:TRIPLE PLAY
Artist:KASAI HARCORES
ArtistUnicode:葛西ハーコーズ
Creator:Yuguiboy
Version:HOMERUN
Source:
Tags:葛西ハーコーズ KASAI HARCORES TRIPLE PLAY HOMERUN camellia dj genki c show
BeatmapID:1759769
BeatmapSetID:840775

[Difficulty]
HPDrainRate:5
CircleSize:3.7
OverallDifficulty:9
ApproachRate:9.2
SliderMultiplier:1.5
SliderTickRate:1

[Events]
//Background and Video events
0,0,"triple play.png",0,0
//Break Periods
//Storyboard Layer 0 (Background)
//Storyboard Layer 1 (Fail)
//Storyboard Layer 2 (Pass)
//Storyboard Layer 3 (Foreground)
//Storyboard Sound Samples

[TimingPoints]
1270,342.857142857143,4,1,1,50,1,0
1441,-66.6666666666667,4,1,1,50,0,0
6755,-100,4,1,1,50,0,0
6927,-66.6666666666667,4,1,1,50,0,0
9498,-76.9230769230769,4,1,1,50,0,0
9841,-58.8235294117647,4,1,1,50,0,0
10184,-47.6190476190476,4,1,1,50,0,0
10527,-40,4,1,1,50,0,0
10870,-66.6666666666667,4,1,1,50,0,0
12241,-58.8235294117647,4,1,1,50,0,0
12412,-52.6315789473684,4,1,1,50,0,0
17212,-100,4,1,1,50,0,0
17727,-66.6666666666667,4,1,1,50,0,0
22184,-58.8235294117647,4,1,1,50,0,0
22527,-50,4,1,1,50,0,0
22870,-41.6666666666667,4,1,1,50,0,0
23212,-100,4,1,1,50,0,0
27327,-66.6666666666667,4,1,1,50,0,0
28355,-75.187969924812,4,1,1,50,0,0
28698,-58.8235294117647,4,1,1,50,0,0
29384,-83.3333333333333,4,1,1,50,0,0
29727,-50,4,1,1,50,0,0
30755,-83.3333333333333,4,1,1,50,0,0
30927,-50,4,1,1,50,0,0
33841,-55.5555555555556,4,1,1,50,0,0
34184,-62.5,4,1,1,50,0,0
42412,-50,4,1,1,50,0,0
43098,-83.3333333333333,4,1,1,50,0,0
43441,-50,4,1,1,50,0,0
50298,-100,4,1,1,50,0,0
50641,-50,4,1,1,50,0,0
60584,-43.4782608695652,4,1,1,50,0,0
60927,-38.4615384615385,4,1,1,50,0,0
61270,-34.4827586206897,4,1,1,50,0,0
61612,-66.6666666666667,4,1,1,50,0,0
66755,-100,4,1,1,50,0,0
67098,-50,4,1,10,50,0,1
67270,-50,4,1,1,50,0,1
71898,-50,4,1,3,50,0,1
72498,-50,4,1,1,50,0,0
72584,-50,4,1,1,50,0,1
72841,-50,4,1,1,50,0,1
76012,-50,4,1,4,50,0,1
76141,-50,4,1,1,50,0,1
76698,-50,4,1,1,50,0,0
78070,-45.4545454545455,4,1,1,50,0,1
89041,-66.6666666666667,4,1,1,50,0,0
94184,-100,4,1,1,50,0,0
94527,-58.8235294117647,4,1,1,50,0,0
95212,-83.3333333333333,4,1,1,50,0,0
95555,-58.8235294117647,4,1,1,50,0,0
96584,-83.3333333333333,4,1,1,50,0,0
97270,-58.8235294117647,4,1,1,50,0,0
108927,-83.3333333333333,4,1,1,50,0,0
109270,-50,4,1,1,50,0,0
113727,-58.8235294117647,4,1,1,50,0,0
116127,-100,4,1,1,50,0,0
116470,-50,4,1,1,50,0,0
124698,-66.6666666666667,4,1,1,50,0,0
125384,-50,4,1,1,50,0,0
126070,-50,4,1,1,50,0,0
126412,-43.4782608695652,4,1,1,50,0,0
126755,-38.4615384615385,4,1,1,50,0,0
127098,-34.4827586206897,4,1,1,50,0,0
127441,-66.6666666666667,4,1,1,50,0,0
132927,-50,4,1,5,50,0,1
133012,-50,4,1,1,50,0,1
134298,-40,4,1,1,50,0,1
134641,-50,4,1,1,50,0,1
135327,-66.6666666666667,4,1,1,50,0,1
135670,-45.4545454545455,4,1,1,50,0,1
136012,-50,4,1,1,50,0,1
139784,-40,4,1,1,50,0,1
140127,-50,4,1,1,50,0,1
140812,-66.6666666666667,4,1,1,50,0,1
141155,-45.4545454545455,4,1,1,50,0,1
141498,-50,4,1,1,50,0,1
142527,-58.8235294117647,4,1,1,50,0,0
143555,-100,4,1,1,50,0,0
143898,-50,4,1,1,50,0,1
145270,-40,4,1,1,50,0,1
145612,-50,4,1,1,50,0,1
146298,-66.6666666666667,4,1,1,50,0,1
146641,-45.4545454545455,4,1,1,50,0,1
146984,-50,4,1,1,50,0,1
150755,-40,4,1,1,50,0,1
151098,-50,4,1,1,50,0,1
151784,-66.6666666666667,4,1,1,50,0,1
152127,-45.4545454545455,4,1,1,50,0,1
152470,-50,4,1,1,50,0,1
152812,-45.4545454545455,4,1,1,50,0,1
153155,-50,4,1,1,50,0,1
154870,-58.8235294117647,4,1,1,50,0,0
160012,-100,4,1,1,50,0,0
160355,-58.8235294117647,4,1,1,50,0,0
161041,-83.3333333333333,4,1,1,50,0,0
161384,-58.8235294117647,4,1,1,50,0,0
162412,-83.3333333333333,4,1,1,50,0,0
163098,-58.8235294117647,4,1,1,50,0,0
174755,-83.3333333333333,4,1,1,50,0,0
175098,-58.8235294117647,4,1,1,50,0,0
176127,-83.3333333333333,4,1,1,50,0,0
176812,-58.8235294117647,4,1,1,50,0,0
181955,-100,4,1,1,50,0,0
182298,-50,4,1,1,50,0,0
191898,-50,4,1,1,50,0,0
192241,-43.4782608695652,4,1,1,50,0,0
192584,-38.4615384615385,4,1,1,50,0,0
192927,-34.4827586206897,4,1,1,50,0,0
193270,-66.6666666666667,4,1,1,50,0,0
197384,-50,4,1,1,50,0,0
198412,-100,4,1,1,50,0,0
198755,-40,4,1,1,50,0,1
199098,-50,4,1,1,50,0,1
204241,-40,4,1,1,50,0,1
204584,-50,4,1,1,50,0,1
209727,-50,4,1,1,50,0,0
211098,-50,4,1,1,50,0,1
215212,-40,4,1,1,50,0,1
215555,-50,4,1,1,50,0,1
220698,-50,4,1,1,50,0,0
225670,-100,4,1,1,50,0,0
226184,-66.6666666666667,4,1,1,50,0,0
228927,-66.6666666666667,4,1,1,50,0,0
229270,-58.8235294117647,4,1,1,50,0,0
229612,-47.6190476190476,4,1,1,50,0,0
229955,-40,4,1,1,50,0,0
230298,-66.6666666666667,4,1,1,50,0,0
241270,-58.8235294117647,4,1,1,50,0,0
241612,-50,4,1,1,50,0,0
241955,-41.6666666666667,4,1,1,50,0,0
242298,-34.4827586206897,4,1,1,50,0,0

[HitObjects]
77,261,1270,6,0,P|101:261|131:258,1,37.5,4|0,1:0|0:0,0:0:0:0:
198,263,1441,2,0,P|187:289|190:325,1,56.2500021457673
261,222,1612,2,0,P|272:248|269:284,1,56.2500021457673,0|0,1:0|0:0,0:0:0:0:
198,181,1784,2,0,P|187:207|190:243,1,56.2500021457673
261,140,1955,2,0,P|272:166|269:202,1,56.2500021457673
198,99,2127,2,0,P|187:125|190:161,1,56.2500021457673
261,58,2298,2,0,P|272:84|269:120,1,56.2500021457673
198,17,2470,2,0,P|187:43|190:79,1,56.2500021457673
213,160,2641,6,0,P|161:145|106:162,1,112.500004291535
33,188,2898,1,0,1:0:0:0:
47,111,2984,2,0,P|63:58|48:4,1,112.500004291535
162,63,3327,6,0,B|224:74|224:74|284:63,1,112.500004291535
336,18,3584,1,0,0:0:0:0:
381,83,3670,2,0,B|443:72|443:72|503:83,1,112.500004291535
317,125,4012,6,0,P|301:179|316:236,1,112.500004291535
370,289,4270,1,0,0:0:0:0:
426,232,4355,2,0,P|438:178|423:125,1,112.500004291535
184,306,4698,6,0,B|240:322|240:322|303:306,1,112.500004291535
359,267,4955,1,0,0:0:0:0:
291,224,5041,2,0,B|238:210|238:210|182:226,1,112.500004291535
52,261,5384,6,0,B|32:284|32:284|71:267|114:256,1,112.500004291535
182,226,5641,1,0,0:0:0:0:
150,153,5727,2,0,B|136:120|123:75|123:75|119:107,1,112.500004291535
11,148,6070,6,0,B|55:162|55:162|76:187|76:187|126:205,1,112.500004291535
182,226,6327,1,0,0:0:0:0:
256,198,6412,2,0,B|288:187|288:187|309:162|309:162|353:148,1,112.500004291535
136,12,6755,6,0,P|135:37|138:61,1,37.5
182,122,6927,2,0,B|211:115|211:115|237:122,1,56.2500021457673
303,82,7098,2,0,B|274:89|274:89|248:82,1,56.2500021457673
248,162,7270,2,0,B|274:155|274:155|303:162,1,56.2500021457673
369,122,7441,2,0,B|340:129|340:129|314:122,1,56.2500021457673
314,202,7613,2,0,B|340:195|340:195|369:202,1,56.2500021457673
435,162,7784,2,0,B|406:169|406:169|380:162,1,56.2500021457673
380,242,7956,2,0,B|406:235|406:235|435:242,1,56.2500021457673
502,204,8127,6,0,P|508:133|468:83,1,112.500004291535
424,55,8384,1,0,0:0:0:0:
377,119,8470,2,0,P|328:144|268:131,1,112.500004291535
104,58,8812,6,0,B|165:55|165:55|219:83,1,112.500004291535
259,142,9070,1,0,0:0:0:0:
210,205,9155,2,0,B|165:229|165:229|104:226,1,112.500004291535
0,142,9498,6,0,L|98:142,1,97.4999955368044,8|0,0:0|0:0,0:0:0:0:
420,215,9841,2,0,L|290:215,1,127.50000243187,8|0,0:0|0:0,0:0:0:0:
0,329,10184,2,0,L|171:328,1,157.499995193482,8|0,0:0|0:0,0:0:0:0:
512,384,10527,2,0,L|306:383,1,187.5
88,288,10870,5,0,3:1:0:0:
51,245,10955,1,0,3:1:0:0:
40,191,11041,1,0,3:1:0:0:
55,137,11127,1,0,3:1:0:0:
118,60,11212,5,0,3:1:0:0:
147,94,11297,1,0,3:1:0:0:
156,138,11383,1,0,3:1:0:0:
144,181,11469,1,0,3:1:0:0:
83,246,11555,5,0,3:1:0:0:
64,274,11640,1,0,3:1:0:0:
59,308,11726,1,0,3:1:0:0:
69,340,11812,1,0,3:1:0:0:
184,206,11898,5,8,1:0:0:0:
146,166,11984,1,8,1:0:0:0:
93,150,12070,1,8,1:0:0:0:
39,162,12155,1,8,1:0:0:0:
218,136,12241,6,0,P|250:140|286:138,1,63.7500012159348
178,56,12412,2,0,P|143:50|107:55,1,71.2499980974198
76,153,12584,2,0,P|107:136|142:129,1,71.2499980974198
96,276,12755,2,0,P|109:243|133:216,1,71.2499980974198
220,348,12927,2,0,P|198:320|185:286,1,71.2499980974198
272,278,13098,2,0,P|306:271|338:254,1,71.2499980974198
277,191,13270,2,0,P|276:156|265:122,1,71.2499980974198
192,173,13441,2,0,P|180:206|178:241,1,71.2499980974198
380,333,13612,6,0,P|311:353|235:329,1,142.49999619484
190,276,13870,1,0,0:0:0:0:
135,224,13955,2,0,P|66:206|0:226,1,142.49999619484
121,364,14298,2,0,P|190:382|256:362,2,142.49999619484
44,236,14812,5,0,0:0:0:0:
333,239,14984,2,0,P|351:170|331:104,1,142.49999619484
274,44,15241,1,0,0:0:0:0:
217,103,15327,2,0,P|196:170|215:239,1,142.49999619484
193,25,15670,2,0,B|121:9|121:9|49:25,2,142.49999619484
121,191,16184,5,0,0:0:0:0:
436,105,16355,2,0,P|450:174|433:242,1,142.49999619484
381,301,16612,1,0,0:0:0:0:
322,353,16698,2,0,P|254:370|185:356,1,142.49999619484
257,162,17041,1,0,0:0:0:0:
128,46,17212,6,0,L|135:83,1,37.5
377,83,17384,2,0,L|384:46,1,37.5
255,62,17555,1,0,0:0:0:0:
256,309,17727,1,0,0:0:0:0:
143,158,17898,5,0,3:1:0:0:
381,179,18070,1,0,3:1:0:0:
140,305,18241,5,0,3:1:0:0:
341,69,18412,1,0,3:1:0:0:
310,346,18584,5,0,3:1:0:0:
201,32,18755,1,0,3:1:0:0:
441,221,18927,5,0,3:1:0:0:
91,134,19098,1,0,3:1:0:0:
394,44,19270,5,0,3:1:0:0:
131,317,19441,1,0,3:1:0:0:
212,23,19612,5,0,3:1:0:0:
373,354,19784,1,0,3:1:0:0:
64,131,19955,5,0,3:1:0:0:
469,222,20127,1,0,3:1:0:0:
180,358,20298,5,0,3:1:0:0:
368,100,20470,5,0,3:1:0:0:
331,79,20555,1,0,3:1:0:0:
291,72,20641,1,0,3:1:0:0:
250,78,20727,1,0,3:1:0:0:
213,97,20812,5,0,3:1:0:0:
232,149,20897,1,0,3:1:0:0:
222,204,20983,1,0,3:1:0:0:
185,246,21069,1,0,3:1:0:0:
132,262,21155,5,0,3:1:0:0:
182,219,21240,1,0,3:1:0:0:
246,203,21326,1,0,3:1:0:0:
310,218,21412,1,0,3:1:0:0:
360,260,21498,1,0,3:1:0:0:
417,289,21583,1,0,3:1:0:0:
472,258,21669,1,0,3:1:0:0:
476,194,21755,1,0,3:1:0:0:
425,156,21841,6,0,L|412:204,6,28.1250010728836,0|0|0|0|0|0|0,3:1|3:1|3:1|3:1|3:1|3:1|3:1,3:1:0:0:
355,122,22184,6,0,L|363:91,6,31.8750006079674,0|0|0|0|0|0|0,3:1|3:1|3:1|3:1|3:1|3:1|3:1,3:1:0:0:
271,117,22527,6,0,L|260:152,6,37.5,0|0|0|0|0|0|0,3:1|3:1|3:1|3:1|3:1|3:1|3:1,3:1:0:0:
190,67,22870,6,0,L|201:24,6,44.999998626709,0|0|0|0|0|0|0,3:1|3:1|3:1|3:1|3:1|3:1|3:1,3:1:0:0:
87,109,23212,6,0,B|100:141|116:170|149:199|166:262|136:309|75:317|31:287|18:231|44:191|79:174|205:208|205:208|252:183|298:193|298:193|320:199|353:194|370:173|423:118|425:52|387:8|289:5|243:63|260:150|366:173|366:173|398:173|398:173|422:178|439:172|439:172|458:180|488:181,1,1050,0|0,3:1|0:0,0:0:0:0:
256,192,25955,12,0,27155,3:1:0:0:
188,132,27327,5,0,3:1:0:0:
268,206,27670,1,0,3:1:0:0:
348,132,28012,1,0,3:1:0:0:
151,230,28184,5,0,0:0:0:0:
146,286,28269,1,0,0:0:0:0:
141,342,28355,6,0,B|181:354|217:338|217:338|253:322|293:342,1,150
385,319,28698,6,0,L|376:383,1,63.7500012159348
326,250,28870,2,0,L|336:187,1,63.7500012159348
466,137,29041,6,0,L|457:201,1,63.7500012159348
407,68,29213,2,0,L|417:5,1,63.7500012159348
294,93,29384,2,0,B|262:77|230:93|230:93|198:109|163:95,1,134.999995880127
263,167,29727,6,0,P|263:223|329:151,1,225
180,154,30070,6,0,P|173:201|180:239,1,75
430,224,30241,2,0,P|433:186|426:150,1,75
266,316,30412,6,0,P|313:323|351:316,1,75
336,66,30584,2,0,P|298:62|262:69,1,75
176,227,30755,6,0,P|198:228|220:226,1,44.999998626709
430,224,30927,1,8,1:0:0:0:
394,217,31012,1,8,1:0:0:0:
359,223,31098,1,8,1:0:0:0:
398,381,31270,1,8,1:0:0:0:
94,185,31441,6,0,P|84:229|90:260,1,75,8|0,0:0|0:0,0:0:0:0:
172,140,31612,2,0,L|172:103,2,37.5
256,257,31784,2,0,P|261:220|252:185,1,75
133,319,31955,2,0,P|169:324|205:314,1,75
326,77,32127,6,0,L|332:170,1,75
397,39,32298,2,0,L|397:2,2,37.5
464,150,32470,2,0,L|469:76,1,75
361,227,32641,2,0,L|450:227,1,75
282,263,32812,5,8,0:0:0:0:
492,352,32984,1,8,0:0:0:0:
282,48,33155,1,8,0:0:0:0:
101,352,33327,1,8,0:0:0:0:
282,263,33498,6,0,B|313:163|218:127|218:127|235:142|253:174|252:213,1,225,8|0,0:0|0:0,0:0:0:0:
169,190,33841,2,0,P|146:93|233:49,1,202.499993820191
192,273,34184,6,0,B|152:285|128:273|128:273|104:261|72:273,1,120,4|0,1:0|0:0,0:0:0:0:
50,104,34527,1,0,0:0:0:0:
87,349,34698,1,0,0:0:0:0:
249,193,34870,6,0,B|289:205|313:193|313:193|337:181|369:193,1,120
363,352,35212,1,0,0:0:0:0:
283,118,35384,1,0,0:0:0:0:
502,303,35555,1,0,0:0:0:0:
249,231,35727,1,0,0:0:0:0:
379,55,35898,6,0,P|399:121|377:182,1,120
92,115,36241,1,0,0:0:0:0:
304,117,36412,1,0,0:0:0:0:
204,199,36584,1,0,0:0:0:0:
204,41,36755,1,0,0:0:0:0:
437,96,36927,6,0,B|456:140|456:140|444:174|444:174|463:231,1,120
476,350,37270,2,0,L|422:211,1,120
164,183,37612,6,0,B|191:179|224:198|224:198|252:181|287:180,1,120
401,207,37955,2,0,P|343:198|266:222,1,120
471,155,38298,6,0,B|490:93|490:93|477:35,1,120
512,149,38641,2,0,L|469:267,1,120
256,192,38984,5,0,0:0:0:0:
256,192,39070,1,0,0:0:0:0:
256,192,39155,1,0,0:0:0:0:
131,79,39327,1,0,0:0:0:0:
381,79,39498,1,0,0:0:0:0:
316,323,39670,6,0,P|256:338|199:325,1,120
68,186,40012,2,0,P|126:173|183:188,1,120
120,382,40355,2,0,P|107:323|122:266,1,120
285,323,40698,1,0,0:0:0:0:
26,320,40870,1,0,0:0:0:0:
245,141,41041,2,0,P|303:127|365:140,1,120
176,64,41384,2,0,P|118:50|56:63,1,120
456,23,41727,1,0,0:0:0:0:
280,26,41898,5,8,0:0:0:0:
256,85,41984,1,8,0:0:0:0:
245,140,42070,1,8,0:0:0:0:
242,187,42155,1,0,3:0:0:0:
244,235,42241,1,0,3:0:0:0:
251,270,42327,1,0,3:0:0:0:
281,341,42412,6,0,B|320:348|320:348|361:341,1,75
502,305,42584,2,0,B|468:298|468:298|428:306,1,75
359,180,42755,2,0,B|352:213|352:213|360:253,1,75
420,121,42927,2,0,B|427:81|427:81|421:47,1,75
207,81,43098,2,0,B|239:65|271:81|271:81|303:97|338:83,1,134.999995880127
122,111,43441,6,0,P|105:193|205:145,1,225
35,234,43784,6,0,P|58:267|103:289,1,75
84,48,43955,2,0,P|53:68|33:100,1,75
212,275,44127,2,0,P|243:255|264:224,1,75
266,31,44298,2,0,L|204:102,1,75
111,205,44470,2,0,L|160:148,1,75
338,149,44641,5,8,0:0:0:0:
303,141,44727,1,8,0:0:0:0:
268,148,44812,1,8,0:0:0:0:
425,195,44984,1,8,0:0:0:0:
381,40,45155,6,0,P|378:91|384:143,1,75,8|0,0:0|0:0,0:0:0:0:
427,284,45327,2,0,L|427:332,2,37.5
467,116,45498,2,0,P|468:78|465:41,1,75
345,237,45670,6,0,P|342:288|348:340,1,75
507,310,45841,2,0,P|508:272|505:235,1,75
299,165,46012,6,0,L|261:165,2,37.5
175,244,46184,2,0,P|211:249|249:245,1,75
385,86,46355,2,0,P|348:80|310:84,1,75
119,168,46527,5,8,0:0:0:0:
462,139,46698,1,8,0:0:0:0:
267,2,46870,1,8,0:0:0:0:
306,358,47041,1,8,0:0:0:0:
427,60,47212,6,0,B|365:45|308:92|241:81|241:81|305:75|359:32,1,300,8|0,0:0|0:0,0:0:0:0:
98,275,47898,5,0,3:0:0:0:
256,192,48241,1,0,3:0:0:0:
414,275,48584,1,0,3:0:0:0:
256,320,49270,5,0,0:3:0:0:
256,192,49612,1,0,0:3:0:0:
256,64,49955,1,0,0:3:0:0:
88,248,50298,6,0,B|72:192|72:192|88:140,1,112.5
139,306,50641,6,0,P|209:337|279:308,1,150,8|0,0:0|0:0,0:0:0:0:
482,231,50984,2,0,P|412:200|342:229,1,150,8|0,0:0|0:0,0:0:0:0:
416,383,51327,2,0,B|382:313|416:242|416:242|402:235|402:235|435:158|403:93,1,300,8|0,0:0|0:0,0:0:0:0:
293,0,51841,1,0,0:0:0:0:
144,169,52012,6,0,L|299:162,1,150,8|0,0:0|0:0,0:0:0:0:
512,313,52355,2,0,L|357:306,1,150,8|0,0:0|0:0,0:0:0:0:
109,384,52698,2,0,L|264:377,1,150,8|0,0:0|0:0,0:0:0:0:
481,365,53041,1,0,0:0:0:0:
481,365,53384,6,0,P|504:288|480:219,1,150,8|0,0:0|0:0,0:0:0:0:
362,74,53727,2,0,P|338:150|362:219,1,150,8|0,0:0|0:0,0:0:0:0:
240,366,54070,2,0,P|263:289|239:220,1,150,8|0,0:0|0:0,0:0:0:0:
121,75,54413,2,0,P|97:151|121:220,1,150,8|0,0:0|0:0,0:0:0:0:
452,140,54755,2,0,B|353:156|318:82|318:82|289:157|200:140,1,300,8|0,0:0|0:0,0:0:0:0:
412,44,55270,1,0,0:0:0:0:
320,362,55441,2,0,L|320:198,1,150,8|0,0:0|0:0,0:0:0:0:
319,80,55784,1,0,0:0:0:0:
319,80,56127,5,8,0:0:0:0:
87,262,56298,1,0,0:0:0:0:
344,227,56470,5,8,0:0:0:0:
75,116,56641,1,0,0:0:0:0:
350,113,56812,5,8,0:0:0:0:
63,241,56984,1,0,0:0:0:0:
341,252,57155,5,0,0:0:0:0:
96,88,57327,1,0,0:0:0:0:
155,321,57498,5,8,0:0:0:0:
294,35,57670,1,0,0:0:0:0:
42,168,57841,5,8,0:0:0:0:
377,154,58012,1,0,0:0:0:0:
191,26,58184,5,8,0:0:0:0:
227,317,58355,1,0,0:0:0:0:
56,84,58527,5,0,0:0:0:0:
374,255,58698,1,0,0:0:0:0:
70,207,58870,5,8,0:0:0:0:
112,172,58955,1,0,3:0:0:0:
166,159,59041,1,0,3:0:0:0:
220,169,59127,1,0,3:0:0:0:
265,200,59212,1,0,3:0:0:0:
307,234,59297,1,0,3:0:0:0:
361,247,59383,1,0,3:0:0:0:
415,237,59469,1,0,3:0:0:0:
460,206,59555,5,8,0:0:0:0:
411,150,59640,1,0,3:0:0:0:
339,133,59726,1,0,3:0:0:0:
271,162,59812,1,0,3:0:0:0:
233,225,59898,1,0,3:0:0:0:
184,280,59983,1,0,3:0:0:0:
112,297,60069,1,0,3:0:0:0:
44,268,60155,1,0,3:0:0:0:
6,205,60241,6,0,L|55:177,6,37.5,0|0|0|0|0|0|0,3:0|3:0|3:0|3:0|3:0|3:0|3:0,3:0:0:0:
59,109,60584,6,0,L|96:87,6,43.1250008225441,0|0|0|0|0|0|0,3:0|3:0|3:0|3:0|3:0|3:0|3:0,3:0:0:0:
186,97,60927,6,0,L|228:72,6,48.7499977684022,0|0|0|0|0|0|0,3:0|3:0|3:0|3:0|3:0|3:0|3:0,3:0:0:0:
327,86,61270,6,0,L|376:57,6,54.3750016593934,0|0|0|0|0|0|0,3:0|3:0|3:0|3:0|3:0|3:0|3:0,3:0:0:0:
313,177,61612,5,0,3:0:0:0:
256,312,61955,1,0,3:0:0:0:
199,177,62298,1,0,3:0:0:0:
96,192,62984,5,0,3:0:0:0:
256,192,63327,1,0,3:0:0:0:
416,192,63670,1,0,3:0:0:0:
256,320,64355,5,0,3:0:0:0:
256,64,65041,1,0,3:0:0:0:
128,192,65727,5,0,3:0:0:0:
256,192,66070,1,0,3:0:0:0:
384,192,66413,1,0,3:0:0:0:
256,384,66755,6,0,B|248:356|260:324|260:324|252:324|252:324|264:292|256:264,1,112.5,0|0,3:0|0:0,0:0:0:0:
302,40,67098,6,0,P|340:40|382:53,1,75,0|0,1:0|0:0,0:0:0:0:
152,65,67270,2,0,P|114:67|79:80,1,75
400,166,67441,2,0,P|369:144|334:131,1,75,0|0,0:0|0:0,0:0:0:0:
63,198,67612,2,0,P|91:173|125:158,1,75
329,224,67784,2,0,P|302:250|283:282,1,75
141,253,67955,2,0,P|169:276|190:307,1,75
436,336,68127,2,0,P|405:314|370:301,1,75
43,377,68298,2,0,P|71:352|105:337,1,75
330,239,68470,2,0,P|355:267|370:301,1,75
105,336,68641,2,0,P|120:301|145:273,1,75
370,301,68812,2,0,P|342:326|308:341,1,75
273,76,68983,2,0,P|307:91|335:116,1,75
110,213,69155,2,0,P|85:185|70:151,1,75
335,116,69326,2,0,P|319:150|294:178,1,75
69,150,69498,2,0,P|97:125|131:110,1,75
166,375,69669,2,0,P|131:359|103:334,1,75
201,190,69841,6,0,P|165:202|135:224,1,75,0|0,0:0|0:0,0:0:0:0:
310,199,70012,2,0,P|342:218|369:244,1,75
201,199,70184,2,0,P|169:218|142:244,1,75,0|0,0:0|0:0,0:0:0:0:
308,208,70355,2,0,P|337:232|358:263,1,75
203,208,70527,2,0,P|174:232|153:263,1,75,0|0,0:0|0:0,0:0:0:0:
304,217,70698,2,0,P|328:246|344:280,1,75
207,217,70870,2,0,P|183:246|167:280,1,75,0|0,0:0|0:0,0:0:0:0:
299,225,71041,2,0,P|318:258|327:294,1,75
212,225,71212,2,0,P|193:258|184:294,1,75,0|0,0:0|0:0,0:0:0:0:
292,232,71384,2,0,P|305:267|308:305,1,75
219,232,71555,2,0,P|206:267|203:305,1,75,0|0,0:0|0:0,0:0:0:0:
285,238,71727,2,0,P|291:275|288:312,1,75
239,371,71898,6,0,L|246:312,6,37.5,0|0|0|0|0|0|0,1:0|1:0|1:0|1:0|1:0|1:0|1:0,1:0:0:0:
251,226,72241,5,2,1:0:0:0:
224,171,72327,1,2,1:0:0:0:
262,125,72412,1,2,1:0:0:0:
238,69,72498,1,2,1:0:0:0:
158,53,72584,6,0,P|212:-8|320:61,1,225,0|0,0:0|0:0,0:0:0:0:
388,195,72927,6,0,P|359:161|339:117,1,75,0|0,0:0|0:0,0:0:0:0:
124,195,73098,2,0,P|153:161|173:117,1,75
361,121,73270,2,0,P|345:79|341:30,1,75,0|0,0:0|0:0,0:0:0:0:
151,121,73441,2,0,P|166:79|170:30,1,75
373,74,73612,2,0,P|372:29|385:-17,1,75,0|0,0:0|0:0,0:0:0:0:
139,74,73784,2,0,P|139:29|126:-17,1,75
403,94,73955,2,0,P|417:51|446:12,1,75,0|0,0:0|0:0,0:0:0:0:
109,94,74127,2,0,P|94:51|65:12,1,75
428,137,74298,2,0,P|456:102|496:75,1,75,0|0,0:0|0:0,0:0:0:0:
84,137,74470,2,0,P|55:102|15:75,1,75
431,182,74641,2,0,P|469:159|516:147,1,75,0|0,0:0|0:0,0:0:0:0:
81,182,74812,2,0,P|42:159|-4:147,1,75
424,226,74984,2,0,P|467:217|516:222,1,75,0|0,0:0|0:0,0:0:0:0:
88,226,75155,2,0,P|44:217|-4:222,1,75
462,384,75327,6,0,P|470:340|465:291,1,75,0|0,0:0|0:0,0:0:0:0:
43,309,75498,2,0,P|42:347|50:384,1,75
367,237,75670,2,0,P|358:280|363:329,1,75,0|0,0:0|0:0,0:0:0:0:
151,311,75841,2,0,P|152:273|145:237,1,75
325,261,76012,2,2,P|324:242|328:223,2,37.5,2|2|2,1:0|1:0|1:0,1:0:0:0:
180,186,76184,2,0,P|187:223|187:261,1,75
306,275,76355,2,0,P|305:237|312:200,1,75
199,200,76527,2,0,P|206:237|206:275,1,75
256,336,76698,5,0,0:0:0:0:
116,251,76870,5,0,0:0:0:0:
121,286,76955,1,0,0:0:0:0:
126,322,77041,1,0,0:0:0:0:
386,322,77212,5,0,0:0:0:0:
391,286,77298,1,0,0:0:0:0:
396,251,77383,1,0,0:0:0:0:
256,184,77555,5,0,0:0:0:0:
172,53,77727,5,0,0:0:0:0:
222,31,77812,1,0,0:0:0:0:
278,31,77898,1,0,0:0:0:0:
330,48,77984,1,0,0:0:0:0:
436,133,78070,6,0,L|444:38,1,82.5000025177003,8|0,0:0|0:0,0:0:0:0:
68,50,78241,2,0,L|76:133,1,82.5000025177003
445,198,78412,2,0,L|480:123,1,82.5000025177003,8|0,0:0|0:0,0:0:0:0:
31,123,78584,2,0,L|66:198,1,82.5000025177003
370,281,78755,2,0,L|370:198,1,82.5000025177003,8|0,0:0|0:0,0:0:0:0:
142,198,78927,2,0,L|142:281,1,82.5000025177003
256,88,79098,2,0,L|256:5,1,82.5000025177003,8|0,0:0|0:0,0:0:0:0:
151,237,79270,2,0,L|179:314,1,82.5000025177003
332,314,79441,2,0,L|360:237,1,82.5000025177003,8|0,0:0|0:0,0:0:0:0:
186,131,79612,2,0,L|157:53,1,82.5000025177003
172,270,79784,2,0,L|225:333,1,82.5000025177003,8|0,0:0|0:0,0:0:0:0:
326,131,79955,2,0,L|354:53,1,82.5000025177003
116,95,80127,2,0,L|169:158,1,82.5000025177003,8|0,0:0|0:0,0:0:0:0:
342,158,80298,2,0,L|395:95,1,82.5000025177003
91,149,80470,2,0,L|163:190,1,82.5000025177003,8|0,0:0|0:0,0:0:0:0:
348,190,80641,2,0,L|420:149,1,82.5000025177003
157,53,80812,6,0,L|186:131,1,82.5000025177003,8|0,0:0|0:0,0:0:0:0:
326,131,80984,2,0,L|354:53,1,82.5000025177003
256,192,81155,5,0,0:0:0:0:
240,240,81240,1,0,0:0:0:0:
272,296,81326,1,0,0:0:0:0:
256,352,81412,1,0,0:0:0:0:
175,364,81498,6,0,L|143:274,1,82.5000025177003,8|0,0:0|0:0,0:0:0:0:
364,286,81670,2,0,L|337:364,1,82.5000025177003
70,194,81841,6,0,B|90:187|106:167|106:167|111:175|111:175|128:155|154:153,1,82.5000025177003,8|0,0:0|0:0,0:0:0:0:
133,69,82012,2,0,B|113:62|97:42|97:42|92:50|92:50|75:30|70:33,1,82.5000025177003
5,69,82184,6,0,L|2:172,1,82.5000025177003,8|0,0:0|0:0,0:0:0:0:
216,151,82355,2,0,L|214:69,1,82.5000025177003
29,87,82527,2,0,L|34:189,1,82.5000025177003,8|0,0:0|0:0,0:0:0:0:
184,169,82698,2,0,L|189:87,1,82.5000025177003
104,271,82870,6,0,B|159:258|208:282|208:282|247:269|247:269|301:297|351:276,1,247.500007553101,8|0,0:0|0:0,0:0:0:0:
306,93,83212,5,0,0:0:0:0:
305,142,83298,1,0,0:0:0:0:
304,191,83384,1,0,0:0:0:0:
303,240,83470,1,0,0:0:0:0:
385,339,83555,6,0,B|456:335|492:263|492:263|452:215|387:229,1,247.500007553101
296,320,83898,6,0,P|249:322|191:308,1,82.5000025177003,8|0,0:0|0:0,0:0:0:0:
24,175,84070,2,0,P|60:194|99:206,1,82.5000025177003
261,217,84241,2,0,P|227:192|200:161,1,82.5000025177003,8|0,0:0|0:0,0:0:0:0:
62,28,84412,2,0,P|76:66|99:100,1,82.5000025177003
294,118,84584,2,0,P|284:77|283:36,1,82.5000025177003,8|0,0:0|0:0,0:0:0:0:
24,175,84755,2,0,P|60:194|99:206,1,82.5000025177003
398,250,84927,2,0,P|364:225|337:194,1,82.5000025177003,8|0,0:0|0:0,0:0:0:0:
157,29,85098,2,0,P|171:67|194:101,1,82.5000025177003
429,156,85270,2,0,P|419:115|418:74,1,82.5000025177003,8|0,0:0|0:0,0:0:0:0:
207,284,85441,2,0,P|211:243|225:204,1,82.5000025177003
367,0,85612,2,0,P|341:31|322:68,1,82.5000025177003,8|0,0:0|0:0,0:0:0:0:
143,157,85784,2,0,P|172:128|208:107,1,82.5000025177003
421,139,85955,2,0,P|380:146|342:163,1,82.5000025177003,8|0,0:0|0:0,0:0:0:0:
170,29,86127,2,0,P|211:26|251:33,1,82.5000025177003
409,239,86298,5,8,0:0:0:0:
156,126,86470,1,0,0:0:0:0:
281,311,86641,5,8,0:0:0:0:
273,24,86812,1,0,0:0:0:0:
160,321,86984,5,8,0:0:0:0:
392,50,87155,1,0,0:0:0:0:
101,128,87327,5,8,0:0:0:0:
444,283,87498,1,0,0:0:0:0:
281,43,87670,6,0,P|193:14|126:45,1,165.000005035401,8|0,0:0|0:0,0:0:0:0:
69,83,87927,2,0,P|136:158|105:219,1,165.000005035401,8|0,0:0|0:0,0:0:0:0:
81,274,88184,6,0,P|139:271|175:293,1,82.5000025177003,8|0,0:0|0:0,0:0:0:0:
227,317,88355,2,0,P|225:279|337:193,1,165.000005035401,8|0,0:0|0:0,0:0:0:0:
380,210,88612,2,0,P|359:172|370:131,1,82.5000025177003,8|0,0:0|0:0,0:0:0:0:
423,81,88784,5,8,0:0:0:0:
351,47,88869,1,8,0:0:0:0:
282,86,88955,1,8,0:0:0:0:
275,165,89041,5,12,1:0:0:0:
283,178,89727,1,0,0:0:0:0:
297,187,90412,1,0,0:0:0:0:
372,207,90755,1,0,0:0:0:0:
422,154,91098,1,0,0:0:0:0:
215,187,91784,5,0,0:0:0:0:
140,207,92127,1,0,0:0:0:0:
90,154,92470,1,0,0:0:0:0:
256,336,93155,6,0,B|248:272|260:224|260:224|252:224|252:224|272:168|256:104,2,225.000008583069
422,240,94012,5,0,0:0:0:0:
427,296,94097,1,0,0:0:0:0:
432,352,94183,6,0,B|392:364|356:348|356:348|320:332|267:353,1,168.750006437302
46,373,94527,6,0,P|40:337|48:300,1,63.7500012159348
180,311,94698,2,0,P|185:342|181:373,1,63.7500012159348
112,231,94870,2,0,L|112:168,1,63.7500012159348
178,27,95041,2,0,P|184:63|176:100,1,63.7500012159348
16,60,95212,6,0,P|79:21|106:63,1,134.999995880127
235,158,95555,2,0,P|163:206|113:133,1,191.250003647804
156,289,95898,6,0,P|127:283|97:267,1,63.7500012159348
217,352,96070,2,0,P|188:366|157:373,1,63.7500012159348
355,289,96241,2,0,P|387:282|415:267,1,63.7500012159348
295,351,96412,2,0,P|323:366|354:373,1,63.7500012159348
256,217,96584,2,0,L|256:273,1,44.999998626709
218,130,96755,5,0,0:0:0:0:
255,116,96841,1,0,0:0:0:0:
292,130,96927,1,0,0:0:0:0:
256,16,97098,1,0,0:0:0:0:
134,160,97270,6,0,P|128:121|136:90,1,63.7500012159348
379,97,97441,2,0,P|381:114|378:132,2,31.8750006079674
195,213,97612,2,0,P|189:244|196:275,1,63.7500012159348
315,275,97784,2,0,P|322:244|317:213,1,63.7500012159348
74,331,97955,6,0,L|147:331,1,63.7500012159348
438,331,98127,2,0,L|400:331,2,31.8750006079674
134,250,98298,2,0,L|207:250,1,63.7500012159348
378,250,98470,2,0,L|305:250,1,63.7500012159348
51,250,98641,5,0,0:0:0:0:
256,95,98812,1,0,0:0:0:0:
256,342,98984,1,0,0:0:0:0:
75,60,99155,1,0,0:0:0:0:
438,60,99327,2,0,B|424:120|437:187|437:187|420:146|380:127,1,191.250003647804
396,252,99670,6,0,P|489:245|509:160,1,191.250003647804
298,235,100012,6,0,B|286:305|286:305|300:372,1,127.50000243187
440,304,100355,1,0,0:0:0:0:
145,303,100527,1,0,0:0:0:0:
339,160,100698,6,0,B|350:97|350:97|339:34,1,127.50000243187
142,99,101041,1,0,0:0:0:0:
470,97,101212,1,0,0:0:0:0:
309,9,101384,1,0,0:0:0:0:
310,242,101555,1,0,0:0:0:0:
80,35,101727,6,0,P|53:98|77:163,1,127.50000243187
373,96,102070,1,0,0:0:0:0:
143,100,102241,1,0,0:0:0:0:
263,196,102412,1,0,0:0:0:0:
262,47,102584,1,0,0:0:0:0:
81,257,102755,6,0,B|129:275|129:275|146:300|146:300|192:318,1,127.50000243187
321,316,103098,2,0,L|190:271,1,127.50000243187
403,128,103441,6,0,B|395:160|411:192|411:192|427:224|419:256,1,127.50000243187
421,383,103784,2,0,P|445:333|454:243,1,127.50000243187
85,96,104127,6,0,B|147:79|147:79|209:97,1,127.50000243187
337,85,104470,2,0,L|206:49,1,127.50000243187
256,192,104812,5,0,0:0:0:0:
256,192,104898,1,0,0:0:0:0:
256,192,104984,1,0,0:0:0:0:
112,288,105155,1,0,0:0:0:0:
400,288,105327,1,0,0:0:0:0:
100,125,105498,6,0,P|80:192|98:257,1,127.50000243187
419,246,105841,2,0,P|431:184|412:125,1,127.50000243187
256,0,106184,2,0,L|256:144,1,127.50000243187
146,326,106527,1,0,0:0:0:0:
366,326,106698,1,0,0:0:0:0:
101,117,106870,2,0,P|116:202|95:251,1,127.50000243187
409,238,107212,2,0,P|393:177|411:117,1,127.50000243187
256,328,107555,1,0,0:0:0:0:
255,78,107727,1,0,0:0:0:0:
209,120,107812,1,0,0:0:0:0:
190,165,107898,1,0,0:0:0:0:
186,210,107984,1,0,0:0:0:0:
190,245,108070,1,0,0:0:0:0:
201,275,108155,1,0,0:0:0:0:
256,328,108241,6,0,P|293:335|336:326,1,63.7500012159348
486,362,108412,2,0,P|454:368|423:365,1,63.7500012159348
376,200,108584,2,0,P|373:231|379:262,1,63.7500012159348
499,134,108755,2,0,P|462:127|419:136,1,63.7500012159348
316,151,108927,2,0,P|245:164|169:141,1,134.999995880127
297,71,109270,6,0,P|370:87|313:232,1,225
220,111,109612,6,0,P|210:75|225:25,1,75
140,174,109784,2,0,P|147:210|137:246,1,75
222,309,109955,2,0,P|212:345|227:395,1,75
0,205,110127,2,0,P|36:197|72:207,1,75
359,350,110298,2,0,P|322:357|286:347,1,75
428,305,110470,5,0,0:0:0:0:
463,296,110556,1,0,0:0:0:0:
498,304,110641,1,0,0:0:0:0:
351,259,110812,1,0,0:0:0:0:
463,165,110984,6,0,P|467:108|459:76,1,75
346,214,111155,2,0,P|374:215|390:212,2,37.5
265,90,111327,2,0,P|260:127|266:165,1,75
363,75,111498,2,0,L|363:0,1,75
185,95,111670,6,0,L|182:178,1,75
104,52,111841,2,0,L|104:14,2,37.5
25,169,112012,2,0,L|23:95,1,75
138,240,112184,2,0,L|63:242,1,75
104,354,112355,5,0,0:0:0:0:
256,55,112527,1,0,0:0:0:0:
408,354,112698,1,0,0:0:0:0:
59,157,112870,1,0,0:0:0:0:
457,153,113041,2,0,B|384:203|263:139|263:139|321:170|384:121,1,300
175,302,113727,5,0,0:0:0:0:
337,302,114070,1,0,0:0:0:0:
256,152,114412,1,0,0:0:0:0:
175,82,115098,5,0,0:0:0:0:
337,82,115441,1,0,0:0:0:0:
256,232,115783,1,0,0:0:0:0:
200,352,116127,6,0,B|256:360|256:360|312:352,1,112.5
382,171,116470,6,0,P|343:255|382:306,1,150
258,153,116812,2,0,P|285:86|245:27,1,150
6,116,117155,2,0,B|40:102|73:115|73:115|102:95|136:104|136:104|165:84|208:94|208:94|151:80|109:54,1,300
6,21,117670,1,0,0:0:0:0:
41,186,117841,6,0,L|199:274,1,150
256,44,118184,2,0,L|256:194,1,150
470,186,118527,2,0,L|338:258,1,150
256,304,118870,1,0,0:0:0:0:
256,304,119212,6,0,P|186:330|116:300,1,150
307,223,119555,2,0,P|375:196|443:223,1,150
214,218,119898,2,0,P|187:149|214:81,1,150
68,0,120241,2,0,P|94:68|67:136,1,150
3,323,120584,2,0,B|88:339|117:264|117:264|152:338|251:322,1,300
438,266,121098,1,0,0:0:0:0:
118,115,121270,6,0,L|117:283,1,150
116,384,121612,1,0,0:0:0:0:
116,384,121955,5,0,0:0:0:0:
231,75,122127,1,0,0:0:0:0:
250,357,122298,5,0,0:0:0:0:
92,130,122470,1,0,0:0:0:0:
331,268,122641,5,0,0:0:0:0:
44,236,122812,1,0,0:0:0:0:
325,148,122984,5,0,0:0:0:0:
93,336,123155,1,0,0:0:0:0:
239,74,123327,5,0,0:0:0:0:
220,370,123498,1,0,0:0:0:0:
101,127,123670,5,0,0:0:0:0:
366,253,123841,1,0,0:0:0:0:
69,270,124012,5,0,0:0:0:0:
389,116,124184,1,0,0:0:0:0:
172,371,124355,5,0,0:0:0:0:
249,48,124527,1,0,0:0:0:0:
327,338,124698,5,0,0:0:0:0:
374,363,124783,1,0,0:0:0:0:
419,335,124869,1,0,0:0:0:0:
418,282,124955,1,0,0:0:0:0:
370,257,125041,1,0,0:0:0:0:
322,232,125126,1,0,0:0:0:0:
320,178,125212,1,0,0:0:0:0:
366,150,125298,1,0,0:0:0:0:
413,176,125383,5,0,0:0:0:0:
381,242,125469,1,0,0:0:0:0:
313,268,125555,1,0,0:0:0:0:
246,238,125641,1,0,0:0:0:0:
218,171,125727,1,0,0:0:0:0:
190,104,125812,1,0,0:0:0:0:
123,74,125898,1,0,0:0:0:0:
55,100,125984,1,0,0:0:0:0:
24,167,126070,6,0,L|61:197,6,37.5
144,195,126412,2,0,L|121:157,6,43.1250008225441
207,77,126755,2,0,L|216:124,6,48.7499977684022
310,185,127098,2,0,L|318:131,6,54.3750016593934
229,215,127441,5,0,0:0:0:0:
229,312,127784,1,0,0:0:0:0:
229,118,128127,1,0,0:0:0:0:
329,278,128812,5,0,0:0:0:0:
256,192,129155,1,0,0:0:0:0:
183,278,129498,1,0,0:0:0:0:
256,192,130184,5,0,0:0:0:0:
256,192,130870,5,0,0:0:0:0:
256,88,131555,5,0,0:0:0:0:
256,192,131898,1,0,0:0:0:0:
256,296,132241,1,0,0:0:0:0:
83,309,132584,5,0,0:0:0:0:
61,194,132698,1,0,0:0:0:0:
170,232,132812,1,0,0:0:0:0:
102,246,132927,6,0,B|148:254|191:233|191:233|224:248|224:248|263:230|311:240,1,200,2|0,1:0|0:0,0:0:0:0:
482,161,133270,5,0,0:0:0:0:
397,157,133384,1,0,0:0:0:0:
312,153,133498,1,0,0:0:0:0:
184,78,133612,5,0,0:0:0:0:
269,74,133726,1,0,0:0:0:0:
354,70,133840,1,0,0:0:0:0:
465,106,133955,5,0,0:0:0:0:
477,91,134041,2,0,B|488:56|488:56|480:18,2,75
444,244,134298,6,0,B|361:246|361:246|328:268|328:268|255:267|255:267|221:241|221:241|139:239|139:239|189:208,1,375
293,225,134755,5,0,0:0:0:0:
292,310,134869,1,0,0:0:0:0:
198,354,134984,5,0,0:0:0:0:
194,269,135098,1,0,0:0:0:0:
190,184,135212,1,0,0:0:0:0:
181,55,135327,6,0,B|267:13|239:104|366:40,1,150.000005722046
477,135,135670,2,0,P|380:131|325:254,1,220.000006713867
442,301,136012,5,0,0:0:0:0:
497,251,136127,1,0,0:0:0:0:
427,227,136241,1,0,0:0:0:0:
338,257,136355,5,0,0:0:0:0:
272,197,136470,1,0,0:0:0:0:
355,169,136584,1,0,0:0:0:0:
446,140,136698,6,0,P|425:103|382:80,1,75
339,24,136870,2,0,B|259:9|259:61|184:46,1,150
98,11,137155,5,0,0:0:0:0:
97,96,137269,1,0,0:0:0:0:
185,217,137384,5,0,0:0:0:0:
189,132,137498,1,0,0:0:0:0:
193,47,137612,1,0,0:0:0:0:
319,47,137727,5,0,0:0:0:0:
323,132,137841,1,0,0:0:0:0:
327,217,137955,1,0,0:0:0:0:
256,320,138070,6,0,B|201:318|158:347|158:347|124:316|60:312,1,200
150,154,138412,6,0,B|142:200|163:243|163:243|148:276|148:276|166:315|156:363,1,200
216,90,138755,5,0,0:0:0:0:
285,115,138870,1,0,0:0:0:0:
274,42,138984,1,0,0:0:0:0:
349,68,139098,5,0,0:0:0:0:
437,99,139213,1,0,0:0:0:0:
423,6,139327,1,0,0:0:0:0:
362,155,139441,5,0,0:0:0:0:
355,176,139527,2,0,B|392:184|392:184|435:178,2,75
240,250,139784,6,0,B|221:267|221:267|291:269|291:269|330:251|330:251|390:263|390:263|461:253|461:253|517:286|517:286|478:286,1,375
244,335,140241,5,0,0:0:0:0:
240,250,140355,1,0,0:0:0:0:
147,213,140470,5,0,0:0:0:0:
151,298,140584,1,0,0:0:0:0:
155,383,140698,1,0,0:0:0:0:
63,261,140812,6,0,P|53:197|128:114,1,150.000005722046
191,110,141155,2,0,P|225:22|137:62,1,220.000006713867
216,204,141498,5,0,0:0:0:0:
284,165,141612,1,0,0:0:0:0:
318,94,141726,1,0,0:0:0:0:
284,165,141841,5,0,0:0:0:0:
323,233,141955,1,0,0:0:0:0:
394,267,142069,1,0,0:0:0:0:
323,233,142184,6,0,P|304:270|266:287,1,75
229,352,142355,2,0,P|149:315|91:353,1,150
99,341,142870,1,0,0:0:0:0:
413,341,143212,1,0,0:0:0:0:
413,341,143555,6,0,B|405:317|413:285|413:285|421:253|406:230,1,112.5
205,155,143898,6,0,B|267:137|312:183|312:183|348:128|419:127,1,225
143,63,144241,5,0,0:0:0:0:
98,117,144326,1,0,0:0:0:0:
95,188,144412,1,0,0:0:0:0:
135,244,144498,1,0,0:0:0:0:
205,190,144584,5,0,0:0:0:0:
250,244,144669,1,0,0:0:0:0:
253,315,144755,1,0,0:0:0:0:
212,372,144841,1,0,0:0:0:0:
136,328,144927,5,0,0:0:0:0:
136,339,145012,2,0,B|97:346|97:346|59:339,2,75
323,276,145270,6,0,B|323:208|323:208|341:181|341:181|341:131|341:131|322:104|322:104|322:34|322:34|291:68,1,281.25
141,269,145612,5,0,0:0:0:0:
195,314,145697,1,0,0:0:0:0:
266,317,145783,1,0,0:0:0:0:
323,276,145869,1,0,0:0:0:0:
301,190,145955,5,0,0:0:0:0:
261,223,146040,1,0,0:0:0:0:
208,225,146126,1,0,0:0:0:0:
166,195,146212,1,0,0:0:0:0:
231,140,146298,6,0,B|230:93|279:70|279:70|304:103|352:107,1,168.750006437302
374,189,146641,2,0,P|435:93|351:17,1,247.500007553101
163,99,146984,5,0,0:0:0:0:
217,144,147069,1,0,0:0:0:0:
288,147,147155,1,0,0:0:0:0:
345,106,147241,1,0,0:0:0:0:
254,61,147327,5,0,0:0:0:0:
254,111,147412,1,0,0:0:0:0:
254,161,147498,1,0,0:0:0:0:
254,211,147584,1,0,0:0:0:0:
254,308,147670,5,0,0:0:0:0:
254,329,147755,2,0,B|215:336|215:336|177:329,2,75
413,241,148012,5,0,0:0:0:0:
360,231,148097,1,0,0:0:0:0:
307,221,148183,1,0,0:0:0:0:
254,211,148269,1,0,0:0:0:0:
291,145,148355,5,0,0:0:0:0:
243,136,148440,1,0,0:0:0:0:
195,127,148526,1,0,0:0:0:0:
148,118,148612,1,0,0:0:0:0:
95,25,148698,5,0,0:0:0:0:
50,79,148783,1,0,0:0:0:0:
47,150,148869,1,0,0:0:0:0:
88,207,148955,1,0,0:0:0:0:
171,316,149041,6,0,P|233:228|195:127,1,225
87,206,149384,2,0,B|137:197|189:222|189:222|215:209|215:209|261:226|316:207,1,225
418,140,149727,5,0,0:0:0:0:
412,189,149812,1,0,0:0:0:0:
407,239,149898,1,0,0:0:0:0:
402,289,149984,1,0,0:0:0:0:
304,289,150070,5,0,0:0:0:0:
299,239,150156,1,0,0:0:0:0:
294,189,150242,1,0,0:0:0:0:
288,140,150327,1,0,0:0:0:0:
353,57,150412,5,0,0:0:0:0:
353,36,150498,2,0,B|392:29|392:29|430:36,2,75
236,37,150755,6,0,B|217:60|217:60|173:60|173:60|138:45|138:45|102:60|102:60|21:60|21:60|80:85,1,281.25
143,159,151098,5,0,0:0:0:0:
184,214,151183,1,0,0:0:0:0:
191,282,151269,1,0,0:0:0:0:
162,345,151355,1,0,0:0:0:0:
191,282,151441,5,0,0:0:0:0:
254,253,151527,1,0,0:0:0:0:
322,260,151613,1,0,0:0:0:0:
377,301,151698,1,0,0:0:0:0:
391,219,151784,6,0,B|359:135|359:135|395:20,1,168.750006437302
292,95,152127,2,0,B|272:133|289:173|289:173|239:148|204:167|204:167|167:187|123:167,1,247.500007553101
39,127,152470,5,0,0:0:0:0:
48,198,152555,1,0,0:0:0:0:
55,271,152641,1,0,0:0:0:0:
63,345,152727,1,0,0:0:0:0:
138,299,152812,6,0,B|202:259|266:299|266:299|330:339|386:299,1,247.500007553101
326,140,153155,1,0,0:0:0:0:
326,163,153241,2,0,L|326:257,2,75
176,25,153498,5,0,0:0:0:0:
141,32,153584,1,0,0:0:0:0:
111,53,153669,1,0,0:0:0:0:
86,89,153755,1,0,0:0:0:0:
82,139,153841,1,0,0:0:0:0:
106,190,153926,1,0,0:0:0:0:
156,221,154012,1,0,0:0:0:0:
224,212,154098,1,0,0:0:0:0:
286,185,154184,1,0,0:0:0:0:
350,209,154270,1,0,0:0:0:0:
383,273,154355,1,0,0:0:0:0:
361,346,154441,1,0,0:0:0:0:
294,384,154527,5,0,0:0:0:0:
260,355,154612,1,0,0:0:0:0:
258,311,154698,1,0,0:0:0:0:
291,280,154784,1,0,0:0:0:0:
361,330,154870,5,0,0:0:0:0:
361,330,155555,1,0,0:0:0:0:
176,192,156241,5,0,0:0:0:0:
256,192,156584,1,0,0:0:0:0:
336,192,156927,1,0,0:0:0:0:
256,305,157612,5,0,0:0:0:0:
256,192,157955,1,0,0:0:0:0:
256,78,158298,1,0,0:0:0:0:
128,192,158984,6,0,B|192:216|256:184|256:184|320:152|384:192,2,255.000004863739
314,258,159841,5,0,0:0:0:0:
312,296,159927,1,0,0:0:0:0:
310,335,160012,6,0,P|366:350|419:332,1,112.5
483,167,160355,6,0,P|488:198|481:229,1,63.7500012159348
236,368,160527,2,0,P|228:337|233:306,1,63.7500012159348
487,306,160698,2,0,P|492:337|484:367,1,63.7500012159348
202,324,160870,2,0,P|194:293|199:262,1,63.7500012159348
482,48,161041,2,0,B|476:73|488:109|488:109|477:106|477:106|490:138|483:167,1,134.999995880127
406,145,161384,6,0,P|339:120|428:88,1,191.250003647804
261,134,161727,6,0,P|257:92|270:47,1,63.7500012159348
93,0,161898,2,0,P|97:31|92:63,1,63.7500012159348
272,246,162070,2,0,P|266:282|271:319,1,63.7500012159348
76,236,162241,2,0,P|80:199|75:162,1,63.7500012159348
169,339,162412,6,0,L|169:384,1,44.999998626709
172,110,162584,5,0,0:0:0:0:
172,84,162669,1,0,0:0:0:0:
172,57,162755,1,0,0:0:0:0:
173,202,162927,1,0,0:0:0:0:
324,59,163098,6,0,P|356:54|388:55,1,63.7500012159348
477,108,163270,2,0,P|461:108|445:106,2,31.8750006079674
292,28,163441,2,0,P|323:26|355:31,1,63.7500012159348
355,184,163612,2,0,P|323:189|292:187,1,63.7500012159348
187,59,163784,6,0,P|155:54|123:55,1,63.7500012159348
35,108,163956,2,0,P|50:108|66:106,2,31.8750006079674
220,28,164127,2,0,P|188:26|156:31,1,63.7500012159348
156,184,164298,2,0,P|188:189|220:187,1,63.7500012159348
349,102,164470,5,0,0:0:0:0:
408,350,164641,1,0,0:0:0:0:
192,108,164812,1,0,0:0:0:0:
441,192,164984,1,0,0:0:0:0:
152,333,165155,6,0,P|61:326|53:232,1,191.250003647804
229,143,165498,2,0,B|181:168|183:222|183:222|133:221|112:272,1,191.250003647804
264,215,165841,6,0,B|328:228|393:218,1,127.50000243187
326,64,166184,1,0,0:0:0:0:
327,324,166355,1,0,0:0:0:0:
197,164,166527,6,0,B|133:151|68:161,1,127.50000243187
133,328,166870,1,0,0:0:0:0:
254,98,167041,1,0,0:0:0:0:
14,102,167212,1,0,0:0:0:0:
133,248,167384,1,0,0:0:0:0:
139,14,167555,6,0,B|75:1|3:13,1,127.50000243187
213,61,167898,1,0,0:0:0:0:
434,73,168070,1,0,0:0:0:0:
329,3,168241,1,0,0:0:0:0:
321,186,168412,1,0,0:0:0:0:
130,274,168584,6,0,B|194:288|194:288|256:274,1,127.50000243187
363,285,168927,2,0,L|221:318,1,127.50000243187
75,86,169270,6,0,B|59:118|75:150|75:150|91:182|75:214,1,127.50000243187
56,311,169612,2,0,P|108:248|125:172,1,127.50000243187
121,362,169955,6,0,B|187:377|187:377|264:358,1,127.50000243187
334,291,170298,2,0,L|209:328,1,127.50000243187
191,143,170641,5,0,0:0:0:0:
191,143,170727,1,0,0:0:0:0:
191,143,170812,1,0,0:0:0:0:
338,147,170984,1,0,0:0:0:0:
161,12,171155,1,0,0:0:0:0:
126,206,171327,6,0,P|183:232|249:211,1,127.50000243187
322,78,171670,2,0,P|305:138|331:195,1,127.50000243187
450,299,172012,2,0,P|394:274|333:290,1,127.50000243187
247,360,172355,5,0,0:0:0:0:
386,130,172527,1,0,0:0:0:0:
106,287,172698,6,0,L|251:272,1,127.50000243187
408,213,173041,2,0,L|281:199,1,127.50000243187
92,181,173384,1,0,0:0:0:0:
379,82,173555,5,0,0:0:0:0:
412,124,173641,1,0,0:0:0:0:
422,162,173727,1,0,0:0:0:0:
420,206,173812,1,0,0:0:0:0:
409,244,173898,1,0,0:0:0:0:
392,266,173984,1,0,0:0:0:0:
333,323,174070,6,0,P|299:319|255:326,1,63.7500012159348
125,281,174241,2,0,P|153:266|184:258,1,63.7500012159348
327,212,174412,2,0,P|296:196|252:188,1,63.7500012159348
117,171,174584,2,0,P|138:147|164:129,1,63.7500012159348
338,105,174755,2,0,P|293:58|222:15,1,134.999995880127
36,133,175098,6,0,P|141:129|165:47,1,191.250003647804
69,12,175441,6,0,P|77:51|105:91,1,63.7500012159348
260,190,175612,2,0,P|254:158|240:130,1,63.7500012159348
80,197,175784,2,0,P|119:189|159:161,1,63.7500012159348
258,6,175955,2,0,P|226:11|198:25,1,63.7500012159348
351,94,176127,2,0,L|404:94,1,44.999998626709
241,72,176298,5,0,0:0:0:0:
237,98,176384,1,0,0:0:0:0:
242,124,176470,1,0,0:0:0:0:
119,98,176641,1,0,0:0:0:0:
299,243,176812,6,0,P|304:211|296:181,1,63.7500012159348
262,348,176984,2,0,L|283:323,2,31.8750006079674
358,303,177155,2,0,P|388:294|419:300,1,63.7500012159348
386,205,177327,2,0,L|431:160,1,63.7500012159348
336,64,177498,6,0,L|351:125,1,63.7500012159348
266,33,177670,2,0,L|266:2,2,31.8750006079674
180,125,177841,2,0,L|196:64,1,63.7500012159348
266,162,178012,2,0,L|266:225,1,63.7500012159348
390,257,178184,5,0,0:0:0:0:
122,257,178355,1,0,0:0:0:0:
256,32,178527,1,0,0:0:0:0:
256,352,178698,1,0,0:0:0:0:
57,90,178870,6,0,B|97:30|174:49|174:49|195:131|308:115,1,255.000004863739
128,192,179555,5,0,0:0:0:0:
256,192,179898,1,0,0:0:0:0:
384,192,180241,1,0,0:0:0:0:
256,320,180927,5,0,0:0:0:0:
256,192,181270,1,0,0:0:0:0:
256,64,181613,1,0,0:0:0:0:
417,131,181955,6,0,B|430:190|430:190|419:259,1,112.5
344,296,182298,6,0,P|272:280|192:296,1,150
40,167,182641,2,0,P|112:183|192:167,1,150
352,56,182984,2,0,B|351:7|404:-17|475:4|483:79|419:118|378:135|368:179|389:213|419:266,1,300
424,384,183498,1,0,0:0:0:0:
197,136,183670,6,0,B|119:121|119:121|49:136,1,150
240,214,184012,2,0,B|225:283|225:283|240:361,1,150
318,171,184355,2,0,B|387:185|387:185|465:170,1,150
273,84,184698,1,0,0:0:0:0:
273,84,185041,6,0,P|204:63|126:84,1,150
204,244,185384,2,0,P|273:265|351:244,1,150
80,177,185727,2,0,P|59:246|80:324,1,150
472,321,186070,2,0,P|491:250|470:179,1,150
272,0,186412,2,0,B|232:68|272:144|272:144|308:220|272:296,1,300
136,220,186927,1,0,0:0:0:0:
367,64,187098,2,0,P|446:47|519:64,1,150
444,217,187441,1,0,0:0:0:0:
444,217,187784,5,0,0:0:0:0:
175,198,187955,1,0,0:0:0:0:
357,341,188127,5,0,0:0:0:0:
265,68,188298,1,0,0:0:0:0:
237,346,188470,5,0,0:0:0:0:
402,85,188641,1,0,0:0:0:0:
162,288,188812,5,0,0:0:0:0:
468,157,188984,1,0,0:0:0:0:
119,197,189155,5,0,0:0:0:0:
499,244,189327,1,0,0:0:0:0:
120,99,189498,5,0,0:0:0:0:
501,338,189670,1,0,0:0:0:0:
176,24,189841,5,0,0:0:0:0:
432,381,190012,1,0,0:0:0:0:
255,2,190184,5,0,0:0:0:0:
346,384,190355,1,0,0:0:0:0:
342,58,190527,5,0,0:0:0:0:
302,36,190612,1,0,0:0:0:0:
256,27,190698,1,0,0:0:0:0:
212,33,190784,1,0,0:0:0:0:
171,55,190870,1,0,0:0:0:0:
131,77,190955,1,0,0:0:0:0:
85,86,191041,1,0,0:0:0:0:
41,80,191127,1,0,0:0:0:0:
0,58,191212,5,0,0:0:0:0:
67,49,191297,1,0,0:0:0:0:
123,88,191383,1,0,0:0:0:0:
137,155,191469,1,0,0:0:0:0:
101,213,191555,1,0,0:0:0:0:
65,271,191640,1,0,0:0:0:0:
79,338,191726,1,0,0:0:0:0:
135,377,191812,1,0,0:0:0:0:
207,369,191898,6,0,L|212:326,6,37.5
284,265,192241,6,0,L|294:307,6,43.1250008225441
416,329,192584,6,0,L|388:286,6,48.7499977684022
412,165,192927,6,0,L|455:197,6,54.3750016593934
369,67,193270,5,0,0:0:0:0:
239,67,193612,1,0,0:0:0:0:
109,67,193955,1,0,0:0:0:0:
173,266,194641,5,0,0:0:0:0:
256,136,194984,1,0,0:0:0:0:
339,266,195327,1,0,0:0:0:0:
256,352,196012,5,0,0:0:0:0:
256,321,196097,1,0,0:0:0:0:
256,290,196183,1,0,0:0:0:0:
256,259,196269,1,0,0:0:0:0:
256,228,196354,1,0,0:0:0:0:
256,197,196440,1,0,0:0:0:0:
256,166,196526,1,0,0:0:0:0:
256,135,196612,1,0,0:0:0:0:
180,93,196698,5,0,0:0:0:0:
180,123,196783,1,0,0:0:0:0:
180,154,196869,1,0,0:0:0:0:
180,185,196955,1,0,0:0:0:0:
180,264,197041,6,0,L|180:307,6,28.1250010728836
246,352,197384,6,0,P|290:373|359:362,1,75
375,272,197555,2,0,P|331:293|262:282,1,75
229,273,197727,1,0,0:0:0:0:
372,186,197898,5,0,0:0:0:0:
337,181,197984,1,0,0:0:0:0:
306,164,198069,1,0,0:0:0:0:
372,70,198241,1,0,0:0:0:0:
140,70,198412,6,0,B|133:99|116:126|116:126|120:160|142:182,1,112.5
68,236,198755,6,0,B|60:260|76:284|76:284|68:300|68:300|84:292|84:292|132:340|180:292|180:292|196:300|196:300|188:284|188:284|202:262|196:236,1,281.25
68,299,199098,2,0,P|126:333|207:275,1,150
241,230,199355,1,0,0:0:0:0:
301,172,199441,2,0,B|375:152|375:152|467:177,1,150
502,111,199698,5,0,0:0:0:0:
512,99,199784,2,0,L|439:80,1,75
329,77,199955,2,0,L|256:95,1,75
139,101,200127,6,0,P|166:162|130:236,1,150
119,311,200384,5,0,0:0:0:0:
132,318,200470,2,0,P|172:308|216:327,1,75
261,250,200641,2,0,P|250:214|261:179,1,75
241,60,200812,6,0,B|282:67|282:67|332:53,1,75
387,70,200985,5,0,0:0:0:0:
388,118,201070,1,0,0:0:0:0:
438,195,201155,1,0,0:0:0:0:
453,213,201327,6,0,B|421:198|421:198|374:214,1,75
314,255,201498,5,0,0:0:0:0:
263,277,201583,1,0,0:0:0:0:
208,268,201669,1,0,0:0:0:0:
168,230,201755,1,0,0:0:0:0:
253,177,201841,6,0,B|265:157|274:117|274:117|331:200|433:155,1,225
239,46,202184,2,0,P|276:38|312:49,1,75
404,171,202355,6,0,P|330:171|275:124,1,150
238,293,202698,6,0,P|279:295|321:273,1,75
380,237,202870,2,0,P|347:336|453:252,1,300
498,122,203384,1,0,0:0:0:0:
363,381,203555,1,0,0:0:0:0:
512,285,203727,1,0,0:0:0:0:
366,198,203898,1,0,0:0:0:0:
406,298,204070,1,0,0:0:0:0:
409,80,204241,6,0,B|377:96|377:96|369:112|369:112|361:101|361:101|289:120|226:102|226:102|217:112|217:112|209:96|209:96|167:79,1,281.25
367,113,204584,2,0,P|292:123|219:112,1,150
155,69,204841,1,0,0:0:0:0:
138,144,204927,2,0,P|147:218|136:292,1,150
70,355,205184,5,0,0:0:0:0:
85,347,205270,2,0,P|135:337|167:355,1,75
261,382,205441,2,0,P|295:394|331:382,1,75
435,326,205612,6,0,P|393:288|421:180,1,150
473,149,205870,5,0,0:0:0:0:
488,157,205955,2,0,P|409:174|399:167,1,75
309,179,206127,2,0,P|281:156|243:156,1,75
197,56,206298,6,0,B|181:94|181:94|149:110,1,75
93,172,206470,1,0,0:0:0:0:
163,186,206555,1,0,0:0:0:0:
114,267,206641,1,0,0:0:0:0:
114,299,206812,6,0,B|100:328|100:328|114:381,1,75
183,384,206984,6,0,P|254:361|340:376,1,150
398,349,207241,1,0,0:0:0:0:
410,277,207327,2,0,P|401:203|424:132,1,150
405,59,207584,1,0,0:0:0:0:
331,40,207670,2,0,P|257:49|186:26,1,150
112,45,207927,1,0,0:0:0:0:
93,119,208013,2,0,P|102:192|81:229,1,75
64,275,208184,6,0,L|162:282,1,75
362,297,208355,1,0,0:0:0:0:
175,367,208527,1,0,0:0:0:0:
195,146,208698,1,0,0:0:0:0:
307,384,208870,1,0,0:0:0:0:
94,91,209041,5,0,0:0:0:0:
132,45,209126,1,0,0:0:0:0:
187,26,209212,1,0,0:0:0:0:
245,41,209298,1,0,0:0:0:0:
286,82,209383,1,0,0:0:0:0:
327,123,209470,1,0,0:0:0:0:
384,138,209556,1,0,0:0:0:0:
440,119,209642,1,0,0:0:0:0:
478,73,209727,6,0,L|483:133,4,37.5
440,119,209984,1,0,0:0:0:0:
411,148,210069,1,0,0:0:0:0:
397,187,210155,1,0,0:0:0:0:
399,228,210241,1,0,0:0:0:0:
416,265,210326,1,0,0:0:0:0:
446,292,210412,6,0,L|392:297,6,37.5
336,276,210755,6,0,B|272:236|224:264|224:264|176:292|120:252,1,225
123,344,211098,6,0,P|195:359|268:334,1,150
327,286,211355,5,0,0:0:0:0:
336,276,211441,2,0,P|376:272|416:302,1,75
479,212,211612,2,0,P|462:179|468:143,1,75
420,62,211784,6,0,B|386:82|386:82|345:76,1,75
281,111,211956,1,0,0:0:0:0:
285,182,212041,1,0,0:0:0:0:
208,247,212127,1,0,0:0:0:0:
194,260,212298,6,0,B|157:272|157:272|108:269,1,75
35,207,212470,1,0,0:0:0:0:
29,132,212555,1,0,0:0:0:0:
82,140,212641,1,0,0:0:0:0:
106,189,212727,1,0,0:0:0:0:
31,213,212812,5,0,0:0:0:0:
159,132,212984,5,0,0:0:0:0:
204,103,213070,1,0,0:0:0:0:
254,125,213156,1,0,0:0:0:0:
388,262,213327,6,0,P|291:270|248:367,1,150
192,340,213584,1,0,0:0:0:0:
132,290,213670,6,0,P|177:251|182:226,1,75
189,119,213841,2,0,P|144:158|263:160,1,300
19,175,214355,1,0,0:0:0:0:
173,322,214527,1,0,0:0:0:0:
172,52,214698,1,0,0:0:0:0:
308,287,214870,6,0,P|356:193|291:72,1,225
178,238,215212,6,0,B|229:260|229:260|230:271|230:271|237:263|237:263|309:282|309:282|373:272|373:272|381:279|381:279|383:268|383:268|426:243,1,281.25
233,271,215555,2,0,B|313:292|313:292|404:275,1,150
449,239,215812,1,0,0:0:0:0:
478,160,215898,2,0,P|402:120|387:60,1,150
423,0,216155,5,0,0:0:0:0:
433,0,216241,2,0,P|389:14|325:4,1,75
221,126,216412,2,0,P|256:114|293:113,1,75
106,147,216584,6,0,P|136:223|112:323,1,150
76,350,216841,5,0,0:0:0:0:
90,356,216927,2,0,P|155:345|186:357,1,75
277,235,217098,2,0,P|314:237|349:225,1,75
414,185,217270,5,0,0:0:0:0:
404,0,217441,1,0,0:0:0:0:
259,100,217612,1,0,0:0:0:0:
477,105,217784,5,0,0:0:0:0:
453,77,217869,1,0,0:0:0:0:
423,59,217955,1,0,0:0:0:0:
387,51,218041,1,0,0:0:0:0:
352,56,218126,1,0,0:0:0:0:
320,71,218212,1,0,0:0:0:0:
294,96,218298,1,0,0:0:0:0:
268,121,218384,1,0,0:0:0:0:
236,136,218470,1,0,0:0:0:0:
201,141,218555,1,0,0:0:0:0:
165,133,218641,1,0,0:0:0:0:
135,115,218727,1,0,0:0:0:0:
112,88,218812,1,0,0:0:0:0:
106,58,218898,1,0,0:0:0:0:
102,28,218984,5,0,0:0:0:0:
128,52,219069,1,0,0:0:0:0:
148,82,219155,1,0,0:0:0:0:
159,116,219241,1,0,0:0:0:0:
162,151,219326,1,0,0:0:0:0:
156,187,219412,1,0,0:0:0:0:
141,220,219498,1,0,0:0:0:0:
118,247,219584,1,0,0:0:0:0:
90,269,219669,5,0,0:0:0:0:
128,230,219755,1,0,0:0:0:0:
181,217,219841,1,0,0:0:0:0:
233,233,219927,1,0,0:0:0:0:
269,275,220012,1,0,0:0:0:0:
305,317,220097,1,0,0:0:0:0:
357,334,220183,1,0,0:0:0:0:
410,321,220269,1,0,0:0:0:0:
449,282,220355,5,0,0:0:0:0:
386,243,220440,1,0,0:0:0:0:
312,246,220526,1,0,0:0:0:0:
252,289,220612,1,0,0:0:0:0:
228,359,220698,6,0,P|150:343|136:346,1,75
84,325,220870,2,0,P|118:339|155:341,1,75
151,237,221041,6,0,P|72:248|60:256,1,75
4,254,221213,2,0,P|41:255|77:245,1,75
254,199,221384,6,0,P|218:187|188:165,1,75
121,134,221555,2,0,P|156:145|186:167,1,75
210,64,221727,6,0,P|172:65|136:55,1,75
63,47,221898,2,0,P|141:58|153:66,1,75
254,128,222070,6,0,P|335:148|408:113,1,150
465,89,222327,1,0,0:0:0:0:
429,158,222412,2,0,P|405:228|426:299,1,150
512,232,222755,6,0,B|436:216|436:216|363:228,1,150
291,252,223012,1,0,0:0:0:0:
217,276,223098,2,0,B|146:288|146:288|70:272,1,150
8,68,223441,6,0,B|19:154|19:154|81:181,1,150
147,202,223698,1,0,0:0:0:0:
216,179,223784,2,0,B|275:154|275:154|286:68,1,150
147,202,224127,6,0,P|121:276|147:359,1,150
203,384,224384,1,0,0:0:0:0:
268,343,224470,2,0,P|284:271|259:202,1,150
185,52,224812,6,0,P|268:75|335:51,1,150
405,43,225070,1,0,0:0:0:0:
364,112,225155,2,0,P|292:93|222:116,1,150
296,222,225498,1,0,0:0:0:0:
449,314,225670,6,0,L|439:358,1,37.5
175,361,225841,6,0,L|167:325,1,37.5
304,299,226012,5,0,0:0:0:0:
78,219,226184,6,0,P|75:249|78:276,1,56.2500021457673
126,248,226355,2,0,P|102:230|77:219,1,56.2500021457673
14,160,226527,6,0,P|41:148|63:132,1,56.2500021457673
14,104,226698,2,0,P|10:133|13:160,1,56.2500021457673
198,127,226870,6,0,P|174:109|149:98,1,56.2500021457673
149,155,227041,2,0,P|176:143|198:127,1,56.2500021457673
221,220,227212,6,0,P|217:249|220:276,1,56.2500021457673
269,248,227384,2,0,P|245:230|220:219,1,56.2500021457673
106,266,227555,6,0,P|146:354|164:369,1,112.500004291535
231,382,227812,1,0,0:0:0:0:
305,363,227898,2,0,P|340:319|355:265,1,112.500004291535
303,164,228241,6,0,B|341:178|341:178|409:133,1,112.500004291535
451,81,228498,1,0,0:0:0:0:
401,25,228584,2,0,B|341:-14|341:-14|303:0,1,112.500004291535
136,85,228927,6,0,L|262:85,1,112.500004291535
512,166,229270,2,0,L|367:166,1,127.50000243187
58,271,229612,2,0,L|241:271,1,157.499995193482
512,383,229955,2,0,L|306:383,1,187.5
72,385,230298,5,0,0:0:0:0:
52,332,230383,1,0,0:0:0:0:
55,276,230469,1,0,0:0:0:0:
80,226,230555,1,0,0:0:0:0:
140,168,230641,5,0,0:0:0:0:
156,121,230726,1,0,0:0:0:0:
153,73,230812,1,0,0:0:0:0:
132,29,230898,1,0,0:0:0:0:
49,104,230984,5,0,0:0:0:0:
79,104,231069,1,0,0:0:0:0:
110,104,231155,1,0,0:0:0:0:
141,104,231241,1,0,0:0:0:0:
241,105,231327,5,0,0:0:0:0:
271,151,231412,1,0,0:0:0:0:
283,206,231498,1,0,0:0:0:0:
276,261,231584,1,0,0:0:0:0:
255,310,231670,6,0,P|223:306|185:323,1,56.2500021457673
93,260,231841,2,0,P|120:267|147:262,1,56.2500021457673
118,132,232012,2,0,L|121:211,1,56.2500021457673
220,220,232184,2,0,L|222:163,1,56.2500021457673
91,46,232355,6,0,P|123:50|161:33,1,56.2500021457673
253,96,232526,2,0,P|225:88|198:93,1,56.2500021457673
313,156,232698,2,0,L|378:151,1,56.2500021457673
370,267,232870,2,0,L|313:262,1,56.2500021457673
436,209,233041,6,0,P|453:267|426:337,1,112.500004291535
386,371,233298,1,0,0:0:0:0:
331,316,233384,2,0,P|319:261|336:209,1,112.500004291535
274,378,233727,6,0,B|216:389|216:389|164:375,2,112.500004291535
101,321,234241,1,0,0:0:0:0:
224,179,234412,6,0,B|235:121|235:121|221:69,1,112.500004291535
171,6,234670,1,0,0:0:0:0:
120,68,234755,2,0,B|106:120|106:120|117:178,1,112.500004291535
352,269,235098,6,0,P|298:255|244:268,2,112.500004291535
298,384,235612,1,0,0:0:0:0:
304,118,235784,6,0,P|369:107|425:120,1,112.500004291535
471,168,236041,1,0,0:0:0:0:
414,220,236127,2,0,P|358:229|304:218,1,112.500004291535
218,108,236470,6,0,B|214:162|214:162|222:179|222:179|219:227,1,112.500004291535
161,270,236727,1,0,0:0:0:0:
211,331,236812,2,0,B|250:333|250:333|267:325|267:325|321:329,1,112.500004291535
395,248,237155,5,0,0:0:0:0:
165,168,237327,1,0,0:0:0:0:
396,131,237498,5,0,0:0:0:0:
138,268,237670,1,0,0:0:0:0:
364,42,237841,5,0,0:0:0:0:
198,341,238012,1,0,0:0:0:0:
264,30,238184,5,0,0:0:0:0:
291,363,238355,1,0,0:0:0:0:
181,51,238527,5,0,0:0:0:0:
378,357,238698,1,0,0:0:0:0:
126,119,238870,5,0,0:0:0:0:
444,288,239041,1,0,0:0:0:0:
102,202,239212,5,0,0:0:0:0:
484,206,239384,1,0,0:0:0:0:
114,287,239555,5,0,0:0:0:0:
461,120,239727,1,0,0:0:0:0:
91,332,239898,5,0,0:0:0:0:
139,362,239983,1,0,0:0:0:0:
193,375,240069,1,0,0:0:0:0:
249,369,240155,1,0,0:0:0:0:
300,346,240241,1,0,0:0:0:0:
351,323,240326,1,0,0:0:0:0:
407,317,240412,1,0,0:0:0:0:
461,330,240498,1,0,0:0:0:0:
509,360,240583,5,0,0:0:0:0:
477,315,240669,1,0,0:0:0:0:
461,261,240755,1,0,0:0:0:0:
463,205,240841,1,0,0:0:0:0:
483,153,240927,1,0,0:0:0:0:
495,99,241012,1,0,0:0:0:0:
479,45,241098,1,0,0:0:0:0:
440,6,241184,1,0,0:0:0:0:
386,0,241270,6,0,L|390:36,6,31.8750006079674
368,111,241612,2,0,L|334:96,6,37.5
433,172,241955,2,0,L|395:201,6,44.999998626709
506,70,242298,2,0,L|512:124,6,54.3750016593934
429,47,242641,5,0,0:0:0:0:
