osu file format v14

[General]
AudioFilename: audio.mp3
AudioLeadIn: 0
PreviewTime: 33882
Countdown: 1
SampleSet: Normal
StackLeniency: 0.7
Mode: 1
LetterboxInBreaks: 0
WidescreenStoryboard: 1

[Editor]
DistanceSpacing: 1
BeatDivisor: 4
GridSize: 16
TimelineZoom: 3.2

[Metadata]
Title:TRIPLE PLAY
TitleUnicode:TRIPLE PLAY
Artist:KASAI HARCORES
ArtistUnicode:葛西ハーコーズ
Creator:Getty
Version:Muzukashii
Source:
Tags:Hardcores 葛西ハーコーズEP EP1 osu! Featured Artist FA 大箭将也 Masaya Oya かめりあ Camellia Kamelcamellia Cametek 彦田元気 Genki Hikota DJ Genkianamei 道下朗 Akira Michishita C-Show 葛西西高校 Nishi Highschool High School Baseball Electronic Instrumental Japanese Yooh -dragon67
BeatmapID:1939523
BeatmapSetID:928586

[Difficulty]
HPDrainRate:5
CircleSize:2
OverallDifficulty:5
ApproachRate:10
SliderMultiplier:1.4
SliderTickRate:1

[Events]
//Background and Video events
0,0,"god b.jpg",0,0
//Break Periods
2,23453,25335
//Storyboard Layer 0 (Background)
//Storyboard Layer 1 (Fail)
//Storyboard Layer 2 (Pass)
//Storyboard Layer 3 (Foreground)
//Storyboard Layer 4 (Overlay)
//Storyboard Sound Samples

[TimingPoints]
1311,342.857142857143,4,1,0,80,1,0
1311,-153.846153846154,4,1,0,80,0,0
10911,-147.058823529412,4,1,0,80,0,0
10996,-142.857142857143,4,1,0,80,0,0
11082,-138.888888888889,4,1,0,80,0,0
11168,-135.135135135135,4,1,0,80,0,0
11253,-131.578947368421,4,1,0,80,0,0
11339,-128.205128205128,4,1,0,80,0,0
11425,-125,4,1,0,80,0,0
11511,-121.951219512195,4,1,0,80,0,0
11596,-119.047619047619,4,1,0,80,0,0
11682,-116.279069767442,4,1,0,80,0,0
11768,-113.636363636364,4,1,0,80,0,0
11853,-111.111111111111,4,1,0,80,0,0
11939,-108.695652173913,4,1,0,80,0,0
12025,-106.382978723404,4,1,0,80,0,0
12111,-104.166666666667,4,1,0,80,0,0
12196,-102.040816326531,4,1,0,80,0,0
12282,-100,4,1,0,80,0,0
17253,-80,4,1,0,80,0,0
17768,-100,4,1,0,80,0,0
20511,-100,4,1,0,80,0,0
20596,-99.009900990099,4,1,0,80,0,0
20682,-98.0392156862745,4,1,0,80,0,0
20768,-97.0873786407767,4,1,0,80,0,0
20853,-96.1538461538461,4,1,0,80,0,0
20939,-95.2380952380952,4,1,0,80,0,0
21025,-94.3396226415094,4,1,0,80,0,0
21111,-93.4579439252336,4,1,0,80,0,0
21196,-92.5925925925926,4,1,0,80,0,0
21282,-91.743119266055,4,1,0,80,0,0
21368,-90.9090909090909,4,1,0,80,0,0
21453,-90.0900900900901,4,1,0,80,0,0
21539,-89.2857142857143,4,1,0,80,0,0
21625,-88.4955752212389,4,1,0,80,0,0
21711,-87.719298245614,4,1,0,80,0,0
21796,-86.9565217391304,4,1,0,80,0,0
21882,-86.2068965517241,4,1,0,80,0,0
21968,-85.4700854700855,4,1,0,80,0,0
22053,-84.7457627118644,4,1,0,80,0,0
27196,-100,4,1,0,5,0,0
27368,-100,4,1,0,80,0,0
28739,-80,4,1,0,80,0,0
29768,-100,4,1,0,80,0,0
30111,-80,4,1,0,80,0,0
30968,-100,4,1,0,80,0,0
31482,-80,4,1,0,80,0,0
33882,-100,4,1,0,80,0,0
41939,-100,4,1,0,80,0,0
42025,-102.040816326531,4,1,0,80,0,0
42111,-104.166666666667,4,1,0,80,0,0
42196,-106.382978723404,4,1,0,80,0,0
42282,-108.695652173913,4,1,0,80,0,0
42453,-80,4,1,0,80,0,0
43482,-100,4,1,0,80,0,0
43825,-80,4,1,0,80,0,0
44682,-100,4,1,0,80,0,0
45196,-80,4,1,0,80,0,0
47596,-100,4,1,0,80,0,0
58911,-99.009900990099,4,1,0,80,0,0
58996,-98.0392156862745,4,1,0,80,0,0
59082,-97.0873786407767,4,1,0,80,0,0
59168,-96.1538461538461,4,1,0,80,0,0
59253,-95.2380952380952,4,1,0,80,0,0
59339,-94.3396226415094,4,1,0,80,0,0
59425,-93.4579439252336,4,1,0,80,0,0
59511,-92.5925925925926,4,1,0,80,0,0
59596,-91.743119266055,4,1,0,80,0,0
59682,-90.9090909090909,4,1,0,80,0,0
59768,-90.0900900900901,4,1,0,80,0,0
59853,-89.2857142857143,4,1,0,80,0,0
59939,-88.4955752212389,4,1,0,80,0,0
60025,-87.719298245614,4,1,0,80,0,0
60111,-86.9565217391304,4,1,0,80,0,0
60196,-86.2068965517241,4,1,0,80,0,0
60282,-85.4700854700855,4,1,0,80,0,0
60368,-84.7457627118644,4,1,0,80,0,0
60453,-84.0336134453781,4,1,0,80,0,0
61996,-100,4,1,0,80,0,0
67139,-86.9565217391304,4,1,0,80,0,1
71939,-80,4,1,0,80,0,1
72796,-86.9565217391304,4,1,0,80,0,1
76225,-80,4,1,0,80,0,1
76739,-86.9565217391304,4,1,0,80,0,1
81196,-80,4,1,0,80,0,1
81539,-86.9565217391304,4,1,0,80,0,1
81882,-80,4,1,0,80,0,1
82396,-86.9565217391304,4,1,0,80,0,1
82911,-80,4,1,0,80,0,1
83939,-86.9565217391304,4,1,0,80,0,1
85653,-80,4,1,0,80,0,1
86339,-86.9565217391304,4,1,0,80,0,1
89082,-86.9565217391304,4,1,0,80,0,0
89768,-100,4,1,0,80,0,0
94568,-80,4,1,0,80,0,0
95596,-100,4,1,0,80,0,0
95939,-80,4,1,0,80,0,0
96796,-100,4,1,0,80,0,0
97311,-80,4,1,0,80,0,0
99711,-100,4,1,0,80,0,0
107768,-100,4,1,0,80,0,0
107853,-102.040816326531,4,1,0,80,0,0
107939,-104.166666666667,4,1,0,80,0,0
108025,-106.382978723404,4,1,0,80,0,0
108111,-108.695652173913,4,1,0,80,0,0
108282,-80,4,1,0,80,0,0
109311,-100,4,1,0,80,0,0
109653,-80,4,1,0,80,0,0
110511,-100,4,1,0,80,0,0
111025,-80,4,1,0,80,0,0
113425,-100,4,1,0,80,0,0
124739,-100,4,1,0,80,0,0
124825,-99.009900990099,4,1,0,80,0,0
124911,-98.0392156862745,4,1,0,80,0,0
124996,-97.0873786407767,4,1,0,80,0,0
125082,-96.1538461538461,4,1,0,80,0,0
125168,-95.2380952380952,4,1,0,80,0,0
125253,-94.3396226415094,4,1,0,80,0,0
125339,-93.4579439252336,4,1,0,80,0,0
125425,-92.5925925925926,4,1,0,80,0,0
125511,-91.743119266055,4,1,0,80,0,0
125596,-90.9090909090909,4,1,0,80,0,0
125682,-90.0900900900901,4,1,0,80,0,0
125768,-89.2857142857143,4,1,0,80,0,0
125853,-88.4955752212389,4,1,0,80,0,0
125939,-87.719298245614,4,1,0,80,0,0
126025,-86.9565217391304,4,1,0,80,0,0
126111,-86.2068965517241,4,1,0,80,0,0
127825,-100,4,1,0,80,0,0
132968,-86.9565217391304,4,1,0,80,0,1
134225,-80,4,1,0,80,0,1
134682,-86.9565217391304,4,1,0,80,0,1
135711,-80,4,1,0,80,0,1
135939,-86.9565217391304,4,1,0,80,0,1
136968,-80,4,1,0,80,0,1
138339,-86.9565217391304,4,1,0,80,0,1
139711,-80,4,1,0,80,0,1
140053,-86.9565217391304,4,1,0,80,0,1
142568,-80,4,1,0,80,0,1
143596,-100,4,1,0,80,0,0
143939,-86.9565217391304,4,1,0,80,0,1
144968,-80,4,1,0,80,0,1
145311,-86.9565217391304,4,1,0,80,0,1
146682,-80,4,1,0,80,0,1
147025,-86.9565217391304,4,1,0,80,0,1
150453,-80,4,1,0,80,0,1
150796,-86.9565217391304,4,1,0,80,0,1
151996,-80,4,1,0,80,0,1
152511,-86.9565217391304,4,1,0,80,0,1
153539,-86.9565217391304,4,1,0,80,0,1
153625,-86.2068965517241,4,1,0,80,0,1
153711,-85.4700854700855,4,1,0,80,0,1
153796,-84.7457627118644,4,1,0,80,0,1
153882,-84.0336134453781,4,1,0,80,0,1
153968,-83.3333333333333,4,1,0,80,0,1
154053,-82.6446280991736,4,1,0,80,0,1
154139,-81.9672131147541,4,1,0,80,0,1
154225,-81.3008130081301,4,1,0,80,0,1
154311,-80.6451612903226,4,1,0,80,0,1
154396,-80,4,1,0,80,0,1
154482,-79.3650793650794,4,1,0,80,0,1
154568,-78.7401574803149,4,1,0,80,0,1
154653,-78.125,4,1,0,80,0,1
154739,-77.5193798449612,4,1,0,80,0,1
154825,-76.9230769230769,4,1,0,80,0,1
154911,-76.3358778625954,4,1,0,80,0,1
155596,-100,4,1,0,80,0,0
160396,-80,4,1,0,80,0,0
161425,-100,4,1,0,80,0,0
161768,-80,4,1,0,80,0,0
162625,-100,4,1,0,80,0,0
163139,-80,4,1,0,80,0,0
165539,-100,4,1,0,80,0,0
173596,-100,4,1,0,80,0,0
173682,-102.040816326531,4,1,0,80,0,0
173768,-104.166666666667,4,1,0,80,0,0
173853,-106.382978723404,4,1,0,80,0,0
173939,-108.695652173913,4,1,0,80,0,0
174111,-80,4,1,0,80,0,0
175139,-100,4,1,0,80,0,0
175482,-80,4,1,0,80,0,0
176339,-100,4,1,0,80,0,0
176853,-80,4,1,0,80,0,0
179253,-100,4,1,0,80,0,0
190568,-100,4,1,0,80,0,0
190653,-99.009900990099,4,1,0,80,0,0
190739,-98.0392156862745,4,1,0,80,0,0
190825,-97.0873786407767,4,1,0,80,0,0
190911,-96.1538461538461,4,1,0,80,0,0
190996,-95.2380952380952,4,1,0,80,0,0
191082,-94.3396226415094,4,1,0,80,0,0
191168,-93.4579439252336,4,1,0,80,0,0
191253,-92.5925925925926,4,1,0,80,0,0
191339,-91.743119266055,4,1,0,80,0,0
191425,-90.9090909090909,4,1,0,80,0,0
191511,-90.0900900900901,4,1,0,80,0,0
191596,-89.2857142857143,4,1,0,80,0,0
191682,-88.4955752212389,4,1,0,80,0,0
191768,-87.719298245614,4,1,0,80,0,0
191853,-86.9565217391304,4,1,0,80,0,0
191939,-86.2068965517241,4,1,0,80,0,0
192025,-85.4700854700855,4,1,0,80,0,0
192111,-84.7457627118644,4,1,0,80,0,0
193653,-100,4,1,0,80,0,0
198796,-86.9565217391304,4,1,0,80,0,1
202739,-80,4,1,0,80,0,1
204282,-86.9565217391304,4,1,0,80,0,1
208225,-86.9565217391304,4,1,0,80,0,1
208396,-86.9565217391304,4,1,0,80,0,1
208482,-86.2068965517241,4,1,0,80,0,1
208568,-85.4700854700855,4,1,0,80,0,1
208653,-84.7457627118644,4,1,0,80,0,1
208739,-84.0336134453781,4,1,0,80,0,1
208825,-83.3333333333333,4,1,0,80,0,1
208911,-82.6446280991736,4,1,0,80,0,1
208996,-81.9672131147541,4,1,0,80,0,1
209082,-81.3008130081301,4,1,0,80,0,1
209168,-80.6451612903226,4,1,0,80,0,1
209339,-80,4,1,0,80,0,1
209425,-79.3650793650794,4,1,0,80,0,1
209511,-78.7401574803149,4,1,0,80,0,1
209596,-78.125,4,1,0,80,0,1
209682,-77.5193798449612,4,1,0,80,0,1
209768,-76.9230769230769,4,1,0,80,0,1
210796,-100,4,1,0,80,0,0
211139,-86.9565217391304,4,1,0,80,0,1
213711,-80,4,1,0,80,0,1
215253,-86.9565217391304,4,1,0,80,0,1
219196,-86.9565217391304,4,1,0,80,0,1
219368,-86.9565217391304,4,1,0,80,0,1
219453,-86.2068965517241,4,1,0,80,0,1
219539,-85.4700854700855,4,1,0,80,0,1
219625,-84.7457627118644,4,1,0,80,0,1
219711,-84.0336134453781,4,1,0,80,0,1
219796,-83.3333333333333,4,1,0,80,0,1
219882,-82.6446280991736,4,1,0,80,0,1
219968,-81.9672131147541,4,1,0,80,0,1
220053,-81.3008130081301,4,1,0,80,0,1
220139,-80.6451612903226,4,1,0,80,0,1
220225,-80,4,1,0,80,0,1
220311,-79.3650793650794,4,1,0,80,0,1
220396,-78.7401574803149,4,1,0,80,0,1
220739,-100,4,1,0,80,0,0
225711,-80,4,1,0,80,0,0
226225,-100,4,1,0,80,0,0
239939,-100,4,1,0,80,0,0
240025,-99.009900990099,4,1,0,80,0,0
240111,-98.0392156862745,4,1,0,80,0,0
240196,-97.0873786407767,4,1,0,80,0,0
240282,-96.1538461538461,4,1,0,80,0,0
240368,-95.2380952380952,4,1,0,80,0,0
240453,-94.3396226415094,4,1,0,80,0,0
240539,-93.4579439252336,4,1,0,80,0,0
240625,-92.5925925925926,4,1,0,80,0,0
240711,-91.743119266055,4,1,0,80,0,0
240796,-90.9090909090909,4,1,0,80,0,0
240882,-90.0900900900901,4,1,0,80,0,0
240968,-89.2857142857143,4,1,0,80,0,0
241053,-88.4955752212389,4,1,0,80,0,0
241139,-87.719298245614,4,1,0,80,0,0
241225,-86.9565217391304,4,1,0,80,0,0
241311,-86.2068965517241,4,1,0,80,0,0
241396,-85.4700854700855,4,1,0,80,0,0
241482,-84.7457627118644,4,1,0,80,0,0

[HitObjects]
128,160,1311,5,0,0:0:0:0:
128,160,1653,1,2,0:0:0:0:
128,160,1996,1,0,0:0:0:0:
128,160,2339,1,2,0:0:0:0:
128,160,2682,1,0,0:0:0:0:
128,160,3025,1,2,0:0:0:0:
128,160,3368,1,0,0:0:0:0:
128,160,3711,1,0,0:0:0:0:
128,160,3882,1,0,0:0:0:0:
128,160,4053,1,2,0:0:0:0:
128,160,4396,1,0,0:0:0:0:
128,160,4739,1,0,0:0:0:0:
128,160,5082,1,0,0:0:0:0:
128,160,5425,1,0,0:0:0:0:
128,160,5768,1,0,0:0:0:0:
128,160,6111,1,2,0:0:0:0:
128,160,6796,1,0,0:0:0:0:
128,160,7139,1,2,0:0:0:0:
128,160,7482,1,0,0:0:0:0:
128,160,7825,1,2,0:0:0:0:
128,160,8168,1,0,0:0:0:0:
128,160,8511,1,2,0:0:0:0:
128,160,8853,1,0,0:0:0:0:
128,160,9196,1,0,0:0:0:0:
128,160,9539,1,2,0:0:0:0:
128,160,9882,1,0,0:0:0:0:
128,160,10225,1,2,0:0:0:0:
96,128,10911,1,0,0:0:0:0:
96,128,10996,1,0,0:0:0:0:
96,128,11082,1,0,0:0:0:0:
96,128,11253,1,2,0:0:0:0:
96,128,11339,1,2,0:0:0:0:
96,128,11425,1,2,0:0:0:0:
128,160,11596,1,0,0:0:0:0:
96,128,11682,1,0,0:0:0:0:
96,128,11768,1,0,0:0:0:0:
96,128,11939,1,2,0:0:0:0:
128,160,12282,1,4,0:0:0:0:
128,160,12625,1,2,0:0:0:0:
128,160,12968,1,0,0:0:0:0:
288,96,13053,1,0,0:0:0:0:
128,160,13139,1,0,0:0:0:0:
128,160,13311,1,2,0:0:0:0:
224,160,13653,1,0,0:0:0:0:
224,160,13996,1,2,0:0:0:0:
224,160,14339,1,0,0:0:0:0:
32,160,14425,1,0,0:0:0:0:
224,160,14511,1,0,0:0:0:0:
224,160,14682,1,2,0:0:0:0:
224,160,15025,1,0,0:0:0:0:
224,160,15368,1,2,0:0:0:0:
224,160,15711,1,0,0:0:0:0:
64,128,15796,1,0,0:0:0:0:
224,160,15882,1,0,0:0:0:0:
224,160,16053,1,2,0:0:0:0:
224,160,16396,1,0,0:0:0:0:
224,160,16739,1,2,0:0:0:0:
224,160,17082,1,0,0:0:0:0:
192,128,17168,1,0,0:0:0:0:
224,160,17253,1,0,0:0:0:0:
224,160,17425,1,2,0:0:0:0:
224,160,17768,1,0,0:0:0:0:
224,160,17939,1,0,0:0:0:0:
224,160,18111,1,2,0:0:0:0:
160,128,18282,1,2,0:0:0:0:
224,160,18453,1,0,0:0:0:0:
224,160,18625,1,0,0:0:0:0:
224,160,18796,1,2,0:0:0:0:
256,128,18968,1,2,0:0:0:0:
224,160,19139,1,0,0:0:0:0:
224,160,19311,1,0,0:0:0:0:
224,160,19482,1,2,0:0:0:0:
128,96,19653,1,2,0:0:0:0:
224,160,19825,1,0,0:0:0:0:
224,160,19996,1,0,0:0:0:0:
224,160,20168,1,2,0:0:0:0:
64,160,20339,1,2,0:0:0:0:
224,160,20511,1,0,0:0:0:0:
224,96,20596,1,0,0:0:0:0:
224,160,20682,1,0,0:0:0:0:
224,160,20853,1,2,0:0:0:0:
224,128,20939,1,2,0:0:0:0:
224,128,21025,1,2,0:0:0:0:
224,160,21196,1,0,0:0:0:0:
256,64,21282,1,0,0:0:0:0:
224,160,21368,1,0,0:0:0:0:
224,160,21539,1,2,0:0:0:0:
224,160,21625,1,2,0:0:0:0:
256,64,21711,1,2,0:0:0:0:
256,192,21882,12,0,23253,0:0:0:0:
192,128,27368,5,4,0:0:0:0:
192,128,27711,1,4,0:0:0:0:
192,128,28053,1,6,0:0:0:0:
192,128,28739,1,0,0:0:0:0:
192,128,28911,1,2,0:0:0:0:
192,128,29082,1,0,0:0:0:0:
96,160,29168,1,0,0:0:0:0:
192,128,29253,1,0,0:0:0:0:
192,128,29425,1,2,0:0:0:0:
320,160,29768,1,0,0:0:0:0:
320,160,30111,1,2,0:0:0:0:
320,160,30282,1,0,0:0:0:0:
320,160,30453,1,2,0:0:0:0:
320,160,30539,1,2,0:0:0:0:
320,160,30625,1,2,0:0:0:0:
320,160,30796,1,0,0:0:0:0:
320,160,31139,1,2,0:0:0:0:
128,160,31482,1,0,0:0:0:0:
128,160,31653,1,0,0:0:0:0:
128,160,31825,1,2,0:0:0:0:
320,128,31996,1,2,0:0:0:0:
128,160,32168,1,0,0:0:0:0:
128,160,32339,1,0,0:0:0:0:
128,160,32511,1,2,0:0:0:0:
64,128,32682,1,2,0:0:0:0:
128,160,32853,1,0,0:0:0:0:
128,160,33025,1,0,0:0:0:0:
128,160,33196,1,0,0:0:0:0:
128,160,33368,1,0,0:0:0:0:
128,160,33539,1,2,0:0:0:0:
128,160,33882,1,2,0:0:0:0:
128,160,34225,1,4,0:0:0:0:
128,160,34568,1,4,0:0:0:0:
192,128,34911,1,6,0:0:0:0:
192,192,35253,1,0,0:0:0:0:
192,192,35425,1,0,0:0:0:0:
192,192,35596,1,2,0:0:0:0:
192,192,35939,1,0,0:0:0:0:
192,192,36282,1,2,0:0:0:0:
192,192,36453,1,2,0:0:0:0:
192,192,36625,1,0,0:0:0:0:
192,192,36968,1,0,0:0:0:0:
192,192,37311,1,0,0:0:0:0:
192,192,37653,1,2,0:0:0:0:
192,192,37996,1,2,0:0:0:0:
192,192,38339,1,0,0:0:0:0:
192,192,38682,1,0,0:0:0:0:
192,192,39025,1,2,0:0:0:0:
192,192,39368,1,0,0:0:0:0:
192,192,39539,1,0,0:0:0:0:
192,192,39711,1,2,0:0:0:0:
192,192,40053,1,0,0:0:0:0:
192,192,40396,1,0,0:0:0:0:
192,192,40739,1,2,0:0:0:0:
192,192,40911,1,2,0:0:0:0:
192,192,41082,1,0,0:0:0:0:
192,192,41425,1,0,0:0:0:0:
192,192,41768,1,0,0:0:0:0:
192,192,41939,1,0,0:0:0:0:
192,192,42111,1,2,0:0:0:0:
192,192,42453,1,0,0:0:0:0:
192,192,42625,1,2,0:0:0:0:
192,192,42796,1,0,0:0:0:0:
192,128,42882,1,0,0:0:0:0:
192,192,42968,1,0,0:0:0:0:
192,192,43139,1,2,0:0:0:0:
192,192,43482,1,0,0:0:0:0:
192,192,43825,1,2,0:0:0:0:
192,192,43996,1,0,0:0:0:0:
192,192,44168,1,2,0:0:0:0:
128,128,44253,1,2,0:0:0:0:
192,192,44339,1,2,0:0:0:0:
192,192,44511,1,0,0:0:0:0:
192,192,44853,1,2,0:0:0:0:
192,192,45196,1,0,0:0:0:0:
192,192,45368,1,0,0:0:0:0:
192,192,45539,1,2,0:0:0:0:
192,192,45710,1,2,0:0:0:0:
192,192,45882,1,0,0:0:0:0:
192,192,46053,1,0,0:0:0:0:
192,160,46225,1,2,0:0:0:0:
192,192,46396,1,2,0:0:0:0:
192,192,46567,1,0,0:0:0:0:
192,192,46739,1,0,0:0:0:0:
192,192,46910,1,0,0:0:0:0:
192,192,47082,1,0,0:0:0:0:
192,192,47253,1,2,0:0:0:0:
192,160,47596,1,0,0:0:0:0:
96,288,47939,1,4,0:0:0:0:
224,192,48282,1,4,0:0:0:0:
224,192,48625,1,6,0:0:0:0:
192,192,49311,1,6,0:0:0:0:
192,192,49653,1,6,0:0:0:0:
192,192,49996,1,4,0:0:0:0:
160,224,50682,1,0,0:0:0:0:
160,224,51025,1,2,0:0:0:0:
160,224,51368,1,0,0:0:0:0:
160,224,51539,1,0,0:0:0:0:
160,224,51711,1,0,0:0:0:0:
160,224,52053,1,2,0:0:0:0:
160,224,52396,1,0,0:0:0:0:
160,224,52739,1,2,0:0:0:0:
160,224,52911,1,2,0:0:0:0:
160,224,53082,1,2,0:0:0:0:
160,224,53425,1,0,0:0:0:0:
160,224,53768,1,2,0:0:0:0:
160,224,54111,1,0,0:0:0:0:
160,224,54282,1,0,0:0:0:0:
160,224,54453,1,0,0:0:0:0:
160,224,54796,1,0,0:0:0:0:
160,224,55139,1,0,0:0:0:0:
160,224,55482,1,2,0:0:0:0:
160,224,56168,1,0,0:0:0:0:
160,224,56511,1,2,0:0:0:0:
160,224,56853,1,0,0:0:0:0:
160,224,57025,1,0,0:0:0:0:
160,224,57196,1,0,0:0:0:0:
160,224,57539,1,2,0:0:0:0:
160,224,57882,1,0,0:0:0:0:
160,224,58225,1,2,0:0:0:0:
160,224,58396,1,2,0:0:0:0:
160,224,58568,1,2,0:0:0:0:
160,224,58911,1,0,0:0:0:0:
320,160,58996,1,0,0:0:0:0:
160,224,59082,1,0,0:0:0:0:
160,224,59253,1,2,0:0:0:0:
320,160,59339,1,2,0:0:0:0:
288,128,59425,1,2,0:0:0:0:
160,224,59596,1,0,0:0:0:0:
224,128,59682,1,0,0:0:0:0:
160,224,59768,1,0,0:0:0:0:
32,160,59939,1,2,0:0:0:0:
128,160,60025,1,2,0:0:0:0:
128,160,60111,1,2,0:0:0:0:
256,192,60282,12,0,61311,0:0:0:0:
192,224,61653,5,4,0:0:0:0:
192,224,61996,1,4,0:0:0:0:
192,224,62339,1,6,0:0:0:0:
192,224,63025,1,6,0:0:0:0:
192,224,63368,1,6,0:0:0:0:
192,224,63711,1,4,0:0:0:0:
192,224,64396,1,0,0:0:0:0:
192,224,64739,1,0,0:0:0:0:
192,224,65082,1,2,0:0:0:0:
192,224,65425,1,2,0:0:0:0:
192,224,65768,1,0,0:0:0:0:
192,224,66453,1,0,0:0:0:0:
192,224,67139,1,4,0:0:0:0:
128,224,67311,1,2,0:0:0:0:
192,224,67482,1,0,0:0:0:0:
128,224,67568,1,0,0:0:0:0:
128,224,67653,1,0,0:0:0:0:
192,224,67825,1,2,0:0:0:0:
192,224,67996,1,0,0:0:0:0:
182,112,68168,1,0,0:0:0:0:
160,224,68511,1,2,0:0:0:0:
256,160,68596,1,2,0:0:0:0:
256,160,68682,1,2,0:0:0:0:
160,224,68853,1,0,0:0:0:0:
128,160,69025,1,0,0:0:0:0:
160,224,69196,1,2,0:0:0:0:
243,128,69368,1,0,0:0:0:0:
257,78,69539,1,0,0:0:0:0:
160,224,69882,1,0,0:0:0:0:
192,160,69968,1,0,0:0:0:0:
192,160,70053,1,0,0:0:0:0:
160,224,70225,1,2,0:0:0:0:
64,192,70396,1,2,0:0:0:0:
160,224,70568,1,0,0:0:0:0:
160,224,70739,1,0,0:0:0:0:
238,110,70911,1,0,0:0:0:0:
160,224,71253,1,0,0:0:0:0:
192,224,71339,1,0,0:0:0:0:
192,224,71425,1,0,0:0:0:0:
160,224,71596,1,2,0:0:0:0:
192,192,71768,1,0,0:0:0:0:
160,224,71939,1,2,0:0:0:0:
256,224,72453,1,0,0:0:0:0:
160,224,72625,1,2,0:0:0:0:
256,224,72711,1,2,0:0:0:0:
256,224,72796,1,2,0:0:0:0:
160,224,72968,1,0,0:0:0:0:
256,224,73139,1,2,0:0:0:0:
160,224,73311,1,0,0:0:0:0:
160,224,73482,1,2,0:0:0:0:
218,63,73653,1,0,0:0:0:0:
160,224,73996,1,0,0:0:0:0:
256,160,74082,1,0,0:0:0:0:
256,160,74168,1,0,0:0:0:0:
160,224,74339,1,0,0:0:0:0:
160,160,74511,1,2,0:0:0:0:
160,224,74682,1,0,0:0:0:0:
160,224,74853,1,2,0:0:0:0:
160,224,75025,1,2,0:0:0:0:
160,224,75368,1,2,0:0:0:0:
128,224,75711,1,0,0:0:0:0:
128,224,76053,1,2,0:0:0:0:
128,224,76396,1,0,0:0:0:0:
128,224,76739,1,0,0:0:0:0:
128,224,77425,1,0,0:0:0:0:
128,224,78111,1,0,0:0:0:0:
256,224,78282,1,2,0:0:0:0:
128,224,78453,1,0,0:0:0:0:
256,224,78539,1,0,0:0:0:0:
256,224,78625,1,0,0:0:0:0:
128,224,78796,1,2,0:0:0:0:
128,224,78968,1,2,0:0:0:0:
128,224,79139,1,0,0:0:0:0:
128,224,79482,1,2,0:0:0:0:
416,224,79568,1,2,0:0:0:0:
416,224,79653,1,2,0:0:0:0:
128,224,79825,1,0,0:0:0:0:
384,224,79996,1,0,0:0:0:0:
128,224,80168,1,2,0:0:0:0:
128,224,80339,1,2,0:0:0:0:
128,224,80511,1,0,0:0:0:0:
128,224,80853,1,0,0:0:0:0:
128,160,80939,1,0,0:0:0:0:
256,256,81025,1,0,0:0:0:0:
0,192,81196,2,0,L|166:192,2,131.25
128,224,82225,1,0,0:0:0:0:
128,224,82568,1,2,0:0:0:0:
192,192,82911,2,0,L|369:188,1,175
128,224,83596,1,0,0:0:0:0:
192,288,83768,1,0,0:0:0:0:
128,224,83939,1,2,0:0:0:0:
192,288,84111,1,0,0:0:0:0:
224,256,84196,1,0,0:0:0:0:
128,224,84282,1,0,0:0:0:0:
192,288,84453,1,2,0:0:0:0:
128,224,84625,1,0,0:0:0:0:
128,224,84796,1,0,0:0:0:0:
224,160,84968,1,2,0:0:0:0:
128,224,85311,1,0,0:0:0:0:
224,192,85482,1,0,0:0:0:0:
128,224,85653,1,2,0:0:0:0:
256,224,85825,1,0,0:0:0:0:
128,224,85996,1,2,0:0:0:0:
128,224,86168,1,0,0:0:0:0:
128,224,86339,1,2,0:0:0:0:
320,224,86425,1,2,0:0:0:0:
320,224,86511,1,2,0:0:0:0:
128,224,86682,1,0,0:0:0:0:
224,160,86768,1,0,0:0:0:0:
128,224,86853,1,0,0:0:0:0:
128,224,87025,1,2,0:0:0:0:
256,192,87111,1,2,0:0:0:0:
256,192,87196,1,2,0:0:0:0:
128,224,87368,1,0,0:0:0:0:
224,256,87453,1,0,0:0:0:0:
128,224,87539,1,0,0:0:0:0:
128,224,87711,1,2,0:0:0:0:
227,146,87968,1,0,0:0:0:0:
211,189,88225,1,2,0:0:0:0:
209,173,88396,1,0,0:0:0:0:
42,177,88653,1,0,0:0:0:0:
268,146,88825,1,0,0:0:0:0:
206,164,88911,1,2,0:0:0:0:
128,224,89082,1,4,0:0:0:0:
96,192,89768,1,2,0:0:0:0:
96,192,90453,1,0,0:0:0:0:
96,192,90796,1,0,0:0:0:0:
96,192,91139,1,2,0:0:0:0:
256,192,91825,12,0,94225,0:0:0:0:
192,192,94568,5,0,0:0:0:0:
192,192,94739,1,2,0:0:0:0:
192,192,94911,1,0,0:0:0:0:
96,160,94996,1,0,0:0:0:0:
192,192,95082,1,0,0:0:0:0:
192,192,95253,1,2,0:0:0:0:
64,160,95596,1,0,0:0:0:0:
192,192,95939,1,2,0:0:0:0:
192,192,96111,1,0,0:0:0:0:
192,192,96282,1,2,0:0:0:0:
192,192,96368,1,2,0:0:0:0:
192,192,96453,1,2,0:0:0:0:
320,192,96625,1,0,0:0:0:0:
192,192,96968,1,2,0:0:0:0:
192,192,97311,1,0,0:0:0:0:
192,192,97482,1,0,0:0:0:0:
192,192,97653,1,2,0:0:0:0:
128,128,97825,1,2,0:0:0:0:
192,192,97996,1,0,0:0:0:0:
192,192,98168,1,0,0:0:0:0:
192,192,98339,1,2,0:0:0:0:
320,192,98511,1,2,0:0:0:0:
192,192,98682,1,0,0:0:0:0:
192,192,98853,1,0,0:0:0:0:
192,192,99025,1,0,0:0:0:0:
192,192,99196,1,0,0:0:0:0:
192,192,99368,1,2,0:0:0:0:
192,192,99711,1,0,0:0:0:0:
192,192,100053,1,4,0:0:0:0:
192,192,100396,1,2,0:0:0:0:
192,192,100739,1,2,0:0:0:0:
192,192,101082,1,0,0:0:0:0:
192,192,101253,1,0,0:0:0:0:
192,192,101425,1,2,0:0:0:0:
192,192,101768,1,0,0:0:0:0:
192,192,102111,1,2,0:0:0:0:
192,192,102282,1,2,0:0:0:0:
192,192,102453,1,0,0:0:0:0:
192,192,102796,1,0,0:0:0:0:
192,192,103139,1,0,0:0:0:0:
192,192,103482,1,2,0:0:0:0:
192,192,103825,1,2,0:0:0:0:
192,192,104168,1,0,0:0:0:0:
192,192,104511,1,0,0:0:0:0:
192,192,104853,1,0,0:0:0:0:
96,128,105196,1,0,0:0:0:0:
192,192,105368,1,0,0:0:0:0:
256,128,105539,1,2,0:0:0:0:
224,160,105882,1,0,0:0:0:0:
224,160,106225,1,0,0:0:0:0:
224,160,106568,1,0,0:0:0:0:
224,160,106739,1,0,0:0:0:0:
224,160,106911,1,2,0:0:0:0:
224,160,107253,1,0,0:0:0:0:
224,160,107596,1,2,0:0:0:0:
224,160,107768,1,2,0:0:0:0:
224,160,107939,1,0,0:0:0:0:
224,160,108282,1,2,0:0:0:0:
224,160,108453,1,0,0:0:0:0:
224,160,108625,1,2,0:0:0:0:
160,160,108711,1,2,0:0:0:0:
224,160,108796,1,2,0:0:0:0:
224,160,108968,1,0,0:0:0:0:
192,224,109311,1,2,0:0:0:0:
224,160,109653,1,0,0:0:0:0:
224,160,109825,1,2,0:0:0:0:
224,160,109996,1,0,0:0:0:0:
224,160,110082,1,0,0:0:0:0:
224,160,110168,1,0,0:0:0:0:
288,224,110339,1,2,0:0:0:0:
224,160,110682,1,0,0:0:0:0:
224,160,111025,1,2,0:0:0:0:
224,160,111197,1,2,0:0:0:0:
224,160,111368,1,0,0:0:0:0:
224,160,111539,1,0,0:0:0:0:
224,160,111711,1,2,0:0:0:0:
224,160,111882,1,2,0:0:0:0:
224,160,112053,1,0,0:0:0:0:
32,160,112225,1,0,0:0:0:0:
224,160,112396,1,2,0:0:0:0:
224,160,112568,1,2,0:0:0:0:
224,160,112739,1,2,0:0:0:0:
224,160,112911,1,2,0:0:0:0:
224,160,113082,1,0,0:0:0:0:
224,160,113425,1,2,0:0:0:0:
224,160,113768,1,4,0:0:0:0:
224,160,114111,1,4,0:0:0:0:
224,160,114453,1,6,0:0:0:0:
224,160,115139,1,6,0:0:0:0:
224,160,115482,1,6,0:0:0:0:
224,160,115825,1,4,0:0:0:0:
192,192,116511,1,0,0:0:0:0:
192,192,116853,1,2,0:0:0:0:
192,192,117196,1,0,0:0:0:0:
192,192,117368,1,0,0:0:0:0:
192,192,117539,1,2,0:0:0:0:
192,192,117882,1,0,0:0:0:0:
192,192,118225,1,2,0:0:0:0:
192,192,118568,1,0,0:0:0:0:
192,192,118739,1,0,0:0:0:0:
192,192,118911,1,2,0:0:0:0:
192,192,119253,1,0,0:0:0:0:
192,192,119596,1,0,0:0:0:0:
192,192,119939,1,2,0:0:0:0:
192,192,120282,1,2,0:0:0:0:
192,192,120625,1,0,0:0:0:0:
192,192,121311,1,2,0:0:0:0:
192,192,121996,1,0,0:0:0:0:
192,192,122339,1,2,0:0:0:0:
192,192,122682,1,0,0:0:0:0:
192,192,122853,1,0,0:0:0:0:
192,192,123025,1,2,0:0:0:0:
192,192,123368,1,0,0:0:0:0:
192,192,123711,1,2,0:0:0:0:
192,192,124053,1,0,0:0:0:0:
192,192,124225,1,0,0:0:0:0:
192,192,124396,1,2,0:0:0:0:
192,192,124739,1,0,0:0:0:0:
96,192,124825,1,0,0:0:0:0:
192,192,124911,1,0,0:0:0:0:
192,192,125082,1,2,0:0:0:0:
96,224,125168,1,2,0:0:0:0:
96,224,125253,1,2,0:0:0:0:
192,192,125425,1,0,0:0:0:0:
192,192,125511,1,0,0:0:0:0:
192,192,125596,1,0,0:0:0:0:
224,224,125768,1,2,0:0:0:0:
224,224,125853,1,2,0:0:0:0:
224,224,125939,1,2,0:0:0:0:
256,192,126111,12,0,127139,0:0:0:0:
96,256,127482,5,4,0:0:0:0:
96,256,127825,1,4,0:0:0:0:
96,256,128168,1,6,0:0:0:0:
96,256,128853,1,6,0:0:0:0:
96,256,129196,1,6,0:0:0:0:
96,256,129539,1,4,0:0:0:0:
96,256,130225,1,0,0:0:0:0:
96,256,130911,1,2,0:0:0:0:
96,256,131596,1,2,0:0:0:0:
96,256,131768,1,0,0:0:0:0:
96,256,131939,1,2,0:0:0:0:
96,256,132282,1,0,0:0:0:0:
96,256,132625,1,0,0:0:0:0:
96,256,132968,1,6,0:0:0:0:
128,127,133311,1,0,0:0:0:0:
256,173,133539,1,0,0:0:0:0:
166,113,133653,1,0,0:0:0:0:
220,187,133882,1,0,0:0:0:0:
196,228,133996,1,2,0:0:0:0:
96,256,134339,1,4,0:0:0:0:
119,150,134682,1,0,0:0:0:0:
164,104,134911,1,0,0:0:0:0:
230,159,135025,1,0,0:0:0:0:
227,253,135253,1,2,0:0:0:0:
170,79,135368,1,0,0:0:0:0:
96,256,135711,1,6,0:0:0:0:
183,197,136053,1,0,0:0:0:0:
183,197,136282,1,8,0:0:0:0:
183,197,136396,1,0,0:0:0:0:
195,138,136625,1,0,0:0:0:0:
195,138,136739,1,0,0:0:0:0:
183,197,137082,1,0,0:0:0:0:
195,138,137311,1,8,0:0:0:0:
165,84,137425,1,0,0:0:0:0:
228,202,137768,1,8,0:0:0:0:
234,214,137996,1,8,0:0:0:0:
234,214,138111,1,0,0:0:0:0:
96,256,138453,1,4,0:0:0:0:
96,256,138796,1,2,0:0:0:0:
226,171,139025,1,0,0:0:0:0:
96,256,139139,1,0,0:0:0:0:
193,1,139368,1,0,0:0:0:0:
192,61,139482,1,8,0:0:0:0:
233,153,139825,1,4,0:0:0:0:
96,256,140168,1,2,0:0:0:0:
211,134,140396,1,0,0:0:0:0:
96,256,140511,1,8,0:0:0:0:
96,256,140739,1,0,0:0:0:0:
96,256,140853,1,0,0:0:0:0:
96,256,141196,1,4,0:0:0:0:
96,256,141539,1,2,0:0:0:0:
262,167,141768,1,0,0:0:0:0:
96,256,141882,1,0,0:0:0:0:
224,132,142111,1,0,0:0:0:0:
96,256,142225,1,2,0:0:0:0:
223,157,142453,1,0,0:0:0:0:
96,256,142568,1,0,0:0:0:0:
96,256,142911,1,0,0:0:0:0:
96,256,143253,1,2,0:0:0:0:
96,256,143596,1,2,0:0:0:0:
96,256,143939,1,4,0:0:0:0:
224,192,144111,1,2,0:0:0:0:
96,256,144196,1,2,0:0:0:0:
224,192,144282,1,2,0:0:0:0:
96,256,144453,1,0,0:0:0:0:
96,256,144625,1,2,0:0:0:0:
163,98,144796,1,0,0:0:0:0:
259,118,144968,1,0,0:0:0:0:
320,192,145311,1,0,0:0:0:0:
320,192,145396,1,0,0:0:0:0:
320,192,145482,1,0,0:0:0:0:
32,160,145653,1,2,0:0:0:0:
160,160,145825,1,2,0:0:0:0:
160,160,145996,1,0,0:0:0:0:
160,160,146168,1,0,0:0:0:0:
160,160,146339,1,2,0:0:0:0:
160,160,146682,1,4,0:0:0:0:
96,160,147025,1,0,0:0:0:0:
251,152,147111,1,0,0:0:0:0:
160,160,147196,1,0,0:0:0:0:
160,160,147368,1,2,0:0:0:0:
160,160,147539,1,2,0:0:0:0:
225,36,147711,1,0,0:0:0:0:
160,160,148053,1,0,0:0:0:0:
160,160,148139,1,0,0:0:0:0:
160,160,148225,1,0,0:0:0:0:
128,160,148396,1,2,0:0:0:0:
192,192,148568,1,0,0:0:0:0:
192,192,148739,1,2,0:0:0:0:
192,192,148911,1,2,0:0:0:0:
192,192,149082,1,0,0:0:0:0:
32,160,149425,1,2,0:0:0:0:
192,128,149511,1,2,0:0:0:0:
192,128,149596,1,2,0:0:0:0:
160,160,149768,1,0,0:0:0:0:
160,160,149939,1,0,0:0:0:0:
160,160,150111,1,2,0:0:0:0:
160,160,150282,1,2,0:0:0:0:
160,160,150453,1,0,0:0:0:0:
160,160,150796,1,0,0:0:0:0:
224,160,150882,1,0,0:0:0:0:
224,160,150968,1,0,0:0:0:0:
256,192,151139,1,2,0:0:0:0:
256,192,151311,1,0,0:0:0:0:
256,192,151482,1,2,0:0:0:0:
256,192,151653,1,2,0:0:0:0:
256,192,151825,1,0,0:0:0:0:
224,160,152168,1,2,0:0:0:0:
224,160,152253,1,2,0:0:0:0:
224,160,152339,1,2,0:0:0:0:
288,192,152511,1,0,0:0:0:0:
288,192,152682,1,2,0:0:0:0:
288,192,152853,1,2,0:0:0:0:
288,192,153025,1,0,0:0:0:0:
288,192,153539,1,0,0:0:0:0:
64,160,153625,1,0,0:0:0:0:
128,160,153711,1,0,0:0:0:0:
224,160,153882,1,2,0:0:0:0:
192,96,153968,1,2,0:0:0:0:
224,160,154053,1,2,0:0:0:0:
224,160,154225,1,0,0:0:0:0:
192,96,154311,1,0,0:0:0:0:
192,96,154396,1,0,0:0:0:0:
192,96,154568,1,2,0:0:0:0:
192,96,154653,1,2,0:0:0:0:
192,96,154739,1,2,0:0:0:0:
192,96,154911,1,4,0:0:0:0:
256,128,155596,1,2,0:0:0:0:
256,128,156282,1,0,0:0:0:0:
256,128,156625,1,0,0:0:0:0:
256,128,156968,1,2,0:0:0:0:
256,128,157653,1,0,0:0:0:0:
256,128,157996,1,0,0:0:0:0:
256,128,158339,1,2,0:0:0:0:
256,128,159025,1,2,0:0:0:0:
256,128,159368,1,2,0:0:0:0:
256,128,159711,1,0,0:0:0:0:
256,128,160396,1,0,0:0:0:0:
256,128,160568,1,2,0:0:0:0:
256,128,160739,1,0,0:0:0:0:
224,32,160825,1,0,0:0:0:0:
256,128,160911,1,0,0:0:0:0:
256,128,161082,1,2,0:0:0:0:
256,128,161425,1,0,0:0:0:0:
256,128,161768,1,2,0:0:0:0:
256,128,161939,1,0,0:0:0:0:
256,128,162111,1,2,0:0:0:0:
96,128,162196,1,2,0:0:0:0:
256,128,162282,1,2,0:0:0:0:
256,128,162453,1,0,0:0:0:0:
256,128,162796,1,2,0:0:0:0:
256,128,163139,1,0,0:0:0:0:
256,128,163311,1,0,0:0:0:0:
256,128,163482,1,2,0:0:0:0:
256,128,163653,1,2,0:0:0:0:
256,128,163825,1,0,0:0:0:0:
256,128,163996,1,0,0:0:0:0:
256,128,164168,1,2,0:0:0:0:
256,128,164339,1,2,0:0:0:0:
256,128,164511,1,0,0:0:0:0:
256,128,164682,1,0,0:0:0:0:
256,128,164853,1,2,0:0:0:0:
256,128,165025,1,2,0:0:0:0:
256,128,165196,1,0,0:0:0:0:
32,160,165368,1,0,0:0:0:0:
256,128,165539,1,2,0:0:0:0:
256,128,165882,1,4,0:0:0:0:
256,128,166225,1,2,0:0:0:0:
256,128,166568,1,2,0:0:0:0:
256,128,166911,1,0,0:0:0:0:
256,128,167082,1,0,0:0:0:0:
256,128,167253,1,2,0:0:0:0:
256,128,167596,1,0,0:0:0:0:
256,128,167939,1,2,0:0:0:0:
256,128,168111,1,2,0:0:0:0:
256,128,168282,1,2,0:0:0:0:
256,128,168625,1,0,0:0:0:0:
256,128,168968,1,0,0:0:0:0:
256,128,169311,1,2,0:0:0:0:
256,128,169653,1,2,0:0:0:0:
256,128,169996,1,0,0:0:0:0:
256,128,170339,1,0,0:0:0:0:
256,128,170682,1,2,0:0:0:0:
256,128,171025,1,2,0:0:0:0:
256,128,171368,1,0,0:0:0:0:
256,128,171540,1,0,0:0:0:0:
256,128,171711,1,2,0:0:0:0:
256,128,172053,1,0,0:0:0:0:
256,128,172396,1,2,0:0:0:0:
256,128,172568,1,2,0:0:0:0:
256,128,172739,1,0,0:0:0:0:
256,128,173082,1,0,0:0:0:0:
256,128,173425,1,2,0:0:0:0:
256,128,173596,1,2,0:0:0:0:
256,128,173768,1,0,0:0:0:0:
256,128,174111,1,2,0:0:0:0:
256,128,174282,1,0,0:0:0:0:
256,128,174453,1,2,0:0:0:0:
64,128,174539,1,2,0:0:0:0:
256,128,174625,1,2,0:0:0:0:
256,128,174796,1,0,0:0:0:0:
256,128,175139,1,2,0:0:0:0:
256,128,175482,1,0,0:0:0:0:
256,128,175653,1,2,0:0:0:0:
256,128,175825,1,0,0:0:0:0:
128,128,175911,1,0,0:0:0:0:
256,128,175996,1,0,0:0:0:0:
256,128,176168,1,2,0:0:0:0:
256,128,176511,1,0,0:0:0:0:
256,128,176853,1,2,0:0:0:0:
256,128,177025,1,2,0:0:0:0:
256,128,177196,1,0,0:0:0:0:
256,128,177368,1,0,0:0:0:0:
256,128,177539,1,2,0:0:0:0:
256,128,177711,1,2,0:0:0:0:
256,128,177882,1,0,0:0:0:0:
256,128,178053,1,0,0:0:0:0:
256,128,178225,1,2,0:0:0:0:
256,128,178396,1,2,0:0:0:0:
256,128,178568,1,0,0:0:0:0:
256,128,178739,1,0,0:0:0:0:
256,128,178911,1,0,0:0:0:0:
256,128,179082,1,0,0:0:0:0:
0,160,179253,1,2,0:0:0:0:
256,128,179596,1,4,0:0:0:0:
256,128,179939,1,4,0:0:0:0:
256,128,180282,1,6,0:0:0:0:
256,128,180968,1,6,0:0:0:0:
256,128,181311,1,6,0:0:0:0:
256,128,181653,1,4,0:0:0:0:
256,128,182339,1,0,0:0:0:0:
256,128,182682,1,2,0:0:0:0:
256,128,183025,1,0,0:0:0:0:
256,128,183196,1,0,0:0:0:0:
256,128,183368,1,2,0:0:0:0:
256,128,183711,1,0,0:0:0:0:
256,128,184053,1,2,0:0:0:0:
256,128,184396,1,0,0:0:0:0:
256,128,184568,1,0,0:0:0:0:
256,128,184739,1,2,0:0:0:0:
256,128,185082,1,0,0:0:0:0:
256,128,185425,1,2,0:0:0:0:
256,128,185768,1,0,0:0:0:0:
256,128,185939,1,0,0:0:0:0:
256,128,186111,1,2,0:0:0:0:
256,128,186453,1,0,0:0:0:0:
256,128,186796,1,2,0:0:0:0:
256,128,187139,1,0,0:0:0:0:
256,128,187311,1,0,0:0:0:0:
256,128,187482,1,2,0:0:0:0:
256,128,187825,1,0,0:0:0:0:
256,128,188168,1,2,0:0:0:0:
256,128,188511,1,0,0:0:0:0:
256,128,188682,1,0,0:0:0:0:
256,128,188853,1,2,0:0:0:0:
256,128,189196,1,0,0:0:0:0:
256,128,189539,1,2,0:0:0:0:
256,128,189882,1,0,0:0:0:0:
256,128,190053,1,0,0:0:0:0:
256,128,190225,1,2,0:0:0:0:
256,128,190568,1,0,0:0:0:0:
96,160,190653,1,0,0:0:0:0:
256,128,190739,1,0,0:0:0:0:
256,128,190911,1,2,0:0:0:0:
160,128,190996,1,2,0:0:0:0:
256,128,191082,1,2,0:0:0:0:
256,128,191253,1,0,0:0:0:0:
160,128,191339,1,0,0:0:0:0:
256,128,191425,1,0,0:0:0:0:
256,128,191596,1,2,0:0:0:0:
160,128,191682,1,2,0:0:0:0:
256,128,191768,1,2,0:0:0:0:
256,192,191939,12,0,192968,0:0:0:0:
256,128,193311,5,0,0:0:0:0:
256,128,193653,1,0,0:0:0:0:
256,128,193996,1,2,0:0:0:0:
256,128,194682,1,6,0:0:0:0:
256,128,195025,1,6,0:0:0:0:
256,128,195368,1,4,0:0:0:0:
256,128,196053,1,2,0:0:0:0:
256,128,196396,1,2,0:0:0:0:
256,128,196739,1,2,0:0:0:0:
256,128,197082,1,2,0:0:0:0:
256,128,197425,1,0,0:0:0:0:
256,128,197596,1,0,0:0:0:0:
256,128,197768,1,0,0:0:0:0:
256,128,197939,1,0,0:0:0:0:
256,128,198111,1,2,0:0:0:0:
256,128,198453,1,0,0:0:0:0:
256,128,198796,1,4,0:0:0:0:
256,128,199139,1,2,0:0:0:0:
256,128,199482,1,0,0:0:0:0:
96,160,199568,1,0,0:0:0:0:
256,128,199653,1,0,0:0:0:0:
256,128,199825,1,2,0:0:0:0:
256,128,200168,1,0,0:0:0:0:
256,128,200511,1,2,0:0:0:0:
224,160,200853,1,0,0:0:0:0:
128,160,200939,1,0,0:0:0:0:
224,160,201025,1,0,0:0:0:0:
224,160,201196,1,2,0:0:0:0:
224,160,201539,1,0,0:0:0:0:
224,160,201882,1,2,0:0:0:0:
224,160,202225,1,0,0:0:0:0:
224,160,202311,1,0,0:0:0:0:
224,160,202396,1,0,0:0:0:0:
160,128,202568,1,2,0:0:0:0:
224,160,202911,1,0,0:0:0:0:
224,160,203253,1,0,0:0:0:0:
224,160,203596,1,2,0:0:0:0:
224,160,203939,1,2,0:0:0:0:
224,160,204282,1,0,0:0:0:0:
224,160,204625,1,2,0:0:0:0:
224,160,204968,1,0,0:0:0:0:
96,128,205053,1,0,0:0:0:0:
224,160,205139,1,0,0:0:0:0:
224,160,205311,1,2,0:0:0:0:
224,160,205653,1,0,0:0:0:0:
224,160,205996,1,2,0:0:0:0:
224,160,206339,1,0,0:0:0:0:
0,160,206425,1,0,0:0:0:0:
224,160,206511,1,0,0:0:0:0:
224,160,206682,1,2,0:0:0:0:
224,160,207025,1,0,0:0:0:0:
224,160,207368,1,0,0:0:0:0:
224,160,207711,1,2,0:0:0:0:
224,160,208053,1,2,0:0:0:0:
224,160,208396,1,0,0:0:0:0:
224,160,209082,1,0,0:0:0:0:
192,160,209768,1,2,0:0:0:0:
192,160,210111,1,2,0:0:0:0:
192,160,210453,1,0,0:0:0:0:
64,160,210539,1,0,0:0:0:0:
192,160,210625,1,0,0:0:0:0:
128,160,210711,1,0,0:0:0:0:
192,160,210796,1,0,0:0:0:0:
192,160,211139,1,6,0:0:0:0:
192,160,211482,1,0,0:0:0:0:
192,160,211825,1,2,0:0:0:0:
0,160,211911,1,2,0:0:0:0:
192,160,211996,1,2,0:0:0:0:
192,160,212168,1,0,0:0:0:0:
192,160,212511,1,2,0:0:0:0:
192,160,212853,1,0,0:0:0:0:
256,192,213196,1,2,0:0:0:0:
256,192,213282,1,2,0:0:0:0:
192,160,213368,1,2,0:0:0:0:
192,160,213539,1,0,0:0:0:0:
192,160,213882,1,0,0:0:0:0:
192,160,214225,1,0,0:0:0:0:
192,160,214568,1,2,0:0:0:0:
192,160,214911,1,2,0:0:0:0:
192,160,215253,1,0,0:0:0:0:
192,160,215596,1,2,0:0:0:0:
192,160,215939,1,0,0:0:0:0:
192,192,216025,1,0,0:0:0:0:
192,160,216111,1,0,0:0:0:0:
288,224,216282,1,2,0:0:0:0:
192,160,216625,1,0,0:0:0:0:
192,160,216968,1,2,0:0:0:0:
192,160,217311,1,0,0:0:0:0:
64,160,217396,1,0,0:0:0:0:
192,160,217482,1,0,0:0:0:0:
192,160,217653,1,2,0:0:0:0:
128,160,217996,1,0,0:0:0:0:
160,160,218082,1,0,0:0:0:0:
192,160,218168,1,0,0:0:0:0:
192,160,218339,1,2,0:0:0:0:
160,160,218425,1,2,0:0:0:0:
192,160,218511,1,2,0:0:0:0:
96,128,218682,1,0,0:0:0:0:
128,128,218768,1,0,0:0:0:0:
192,160,218853,1,0,0:0:0:0:
192,160,219025,1,2,0:0:0:0:
96,128,219111,1,2,0:0:0:0:
192,160,219196,1,2,0:0:0:0:
256,192,219368,12,0,220396,0:0:0:0:
192,160,220739,5,4,0:0:0:0:
192,160,221082,1,2,0:0:0:0:
192,160,221425,1,0,0:0:0:0:
192,160,221596,1,0,0:0:0:0:
192,160,221768,1,2,0:0:0:0:
192,160,222111,1,0,0:0:0:0:
192,160,222453,1,2,0:0:0:0:
192,160,222796,1,0,0:0:0:0:
192,160,222968,1,0,0:0:0:0:
192,160,223139,1,2,0:0:0:0:
192,160,223482,1,0,0:0:0:0:
192,160,223825,1,2,0:0:0:0:
192,160,224168,1,0,0:0:0:0:
192,160,224253,1,0,0:0:0:0:
192,160,224339,1,0,0:0:0:0:
128,128,224511,1,2,0:0:0:0:
192,160,224853,1,0,0:0:0:0:
192,160,225196,1,2,0:0:0:0:
192,160,225539,1,0,0:0:0:0:
192,160,225625,1,0,0:0:0:0:
192,160,225711,1,0,0:0:0:0:
64,128,225882,1,2,0:0:0:0:
192,160,226225,1,0,0:0:0:0:
192,160,226568,1,2,0:0:0:0:
192,160,226911,1,0,0:0:0:0:
192,160,227082,1,0,0:0:0:0:
192,160,227253,1,2,0:0:0:0:
192,160,227596,1,0,0:0:0:0:
192,160,227939,1,2,0:0:0:0:
192,160,228282,1,0,0:0:0:0:
192,160,228453,1,0,0:0:0:0:
192,160,228625,1,2,0:0:0:0:
192,160,228968,1,0,0:0:0:0:
192,160,229311,1,0,0:0:0:0:
192,160,229653,1,2,0:0:0:0:
192,160,230339,1,2,0:0:0:0:
192,160,230682,1,2,0:0:0:0:
192,160,231025,1,0,0:0:0:0:
192,160,231711,1,0,0:0:0:0:
192,160,232053,1,0,0:0:0:0:
192,160,232396,1,2,0:0:0:0:
192,160,232568,1,2,0:0:0:0:
192,160,232739,1,2,0:0:0:0:
192,160,233082,1,0,0:0:0:0:
192,160,233425,1,0,0:0:0:0:
192,160,233768,1,2,0:0:0:0:
192,160,233939,1,2,0:0:0:0:
192,160,234111,1,2,0:0:0:0:
192,160,234453,1,0,0:0:0:0:
192,160,234796,1,0,0:0:0:0:
192,160,235139,1,2,0:0:0:0:
192,160,235311,1,2,0:0:0:0:
192,160,235482,1,2,0:0:0:0:
192,160,235825,1,0,0:0:0:0:
192,160,236168,1,0,0:0:0:0:
192,160,236511,1,2,0:0:0:0:
192,160,236682,1,2,0:0:0:0:
192,160,236853,1,2,0:0:0:0:
192,160,237196,1,0,0:0:0:0:
192,160,237368,1,0,0:0:0:0:
192,160,237539,1,0,0:0:0:0:
192,160,237882,1,2,0:0:0:0:
192,160,238053,1,2,0:0:0:0:
192,160,238225,1,2,0:0:0:0:
192,160,238568,1,0,0:0:0:0:
192,160,238739,1,0,0:0:0:0:
192,160,238911,1,0,0:0:0:0:
192,160,239253,1,2,0:0:0:0:
192,160,239425,1,2,0:0:0:0:
192,160,239596,1,2,0:0:0:0:
192,160,239939,1,0,0:0:0:0:
64,160,240025,1,0,0:0:0:0:
192,160,240111,1,0,0:0:0:0:
192,160,240282,1,2,0:0:0:0:
160,160,240368,1,2,0:0:0:0:
192,160,240453,1,2,0:0:0:0:
192,160,240625,1,0,0:0:0:0:
160,160,240711,1,0,0:0:0:0:
192,160,240796,1,0,0:0:0:0:
192,160,240968,1,2,0:0:0:0:
160,160,241053,1,2,0:0:0:0:
192,160,241139,1,2,0:0:0:0:
256,192,241311,12,0,242682,0:0:0:0:
