osu file format v14

[General]
AudioFilename: audio.mp3
AudioLeadIn: 0
PreviewTime: 257492
Countdown: 0
SampleSet: Normal
StackLeniency: 0.3
Mode: 0
LetterboxInBreaks: 0
WidescreenStoryboard: 0

[Editor]
Bookmarks: 1035,12006,22977,39435,50406,61377,72349,77835,94292,105263,116235,127206,138177,149149,165606,176577,187549,198520,209492,220463,231435,242406,258863,269835,280806,291777,302749,312349
DistanceSpacing: 0.5
BeatDivisor: 4
GridSize: 32
TimelineZoom: 5.000002

[Metadata]
Title:Cycle Hit
TitleUnicode:サイクルヒット
Artist:KASAI HARCORES
ArtistUnicode:葛西ハーコーズ
Creator:Worminators
Version:Home Run
Source:
Tags:DJ Genki Genkianamei かめりあ Kamelcamellia Cametek Camellia C-Show EP2 Episode of pro Allstars Baseball 葛西西高校 Nishi High School M3-39 Marathon
BeatmapID:1351114
BeatmapSetID:636839

[Difficulty]
HPDrainRate:6
CircleSize:3.8
OverallDifficulty:8.7
ApproachRate:9.5
SliderMultiplier:2
SliderTickRate:1

[Events]
//Background and Video events
0,0,"bg.jpg",0,0
//Break Periods
2,193030,197995
//Storyboard Layer 0 (Background)
//Storyboard Layer 1 (Fail)
//Storyboard Layer 2 (Pass)
//Storyboard Layer 3 (Foreground)
//Storyboard Sound Samples

[TimingPoints]
1035,342.857142857143,4,1,1,30,1,0
1035,-200,4,1,1,30,0,0
6520,-200,4,1,1,40,0,0
9263,-200,4,1,1,50,0,0
9606,-200,4,1,1,55,0,0
9949,-200,4,1,1,60,0,0
10292,-200,4,1,1,65,0,0
10635,-200,4,1,1,70,0,0
11320,-100,4,1,1,80,0,0
12006,-80,4,1,1,80,0,0
12520,-100,4,1,1,80,0,0
14749,-80,4,1,1,80,0,0
15263,-100,4,1,1,80,0,0
17492,-80,4,1,1,80,0,0
18006,-100,4,1,1,80,0,0
21606,-133.333333333333,4,1,1,80,0,0
21692,-133.333333333333,4,1,1,30,0,0
22977,-133.333333333333,4,1,1,50,0,0
28120,-133.333333333333,4,1,5,50,0,0
28463,-133.333333333333,4,1,1,80,0,0
29835,-117.647058823529,4,1,1,80,0,0
31206,-105.263157894737,4,1,1,80,0,0
32577,-95.2380952380954,4,1,1,80,0,0
33949,-86.9565217391304,4,1,1,80,0,0
35320,-80,4,1,1,80,0,0
36735,-80,4,1,1,40,0,0
37377,-80,4,1,1,80,0,0
37399,-80,4,1,1,40,0,0
37720,-80,4,1,1,80,0,0
37742,-80,4,1,1,40,0,0
38063,-80,4,1,1,80,0,0
38749,-133.333333333333,4,1,1,80,0,0
39435,-100,4,1,1,80,0,1
39777,-66.6666666666667,4,1,1,80,0,1
40806,-100,4,1,3,80,0,1
41149,-66.6666666666667,4,1,1,80,0,1
42177,-100,4,1,4,80,0,1
42349,-66.6666666666667,4,1,1,80,0,1
42520,-66.6666666666667,4,1,2,80,0,1
42863,-66.6666666666667,4,1,3,80,0,1
43035,-66.6666666666667,4,1,1,80,0,1
43206,-66.6666666666667,4,1,2,80,0,1
43549,-100,4,1,4,80,0,1
43720,-66.6666666666667,4,1,1,80,0,1
43892,-66.6666666666667,4,1,2,80,0,1
44235,-66.6666666666667,4,1,1,80,0,1
44920,-100,4,1,3,80,0,1
45263,-66.6666666666667,4,1,1,80,0,1
46292,-100,4,1,3,80,0,1
46635,-66.6666666666667,4,1,1,80,0,1
47663,-100,4,1,4,80,0,1
47835,-66.6666666666667,4,1,1,80,0,1
48006,-66.6666666666667,4,1,2,80,0,1
48349,-66.6666666666667,4,1,3,80,0,1
48520,-66.6666666666667,4,1,1,80,0,1
48692,-66.6666666666667,4,1,2,80,0,1
49035,-100,4,1,1,80,0,1
49720,-80,4,1,1,80,0,1
50063,-66.6666666666667,4,1,1,80,0,1
50406,-100,4,1,4,80,0,0
50749,-100,4,1,1,80,0,0
50835,-100,4,1,2,80,0,0
51435,-100,4,1,3,80,0,0
51606,-100,4,1,1,80,0,0
51777,-100,4,1,4,80,0,1
52120,-66.6666666666667,4,1,1,80,0,1
52806,-100,4,1,4,80,0,1
52977,-100,4,1,1,80,0,1
53149,-100,4,1,3,80,0,1
53492,-66.6666666666667,4,1,2,80,0,1
53835,-66.6666666666667,4,1,4,80,0,1
54006,-66.6666666666667,4,1,1,80,0,1
54520,-100,4,1,3,80,0,1
54863,-66.6666666666667,4,1,2,80,0,1
55206,-66.6666666666667,4,1,1,80,0,1
55892,-66.6666666666667,4,1,3,80,0,1
56235,-100,4,1,2,80,0,1
56920,-100,4,1,1,80,0,1
57263,-100,4,1,3,80,0,1
57606,-100,4,1,2,80,0,1
58292,-100,4,1,1,80,0,1
58635,-100,4,1,3,80,0,1
58806,-66.6666666666667,4,1,1,80,0,1
58977,-66.6666666666667,4,1,2,80,0,1
59320,-66.6666666666667,4,1,1,80,0,1
60006,-100,4,1,1,80,0,1
60049,-100,4,1,1,40,0,1
60349,-83.3333333333333,4,1,1,80,0,1
60392,-83.3333333333333,4,1,1,40,0,1
60692,-71.4285714285714,4,1,1,80,0,1
60735,-71.4285714285714,4,1,1,40,0,1
61035,-62.5,4,1,1,80,0,1
61077,-62.5,4,1,1,40,0,1
61377,-400,4,1,2,80,0,0
61420,-400,4,1,1,20,0,0
66863,-100,4,1,1,50,0,0
77149,-133.333333333333,4,1,1,50,0,0
82977,-133.333333333333,4,1,5,50,0,0
83320,-133.333333333333,4,1,1,80,0,0
84692,-117.647058823529,4,1,1,80,0,0
86063,-105.263157894737,4,1,1,80,0,0
87435,-95.2380952380951,4,1,1,80,0,0
88806,-86.9565217391304,4,1,1,80,0,0
90177,-80,4,1,1,80,0,0
91592,-80,4,1,1,40,0,0
92235,-80,4,1,1,80,0,0
92256,-80,4,1,1,40,0,0
92577,-80,4,1,1,80,0,0
92599,-80,4,1,1,40,0,0
92920,-133.333333333333,4,1,1,80,0,0
93949,-200,4,1,1,80,0,0
94292,-100,4,1,3,80,0,1
94635,-66.6666666666667,4,1,1,80,0,1
97035,-100,4,1,4,80,0,1
97377,-50,4,1,3,80,0,1
97720,-66.6666666666667,4,1,1,80,0,1
99777,-100,4,1,3,80,0,1
100120,-66.6666666666667,4,1,1,80,0,1
102520,-100,4,1,4,80,0,1
102863,-50,4,1,3,80,0,1
103206,-66.6666666666667,4,1,1,80,0,1
103892,-100,4,1,1,80,0,0
104577,-80,4,1,1,80,0,0
104920,-66.6666666666667,4,1,1,80,0,0
105263,-100,4,1,3,80,0,1
105606,-57.1428571428571,4,1,1,80,0,1
106635,-83.3333333333333,4,1,4,80,0,1
106977,-57.1428571428571,4,1,1,80,0,1
108006,-83.3333333333333,4,1,4,80,0,1
108349,-50,4,1,3,80,0,1
108692,-57.1428571428571,4,1,1,80,0,1
109377,-83.3333333333333,4,1,4,80,0,1
109720,-66.6666666666667,4,1,1,80,0,1
109977,-74.0740740740741,4,1,1,80,0,1
110235,-83.3333333333333,4,1,1,80,0,1
110492,-95.2380952380952,4,1,1,80,0,1
110749,-100,4,1,3,80,0,1
111092,-57.1428571428571,4,1,1,80,0,1
112120,-83.3333333333333,4,1,4,80,0,1
112463,-57.1428571428571,4,1,1,80,0,1
114863,-100,4,1,1,80,0,1
114906,-100,4,1,1,40,0,1
115206,-83.3333333333333,4,1,1,80,0,1
115249,-83.3333333333333,4,1,1,40,0,1
115549,-71.4285714285714,4,1,1,80,0,1
115592,-71.4285714285714,4,1,1,40,0,1
115892,-62.5,4,1,1,80,0,1
115935,-62.5,4,1,1,40,0,1
116235,-400,4,1,2,80,0,0
116277,-400,4,1,1,20,0,0
121720,-200,4,1,1,40,0,0
127206,-200,4,1,1,50,0,0
135777,-200,4,1,1,55,0,0
136120,-200,4,1,1,60,0,0
136463,-200,4,1,1,65,0,0
136806,-200,4,1,1,70,0,0
137492,-100,4,1,1,80,0,0
138177,-83.3333333333333,4,1,1,80,0,0
138692,-100,4,1,1,80,0,0
140920,-83.3333333333333,4,1,1,80,0,0
141435,-100,4,1,1,80,0,0
143663,-83.3333333333333,4,1,1,80,0,0
144177,-100,4,1,1,80,0,0
147777,-133.333333333333,4,1,1,80,0,0
147863,-133.333333333333,4,1,1,30,0,0
149149,-133.333333333333,4,1,1,50,0,0
154292,-133.333333333333,4,1,5,50,0,0
154635,-133.333333333333,4,1,1,80,0,0
156006,-117.647058823529,4,1,1,80,0,0
157377,-105.263157894737,4,1,1,80,0,0
158749,-95.2380952380951,4,1,1,80,0,0
160120,-86.9565217391304,4,1,1,80,0,0
161492,-80,4,1,1,80,0,0
162906,-80,4,1,1,40,0,0
163549,-80,4,1,1,80,0,0
163570,-80,4,1,1,40,0,0
163892,-80,4,1,1,80,0,0
163913,-80,4,1,1,40,0,0
164235,-80,4,1,1,80,0,0
165606,-100,4,1,1,80,0,1
165949,-66.6666666666667,4,1,1,80,0,1
166977,-100,4,1,3,80,0,1
167320,-66.6666666666667,4,1,1,80,0,1
168349,-100,4,1,4,80,0,1
168520,-100,4,1,1,80,0,1
169720,-66.6666666666667,4,1,1,80,0,1
171092,-100,4,1,3,80,0,1
171263,-66.6666666666667,4,1,1,80,0,1
172463,-100,4,1,3,80,0,1
172806,-66.6666666666667,4,1,1,80,0,1
173835,-100,4,1,4,80,0,1
174006,-100,4,1,1,80,0,1
175206,-66.6666666666667,4,1,1,80,0,0
176577,-100,4,1,1,80,0,1
176920,-66.6666666666667,4,1,1,80,0,1
177949,-100,4,1,3,80,0,1
178292,-66.6666666666667,4,1,1,80,0,1
179320,-100,4,1,4,80,0,1
179663,-100,4,1,1,80,0,1
180692,-66.6666666666667,4,1,1,80,0,1
182063,-100,4,1,3,80,0,1
182406,-66.6666666666667,4,1,1,80,0,1
183435,-100,4,1,4,80,0,1
183777,-66.6666666666667,4,1,1,80,0,1
186349,-76.9230769230769,4,1,1,80,0,1
186520,-90.9090909090909,4,1,1,80,0,1
186692,-111.111111111111,4,1,1,80,0,1
186863,-142.857142857143,4,1,1,80,0,1
187206,-200,4,1,1,80,0,1
187549,-400,4,1,2,80,0,0
187592,-400,4,1,1,20,0,0
198520,-133.333333333333,4,1,1,80,0,0
219777,-100,4,1,1,80,0,0
220463,-83.3333333333333,4,1,1,80,0,0
220977,-100,4,1,1,80,0,0
223206,-83.3333333333333,4,1,1,80,0,0
223720,-100,4,1,1,80,0,0
225949,-83.3333333333333,4,1,1,80,0,0
226463,-100,4,1,1,80,0,0
231435,-83.3333333333333,4,1,1,80,0,0
231949,-100,4,1,1,80,0,0
234177,-83.3333333333333,4,1,1,80,0,0
234692,-100,4,1,1,80,0,0
236920,-83.3333333333333,4,1,1,80,0,0
237435,-100,4,1,1,80,0,0
241035,-133.333333333333,4,1,1,80,0,0
241120,-133.333333333333,4,1,1,30,0,0
242406,-133.333333333333,4,1,1,50,0,0
247549,-133.333333333333,4,1,5,50,0,0
247892,-133.333333333333,4,1,1,80,0,0
249263,-117.647058823529,4,1,1,80,0,0
250635,-105.263157894737,4,1,1,80,0,0
252006,-95.2380952380951,4,1,1,80,0,0
253377,-86.9565217391304,4,1,1,80,0,0
254749,-80,4,1,1,80,0,0
256163,-80,4,1,1,20,0,0
256806,-80,4,1,1,80,0,0
256827,-80,4,1,1,40,0,0
257149,-80,4,1,1,80,0,0
257170,-80,4,1,1,40,0,0
257492,-80,4,1,1,80,0,0
258520,-200,4,1,1,80,0,0
258777,-200,4,1,10,80,0,0
258863,-66.6666666666667,4,1,1,80,0,1
260920,-83.3333333333333,4,1,1,80,0,1
261263,-83.3333333333333,4,1,2,80,0,1
261606,-66.6666666666667,4,1,1,80,0,1
263920,-66.6666666666667,4,1,2,80,0,1
264349,-66.6666666666667,4,1,1,80,0,1
267777,-83.3333333333333,4,1,1,80,0,1
268120,-66.6666666666667,4,1,1,80,0,1
269149,-83.3333333333333,4,1,1,80,0,1
269492,-66.6666666666667,4,1,1,80,0,1
269749,-66.6666666666667,4,1,10,80,0,1
269835,-66.6666666666667,4,1,1,80,0,1
271892,-83.3333333333333,4,1,1,80,0,1
272235,-83.3333333333333,4,1,2,80,0,1
272577,-66.6666666666667,4,1,1,80,0,1
274892,-66.6666666666667,4,1,2,80,0,1
275320,-66.6666666666667,4,1,1,80,0,1
278406,-58.8235294117647,4,1,1,80,0,1
279435,-100,4,1,1,80,0,0
279606,-83.3333333333333,4,1,1,80,0,0
279777,-71.4285714285714,4,1,1,80,0,0
279949,-62.5,4,1,1,80,0,0
280120,-55.5555555555556,4,1,1,80,0,0
280463,-50,4,1,1,80,0,0
280806,-83.3333333333333,4,1,1,80,0,1
281063,-83.3333333333333,4,1,10,80,0,1
281149,-66.6666666666667,4,1,1,80,0,1
282177,-83.3333333333333,4,1,3,80,0,1
282520,-66.6666666666667,4,1,1,80,0,1
283549,-83.3333333333333,4,1,4,80,0,1
283806,-83.3333333333333,4,1,1,80,0,1
284063,-57.1428571428571,4,1,1,80,0,1
284920,-57.1428571428571,4,1,3,80,0,1
285263,-57.1428571428571,4,1,1,80,0,1
286292,-83.3333333333333,4,1,4,80,0,1
286635,-66.6666666666667,4,1,1,80,0,1
287663,-83.3333333333333,4,1,3,80,0,1
288006,-66.6666666666667,4,1,1,80,0,1
289035,-83.3333333333333,4,1,4,80,0,1
289377,-83.3333333333333,4,1,1,80,0,1
292035,-83.3333333333333,4,1,10,80,0,1
292120,-66.6666666666667,4,1,1,80,0,1
293149,-83.3333333333333,4,1,3,80,0,1
293492,-66.6666666666667,4,1,1,80,0,1
294520,-83.3333333333333,4,1,4,80,0,1
294863,-83.3333333333333,4,1,1,80,0,1
295035,-57.1428571428571,4,1,1,80,0,1
295892,-57.1428571428571,4,1,3,80,0,1
296235,-57.1428571428571,4,1,1,80,0,1
297263,-66.6666666666667,4,1,1,60,0,1
297349,-66.6666666666667,4,1,1,80,0,1
297606,-66.6666666666667,4,1,1,60,0,1
297692,-66.6666666666667,4,1,1,80,0,1
297949,-66.6666666666667,4,1,1,60,0,1
298035,-66.6666666666667,4,1,1,80,0,1
298635,-66.6666666666667,4,1,1,60,0,1
298720,-66.6666666666667,4,1,1,80,0,1
298977,-66.6666666666667,4,1,1,60,0,1
299063,-66.6666666666667,4,1,1,80,0,1
299320,-66.6666666666667,4,1,1,60,0,1
299406,-66.6666666666667,4,1,1,80,0,1
300049,-66.6666666666667,4,1,1,40,0,1
300692,-66.6666666666667,4,1,1,80,0,1
300713,-66.6666666666667,4,1,1,40,0,1
301035,-66.6666666666667,4,1,1,80,0,1
301056,-66.6666666666667,4,1,1,40,0,1
301377,-66.6666666666667,4,1,1,80,0,1
302406,-200,4,1,1,80,0,1
302749,-100,4,1,1,60,0,0
306520,-83.3333333333333,4,1,1,60,0,0
306863,-83.3333333333333,4,1,1,50,0,0
307549,-83.3333333333333,4,1,1,45,0,0
308235,-83.3333333333333,4,1,1,40,0,0
308920,-83.3333333333333,4,1,1,35,0,0
309606,-83.3333333333333,4,1,1,30,0,0
310292,-83.3333333333333,4,1,1,25,0,0
310977,-83.3333333333333,4,1,1,20,0,0
311663,-83.3333333333333,4,1,1,15,0,0
312349,-83.3333333333333,4,1,1,10,0,0

[Colours]
Combo1 : 122,122,122
Combo2 : 225,43,43
Combo3 : 157,157,157
Combo4 : 151,0,0
SliderTrackOverride : 120,120,120
SliderBorder : 230,230,230

[HitObjects]
184,162,1035,6,0,P|180:215|202:258,1,100,6|0,0:0|0:0,0:0:0:0:
340,231,1549,1,2,0:0:0:0:
333,221,1635,1,2,0:0:0:0:
325,208,1720,2,0,L|277:193,1,50,2|0,0:0|0:0,0:0:0:0:
153,241,2063,2,0,L|216:261,1,50,2|0,0:0|0:0,0:0:0:0:
270,95,2406,6,0,P|280:147|273:216,1,100,2|0,0:0|0:0,0:0:0:0:
117,154,2920,1,0,0:0:0:0:
117,154,3092,2,0,P|107:102|114:33,1,100,2|0,0:0|0:0,0:0:0:0:
317,320,3777,6,0,L|211:328,1,100,2|0,0:0|0:0,0:0:0:0:
275,226,4292,1,2,0:0:0:0:
289,225,4377,1,2,0:0:0:0:
303,225,4463,2,0,L|358:221,1,50,2|0,0:0|0:0,0:0:0:0:
270,134,4806,2,0,L|215:130,1,50,2|0,0:0|0:0,0:0:0:0:
117,214,5149,5,2,0:0:0:0:
303,225,5320,1,2,0:0:0:0:
220,130,5492,1,2,0:0:0:0:
206,316,5663,1,2,0:0:0:0:
328,131,5835,2,0,P|312:71|271:34,1,100,2|0,0:0|0:0,0:0:0:0:
274,333,6520,6,0,P|322:346|370:335,1,100,2|0,0:0|0:0,0:0:0:0:
324,221,7035,1,2,0:0:0:0:
312,215,7120,1,2,0:0:0:0:
299,212,7206,2,0,P|268:210|241:216,1,50,2|0,0:0|0:0,0:0:0:0:
97,214,7549,2,0,P|127:212|154:218,1,50,2|0,0:0|0:0,0:0:0:0:
199,302,7892,6,0,P|196:247|204:193,1,100,2|0,0:0|0:0,0:0:0:0:
366,142,8406,1,0,0:0:0:0:
366,142,8577,2,0,P|370:196|364:256,1,100,2|0,0:0|0:0,0:0:0:0:
297,305,9092,1,2,0:0:0:0:
142,165,9263,6,0,L|192:170,1,50,2|0,0:0|0:0,0:0:0:0:
289,159,9606,2,0,L|284:209,1,50,2|0,0:0|0:0,0:0:0:0:
297,305,9949,2,0,L|247:300,1,50,2|0,0:0|0:0,0:0:0:0:
153,316,10292,2,0,L|158:266,1,50,2|0,0:0|0:0,0:0:0:0:
142,165,10635,5,0,3:0:0:0:
162,162,10720,1,0,3:0:0:0:
186,165,10806,1,0,3:0:0:0:
208,174,10892,1,0,3:0:0:0:
228,194,10977,1,0,3:0:0:0:
256,210,11063,1,0,3:0:0:0:
298,209,11149,1,0,3:0:0:0:
330,185,11235,1,0,3:0:0:0:
336,110,11320,6,0,L|182:95,1,150,8|0,0:0|0:0,0:0:0:0:
113,118,11663,2,0,L|267:133,1,150,8|0,0:0|0:0,0:0:0:0:
211,268,12006,6,2,B|216:220|196:179|196:179|221:150|235:118|235:118|212:84|212:36,1,250,6|0,0:0|0:0,0:0:0:0:
113,118,12520,1,2,0:0:0:0:
103,141,12606,1,2,0:0:0:0:
101,166,12692,2,0,P|141:183|203:175,1,100,2|0,0:0|0:0,0:0:0:0:
301,85,13035,1,0,0:0:0:0:
301,85,13206,1,0,0:0:0:0:
333,251,13377,6,0,P|283:244|237:262,1,100,2|0,0:0|0:0,0:0:0:0:
137,359,13720,1,0,0:0:0:0:
137,359,13892,1,0,0:0:0:0:
81,257,14063,2,2,P|72:210|127:271,1,200,2|8,0:0|0:0,0:0:0:0:
66,47,14749,6,2,P|187:54|285:154,1,250,2|0,0:0|0:0,0:0:0:0:
258,288,15263,1,2,0:0:0:0:
261,262,15349,1,2,0:0:0:0:
265,237,15435,2,0,L|281:113,1,100,2|0,0:0|0:0,0:0:0:0:
188,45,15777,1,0,0:0:0:0:
188,45,15949,1,0,0:0:0:0:
164,167,16120,5,2,3:0:0:0:
331,67,16292,1,10,0:0:0:0:
188,45,16463,1,2,3:0:0:0:
334,197,16635,1,10,0:0:0:0:
121,256,16806,2,0,P|79:231|58:183,1,100,2|8,3:0|0:0,0:0:0:0:
76,88,17149,2,0,L|56:200,1,100,10|0,0:0|0:0,0:0:0:0:
260,295,17492,6,2,B|212:293|178:318|178:318|146:304|117:279|117:279|75:304|27:292,1,250,2|0,0:0|0:0,0:0:0:0:
147,168,18006,1,2,0:0:0:0:
168,156,18092,1,2,0:0:0:0:
189,144,18177,2,0,P|239:134|304:148,1,100,2|0,0:0|0:0,0:0:0:0:
380,226,18520,1,0,0:0:0:0:
380,226,18692,1,0,0:0:0:0:
273,353,18863,6,0,P|239:314|218:251,1,100,2|0,0:0|0:0,0:0:0:0:
236,152,19206,1,0,0:0:0:0:
236,152,19377,1,0,0:0:0:0:
141,187,19549,2,0,P|267:247|330:190,1,200,2|8,0:0|0:0,0:0:0:0:
391,134,20063,1,0,0:0:0:0:
478,226,20235,6,0,L|463:347,1,100,2|0,0:0|0:0,0:0:0:0:
331,336,20577,2,0,L|318:236,1,100,2|0,0:0|0:0,0:0:0:0:
391,134,20920,2,0,P|379:210|317:236,1,150,2|0,0:0|0:0,0:0:0:0:
304,216,21263,2,0,P|250:173|194:215,1,150,2|0,0:0|0:0,0:0:0:0:
185,236,21606,6,0,B|176:198|188:173|188:173|176:154|176:154|194:122|186:91|176:66|156:50|130:38|86:38|56:51|24:83|25:156|56:190|113:196|142:182,1,450.000017166138,0|0,3:0|0:0,0:0:0:0:
256,344,22977,5,8,0:0:0:0:
256,208,23320,1,8,0:0:0:0:
256,72,23663,1,8,0:0:0:0:
256,344,24349,5,8,0:0:0:0:
256,208,24692,1,8,0:0:0:0:
256,72,25035,1,8,0:0:0:0:
116,120,25720,6,0,B|138:192|138:192|125:265,1,150.000005722046,8|0,0:0|0:0,0:0:0:0:
396,120,26406,2,0,B|374:192|374:192|386:265,1,150.000005722046,8|0,0:0|0:0,0:0:0:0:
256,344,27092,6,0,L|256:304,3,37.5000014305115,8|0|0|0,0:0|0:0|0:0|0:0,0:0:0:0:
256,208,27435,2,0,L|256:168,3,37.5000014305115,8|0|0|0,0:0|0:0|0:0|0:0,0:0:0:0:
256,73,27777,1,8,3:1:0:0:
256,65,27863,1,0,3:0:0:0:
256,57,27949,1,0,3:0:0:0:
256,49,28035,1,0,3:0:0:0:
256,41,28120,1,6,3:1:0:0:
426,278,28463,6,0,L|374:274,1,37.5000014305115,8|0,3:1|3:1,3:1:0:0:
274,275,28635,1,0,3:1:0:0:
274,275,28720,1,0,3:1:0:0:
274,275,28806,2,0,L|222:271,1,37.5000014305115,8|0,3:1|3:1,3:1:0:0:
336,172,28977,1,0,3:1:0:0:
336,172,29063,1,0,3:1:0:0:
336,172,29149,2,0,L|388:168,1,37.5000014305115,8|0,3:1|3:1,3:1:0:0:
271,71,29320,1,0,3:1:0:0:
271,71,29406,1,0,3:1:0:0:
271,71,29492,2,0,L|219:67,1,37.5000014305115,8|0,3:1|3:1,3:1:0:0:
82,57,29663,2,0,L|134:61,1,37.5000014305115,0|0,3:1|3:1,3:1:0:0:
240,148,29835,6,0,L|248:204,1,42.5000008106232,8|0,3:1|3:1,3:1:0:0:
172,323,30006,1,0,3:1:0:0:
172,323,30092,1,0,3:1:0:0:
172,323,30177,2,0,L|216:288,1,42.5000008106232,8|0,3:1|3:1,3:1:0:0:
355,297,30349,1,0,3:1:0:0:
355,297,30435,1,0,3:1:0:0:
355,297,30520,2,0,L|302:275,1,42.5000008106232,8|0,3:1|3:1,3:1:0:0:
240,148,30692,1,0,3:1:0:0:
240,148,30777,1,0,3:1:0:0:
240,148,30863,2,0,L|248:204,1,42.5000008106232,8|0,3:1|3:1,3:1:0:0:
274,379,31035,2,0,L|266:323,1,42.5000008106232,0|0,3:1|3:1,3:1:0:0:
165,221,31206,6,0,L|117:202,1,47.4999987316132,8|0,3:1|3:1,3:1:0:0:
332,197,31377,1,0,3:1:0:0:
332,197,31463,1,0,3:1:0:0:
332,197,31549,2,0,L|377:173,1,47.4999987316132,8|0,3:1|3:1,3:1:0:0:
155,113,31720,1,0,3:1:0:0:
155,113,31806,1,0,3:1:0:0:
155,113,31892,2,0,P|145:87|144:61,1,47.4999987316132,8|0,3:1|3:1,3:1:0:0:
294,89,32063,1,0,3:1:0:0:
294,89,32149,1,0,3:1:0:0:
294,89,32235,2,0,P|293:61|283:36,1,47.4999987316132,8|0,3:1|3:1,3:1:0:0:
249,258,32406,2,0,P|248:285|256:310,1,47.4999987316132,0|0,3:1|3:1,3:1:0:0:
404,333,32577,6,0,P|405:306|399:280,1,52.4999983978272,8|0,3:1|3:1,3:1:0:0:
331,191,32749,1,0,3:1:0:0:
331,191,32835,1,0,3:1:0:0:
331,191,32920,2,0,L|260:175,1,52.4999983978272,8|0,3:1|3:1,3:1:0:0:
428,73,33092,1,0,3:1:0:0:
428,73,33177,1,0,3:1:0:0:
428,73,33263,2,0,P|424:110|407:141,1,52.4999983978272,8|0,3:1|3:1,3:1:0:0:
244,87,33435,1,0,3:1:0:0:
244,87,33520,1,0,3:1:0:0:
244,87,33606,2,0,P|244:60|252:35,1,52.4999983978272,8|0,3:1|3:1,3:1:0:0:
290,233,33777,2,0,P|289:259|281:284,1,52.4999983978272,0|0,3:1|3:1,3:1:0:0:
156,101,33949,5,12,0:0:0:0:
158,67,34035,1,0,3:0:0:0:
172,36,34120,1,0,3:0:0:0:
196,12,34206,1,0,3:0:0:0:
229,0,34292,1,0,3:0:0:0:
263,1,34377,1,0,3:0:0:0:
294,15,34463,1,0,3:0:0:0:
318,40,34549,1,0,3:0:0:0:
330,72,34635,1,0,3:0:0:0:
329,106,34720,1,0,3:0:0:0:
315,138,34806,1,0,3:0:0:0:
289,160,34892,1,0,3:0:0:0:
252,172,34977,1,0,3:0:0:0:
221,203,35063,1,0,3:0:0:0:
209,248,35149,1,0,3:0:0:0:
224,297,35235,1,0,3:0:0:0:
272,322,35320,6,0,P|306:317|332:301,1,62.5,8|0,3:1|3:1,3:1:0:0:
443,128,35492,2,0,P|409:133|383:149,1,62.5,0|0,3:1|3:1,3:1:0:0:
398,348,35663,6,0,P|410:316|409:285,1,62.5,8|0,3:1|3:1,3:1:0:0:
318,102,35835,2,0,P|305:133|306:164,1,62.5,0|0,3:1|3:1,3:1:0:0:
485,251,36006,6,0,P|463:224|436:209,1,62.5,8|0,3:1|3:1,3:1:0:0:
233,198,36177,2,0,P|254:224|281:239,1,62.5,0|0,3:1|3:1,3:1:0:0:
443,128,36349,6,0,P|412:131|385:147,1,62.5,8|0,3:1|3:1,3:1:0:0:
272,322,36520,2,0,P|303:319|330:303,1,62.5,0|0,3:1|3:1,3:1:0:0:
318,102,36692,6,0,P|318:88|314:70,14,31.25,8|0|0|0|0|0|0|0|0|0|0|0|0|0|0,0:0|2:0|2:0|2:0|2:0|2:0|2:0|2:0|2:0|2:0|2:0|2:0|2:0|2:0|2:0,2:0:0:0:
227,24,37377,2,0,L|206:19,12,15.625,8|0|0|0|0|0|0|0|0|0|0|0|0,0:0|2:0|2:0|2:0|2:0|2:0|2:0|2:0|2:0|2:0|2:0|2:0|2:0,2:0:0:0:
136,70,37720,2,0,L|120:73,12,15.625,8|0|0|0|0|0|0|0|0|0|0|0|0,0:0|2:0|2:0|2:0|2:0|2:0|2:0|2:0|2:0|2:0|2:0|2:0|2:0,2:0:0:0:
212,127,38063,5,0,3:0:0:0:
212,127,38406,1,0,3:0:0:0:
212,127,38749,2,0,L|208:78,3,37.5000014305115,0|0|0|0,3:0|0:0|0:0|0:0,0:0:0:0:
215,162,39092,5,2,0:0:0:0:
218,198,39177,1,2,0:0:0:0:
221,234,39263,1,2,0:0:0:0:
224,270,39349,1,2,0:0:0:0:
227,306,39435,6,0,P|261:249|315:289,1,150,6|0,0:0|0:0,0:0:0:0:
383,351,39777,6,0,P|401:316|403:262,1,75.0000028610231,2|0,0:0|0:0,0:0:0:0:
354,72,39949,2,0,P|336:107|334:161,1,75.0000028610231,2|0,0:0|0:0,0:0:0:0:
236,238,40120,2,2,P|287:234|311:249,1,75.0000028610231,0|0,0:0|0:0,0:0:0:0:
493,200,40292,2,0,P|446:201|419:184,1,75.0000028610231,2|0,0:0|0:0,0:0:0:0:
254,69,40463,5,0,3:0:0:0:
218,72,40549,1,0,3:0:0:0:
166,127,40635,1,0,3:0:0:0:
130,131,40720,1,0,3:0:0:0:
78,184,40806,6,0,P|75:223|143:183,1,150,10|0,0:0|0:0,0:0:0:0:
229,165,41149,6,0,P|236:203|226:247,1,75.0000028610231,2|0,0:0|0:0,0:0:0:0:
365,356,41320,2,0,P|357:317|368:274,1,75.0000028610231,2|0,0:0|0:0,0:0:0:0:
364,108,41492,2,0,P|371:146|361:190,1,75.0000028610231,2|0,0:0|0:0,0:0:0:0:
231,312,41663,2,0,P|223:273|234:230,1,75.0000028610231,2|0,0:0|0:0,0:0:0:0:
343,76,41835,5,0,3:0:0:0:
364,108,41920,1,0,3:0:0:0:
365,181,42006,1,0,3:0:0:0:
346,215,42092,1,0,3:0:0:0:
278,249,42177,6,0,P|250:248|222:233,1,50,2|0,0:0|0:0,0:0:0:0:
148,110,42349,6,0,L|156:24,1,75.0000028610231,2|0,0:0|0:0,0:0:0:0:
287,137,42520,1,0,3:0:0:0:
284,174,42606,1,0,3:0:0:0:
281,212,42692,1,0,3:0:0:0:
278,249,42777,1,0,3:0:0:0:
246,318,42863,6,0,P|201:325|171:316,1,75.0000028610231,2|0,0:0|0:0,0:0:0:0:
72,212,43035,1,0,3:0:0:0:
72,212,43120,1,0,3:0:0:0:
72,212,43206,5,0,3:0:0:0:
86,131,43292,1,0,3:0:0:0:
164,102,43377,1,0,3:0:0:0:
226,155,43463,1,0,3:0:0:0:
214,238,43549,6,0,L|203:309,1,50,2|0,0:0|0:0,0:0:0:0:
370,207,43720,6,0,L|388:106,1,75.0000028610231,2|0,0:0|0:0,0:0:0:0:
305,274,43892,1,0,3:0:0:0:
335,295,43977,1,0,3:0:0:0:
372,301,44063,1,0,3:0:0:0:
409,294,44149,1,0,3:0:0:0:
459,237,44235,6,0,P|465:200|454:164,1,75.0000028610231,2|0,0:0|0:0,0:0:0:0:
233,241,44406,2,0,P|226:282|246:328,1,75.0000028610231,2|0,0:0|0:0,0:0:0:0:
315,131,44577,5,0,3:0:0:0:
277,126,44663,1,0,3:0:0:0:
217,80,44749,1,0,3:0:0:0:
179,85,44835,1,0,3:0:0:0:
132,143,44920,6,0,B|120:183|142:220|142:220|117:246|120:284,1,150,2|0,0:0|0:0,0:0:0:0:
283,181,45263,6,0,P|247:169|210:171,1,75.0000028610231,2|0,0:0|0:0,0:0:0:0:
47,274,45435,2,0,P|82:285|119:283,1,75.0000028610231,2|0,0:0|0:0,0:0:0:0:
216,356,45606,2,0,P|227:320|225:283,1,75.0000028610231,2|0,0:0|0:0,0:0:0:0:
113,109,45777,2,0,P|101:144|103:181,1,75.0000028610231,2|0,0:0|0:0,0:0:0:0:
283,181,45949,5,0,3:0:0:0:
293,144,46035,1,0,3:0:0:0:
232,101,46120,1,0,3:0:0:0:
222,64,46206,1,0,3:0:0:0:
285,23,46292,6,0,P|229:102|152:72,1,150,2|0,0:0|0:0,0:0:0:0:
102,47,46635,6,0,P|91:86|102:152,1,75.0000028610231,2|0,0:0|0:0,0:0:0:0:
93,323,46806,2,0,P|104:284|93:218,1,75.0000028610231,2|0,0:0|0:0,0:0:0:0:
248,127,46977,2,0,P|202:134|159:116,1,75.0000028610231,2|0,0:0|0:0,0:0:0:0:
294,290,47149,2,0,P|340:283|383:301,1,75.0000028610231,2|0,0:0|0:0,0:0:0:0:
198,259,47320,5,0,3:0:0:0:
193,221,47406,1,0,3:0:0:0:
243,165,47492,1,0,3:0:0:0:
248,127,47577,1,0,3:0:0:0:
196,73,47663,6,0,L|189:20,1,50,2|0,0:0|0:0,0:0:0:0:
120,227,47835,6,0,P|153:232|209:209,1,75.0000028610231,2|0,0:0|0:0,0:0:0:0:
319,86,48006,1,0,3:0:0:0:
350,66,48092,1,0,3:0:0:0:
387,63,48177,1,0,3:0:0:0:
421,78,48263,1,0,3:0:0:0:
456,144,48349,6,0,L|444:273,1,75.0000028610231,2|0,0:0|0:0,0:0:0:0:
341,318,48520,1,0,3:0:0:0:
341,318,48606,1,0,3:0:0:0:
341,318,48692,5,0,3:0:0:0:
263,346,48777,1,0,3:0:0:0:
199,292,48863,1,0,3:0:0:0:
214,212,48949,1,0,3:0:0:0:
292,180,49035,6,0,B|335:159|335:159|384:163|384:163|434:132,1,150,8|0,0:0|0:0,0:0:0:0:
437,167,49377,2,0,B|391:194|391:194|342:190|342:190|299:211,1,150,8|0,0:0|0:0,0:0:0:0:
364,84,49720,6,0,L|356:291,1,187.5,8|0,0:0|0:0,0:0:0:0:
382,358,50063,2,0,L|391:129,1,225.000008583069,8|0,0:0|0:0,0:0:0:0:
289,81,50406,6,0,P|230:102|276:144,1,150,2|0,0:0|0:0,0:0:0:0:
356,205,50749,5,4,3:1:0:0:
330,206,50835,1,0,3:0:0:0:
291,270,50920,1,0,3:0:0:0:
265,272,51006,1,0,3:0:0:0:
214,216,51092,1,0,3:0:0:0:
190,219,51177,1,0,3:0:0:0:
147,281,51263,1,0,3:0:0:0:
122,282,51349,1,0,3:0:0:0:
72,226,51435,6,0,L|15:229,1,50,2|0,0:0|0:0,0:0:0:0:
176,88,51606,1,0,3:0:0:0:
178,112,51692,1,0,3:0:0:0:
181,136,51777,6,0,P|103:156|74:98,1,150,2|0,0:0|0:0,0:0:0:0:
263,86,52120,6,0,P|274:122|264:180,1,75.0000028610231,2|0,0:0|0:0,0:0:0:0:
423,261,52292,2,0,P|411:225|413:188,1,75.0000028610231,2|0,0:0|0:0,0:0:0:0:
468,37,52463,5,0,3:0:0:0:
431,29,52549,1,0,3:0:0:0:
377,81,52635,1,0,3:0:0:0:
340,89,52720,1,0,3:0:0:0:
287,36,52806,6,0,P|264:32|237:33,1,50,2|0,0:0|0:0,0:0:0:0:
153,158,52977,1,0,3:0:0:0:
153,158,53063,1,0,3:0:0:0:
153,158,53149,6,0,P|210:197|237:110,1,150,2|0,0:0|0:0,0:0:0:0:
69,115,53492,1,0,3:0:0:0:
59,150,53577,1,0,3:0:0:0:
63,187,53663,1,0,3:0:0:0:
80,220,53749,1,0,3:0:0:0:
136,270,53835,6,0,P|169:285|218:287,1,75.0000028610231,2|0,0:0|0:0,0:0:0:0:
346,223,54006,1,0,3:0:0:0:
346,223,54092,1,0,3:0:0:0:
345,223,54177,6,0,P|346:185|339:148,1,75.0000028610231,2|0,0:0|0:0,0:0:0:0:
207,289,54349,2,0,P|205:326|212:363,1,75.0000028610231,2|0,0:0|0:0,0:0:0:0:
368,267,54520,6,0,P|373:192|361:118,1,150,2|0,0:0|0:0,0:0:0:0:
144,187,54863,1,0,3:0:0:0:
178,202,54949,1,0,3:0:0:0:
215,204,55035,1,0,3:0:0:0:
250,193,55120,1,0,3:0:0:0:
287,127,55206,6,0,P|277:90|262:56,1,75.0000028610231,2|0,0:0|0:0,0:0:0:0:
232,279,55377,2,0,P|241:315|256:349,1,75.0000028610231,2|0,0:0|0:0,0:0:0:0:
420,228,55549,5,0,3:0:0:0:
429,190,55635,1,0,3:0:0:0:
382,132,55720,1,0,3:0:0:0:
372,95,55806,1,0,3:0:0:0:
426,42,55892,6,0,P|432:143|305:131,1,225.000008583069,2|0,0:0|0:0,0:0:0:0:
156,50,56235,5,0,3:0:0:0:
140,81,56320,1,0,3:0:0:0:
138,118,56406,2,0,P|145:144|158:164,1,50,0|0,3:0|0:0,0:0:0:0:
255,226,56577,5,0,3:0:0:0:
271,257,56663,1,0,3:0:0:0:
273,294,56749,2,0,P|265:320|252:340,1,50,0|0,3:0|0:0,0:0:0:0:
98,282,56920,5,0,3:0:0:0:
93,246,57006,1,0,3:0:0:0:
152,199,57092,1,0,3:0:0:0:
157,163,57177,1,0,3:0:0:0:
107,106,57263,6,0,P|137:47|187:89,1,150,2|0,0:0|0:0,0:0:0:0:
205,261,57606,5,0,3:0:0:0:
174,277,57692,1,0,3:0:0:0:
137,279,57777,2,0,P|110:271|90:258,1,50,0|0,3:0|0:0,0:0:0:0:
293,199,57949,5,0,3:0:0:0:
324,183,58035,1,0,3:0:0:0:
361,181,58120,2,0,P|387:188|407:201,1,50,0|0,3:0|0:0,3:0:0:0:
288,315,58292,5,0,3:0:0:0:
252,320,58377,1,0,3:0:0:0:
205,261,58463,1,0,3:0:0:0:
169,256,58549,1,0,3:0:0:0:
110,303,58635,6,0,L|46:315,1,50,2|0,0:0|0:0,0:0:0:0:
199,183,58806,6,0,P|237:190|268:214,1,75.0000028610231,2|0,0:0|0:0,0:0:0:0:
255,375,58977,1,0,3:0:0:0:
220,346,59063,1,0,3:0:0:0:
203,305,59149,1,0,3:0:0:0:
205,261,59235,1,0,3:0:0:0:
228,222,59320,1,0,3:0:0:0:
263,194,59406,1,0,3:0:0:0:
286,156,59492,1,0,3:0:0:0:
288,112,59577,1,0,3:0:0:0:
266,73,59663,1,0,3:0:0:0:
228,50,59749,1,0,3:0:0:0:
184,51,59835,1,0,3:0:0:0:
146,74,59920,1,0,3:0:0:0:
126,114,60006,6,0,P|126:126|126:139,6,25,0|0|0|0|0|0|0,3:0|2:0|2:0|2:0|2:0|2:0|2:0,2:0:0:0:
208,212,60349,2,0,P|209:197|209:182,6,29.9999990844727,0|0|0|0|0|0|0,3:0|2:0|2:0|2:0|2:0|2:0|2:0,2:0:0:0:
295,115,60692,2,0,P|293:132|293:150,6,34.9999989318848,0|0|0|0|0|0|0,3:0|2:0|2:0|2:0|2:0|2:0|2:0,2:0:0:0:
379,225,61035,2,0,P|380:205|380:184,6,40,0|0|0|0|0|0|0,3:0|2:0|2:0|2:0|2:0|2:0|2:0,2:0:0:0:
456,112,61377,6,0,B|482:74|477:29|477:29|435:74|382:62|382:62|354:114|382:163|382:163|440:169|474:222|450:295|398:315|339:304|318:265|311:235|320:205|320:205|279:230|241:216|241:216|239:251|256:284,1,750,4|0,3:2|2:0,0:0:0:0:
379,225,66863,5,2,0:0:0:0:
220,149,67377,1,2,0:0:0:0:
251,275,67549,1,2,0:0:0:0:
103,320,68063,5,2,0:0:0:0:
134,194,68235,1,2,0:0:0:0:
181,274,68406,1,2,0:0:0:0:
53,243,68577,1,2,0:0:0:0:
220,149,68749,1,2,0:0:0:0:
229,353,68920,1,2,0:0:0:0:
392,72,69435,5,2,0:0:0:0:
372,225,69606,1,2,0:0:0:0:
120,72,70120,1,2,0:0:0:0:
140,225,70292,1,2,0:0:0:0:
256,52,70806,5,2,0:0:0:0:
320,252,70977,2,0,P|285:241|263:222,1,50,2|0,3:1|3:1,3:1:0:0:
150,129,71149,2,0,P|184:117|213:119,1,50,2|0,3:1|3:1,3:1:0:0:
360,128,71320,2,0,P|338:157|313:172,1,50,2|0,3:1|3:1,3:1:0:0:
191,252,71492,2,0,P|190:215|201:188,1,50,2|0,3:1|3:1,3:1:0:0:
256,52,71663,5,2,3:1:0:0:
267,64,71749,1,0,3:1:0:0:
276,78,71835,1,0,3:1:0:0:
282,93,71920,1,0,3:1:0:0:
255,162,72006,6,0,P|193:204|102:150,1,150,4|0,3:1|0:0,0:0:0:0:
182,120,72349,6,0,B|195:159|183:194|183:194|209:245|209:245|194:276|204:313,1,200,2|0,0:0|0:0,0:0:0:0:
103,258,72863,1,2,0:0:0:0:
296,286,73035,2,0,P|345:263|263:186,1,200,2|0,0:0|0:0,0:0:0:0:
203,310,73549,5,2,0:0:0:0:
182,120,73720,1,2,0:0:0:0:
103,258,73892,1,2,0:0:0:0:
281,176,74063,1,2,0:0:0:0:
84,158,74235,1,2,0:0:0:0:
296,286,74406,2,0,P|367:245|376:121,1,200,2|0,0:0|0:0,0:0:0:0:
270,52,74920,5,2,0:0:0:0:
385,213,75092,2,0,P|456:174|378:139,1,200,2|0,0:0|0:0,0:0:0:0:
326,277,75606,1,2,0:0:0:0:
285,70,75777,2,0,P|352:39|367:148,1,200,2|0,0:0|0:0,0:0:0:0:
236,168,76292,5,2,0:0:0:0:
208,16,76463,1,2,0:0:0:0:
339,96,76635,1,2,0:0:0:0:
151,100,76806,1,2,0:0:0:0:
236,168,76977,1,2,0:0:0:0:
151,214,77149,2,0,B|141:242|150:268|150:268|131:306|131:306|142:329|134:356,1,150.000005722046,2|0,0:0|0:0,0:0:0:0:
392,192,77835,5,8,0:0:0:0:
256,289,78177,1,8,0:0:0:0:
119,192,78520,1,8,0:0:0:0:
406,192,79206,5,8,0:0:0:0:
256,299,79549,1,8,0:0:0:0:
104,192,79892,1,8,0:0:0:0:
320,325,80577,6,0,B|301:255|301:255|316:179,1,150.000005722046,8|0,0:0|0:0,0:0:0:0:
191,58,81263,2,0,B|210:128|210:128|195:204,1,150.000005722046,8|0,0:0|0:0,0:0:0:0:
392,192,81949,6,0,L|395:152,3,37.5000014305115,8|0|0|0,0:0|0:0|0:0|0:0,0:0:0:0:
255,289,82292,2,0,L|258:328,3,37.5000014305115,8|0|0|0,0:0|0:0|0:0|0:0,0:0:0:0:
120,192,82635,1,8,3:1:0:0:
119,184,82720,1,0,3:0:0:0:
118,177,82806,1,0,3:0:0:0:
117,170,82892,1,0,3:0:0:0:
116,163,82977,1,6,3:1:0:0:
394,154,83320,6,0,L|392:192,1,37.5000014305115,8|0,3:1|3:1,3:1:0:0:
250,96,83492,1,0,3:1:0:0:
250,96,83577,1,0,3:1:0:0:
250,96,83663,2,0,L|252:58,1,37.5000014305115,8|0,3:1|3:1,3:1:0:0:
292,205,83835,1,0,3:1:0:0:
292,205,83920,1,0,3:1:0:0:
292,205,84006,2,0,P|272:206|254:202,1,37.5000014305115,8|0,3:1|3:1,3:1:0:0:
352,67,84177,1,0,3:1:0:0:
352,67,84263,1,0,3:1:0:0:
352,67,84349,2,0,P|372:66|389:69,1,37.5000014305115,8|0,3:1|3:1,3:1:0:0:
512,177,84520,2,0,P|492:178|475:175,1,37.5000014305115,0|0,3:1|3:1,3:1:0:0:
295,138,84692,6,0,L|290:202,1,42.5000008106232,8|0,3:1|3:1,3:1:0:0:
206,319,84863,1,0,3:1:0:0:
206,319,84949,1,0,3:1:0:0:
206,319,85035,2,0,P|201:298|199:277,1,42.5000008106232,8|0,3:1|3:1,3:1:0:0:
367,318,85206,1,0,3:1:0:0:
367,318,85292,1,0,3:1:0:0:
367,318,85377,2,0,P|371:297|373:276,1,42.5000008106232,8|0,3:1|3:1,3:1:0:0:
291,180,85549,1,0,3:1:0:0:
291,180,85635,1,0,3:1:0:0:
291,180,85720,2,0,L|223:177,1,42.5000008106232,8|0,3:1|3:1,3:1:0:0:
79,171,85892,2,0,L|147:174,1,42.5000008106232,0|0,3:1|3:1,3:1:0:0:
302,266,86063,6,0,P|298:289|291:312,1,47.4999987316132,8|0,3:1|3:1,3:1:0:0:
381,167,86235,1,0,3:1:0:0:
381,167,86320,1,0,3:1:0:0:
381,167,86406,2,0,P|403:158|426:153,1,47.4999987316132,8|0,3:1|3:1,3:1:0:0:
257,157,86577,1,0,3:1:0:0:
257,157,86663,1,0,3:1:0:0:
257,157,86749,2,0,P|238:142|222:124,1,47.4999987316132,8|0,3:1|3:1,3:1:0:0:
302,266,86920,1,0,3:1:0:0:
302,266,87006,1,0,3:1:0:0:
302,266,87092,2,0,P|298:289|291:312,1,47.4999987316132,8|0,3:1|3:1,3:1:0:0:
326,102,87263,2,0,P|329:78|336:55,1,47.4999987316132,0|0,3:1|3:1,3:1:0:0:
443,254,87435,6,0,P|417:258|391:254,1,52.4999983978272,8|0,3:1|3:1,3:1:0:0:
244,138,87606,1,0,3:1:0:0:
244,138,87692,1,0,3:1:0:0:
244,138,87777,2,0,P|218:134|192:138,1,52.4999983978272,8|0,3:1|3:1,3:1:0:0:
193,302,87949,1,0,3:1:0:0:
193,302,88035,1,0,3:1:0:0:
193,302,88120,2,0,P|208:281|218:256,1,52.4999983978272,8|0,3:1|3:1,3:1:0:0:
85,176,88292,1,0,3:1:0:0:
85,176,88377,1,0,3:1:0:0:
85,176,88463,2,0,P|95:200|111:220,1,52.4999983978272,8|0,3:1|3:1,3:1:0:0:
162,53,88635,2,0,P|151:28|135:8,1,52.4999983978272,0|0,3:1|3:1,3:1:0:0:
218,257,88806,5,12,3:1:0:0:
237,283,88892,1,0,3:1:0:0:
268,296,88977,1,0,3:1:0:0:
301,290,89063,1,0,3:1:0:0:
327,268,89149,1,0,3:1:0:0:
336,235,89235,1,0,3:1:0:0:
327,203,89320,1,0,3:1:0:0:
302,180,89406,1,0,3:1:0:0:
268,174,89492,1,0,3:1:0:0:
236,162,89577,1,0,3:1:0:0:
216,135,89663,1,0,3:1:0:0:
212,102,89749,1,0,3:1:0:0:
230,67,89835,1,0,3:1:0:0:
270,51,89920,1,0,3:1:0:0:
312,68,90006,1,0,3:1:0:0:
327,116,90092,1,0,3:1:0:0:
300,162,90177,6,0,P|270:175|228:170,1,62.5,8|0,3:1|3:1,3:1:0:0:
427,56,90349,2,0,P|457:43|499:48,1,62.5,0|0,3:1|3:1,3:1:0:0:
290,172,90520,6,0,P|257:168|223:142,1,62.5,8|0,3:1|3:1,3:1:0:0:
452,143,90692,2,0,P|484:146|518:172,1,62.5,0|0,3:1|3:1,3:1:0:0:
276,172,90863,6,0,P|249:152|233:113,1,62.5,8|0,3:1|3:1,3:1:0:0:
430,227,91035,2,0,P|456:246|472:285,1,62.5,0|0,3:1|3:1,3:1:0:0:
260,164,91206,6,0,P|247:134|251:91,1,62.5,8|0,3:1|3:1,3:1:0:0:
361,283,91377,2,0,P|373:313|368:355,1,62.5,0|0,3:1|3:1,3:1:0:0:
322,119,91549,6,0,P|324:101|331:82,14,31.25,8|0|0|0|0|0|0|0|0|0|0|0|0|0|0,0:0|2:0|2:0|2:0|2:0|2:0|2:0|2:0|2:0|2:0|2:0|2:0|2:0|2:0|2:0,2:0:0:0:
374,186,92235,2,0,L|376:201,12,15.625,8|0|0|0|0|0|0|0|0|0|0|0|0,0:0|2:0|2:0|2:0|2:0|2:0|2:0|2:0|2:0|2:0|2:0|2:0|2:0,2:0:0:0:
284,204,92577,2,0,L|281:219,12,15.625,8|0|0|0|0|0|0|0|0|0|0|0|0,0:0|2:0|2:0|2:0|2:0|2:0|2:0|2:0|2:0|2:0|2:0|2:0|2:0,2:0:0:0:
325,301,92920,5,0,3:0:0:0:
325,301,93263,1,0,3:0:0:0:
325,301,93606,1,0,3:0:0:0:
332,221,93949,5,0,3:0:0:0:
330,241,94034,1,0,3:0:0:0:
328,261,94120,1,0,3:0:0:0:
327,281,94206,1,0,3:0:0:0:
325,301,94292,6,2,P|302:245|205:305,1,200,6|0,3:1|0:0,0:0:0:0:
156,137,94806,1,2,0:0:0:0:
156,137,94892,1,2,0:0:0:0:
156,137,94977,2,0,L|254:141,1,75.0000028610231,10|0,0:0|0:0,0:0:0:0:
444,208,95149,2,0,L|332:204,1,75.0000028610231,2|0,0:0|0:0,0:0:0:0:
326,33,95320,2,0,P|336:68|334:106,1,75.0000028610231,2|0,3:1|0:0,0:0:0:0:
274,321,95492,2,0,P|263:285|265:247,1,75.0000028610231,2|0,0:0|0:0,0:0:0:0:
448,99,95663,6,2,P|372:207|381:73,1,300.000011444092,2|0,0:0|3:0,0:0:0:0:
434,303,96177,1,2,0:0:0:0:
434,303,96263,1,2,0:0:0:0:
434,303,96349,2,0,L|336:307,1,75.0000028610231,10|0,0:0|0:0,0:0:0:0:
166,162,96520,2,0,L|264:166,1,75.0000028610231,2|0,0:0|0:0,0:0:0:0:
243,359,96692,2,0,P|238:321|246:285,1,75.0000028610231,2|0,0:0|0:0,0:0:0:0:
364,112,96863,2,0,P|368:149|360:185,1,75.0000028610231,2|0,0:0|0:0,0:0:0:0:
186,69,97035,6,2,P|129:105|166:162,1,150,2|0,3:1|0:0,0:0:0:0:
264,168,97377,6,0,B|243:168|225:161|225:161|201:167|201:167|184:160|166:162,1,100,2|0,0:0|0:0,0:0:0:0:
89,58,97549,2,0,B|108:62|128:58|128:58|150:68|150:68|168:64|186:69,1,100,2|0,0:0|0:0,0:0:0:0:
359,185,97720,6,0,P|367:149|364:112,1,75.0000028610231,10|0,0:0|0:0,0:0:0:0:
167,162,97892,2,0,P|158:198|162:235,1,75.0000028610231,2|0,0:0|0:0,0:0:0:0:
387,267,98063,2,0,P|353:272|312:257,1,75.0000028610231,2|0,3:1|0:0,0:0:0:0:
139,79,98235,2,2,P|182:76|254:149,1,150.000005722046,2|0,0:0|0:0,0:0:0:0:
444,47,98577,6,0,P|409:38|363:44,1,75.0000028610231,2|0,0:0|0:0,0:0:0:0:
295,86,98749,2,0,P|269:112|253:146,1,75.0000028610231,2|0,3:1|0:0,0:0:0:0:
256,229,98920,2,0,P|265:264|293:301,1,75.0000028610231,2|0,0:0|0:0,0:0:0:0:
363,332,99092,1,10,0:0:0:0:
253,146,99263,6,0,P|269:112|296:86,1,75.0000028610231,2|0,0:0|0:0,0:0:0:0:
407,82,99435,2,2,P|385:152|299:77,1,225.000008583069,2|0,0:0|0:0,0:0:0:0:
428,75,99777,6,2,B|436:114|420:147|420:147|439:201|439:201|421:230|427:267,1,200,6|0,3:1|0:0,0:0:0:0:
151,120,100292,1,2,0:0:0:0:
151,120,100377,1,2,0:0:0:0:
151,120,100463,2,0,P|190:128|227:123,1,75.0000028610231,10|0,0:0|0:0,0:0:0:0:
379,244,100635,2,0,P|339:235|302:240,1,75.0000028610231,2|0,0:0|0:0,0:0:0:0:
67,238,100806,2,0,P|103:245|140:241,1,75.0000028610231,2|0,3:1|0:0,0:0:0:0:
297,128,100977,2,0,P|257:119|220:124,1,75.0000028610231,2|0,0:0|0:0,0:0:0:0:
338,318,101149,6,2,P|448:293|367:160,1,300.000011444092,2|0,0:0|3:0,0:0:0:0:
252,362,101663,1,2,0:0:0:0:
252,362,101749,1,2,0:0:0:0:
251,361,101835,2,0,P|243:325|247:287,1,75.0000028610231,10|0,0:0|0:0,0:0:0:0:
385,85,102006,2,0,P|391:121|388:158,1,75.0000028610231,2|0,0:0|0:0,0:0:0:0:
182,169,102177,2,0,L|278:177,1,75.0000028610231,2|0,3:1|0:0,0:0:0:0:
444,280,102349,2,0,L|348:272,1,75.0000028610231,2|0,0:0|0:0,0:0:0:0:
281,84,102520,6,2,P|316:119|243:168,1,150,2|0,3:1|0:0,0:0:0:0:
160,168,102863,6,0,B|180:168|198:175|198:175|222:169|222:169|239:177|257:175,1,100,2|0,0:0|0:0,0:0:0:0:
378,93,103035,2,0,B|356:91|338:84|338:84|314:90|314:90|297:82|279:84,1,100,2|0,0:0|0:0,0:0:0:0:
77,211,103206,6,0,P|68:174|71:137,1,75.0000028610231,10|0,0:0|0:0,0:0:0:0:
229,268,103377,2,0,P|237:304|234:341,1,75.0000028610231,2|0,0:0|0:0,0:0:0:0:
207,78,103549,2,0,P|244:75|280:83,1,75.0000028610231,2|0,3:1|0:0,0:0:0:0:
418,201,103720,2,0,P|381:204|345:196,1,75.0000028610231,2|0,0:0|0:0,0:0:0:0:
249,4,103892,6,0,L|235:201,1,150,8|0,0:0|0:0,0:0:0:0:
270,232,104235,2,0,L|284:35,1,150,8|0,0:0|0:0,0:0:0:0:
362,69,104577,6,0,P|327:151|238:153,1,187.5,8|0,0:0|0:0,0:0:0:0:
215,261,104920,2,0,P|250:179|370:202,1,225.000008583069,8|0,0:0|0:0,0:0:0:0:
209,286,105263,6,2,B|196:247|208:212|208:212|182:161|182:161|197:130|187:93,1,200,6|0,3:1|0:0,0:0:0:0:
188,366,105777,1,2,0:0:0:0:
188,366,105863,1,2,0:0:0:0:
188,366,105949,2,0,P|237:368|286:322,1,87.500000834465,10|0,0:0|0:0,0:0:0:0:
355,133,106120,2,0,P|306:131|257:177,1,87.500000834465,2|0,0:0|0:0,0:0:0:0:
382,280,106292,2,0,P|419:300|462:297,1,87.500000834465,2|0,3:1|0:0,0:0:0:0:
203,236,106463,2,0,P|165:215|122:218,1,87.500000834465,2|0,0:0|0:0,0:0:0:0:
304,250,106635,6,2,P|380:173|272:191,1,239.999992675781,2|0,0:0|3:0,0:0:0:0:
286,331,107149,1,2,0:0:0:0:
286,331,107235,1,2,0:0:0:0:
286,331,107320,2,0,P|307:293|304:250,1,87.500000834465,10|0,0:0|0:0,0:0:0:0:
98,116,107492,2,0,P|77:154|80:197,1,87.500000834465,2|0,0:0|0:0,0:0:0:0:
281,171,107663,2,0,P|324:168|361:189,1,87.500000834465,2|0,3:1|0:0,0:0:0:0:
105,273,107835,2,0,P|61:275|24:254,1,87.500000834465,2|0,0:0|0:0,0:0:0:0:
238,96,108006,6,2,P|320:120|238:154,1,179.999994506836,2|0,3:1|0:0,0:0:0:0:
141,86,108349,6,0,B|161:89|180:85|180:85|203:95|203:95|221:92|238:96,1,100,2|0,0:0|0:0,0:0:0:0:
378,182,108520,2,0,B|357:178|338:182|338:182|315:172|315:172|297:175|280:171,1,100,2|0,0:0|0:0,0:0:0:0:
137,263,108692,6,0,P|116:301|119:344,1,87.500000834465,10|0,0:0|0:0,0:0:0:0:
359,262,108863,2,0,P|380:224|377:181,1,87.500000834465,2|0,0:0|0:0,0:0:0:0:
199,153,109035,2,0,P|242:150|279:171,1,87.500000834465,2|0,3:1|0:0,0:0:0:0:
306,383,109206,2,0,P|262:385|225:364,1,87.500000834465,2|0,0:0|0:0,0:0:0:0:
108,165,109377,6,2,B|81:101|105:57|105:57|141:58|165:90,1,179.999994506836,2|0,0:0|0:0,0:0:0:0:
199,153,109720,6,0,P|223:187|307:150,1,150.000005722046,0|0,3:0|0:0,0:0:0:0:
328,81,109977,1,0,3:0:0:0:
328,81,110063,2,0,L|339:165,1,67.5000002574921,8|0,0:0|0:0,0:0:0:0:
373,212,110235,2,0,L|354:69,1,119.999996337891,0|0,3:0|0:0,0:0:0:0:
308,255,110492,2,0,P|349:287|436:259,1,104.999996795654,0|0,3:0|0:0,0:0:0:0:
255,196,110749,6,2,B|215:159|163:178|163:178|142:162|142:162|106:179|70:158,1,200,6|0,0:0|0:0,0:0:0:0:
274,352,111263,1,2,0:0:0:0:
274,352,111349,1,2,0:0:0:0:
274,352,111435,2,0,P|293:307|278:240,1,87.500000834465,2|0,3:1|0:0,0:0:0:0:
349,86,111606,2,0,P|330:131|345:198,1,87.500000834465,2|0,0:0|0:0,0:0:0:0:
458,261,111777,2,0,P|418:242|375:244,1,87.500000834465,2|0,3:1|0:0,0:0:0:0:
165,173,111949,2,0,P|204:191|247:189,1,87.500000834465,2|0,0:0|0:0,0:0:0:0:
409,142,112120,6,2,P|407:27|280:41,1,239.999992675781,2|0,3:1|3:0,0:0:0:0:
312,246,112635,1,2,0:0:0:0:
312,246,112720,1,2,0:0:0:0:
312,246,112806,2,0,P|355:245|395:264,1,87.500000834465,2|0,3:1|0:0,0:0:0:0:
213,124,112977,2,0,P|169:125|130:106,1,87.500000834465,2|0,0:0|0:0,0:0:0:0:
344,50,113149,2,0,P|344:93|326:132,1,87.500000834465,2|0,3:1|0:0,0:0:0:0:
202,302,113320,2,0,P|201:258|219:219,1,87.500000834465,2|0,0:0|0:0,0:0:0:0:
445,151,113492,5,4,3:1:0:0:
463,189,113577,1,0,3:1:0:0:
463,233,113663,1,0,3:1:0:0:
442,272,113749,1,0,3:1:0:0:
403,293,113835,1,0,3:1:0:0:
359,292,113920,1,0,3:1:0:0:
321,269,114006,1,0,3:1:0:0:
300,230,114092,1,0,3:1:0:0:
293,186,114177,1,2,3:1:0:0:
271,146,114263,1,0,3:1:0:0:
234,122,114349,1,2,3:1:0:0:
190,117,114435,1,0,3:1:0:0:
147,132,114520,1,2,3:1:0:0:
119,166,114606,1,0,3:1:0:0:
111,209,114692,1,2,3:1:0:0:
125,250,114777,1,0,3:1:0:0:
158,277,114863,6,0,P|170:279|182:279,6,25,0|0|0|0|0|0|0,3:0|2:0|2:0|2:0|2:0|2:0|2:0,2:0:0:0:
258,194,115206,2,0,P|242:191|227:191,6,29.9999990844727,0|0|0|0|0|0|0,3:0|2:0|2:0|2:0|2:0|2:0|2:0,2:0:0:0:
145,109,115549,2,0,P|162:111|179:111,6,34.9999989318848,0|0|0|0|0|0|0,3:0|2:0|2:0|2:0|2:0|2:0|2:0,2:0:0:0:
257,26,115892,2,0,P|237:22|218:22,6,40,0|0|0|0|0|0|0,3:0|2:0|2:0|2:0|2:0|2:0|2:0,2:0:0:0:
88,32,116235,6,0,B|45:65|31:125|65:181|109:196|109:196|137:180|149:147|145:109|145:109|190:121|228:99|228:99|240:163|219:222|171:271|119:287|119:287|71:281|31:257|2:220,1,750,4|0,3:2|2:0,0:0:0:0:
77,362,121720,6,0,B|127:371|127:371|172:353,1,100,2|0,0:0|0:0,0:0:0:0:
246,260,122235,1,2,0:0:0:0:
235,253,122320,1,2,0:0:0:0:
224,246,122406,2,0,L|162:241,1,50,2|0,0:0|0:0,0:0:0:0:
103,146,122749,2,0,L|165:140,1,50,2|0,0:0|0:0,0:0:0:0:
281,170,123092,6,0,P|262:215|223:245,1,100,2|0,0:0|0:0,0:0:0:0:
103,146,123606,1,0,0:0:0:0:
103,146,123777,2,0,P|152:141|196:162,1,100,2|0,0:0|0:0,0:0:0:0:
135,230,124292,1,0,0:0:0:0:
25,181,124463,6,0,L|19:114,1,50,2|0,0:0|0:0,0:0:0:0:
150,91,124806,2,0,L|144:158,1,50,2|0,0:0|0:0,0:0:0:0:
72,57,125149,2,0,P|104:20|151:7,2,100,2|2|2,0:0|0:0|0:0,0:0:0:0:
352,285,127206,6,0,P|367:239|352:191,1,100,2|0,0:0|0:0,0:0:0:0:
216,224,127720,1,2,0:0:0:0:
228,226,127806,1,2,0:0:0:0:
241,228,127892,2,0,L|303:238,1,50
233,133,128235,2,0,L|170:143,1,50,2|0,0:0|0:0,0:0:0:0:
199,310,128577,6,0,P|233:280|237:215,1,100,2|0,0:0|0:0,0:0:0:0:
183,141,129092,1,0,0:0:0:0:
183,141,129263,2,0,P|189:92|225:58,1,100,2|0,0:0|0:0,0:0:0:0:
317,43,129777,1,0,0:0:0:0:
251,195,129949,6,0,P|198:227|140:217,1,100,2|0,0:0|0:0,0:0:0:0:
22,183,130463,1,2,0:0:0:0:
33,179,130549,1,2,0:0:0:0:
45,173,130635,2,0,P|69:167|94:168,1,50,2|0,0:0|0:0,0:0:0:0:
103,292,130977,2,0,P|78:297|53:296,1,50,2|0,0:0|0:0,0:0:0:0:
162,226,131320,5,2,0:0:0:0:
177,339,131492,1,2,0:0:0:0:
73,219,131663,1,2,0:0:0:0:
252,235,131835,1,2,0:0:0:0:
103,292,132006,2,0,P|63:297|14:272,1,75,2|0,0:0|0:0,0:0:0:0:
17,265,132349,1,2,0:0:0:0:
17,265,132520,1,0,0:0:0:0:
177,339,132692,6,0,P|191:293|171:235,1,100,2|0,0:0|0:0,0:0:0:0:
75,135,133206,1,2,0:0:0:0:
70,146,133292,1,2,0:0:0:0:
68,158,133377,2,0,P|69:190|84:222,1,50,2|0,0:0|0:0,0:0:0:0:
173,138,133720,2,0,P|171:105|156:73,1,50,2|0,0:0|0:0,0:0:0:0:
290,42,134063,6,0,P|303:93|304:155,1,100,2|0,0:0|0:0,0:0:0:0:
188,236,134577,1,0,0:0:0:0:
188,236,134749,2,0,P|175:185|174:123,1,100,2|0,0:0|0:0,0:0:0:0:
201,51,135263,1,0,0:0:0:0:
324,130,135435,6,0,L|319:180,1,50,2|0,0:0|0:0,0:0:0:0:
330,277,135777,2,0,L|280:272,1,50,2|0,0:0|0:0,0:0:0:0:
183,285,136120,2,0,L|188:235,1,50,2|0,0:0|0:0,0:0:0:0:
173,141,136463,2,0,L|223:146,1,50,2|0,0:0|0:0,0:0:0:0:
324,130,136806,5,0,3:0:0:0:
327,150,136891,1,0,3:0:0:0:
324,174,136977,1,0,3:0:0:0:
315,196,137063,1,0,3:0:0:0:
295,216,137148,1,0,3:0:0:0:
279,244,137234,1,0,3:0:0:0:
280,286,137320,1,0,3:0:0:0:
304,318,137406,1,0,3:0:0:0:
378,334,137492,6,0,L|393:180,1,150,8|0,0:0|0:0,0:0:0:0:
367,111,137835,2,0,L|352:265,1,150,8|0,0:0|0:0,0:0:0:0:
208,216,138177,6,2,B|256:209|294:233|294:233|324:208|359:204|359:204|387:223|433:225,1,239.999992675781,6|0,0:0|0:0,0:0:0:0:
414,95,138692,1,2,0:0:0:0:
390,102,138777,1,2,0:0:0:0:
367,111,138863,2,0,P|349:150|375:222,1,100,2|0,0:0|0:0,0:0:0:0:
442,306,139206,1,0,0:0:0:0:
442,306,139377,1,0,0:0:0:0:
256,259,139549,6,0,P|205:256|160:285,1,100,2|0,0:0|0:0,0:0:0:0:
95,365,139892,1,0,0:0:0:0:
95,365,140063,1,0,0:0:0:0:
131,179,140235,2,2,P|195:183|161:281,1,200,2|8,0:0|0:0,0:0:0:0:
225,65,140920,6,2,P|311:143|326:265,1,239.999992675781,2|0,0:0|0:0,0:0:0:0:
448,177,141435,1,2,0:0:0:0:
432,158,141520,1,2,0:0:0:0:
411,144,141606,2,0,P|353:135|304:153,1,100,2|0,0:0|0:0,0:0:0:0:
186,219,141949,1,0,0:0:0:0:
186,219,142120,1,0,0:0:0:0:
202,80,142292,5,2,3:1:0:0:
368,247,142463,1,10,0:0:0:0:
381,102,142635,1,2,3:1:0:0:
186,219,142806,1,10,0:0:0:0:
433,163,142977,2,0,P|460:103|453:67,1,100,2|8,3:1|0:0,0:0:0:0:
362,33,143320,2,0,L|457:72,1,100,10|0,0:0|0:0,0:0:0:0:
436,260,143663,6,2,P|349:221|436:165,1,239.999992675781,2|0,0:0|0:0,0:0:0:0:
404,356,144177,1,2,0:0:0:0:
379,355,144263,1,2,0:0:0:0:
355,348,144349,2,0,P|304:317|275:278,1,100,2|0,0:0|0:0,0:0:0:0:
245,179,144692,1,0,0:0:0:0:
245,179,144863,1,0,0:0:0:0:
387,116,145035,6,0,P|380:175|357:218,1,100,2|0,0:0|0:0,0:0:0:0:
279,286,145377,1,0,0:0:0:0:
279,286,145549,1,0,0:0:0:0:
188,218,145720,2,2,P|273:173|362:210,1,200,2|8,0:0|0:0,0:0:0:0:
374,322,146235,1,0,0:0:0:0:
449,192,146406,6,0,L|440:87,1,100,2|0,0:0|0:0,0:0:0:0:
266,126,146749,2,0,L|257:231,1,100,2|0,0:0|0:0,0:0:0:0:
335,314,147092,2,0,P|336:261|252:226,1,150,2|0,0:0|0:0,0:0:0:0:
235,241,147435,2,0,P|170:243|168:169,1,150,2|0,0:0|0:0,0:0:0:0:
184,156,147777,6,0,B|213:142|243:153|243:153|263:138|263:138|297:154|327:143|351:131|365:109|375:82|372:39|356:11|321:-17|248:-10|217:22|216:79|233:107,1,450.000017166138,0|0,3:0|0:0,0:0:0:0:
293,286,149149,5,8,0:0:0:0:
112,192,149492,1,8,0:0:0:0:
293,98,149835,1,8,0:0:0:0:
296,296,150520,5,8,0:0:0:0:
96,192,150863,1,8,0:0:0:0:
296,87,151206,1,8,0:0:0:0:
256,284,151892,6,0,B|182:261|182:261|114:287,1,150.000005722046,8|0,0:0|0:0,0:0:0:0:
256,100,152577,2,0,B|330:123|330:123|397:96,1,150.000005722046,8|0,0:0|0:0,0:0:0:0:
293,286,153263,6,0,L|240:284,3,37.5000014305115,8|0|0|0,0:0|0:0|0:0|0:0,0:0:0:0:
112,192,153606,2,0,L|165:190,3,37.5000014305115,8|0|0|0,0:0|0:0|0:0|0:0,0:0:0:0:
255,96,153949,1,8,3:1:0:0:
264,96,154035,1,0,3:1:0:0:
274,97,154120,1,0,3:1:0:0:
283,97,154206,1,0,3:1:0:0:
293,98,154292,1,6,3:1:0:0:
336,273,154635,6,0,L|332:336,1,37.5000014305115,8|0,3:1|3:1,3:1:0:0:
410,177,154806,1,0,3:1:0:0:
410,177,154892,1,0,3:1:0:0:
410,177,154977,2,0,L|466:148,1,37.5000014305115,8|0,3:1|3:1,3:1:0:0:
282,170,155149,1,0,3:1:0:0:
282,170,155235,1,0,3:1:0:0:
282,170,155320,2,0,L|229:135,1,37.5000014305115,8|0,3:1|3:1,3:1:0:0:
354,42,155492,1,0,3:1:0:0:
354,42,155577,1,0,3:1:0:0:
354,42,155663,2,0,L|350:91,1,37.5000014305115,8|0,3:1|3:1,3:1:0:0:
335,272,155835,2,0,L|339:223,1,37.5000014305115,0|0,3:1|3:1,3:1:0:0:
257,63,156006,6,0,P|229:66|190:85,1,42.5000008106232,8|0,3:1|3:1,3:1:0:0:
150,217,156177,1,0,3:1:0:0:
150,217,156263,1,0,3:1:0:0:
150,217,156349,2,0,P|166:239|202:264,1,42.5000008106232,8|0,3:1|3:1,3:1:0:0:
339,235,156520,1,0,3:1:0:0:
339,235,156606,1,0,3:1:0:0:
339,235,156692,2,0,P|350:209|353:165,1,42.5000008106232,8|0,3:1|3:1,3:1:0:0:
257,63,156863,1,0,3:1:0:0:
257,63,156949,1,0,3:1:0:0:
257,63,157035,2,0,P|245:88|242:132,1,42.5000008106232,8|0,3:1|3:1,3:1:0:0:
226,288,157206,2,0,P|237:262|240:218,1,42.5000008106232,0|0,3:1|3:1,3:1:0:0:
341,108,157377,6,0,P|369:110|415:125,1,47.4999987316132,8|0,3:1|3:1,3:1:0:0:
384,274,157549,1,0,3:1:0:0:
384,274,157635,1,0,3:1:0:0:
384,274,157720,2,0,P|356:272|310:257,1,47.4999987316132,8|0,3:1|3:1,3:1:0:0:
236,177,157892,1,0,3:1:0:0:
236,177,157977,1,0,3:1:0:0:
236,177,158063,2,0,L|247:106,1,47.4999987316132,8|0,3:1|3:1,3:1:0:0:
223,315,158235,1,0,3:1:0:0:
223,315,158320,1,0,3:1:0:0:
223,315,158406,2,0,L|212:386,1,47.4999987316132,8|0,3:1|3:1,3:1:0:0:
81,220,158577,2,0,P|109:222|155:237,1,47.4999987316132,0|0,3:1|3:1,3:1:0:0:
290,123,158749,6,0,P|262:125|216:141,1,52.4999983978272,8|0,3:1|3:1,3:1:0:0:
99,171,158920,1,0,3:1:0:0:
99,171,159006,1,0,3:1:0:0:
99,171,159092,2,0,P|87:197|76:248,1,52.4999983978272,8|0,3:1|3:1,3:1:0:0:
144,42,159263,1,0,3:1:0:0:
144,42,159349,1,0,3:1:0:0:
144,42,159435,2,0,P|129:19|91:-12,1,52.4999983978272,8|0,3:1|3:1,3:1:0:0:
243,129,159606,1,0,3:1:0:0:
243,129,159692,1,0,3:1:0:0:
243,129,159777,2,0,P|270:127|314:111,1,52.4999983978272,8|0,3:1|3:1,3:1:0:0:
461,46,159949,2,0,P|433:47|385:66,1,52.4999983978272,0|0,3:1|3:1,3:1:0:0:
335,226,160120,5,4,3:1:0:0:
340,259,160206,1,0,3:1:0:0:
362,284,160292,1,0,3:1:0:0:
394,292,160377,1,0,3:1:0:0:
425,279,160463,1,0,3:1:0:0:
444,251,160549,1,0,3:1:0:0:
449,217,160635,1,0,3:1:0:0:
441,184,160720,1,0,3:1:0:0:
423,154,160806,1,0,3:1:0:0:
397,131,160892,1,0,3:1:0:0:
366,116,160977,1,0,3:1:0:0:
331,112,161063,1,0,3:1:0:0:
293,121,161149,1,0,3:1:0:0:
259,143,161235,1,0,3:1:0:0:
233,177,161320,1,0,3:1:0:0:
223,221,161406,1,0,3:1:0:0:
239,267,161492,6,0,P|260:292|293:306,1,62.5,8|0,3:1|3:1,3:1:0:0:
460,252,161663,2,0,P|439:227|406:213,1,62.5,0|0,3:1|3:1,3:1:0:0:
252,260,161835,6,0,P|282:271|318:266,1,62.5,8|0,3:1|3:1,3:1:0:0:
454,144,162006,2,0,P|423:132|387:137,1,62.5,0|0,3:1|3:1,3:1:0:0:
258,243,162177,6,0,P|290:237|318:215,1,62.5,8|0,3:1|3:1,3:1:0:0:
394,50,162349,2,0,P|361:55|333:77,1,62.5,0|0,3:1|3:1,3:1:0:0:
258,228,162520,6,0,P|283:207|296:174,1,62.5,8|0,3:1|3:1,3:1:0:0:
297,2,162692,2,0,P|272:23|258:56,1,62.5,0|0,3:1|3:1,3:1:0:0:
401,192,162863,6,0,P|418:198|443:200,14,31.25,8|0|0|0|0|0|0|0|0|0|0|0|0|0|0,0:0|2:0|2:0|2:0|2:0|2:0|2:0|2:0|2:0|2:0|2:0|2:0|2:0|2:0|2:0,2:0:0:0:
433,115,163549,2,0,L|436:97,12,15.625,8|0|0|0|0|0|0|0|0|0|0|0|0,0:0|2:0|2:0|2:0|2:0|2:0|2:0|2:0|2:0|2:0|2:0|2:0|2:0,2:0:0:0:
347,79,163892,2,0,L|344:61,12,15.625,8|0|0|0|0|0|0|0|0|0|0|0|0,0:0|2:0|2:0|2:0|2:0|2:0|2:0|2:0|2:0|2:0|2:0|2:0|2:0,2:0:0:0:
424,15,164235,5,0,3:0:0:0:
424,15,164577,1,0,3:0:0:0:
424,15,164920,1,0,3:0:0:0:
432,188,165177,1,0,3:0:0:0:
432,188,165263,1,8,0:0:0:0:
494,100,165435,1,0,3:0:0:0:
319,183,165606,6,0,P|330:238|368:290,1,100,4|0,3:1|0:0,0:0:0:0:
430,322,165863,1,0,3:0:0:0:
430,322,165949,1,8,0:0:0:0:
241,285,166120,6,0,P|163:300|132:368,1,150.000005722046,2|0,0:0|0:0,0:0:0:0:
280,190,166463,2,0,P|223:180|175:187,1,75.0000028610231,2|0,3:1|0:0,0:0:0:0:
114,208,166635,1,10,0:0:0:0:
322,307,166806,1,0,0:0:0:0:
416,89,166977,6,0,P|433:144|407:194,1,100,2|0,3:1|0:0,0:0:0:0:
347,216,167235,1,0,3:0:0:0:
347,216,167320,1,8,0:0:0:0:
217,48,167492,2,0,B|198:90|198:90|216:203,1,150.000005722046,2|0,0:0|0:0,0:0:0:0:
101,107,167835,2,0,L|89:32,1,75.0000028610231,2|0,3:1|0:0,0:0:0:0:
306,138,168006,2,0,L|318:213,1,75.0000028610231,10|0,0:0|0:0,0:0:0:0:
139,309,168177,2,0,L|127:234,1,75.0000028610231,2|0,0:0|0:0,0:0:0:0:
391,278,168349,6,0,P|342:308|279:300,1,100,2|0,3:1|0:0,0:0:0:0:
238,249,168606,1,0,3:0:0:0:
238,249,168692,1,8,0:0:0:0:
247,99,168863,2,0,L|237:261,1,150,0|0,3:0|0:0,0:0:0:0:
273,293,169206,2,0,L|279:197,1,50,8|0,0:0|0:0,0:0:0:0:
283,150,169377,1,8,0:0:0:0:
200,351,169549,1,0,3:0:0:0:
365,257,169720,6,0,P|400:264|438:293,1,75.0000028610231,2|0,3:1|0:0,0:0:0:0:
237,248,169892,2,0,P|202:255|164:284,1,75.0000028610231,2|0,0:0|0:0,0:0:0:0:
349,118,170063,2,0,L|340:43,1,75.0000028610231,10|0,0:0|0:0,0:0:0:0:
245,173,170235,2,0,L|236:256,1,75.0000028610231,2|0,3:1|0:0,0:0:0:0:
373,331,170406,2,0,L|364:256,1,75.0000028610231,2|0,0:0|0:0,0:0:0:0:
262,90,170577,1,0,3:0:0:0:
262,90,170663,1,0,3:0:0:0:
262,90,170749,2,2,P|174:113|243:173,1,225.000008583069,10|0,0:0|0:0,0:0:0:0:
281,69,171092,6,0,P|239:46|186:54,1,100,2|0,3:1|0:0,0:0:0:0:
227,127,171349,1,0,3:0:0:0:
227,127,171435,1,8,0:0:0:0:
416,194,171606,6,0,B|384:231|384:231|251:243,1,150.000005722046,2|0,0:0|0:0,0:0:0:0:
457,82,171949,2,0,L|359:75,1,75.0000028610231,2|0,3:1|0:0,0:0:0:0:
281,69,172120,1,8,0:0:0:0:
472,269,172292,1,0,0:0:0:0:
283,240,172463,6,0,L|392:230,1,100,2|0,3:1|0:0,0:0:0:0:
431,167,172720,1,0,3:0:0:0:
431,167,172806,1,8,0:0:0:0:
204,168,172977,6,0,P|183:251|225:329,1,150.000005722046,2|0,0:0|0:0,0:0:0:0:
295,66,173320,2,0,P|305:116|288:169,1,75.0000028610231,2|0,3:1|0:0,0:0:0:0:
176,284,173492,2,0,P|166:234|183:181,1,75.0000028610231,10|0,0:0|0:0,0:0:0:0:
62,61,173663,2,0,P|52:111|69:164,1,75.0000028610231,2|0,0:0|0:0,0:0:0:0:
262,220,173835,6,0,P|206:199|145:237,1,100,2|0,3:1|0:0,0:0:0:0:
107,268,174092,1,0,3:0:0:0:
107,268,174177,1,8,0:0:0:0:
291,305,174349,2,0,L|297:139,1,150,0|0,3:0|0:0,0:0:0:0:
261,75,174692,2,0,L|257:167,1,50,8|0,0:0|0:0,0:0:0:0:
253,218,174863,1,8,0:0:0:0:
350,69,175035,1,0,3:0:0:0:
180,147,175206,6,0,P|135:150|85:122,1,75.0000028610231,2|0,0:0|0:0,0:0:0:0:
294,222,175377,2,0,P|339:225|389:197,1,75.0000028610231,2|0,0:0|0:0,0:0:0:0:
182,278,175549,2,0,P|170:313|174:350,1,75.0000028610231,2|0,0:0|0:0,0:0:0:0:
276,120,175720,2,0,P|287:84|283:47,1,75.0000028610231,2|0,0:0|0:0,0:0:0:0:
357,340,175892,6,2,P|435:298|368:215,1,225.000008583069,10|0,0:0|0:0,0:0:0:0:
345,203,176235,2,2,P|448:246|367:360,1,225.000008583069,10|0,0:0|0:0,0:0:0:0:
259,232,176577,6,0,B|247:177|275:142|275:142|275:114|266:85|266:85|280:65|285:42,1,200,4|0,0:0|0:0,0:0:0:0:
154,224,177092,2,0,L|256:212,1,75.0000028610231,2|0,3:1|0:0,0:0:0:0:
345,203,177263,1,8,0:0:0:0:
148,67,177435,2,0,B|192:32|192:32|285:42,1,150.000005722046,2|0,0:0|0:0,0:0:0:0:
299,295,177777,1,0,0:0:0:0:
371,55,177949,6,0,P|293:108|289:36,1,200,2|0,3:1|0:0,0:0:0:0:
442,223,178463,2,0,L|356:214,1,75.0000028610231,2|0,3:1|0:0,0:0:0:0:
254,204,178635,2,0,L|168:195,1,75.0000028610231,10|0,0:0|0:0,0:0:0:0:
285,42,178806,2,0,P|297:85|291:122,1,75.0000028610231,2|0,0:0|0:0,0:0:0:0:
190,268,178977,2,0,P|177:224|183:187,1,75.0000028610231,2|0,0:0|0:0,0:0:0:0:
65,47,179149,2,0,P|77:82|74:119,1,75.0000028610231,2|0,0:0|0:0,0:0:0:0:
78,304,179320,6,0,P|111:346|185:258,1,200,2|0,3:1|0:0,0:0:0:0:
104,72,179835,2,0,L|94:164,1,50,0|0,3:1|0:0,0:0:0:0:
88,213,180006,1,8,0:0:0:0:
152,43,180177,2,0,B|134:191|134:191|84:215,1,200,0|0,3:0|0:0,0:0:0:0:
306,260,180692,6,0,P|342:267|378:258,1,75.0000028610231,2|0,3:1|0:0,0:0:0:0:
161,212,180863,2,0,P|124:204|88:213,1,75.0000028610231,2|0,0:0|0:0,0:0:0:0:
260,121,181035,2,0,L|252:37,1,75.0000028610231,2|0,0:0|0:0,0:0:0:0:
161,212,181206,2,0,L|169:296,1,75.0000028610231,2|0,3:1|0:0,0:0:0:0:
378,258,181377,2,0,L|372:167,1,75.0000028610231,10|0,0:0|0:0,0:0:0:0:
365,66,181549,1,0,3:0:0:0:
285,253,181720,2,2,P|340:343|444:323,1,225.000008583069,2|0,0:0|0:0,0:0:0:0:
312,237,182063,6,0,P|328:306|437:295,1,200,2|0,0:0|0:0,0:0:0:0:
397,75,182577,6,0,L|275:68,1,75.0000028610231,2|0,3:1|0:0,0:0:0:0:
208,65,182749,1,8,0:0:0:0:
380,192,182920,2,0,B|340:235|340:235|209:243,1,150.000005722046,2|0,0:0|0:0,0:0:0:0:
42,256,183263,1,0,0:0:0:0:
189,136,183435,6,0,P|266:143|220:246,1,200,2|0,3:1|0:0,0:0:0:0:
331,57,183949,2,0,P|371:54|424:71,1,75.0000028610231,2|0,3:1|0:0,0:0:0:0:
189,136,184120,2,0,P|151:148|92:142,1,75.0000028610231,10|0,0:0|0:0,0:0:0:0:
313,222,184292,2,0,P|353:225|406:208,1,75.0000028610231,2|0,0:0|0:0,0:0:0:0:
185,61,184463,2,0,L|190:164,1,75.0000028610231,2|0,0:0|0:0,0:0:0:0:
316,296,184635,2,0,L|312:206,1,75.0000028610231,2|0,0:0|0:0,0:0:0:0:
112,230,184806,5,4,3:1:0:0:
93,262,184892,1,0,3:1:0:0:
95,299,184977,1,0,3:1:0:0:
113,331,185063,1,0,3:1:0:0:
147,347,185149,1,0,3:1:0:0:
184,345,185235,1,0,3:1:0:0:
214,323,185320,1,0,3:1:0:0:
228,289,185406,1,0,3:1:0:0:
223,251,185492,1,8,3:1:0:0:
219,213,185577,1,0,3:1:0:0:
228,177,185663,1,0,3:1:0:0:
252,147,185749,1,0,3:1:0:0:
284,129,185835,1,0,3:1:0:0:
321,126,185920,1,0,3:1:0:0:
356,137,186006,1,0,3:1:0:0:
385,159,186092,1,0,3:1:0:0:
401,192,186177,6,0,P|404:225|379:287,1,75.0000028610231,2|0,0:0|0:0,0:0:0:0:
284,129,186349,2,0,P|281:96|304:40,1,64.9999970245363,2|0,3:1|0:0,0:0:0:0:
277,242,186520,2,0,P|246:249|190:248,1,55.0000016784668,10|0,0:0|0:0,0:0:0:0:
163,161,186692,2,0,P|140:164|119:170,1,44.999998626709,2|0,0:0|0:0,0:0:0:0:
71,256,186863,2,0,P|47:238|26:142,1,104.999996795654,2|0,3:1|0:0,0:0:0:0:
34,148,187206,2,0,P|60:119|61:66,1,75,2|0,0:0|0:0,0:0:0:0:
63,59,187549,6,4,B|112:84|155:58|155:58|129:100|117:169|149:238|223:274|322:263|363:212|373:161|362:99|314:80|273:85|248:118,1,600,4|4,3:2|2:0,0:0:0:0:
256,192,198520,5,2,0:0:0:0:
256,192,198863,1,2,0:0:0:0:
256,192,199206,1,2,0:0:0:0:
346,45,199549,1,0,0:0:0:0:
397,145,199720,1,0,0:0:0:0:
232,56,199892,5,2,0:0:0:0:
232,56,200235,1,2,0:0:0:0:
155,238,200577,1,0,0:0:0:0:
111,132,200749,1,0,0:0:0:0:
44,227,200920,2,0,B|32:258|32:258|41:321,1,75.0000028610231,2|0,0:0|0:0,0:0:0:0:
209,342,201263,5,2,0:0:0:0:
209,342,201606,1,2,0:0:0:0:
209,342,201949,1,2,0:0:0:0:
392,278,202292,1,0,0:0:0:0:
281,219,202463,1,0,0:0:0:0:
423,161,202635,5,2,0:0:0:0:
423,161,202977,1,2,0:0:0:0:
221,105,203320,1,0,0:0:0:0:
177,213,203492,1,0,0:0:0:0:
291,202,203663,2,0,B|314:185|314:185|329:124,1,75.0000028610231,2|0,0:0|0:0,0:0:0:0:
259,6,204006,5,2,0:0:0:0:
259,6,204349,1,2,0:0:0:0:
259,6,204692,1,2,0:0:0:0:
324,185,205035,1,0,0:0:0:0:
210,143,205206,1,0,0:0:0:0:
378,86,205377,5,2,0:0:0:0:
378,86,205720,1,2,0:0:0:0:
331,278,206063,1,0,0:0:0:0:
418,209,206235,1,0,0:0:0:0:
317,168,206406,2,0,B|290:160|290:160|230:166,1,75.0000028610231,2|0,0:0|0:0,0:0:0:0:
93,210,206749,5,2,0:0:0:0:
93,210,206920,1,2,0:0:0:0:
113,95,207092,1,0,0:0:0:0:
206,164,207263,1,0,0:0:0:0:
37,142,207435,5,2,0:0:0:0:
37,142,207606,1,2,0:0:0:0:
52,253,207777,1,0,0:0:0:0:
142,185,207949,1,0,0:0:0:0:
189,353,208120,5,2,0:0:0:0:
244,188,208292,1,2,0:0:0:0:
107,283,208463,1,2,0:0:0:0:
279,287,208635,1,2,0:0:0:0:
142,185,208806,2,0,P|59:192|1:267,1,150.000005722046,2|0,0:0|0:0,0:0:0:0:
256,66,209492,5,2,0:0:0:0:
256,66,209835,1,2,0:0:0:0:
256,66,210177,1,2,0:0:0:0:
81,124,210520,1,0,0:0:0:0:
137,26,210692,1,0,0:0:0:0:
167,193,210863,5,2,0:0:0:0:
167,193,211206,1,2,0:0:0:0:
342,234,211549,1,0,0:0:0:0:
388,129,211720,1,0,0:0:0:0:
274,139,211892,2,0,B|253:162|253:162|245:219,1,75.0000028610231,2|0,0:0|0:0,0:0:0:0:
235,356,212235,5,2,0:0:0:0:
235,356,212577,1,2,0:0:0:0:
235,356,212920,1,2,0:0:0:0:
129,196,213263,1,0,0:0:0:0:
123,310,213435,1,0,0:0:0:0:
253,188,213606,5,2,0:0:0:0:
253,188,213949,1,2,0:0:0:0:
393,295,214292,1,0,0:0:0:0:
439,193,214463,1,0,0:0:0:0:
327,201,214635,2,0,B|298:201|298:201|244:186,1,75.0000028610231,2|0,0:0|0:0,0:0:0:0:
111,124,214977,6,0,L|100:82,3,37.5000014305115,2|0|0|0,3:1|3:1|3:1|3:1,3:1:0:0:
196,91,215320,2,0,L|185:49,3,37.5000014305115,2|0|0|0,3:1|3:1|3:1|3:1,3:1:0:0:
281,64,215663,2,0,L|270:22,3,37.5000014305115,2|0|0|0,3:1|3:1|3:1|3:1,3:1:0:0:
366,108,216006,2,0,L|359:159,1,37.5000014305115,2|0,3:1|3:1,3:1:0:0:
281,233,216177,2,0,L|274:182,1,37.5000014305115,2|0,3:1|3:1,3:1:0:0:
423,216,216349,5,2,3:1:0:0:
433,236,216435,1,0,3:1:0:0:
438,258,216520,1,0,3:1:0:0:
436,281,216606,1,0,3:1:0:0:
428,302,216692,1,2,3:1:0:0:
415,320,216777,1,0,3:1:0:0:
397,334,216863,1,0,3:1:0:0:
376,342,216949,1,0,3:1:0:0:
354,345,217035,1,2,3:1:0:0:
332,341,217120,1,0,3:1:0:0:
312,332,217206,1,2,3:1:0:0:
295,317,217292,1,0,3:1:0:0:
283,298,217377,1,2,3:1:0:0:
276,277,217463,1,0,3:1:0:0:
275,254,217549,1,0,3:1:0:0:
280,233,217635,1,0,3:1:0:0:
292,213,217720,6,0,L|308:196,6,18.7500007152558,2|0|0|0|0|0|0,3:0|3:0|3:0|3:0|3:0|3:0|3:0,3:0:0:0:
368,136,218063,2,0,L|352:119,6,18.7500007152558,2|0|0|0|0|0|0,3:0|3:0|3:0|3:0|3:0|3:0|3:0,3:0:0:0:
292,59,218406,2,0,L|275:75,6,18.7500007152558,2|0|0|0|0|0|0,3:0|3:0|3:0|3:0|3:0|3:0|3:0,3:0:0:0:
215,136,218749,2,0,L|231:152,6,18.7500007152558,2|0|0|0|0|0|0,3:0|3:0|3:0|3:0|3:0|3:0|3:0,3:0:0:0:
292,213,219092,6,0,P|386:229|368:135,1,225.000008583069,8|0,0:0|0:0,0:0:0:0:
269,114,219777,6,0,B|221:109|221:109|84:146,1,150,8|0,0:0|0:0,0:0:0:0:
47,173,220120,2,0,B|95:178|95:178|232:141,1,150,8|0,0:0|0:0,0:0:0:0:
85,54,220463,6,2,L|105:301,1,239.999992675781,6|0,0:0|0:0,0:0:0:0:
250,236,220977,1,2,0:0:0:0:
247,209,221063,1,2,0:0:0:0:
245,183,221149,2,0,L|235:55,1,100,2|0,0:0|0:0,0:0:0:0:
146,19,221492,1,0,0:0:0:0:
146,19,221663,1,0,0:0:0:0:
152,209,221835,6,0,P|191:210|262:158,1,100,2|0,0:0|0:0,0:0:0:0:
313,87,222177,1,0,0:0:0:0:
313,87,222349,1,0,0:0:0:0:
389,236,222520,2,0,P|365:314|311:252,1,200,2|0,0:0|0:0,0:0:0:0:
462,89,223206,6,2,B|384:77|384:77|289:101|289:101|226:91,1,239.999992675781,2|0,0:0|0:0,0:0:0:0:
187,217,223720,1,2,0:0:0:0:
209,205,223806,1,2,0:0:0:0:
226,186,223892,2,0,P|240:136|215:75,1,100,2|0,0:0|0:0,0:0:0:0:
138,28,224235,1,0,0:0:0:0:
138,28,224406,1,0,0:0:0:0:
298,14,224577,5,2,3:1:0:0:
158,137,224749,1,10,0:0:0:0:
327,127,224920,1,2,3:1:0:0:
138,28,225092,1,10,0:0:0:0:
140,241,225263,2,0,P|177:258|239:247,1,100,2|8,3:1|0:0,0:0:0:0:
242,150,225606,2,0,L|232:267,1,100,8|0,0:0|0:0,0:0:0:0:
217,45,225949,6,2,P|302:58|337:198,1,239.999992675781,2|0,0:0|0:0,0:0:0:0:
126,228,226463,1,2,0:0:0:0:
139,206,226549,1,2,0:0:0:0:
153,186,226635,2,0,B|180:159|180:159|277:144,1,100,2|0,0:0|0:0,0:0:0:0:
367,133,226977,1,0,0:0:0:0:
367,133,227149,1,0,0:0:0:0:
318,318,227320,6,0,B|281:308|281:308|219:231,1,100,2|0,0:0|0:0,0:0:0:0:
180,160,227663,1,0,0:0:0:0:
180,160,227835,1,0,0:0:0:0:
160,355,228006,2,0,P|256:341|231:252,1,200,2|8,0:0|0:0,0:0:0:0:
100,275,228520,1,0,3:0:0:0:
180,160,228692,6,0,L|300:180,1,100,2|0,0:0|0:0,0:0:0:0:
363,296,229035,2,0,L|243:316,1,100,2|0,0:0|0:0,0:0:0:0:
124,232,229377,2,0,P|87:136|180:61,1,200,2|0,0:0|0:0,0:0:0:0:
286,45,229892,1,0,0:0:0:0:
177,155,230063,5,10,0:0:0:0:
83,9,230235,1,2,3:1:0:0:
293,137,230406,1,10,0:0:0:0:
57,130,230577,1,2,3:1:0:0:
286,45,230749,2,0,P|354:68|380:167,1,150,10|0,0:0|0:0,0:0:0:0:
381,175,231092,2,0,P|398:80|468:104,1,150
464,155,231435,6,2,P|414:253|309:222,1,239.999992675781,6|0,3:1|3:0,0:0:0:0:
188,272,231949,1,2,0:0:0:0:
210,281,232035,1,2,0:0:0:0:
236,281,232120,2,0,P|284:259|311:189,1,100,2|0,3:0|0:0,0:0:0:0:
305,102,232463,1,0,3:0:0:0:
305,102,232635,1,0,0:0:0:0:
127,129,232806,6,0,P|78:150|51:220,1,100,2|0,3:1|0:0,0:0:0:0:
48,305,233149,1,0,3:1:0:0:
48,305,233320,1,0,0:0:0:0:
200,185,233492,2,0,P|207:83|109:37,1,200,2|0,3:1|3:0,0:0:0:0:
128,278,234177,6,2,B|214:286|214:286|286:258|286:258|361:265,1,239.999992675781,2|0,3:1|3:0,0:0:0:0:
435,127,234692,1,2,0:0:0:0:
410,124,234777,1,2,0:0:0:0:
385,122,234863,2,0,L|247:108,1,100,2|0,3:1|0:0,0:0:0:0:
177,160,235206,1,0,3:1:0:0:
177,160,235377,1,0,0:0:0:0:
239,33,235549,5,2,3:1:0:0:
266,213,235720,1,10,0:0:0:0:
156,75,235892,1,2,3:1:0:0:
351,179,236063,1,10,0:0:0:0:
136,160,236235,2,0,P|106:200|122:273,1,100,2|8,3:0|0:0,0:0:0:0:
205,267,236577,2,0,L|93:245,1,100,8|0,0:0|0:0,0:0:0:0:
302,71,236920,6,2,B|276:115|298:165|298:165|285:188|284:212|284:212|307:254|294:301,1,239.999992675781,2|0,3:1|3:0,0:0:0:0:
168,145,237435,1,2,0:0:0:0:
189,131,237520,1,2,0:0:0:0:
213,125,237606,2,0,P|254:129|309:191,1,100,2|0,3:1|0:0,0:0:0:0:
311,276,237949,1,0,3:0:0:0:
311,276,238120,1,0,0:0:0:0:
486,260,238292,6,0,P|445:256|390:194,1,100,2|0,3:1|0:0,0:0:0:0:
388,109,238635,1,0,3:0:0:0:
388,109,238806,1,0,0:0:0:0:
184,147,238977,2,0,P|189:179|256:107,1,200,2|0,3:1|3:0,0:0:0:0:
217,42,239492,1,0,0:0:0:0:
87,152,239663,6,0,L|98:273,1,100,2|0,3:1|0:0,0:0:0:0:
258,297,240006,2,0,L|269:176,1,100,2|0,3:1|0:0,0:0:0:0:
182,116,240349,2,0,P|187:172|283:187,1,150,2|0,3:1|0:0,0:0:0:0:
286,180,240692,2,0,P|336:131|387:181,1,150,2|0,3:1|0:0,0:0:0:0:
384,202,241035,6,0,B|393:164|381:139|381:139|393:120|393:120|375:88|383:57|393:32|413:16|439:4|483:4|513:17|545:49|544:122|513:156|456:162|427:148,1,450.000017166138,0|0,3:0|0:0,0:0:0:0:
256,41,242406,5,8,0:0:0:0:
256,177,242749,1,8,0:0:0:0:
256,313,243092,1,8,0:0:0:0:
256,41,243777,5,8,0:0:0:0:
256,177,244120,1,8,0:0:0:0:
256,313,244463,1,8,0:0:0:0:
116,265,245149,6,0,B|138:193|138:193|125:120,1,150.000005722046,8|0,0:0|0:0,0:0:0:0:
396,265,245835,2,0,B|374:193|374:193|386:120,1,150.000005722046,8|0,0:0|0:0,0:0:0:0:
256,41,246520,6,0,L|256:81,3,37.5000014305115,8|0|0|0,3:1|3:1|3:1|3:1,3:1:0:0:
256,177,246863,2,0,L|256:217,3,37.5000014305115,8|0|0|0,3:1|3:1|3:1|3:1,3:1:0:0:
256,312,247206,1,8,3:1:0:0:
256,320,247292,1,0,3:1:0:0:
256,328,247377,1,0,3:1:0:0:
256,336,247463,1,0,3:1:0:0:
256,344,247549,1,6,3:1:0:0:
118,189,247892,6,0,L|180:185,1,37.5000014305115,10|0,3:1|3:1,3:1:0:0:
284,179,248063,2,0,L|346:175,3,37.5000014305115,2|0|8|0,3:1|3:1|3:1|3:1,3:1:0:0:
398,296,248406,1,2,3:1:0:0:
398,296,248492,1,2,3:1:0:0:
398,296,248577,2,0,L|395:229,1,37.5000014305115,10|0,3:1|3:1,3:1:0:0:
461,130,248749,1,2,3:1:0:0:
461,130,248835,1,2,3:1:0:0:
461,130,248920,2,0,L|464:197,1,37.5000014305115,10|0,3:1|3:1,3:1:0:0:
321,176,249092,2,0,L|268:180,1,37.5000014305115,2|2,3:1|3:1,3:1:0:0:
87,195,249263,6,0,L|150:191,1,42.5000008106232,10|0,3:1|3:1,3:1:0:0:
268,59,249435,1,2,3:1:0:0:
268,59,249520,1,2,3:1:0:0:
268,59,249606,2,0,P|284:45|302:34,1,42.5000008106232,10|0,3:1|3:1,3:1:0:0:
134,58,249777,2,0,P|113:51|95:40,1,42.5000008106232,2|0,3:1|3:1,3:1:0:0:
201,164,249949,2,0,P|205:184|204:206,1,42.5000008106232,10|0,3:1|3:1,3:1:0:0:
92,326,250120,1,2,3:1:0:0:
92,326,250206,1,2,3:1:0:0:
92,326,250292,2,0,L|157:322,1,42.5000008106232,10|0,3:1|3:1,3:1:0:0:
328,308,250463,2,0,L|263:312,1,42.5000008106232,2|0,3:1|3:1,3:1:0:0:
205,205,250635,6,0,P|200:184|201:158,1,47.4999987316132,10|0,3:1|3:1,3:1:0:0:
231,68,250806,2,0,P|242:50|263:32,3,47.4999987316132,2|0|8|0,3:1|3:1|3:1|3:1,3:1:0:0:
376,168,251149,1,2,3:1:0:0:
376,168,251235,1,2,3:1:0:0:
376,168,251320,2,0,P|376:189|370:215,1,47.4999987316132,10|0,3:1|3:1,3:1:0:0:
200,247,251492,1,2,3:1:0:0:
200,247,251577,1,2,3:1:0:0:
200,247,251663,2,0,P|200:226|207:200,1,47.4999987316132,10|0,3:1|3:1,3:1:0:0:
272,41,251835,2,0,P|271:62|266:87,1,47.4999987316132,2|2,3:1|3:1,3:1:0:0:
102,157,252006,6,0,L|47:151,1,52.4999983978272,10|0,3:1|3:1,3:1:0:0:
49,318,252177,1,2,3:1:0:0:
49,318,252263,1,2,3:1:0:0:
49,318,252349,2,0,L|101:311,1,52.4999983978272,10|0,3:1|3:1,3:1:0:0:
200,247,252520,2,0,P|195:216|176:184,1,52.4999983978272,2|0,3:1|3:1,3:1:0:0:
143,72,252692,2,0,P|172:83|209:82,1,52.4999983978272,10|0,3:1|3:1,3:1:0:0:
326,113,252863,1,2,3:1:0:0:
326,113,252949,1,2,3:1:0:0:
326,113,253035,2,0,P|301:132|283:165,1,52.4999983978272,10|0,3:1|3:1,3:1:0:0:
251,329,253206,2,0,P|275:309|293:276,1,52.4999983978272,2|0,3:1|3:1,3:1:0:0:
165,160,253377,5,6,3:1:0:0:
137,145,253463,1,0,3:1:0:0:
106,142,253549,1,2,3:1:0:0:
76,152,253635,1,0,3:1:0:0:
52,173,253720,1,0,3:1:0:0:
38,201,253806,1,0,3:1:0:0:
36,232,253892,1,2,3:1:0:0:
47,261,253977,1,2,3:1:0:0:
68,285,254063,1,2,3:1:0:0:
96,298,254149,1,0,3:1:0:0:
128,299,254235,1,2,3:1:0:0:
157,288,254320,1,2,3:1:0:0:
184,262,254406,1,2,3:1:0:0:
218,241,254492,1,0,3:1:0:0:
263,235,254577,1,2,3:1:0:0:
309,247,254663,1,2,3:1:0:0:
341,287,254749,6,0,P|347:321|342:356,1,62.5,10|0,0:1|3:1,0:1:0:0:
279,140,254920,2,0,P|272:105|278:71,1,62.5,2|0,3:1|3:1,0:1:0:0:
263,318,255092,6,0,P|236:340|203:353,1,62.5,8|0,0:1|3:1,0:1:0:0:
359,108,255263,2,0,P|385:84|418:72,1,62.5,2|2,3:1|3:1,0:1:0:0:
190,265,255435,6,0,P|157:253|129:231,1,62.5,10|0,0:1|3:1,0:1:0:0:
431,161,255606,2,0,P|464:172|491:194,1,62.5,0|2,3:1|3:1,0:1:0:0:
201,175,255777,6,0,P|194:141|199:106,1,62.5,8|0,0:1|3:1,0:1:0:0:
420,247,255949,2,0,P|427:282|421:316,1,62.5,2|2,3:1|3:1,0:1:0:0:
279,140,256120,6,0,P|289:129|301:119,14,31.25,10|0|0|0|0|0|0|0|0|0|0|0|0|0|0,0:0|2:0|2:0|2:0|2:0|2:0|2:0|2:0|2:0|2:0|2:0|2:0|2:0|2:0|2:0,2:0:0:0:
328,218,256806,2,0,L|330:236,12,15.625,8|0|0|0|0|0|0|0|0|0|0|0|0,0:0|2:0|2:0|2:0|2:0|2:0|2:0|2:0|2:0|2:0|2:0|2:0|2:0,2:0:0:0:
243,273,257149,2,0,L|241:291,12,15.625,8|0|0|0|0|0|0|0|0|0|0|0|0,0:0|2:0|2:0|2:0|2:0|2:0|2:0|2:0|2:0|2:0|2:0|2:0|2:0,2:0:0:0:
313,344,257492,5,0,3:0:0:0:
313,344,257835,1,0,3:0:0:0:
313,344,258177,1,0,3:0:0:0:
320,269,258520,2,0,L|311:362,1,75,0|4,3:0|0:0,0:0:0:0:
282,361,258863,6,0,L|291:275,1,75.0000028610231,6|0,3:1|0:0,0:0:0:0:
307,100,259035,2,0,P|301:166|402:126,1,225.000008583069,2|0,0:0|0:0,0:0:0:0:
373,44,259377,1,2,0:0:0:0:
342,22,259463,1,2,0:0:0:0:
304,17,259549,2,0,B|282:16|258:25|258:25|211:68|207:138,1,150.000005722046,2|0,3:1|0:0,0:0:0:0:
317,237,259806,1,2,0:0:0:0:
343,210,259892,2,0,P|353:172|332:107,1,75.0000028610231,2|0,3:1|0:0,0:0:0:0:
208,242,260063,1,2,0:0:0:0:
214,278,260149,1,2,0:0:0:0:
234,309,260235,6,0,P|309:348|417:289,1,150.000005722046,2|0,3:1|0:0,0:0:0:0:
410,215,260492,1,2,0:0:0:0:
386,234,260577,2,0,L|370:354,1,75.0000028610231,2|0,3:1|0:0,0:0:0:0:
261,204,260749,2,0,L|277:84,1,75.0000028610231,2|0,0:0|0:0,0:0:0:0:
399,87,260920,2,0,P|392:120|261:73,1,179.999994506836,2|0,3:1|0:0,0:0:0:0:
169,62,261263,1,2,3:0:0:0:
165,89,261349,1,2,3:0:0:0:
202,153,261435,1,2,3:0:0:0:
206,180,261520,1,2,3:0:0:0:
165,243,261606,6,2,P|138:212|133:166,1,75.0000028610231,2|2,3:1|3:1,3:1:0:0:
306,48,261777,2,0,P|335:51|263:95,1,225.000008583069,2|0,0:0|0:0,0:0:0:0:
212,48,262120,1,2,0:0:0:0:
174,42,262206,1,2,0:0:0:0:
136,36,262292,2,0,B|112:104|112:104|131:179,1,150.000005722046,2|0,3:1|0:0,0:0:0:0:
101,289,262549,1,2,0:0:0:0:
67,275,262635,2,0,L|46:191,1,75.0000028610231,2|0,3:1|0:0,0:0:0:0:
245,207,262806,1,2,0:0:0:0:
229,239,262892,1,2,0:0:0:0:
207,268,262977,6,0,P|149:292|31:239,1,150.000005722046,2|0,3:1|0:0,0:0:0:0:
103,134,263235,1,2,0:0:0:0:
114,106,263320,2,0,L|131:179,1,75.0000028610231,2|0,3:1|0:0,0:0:0:0:
128,7,263492,2,0,P|82:11|42:37,1,75.0000028610231,2|0,0:0|0:0,0:0:0:0:
248,145,263663,6,0,P|319:164|379:107,1,150.000005722046,2|0,0:0|0:0,0:0:0:0:
217,55,263920,1,2,3:0:0:0:
172,89,264006,1,2,3:0:0:0:
154,133,264092,1,2,3:0:0:0:
159,175,264177,1,2,3:0:0:0:
177,207,264263,1,2,3:0:0:0:
208,231,264349,6,0,P|224:260|224:308,1,75.0000028610231,2|0,3:1|0:0,0:0:0:0:
56,151,264520,2,0,P|51:92|153:135,1,225.000008583069,2|0,0:0|0:0,0:0:0:0:
119,221,264863,1,2,0:0:0:0:
125,258,264949,1,2,0:0:0:0:
151,285,265035,2,0,B|238:294|273:216,1,150.000005722046,2|0,3:1|0:0,0:0:0:0:
270,84,265292,1,2,0:0:0:0:
255,58,265377,2,0,L|238:139,1,75.0000028610231,2|0,3:1|0:0,0:0:0:0:
207,280,265549,1,2,0:0:0:0:
234,302,265635,1,2,0:0:0:0:
270,309,265720,6,0,P|338:287|366:211,1,150.000005722046,2|0,3:1|0:0,0:0:0:0:
373,76,265977,1,2,0:0:0:0:
350,54,266063,2,0,L|374:170,1,75.0000028610231,2|0,3:1|0:0,0:0:0:0:
434,189,266235,2,0,P|399:212|364:218,1,75.0000028610231,2|0,0:0|0:0,0:0:0:0:
180,140,266406,2,0,P|212:119|248:112,1,75.0000028610231,2|0,3:1|0:0,0:0:0:0:
175,256,266577,6,0,P|128:245|90:213,1,75.0000028610231,2|0,0:0|0:0,0:0:0:0:
73,106,266749,2,0,P|94:64|135:34,1,75.0000028610231,2|0,3:1|0:0,0:0:0:0:
245,50,266920,1,2,0:0:0:0:
281,83,267006,1,2,0:0:0:0:
294,131,267092,6,0,P|289:179|260:219,1,75.0000028610231,2|0,3:1|0:0,0:0:0:0:
160,161,267263,1,2,0:0:0:0:
146,134,267349,2,0,L|254:154,1,75.0000028610231,2|0,0:0|3:0,0:0:0:0:
281,279,267520,1,2,0:0:0:0:
294,306,267606,2,0,L|185:285,1,75.0000028610231,2|0,0:0|0:0,0:0:0:0:
59,242,267777,2,0,P|141:217|146:134,1,179.999994506836,2|0,3:1|0:0,0:0:0:0:
9,19,268120,1,2,3:1:0:0:
57,24,268206,1,2,0:0:0:0:
106,29,268292,2,0,L|252:42,1,75.0000028610231,2|0,0:0|0:0,0:0:0:0:
340,162,268463,6,0,P|306:176|229:160,1,75.0000028610231,2|0,3:1|0:0,0:0:0:0:
262,45,268635,1,2,0:0:0:0:
276,19,268720,2,0,L|291:116,1,75.0000028610231,2|0,0:0|3:0,0:0:0:0:
414,122,268892,1,2,0:0:0:0:
426,95,268977,2,0,L|411:-2,1,75.0000028610231,2|0,0:0|0:0,0:0:0:0:
366,251,269149,2,0,P|455:256|431:183,1,179.999994506836,2|0,3:1|0:0,0:0:0:0:
276,179,269492,1,2,3:1:0:0:
257,222,269577,1,2,0:0:0:0:
258,269,269663,2,0,P|270:306|304:349,1,75.0000028610231,2|4,0:0|0:0,0:0:0:0:
345,119,269835,6,0,P|309:95|268:88,1,75.0000028610231,6|0,3:1|0:0,0:0:0:0:
48,124,270006,2,0,P|90:183|166:75,1,225.000008583069,2|0,0:0|0:0,0:0:0:0:
14,239,270349,1,2,0:0:0:0:
44,260,270435,1,2,0:0:0:0:
79,273,270520,2,0,P|126:277|231:227,1,150.000005722046,2|0,3:1|0:0,0:0:0:0:
267,116,270777,1,2,0:0:0:0:
278,88,270863,2,0,L|294:200,1,75.0000028610231,2|0,3:1|0:0,0:0:0:0:
186,68,271035,1,2,0:0:0:0:
202,34,271120,1,2,0:0:0:0:
229,7,271206,6,0,P|292:-5|365:53,1,150.000005722046,2|0,3:1|0:0,0:0:0:0:
413,141,271463,1,2,0:0:0:0:
422,170,271549,2,0,L|436:84,1,75.0000028610231,2|0,3:1|0:0,0:0:0:0:
288,162,271720,2,0,L|274:248,1,75.0000028610231,2|0,0:0|0:0,0:0:0:0:
322,342,271892,6,0,P|341:250|245:270,1,179.999994506836,2|0,3:1|0:0,0:0:0:0:
219,320,272235,1,2,3:0:0:0:
182,326,272320,1,2,3:0:0:0:
123,273,272406,1,2,3:0:0:0:
86,267,272492,1,2,3:0:0:0:
27,317,272577,6,0,P|56:339|93:345,1,75.0000028610231,2|0,3:1|0:0,0:0:0:0:
277,236,272749,2,0,P|261:332|356:290,1,225.000008583069,2|0,0:0|0:0,0:0:0:0:
396,180,273092,1,2,0:0:0:0:
361,166,273177,1,2,0:0:0:0:
325,153,273263,2,0,B|279:138|279:138|158:168,1,150.000005722046,2|0,3:0|0:0,0:0:0:0:
54,99,273520,1,2,0:0:0:0:
91,89,273606,2,0,L|197:64,1,75.0000028610231,2|0,3:1|0:0,0:0:0:0:
275,236,273777,1,2,0:0:0:0:
269,273,273863,1,2,0:0:0:0:
242,300,273949,6,0,P|159:295|129:237,1,150.000005722046,2|0,3:1|0:0,0:0:0:0:
140,92,274206,1,2,0:0:0:0:
163,71,274292,2,0,L|143:192,1,75.0000028610231,2|0,3:1|0:0,0:0:0:0:
311,121,274463,2,0,L|331:0,1,75.0000028610231,2|0,0:0|0:0,0:0:0:0:
236,209,274635,2,0,P|305:236|377:214,1,150.000005722046,2|0,3:1|0:0,0:0:0:0:
451,42,274892,1,2,3:0:0:0:
485,87,274977,1,2,3:0:0:0:
490,135,275063,1,2,3:0:0:0:
476,174,275149,1,2,3:0:0:0:
450,201,275235,1,2,3:0:0:0:
375,215,275320,6,0,P|343:206|306:174,1,75.0000028610231,6|0,3:1|0:0,0:0:0:0:
289,15,275492,2,0,P|297:47|287:95,1,75.0000028610231,2|0,0:0|0:0,0:0:0:0:
146,260,275663,1,2,3:1:0:0:
142,222,275749,1,2,0:0:0:0:
158,188,275835,2,0,P|181:164|228:148,1,75.0000028610231,2|0,0:0|0:0,0:0:0:0:
447,126,276006,2,0,L|372:117,1,75.0000028610231,2|0,3:1|0:0,0:0:0:0:
214,2,276177,2,0,L|288:14,1,75.0000028610231,2|0,0:0|0:0,0:0:0:0:
296,226,276349,2,0,B|261:172|261:172|287:13,1,225.000008583069,2|0,0:0|0:0,0:0:0:0:
170,114,276692,6,0,L|151:229,1,75.0000028610231,2|0,3:1|0:0,0:0:0:0:
372,117,276863,2,0,L|391:2,1,75.0000028610231,2|0,0:0|0:0,0:0:0:0:
213,273,277035,1,2,3:1:0:0:
179,288,277120,1,2,0:0:0:0:
141,287,277206,2,0,P|95:267|65:233,1,75.0000028610231,2|0,0:0|0:0,0:0:0:0:
43,59,277377,2,0,P|31:107|37:163,1,75.0000028610231,2|0,3:1|0:0,0:0:0:0:
66,323,277549,2,0,P|77:274|72:219,1,75.0000028610231,2|0,0:0|0:0,0:0:0:0:
170,114,277720,2,0,L|244:121,1,75.0000028610231,2|0,3:1|0:0,0:0:0:0:
287,265,277892,2,0,L|212:272,1,75.0000028610231,2|0,0:0|0:0,0:0:0:0:
72,151,278063,5,6,3:1:0:0:
65,106,278148,1,0,3:0:0:0:
77,63,278234,1,0,3:0:0:0:
106,30,278320,1,0,3:0:0:0:
146,11,278406,2,0,P|202:15|249:44,1,85.0000016212464,2|0,3:1|3:0,0:0:0:0:
305,251,278577,2,0,P|234:248|187:216,1,85.0000016212464,2|0,3:1|3:0,0:0:0:0:
315,56,278749,5,2,3:1:0:0:
352,78,278834,1,0,3:1:0:0:
376,113,278920,1,0,3:1:0:0:
384,159,279006,1,0,3:1:0:0:
371,200,279092,2,0,P|332:239|280:257,1,85.0000016212464,2|0,3:1|3:1,3:1:0:0:
72,151,279263,2,0,P|110:111|162:93,1,85.0000016212464,2|0,3:1|3:0,0:0:0:0:
279,101,279435,6,0,P|285:138|288:185,1,50
264,241,279606,2,0,P|258:207|254:156,1,59.9999981689454
332,46,279777,2,0,P|334:88|325:132,1,69.9999978637696
210,295,279949,2,0,P|208:253|214:209,1,80
408,30,280120,6,0,P|389:159|327:103,1,269.999991760254,8|0,0:0|0:0,0:0:0:0:
307,114,280463,2,0,P|434:168|404:7,1,300,8|0,0:0|0:0,0:0:0:0:
225,69,280806,6,2,B|207:107|220:150|220:150|203:177|203:177|219:219|207:259,1,179.999994506836,6|4,3:1|0:0,0:0:0:0:
114,229,281149,2,0,P|68:220|-13:231,1,75.0000028610231,2|0,3:0|0:0,0:0:0:0:
305,290,281320,2,0,P|350:298|432:287,1,75.0000028610231,2|0,0:0|0:0,0:0:0:0:
208,67,281492,2,0,P|199:109|220:181,1,75.0000028610231,2|0,3:1|0:0,0:0:0:0:
208,333,281663,2,0,P|216:290|195:218,1,75.0000028610231,2|0,0:0|0:0,0:0:0:0:
381,108,281835,2,0,P|339:106|298:115,1,75.0000028610231,2|0,3:1|0:0,0:0:0:0:
35,191,282006,2,0,P|66:192|116:182,1,75.0000028610231,2|0,0:0|0:0,0:0:0:0:
296,18,282177,6,2,P|387:64|373:180,1,179.999994506836,2|0,3:1|0:0,0:0:0:0:
112,173,282520,2,0,P|72:181|28:180,1,75.0000028610231,2|0,3:1|0:1,0:1:0:0:
305,103,282692,2,0,P|342:96|380:99,1,75.0000028610231,2|0,0:1|0:0,0:0:0:0:
208,333,282863,2,0,P|199:290|220:218,1,75.0000028610231,2|0,3:1|0:1,0:1:0:0:
208,67,283034,2,0,P|216:109|195:181,1,75.0000028610231,2|0,0:1|0:1,0:1:0:0:
379,298,283206,2,0,P|341:297|305:290,1,75.0000028610231,2|0,3:1|0:1,0:1:0:0:
39,220,283377,2,0,P|77:221|114:229,1,75.0000028610231,2|0,0:1|0:1,0:1:0:0:
312,378,283549,6,2,P|387:321|346:212,1,179.999994506836,2|0,3:1|0:1,0:1:0:0:
304,177,283892,1,0,3:0:0:0:
105,312,284063,1,2,0:0:0:0:
105,312,284149,1,2,0:0:0:0:
105,312,284235,6,0,P|102:253|142:198,1,87.500000834465,2|0,3:1|0:1,0:1:0:0:
275,67,284406,2,0,P|278:126|238:181,1,87.500000834465,2|0,0:1|0:1,0:1:0:0:
22,150,284577,2,0,P|71:117|139:125,1,87.500000834465,2|0,3:1|0:1,0:1:0:0:
349,225,284749,2,0,P|299:257|231:249,1,87.500000834465,2|0,0:1|0:1,0:1:0:0:
172,16,284920,6,2,P|249:75|97:111,1,350.00000333786,2|0,3:1|3:1,0:1:0:0:
348,29,285435,1,2,0:0:0:0:
348,29,285520,1,2,0:0:0:0:
348,29,285606,2,0,P|336:75|365:138,1,87.500000834465,2|0,3:1|0:1,0:1:0:0:
363,354,285777,2,0,P|375:308|346:245,1,87.500000834465,2|0,0:1|0:1,0:1:0:0:
183,181,285949,2,0,P|220:202|263:204,1,87.500000834465,2|0,3:1|0:1,0:1:0:0:
512,209,286120,2,0,P|474:186|431:184,1,87.500000834465,2|0,0:1|0:1,0:1:0:0:
169,98,286292,6,2,P|99:174|155:261,1,179.999994506836,2|0,3:1|0:1,0:1:0:0:
184,182,286635,1,0,3:0:0:0:
16,34,286806,2,0,L|23:149,1,75.0000028610231,2|0,0:0|0:0,0:0:0:0:
28,213,286977,1,2,3:1:0:0:
196,0,287149,2,0,L|188:116,1,75.0000028610231,2|0,0:0|0:0,0:0:0:0:
183,180,287320,2,0,B|177:251|177:251|16:316,1,225.000008583069,2|0,3:1|0:0,0:0:0:0:
28,213,287663,6,2,P|90:229|105:372,1,179.999994506836,2|0,3:1|0:0,0:0:0:0:
35,309,288006,1,0,3:0:0:0:
245,291,288177,2,0,L|340:284,1,75.0000028610231,2|0,0:0|0:0,0:0:0:0:
425,277,288349,1,2,3:1:0:0:
421,63,288520,2,0,P|433:113|427:150,1,75.0000028610231,2|0,0:0|0:0,0:0:0:0:
320,285,288692,2,0,P|308:235|314:198,1,75.0000028610231,2|0,3:1|0:0,0:0:0:0:
209,59,288863,2,0,P|197:109|203:146,1,75.0000028610231,2|0,0:0|0:0,0:0:0:0:
394,236,289035,6,0,P|375:152|294:125,1,179.999994506836,2|0,3:1|0:0,0:0:0:0:
164,241,289377,2,0,P|225:270|313:206,1,179.999994506836,0|0,3:0|0:0,0:0:0:0:
276,40,289720,2,0,P|220:79|236:190,1,179.999994506836,0|0,3:0|0:0,0:0:0:0:
311,213,290063,1,0,3:0:0:0:
122,160,290235,1,0,0:0:0:0:
122,160,290320,1,0,0:0:0:0:
122,160,290406,5,2,3:1:0:0:
294,125,290577,1,2,0:0:0:0:
163,241,290749,1,2,3:1:0:0:
189,51,290920,1,2,0:0:0:0:
255,296,291092,2,0,P|136:346|89:162,1,359.999989013672,2|0,0:0|3:0,0:0:0:0:
337,46,291777,6,2,B|343:121|343:121|320:165|320:165|331:258,1,179.999994506836,6|4,3:1|0:0,0:0:0:0:
426,198,292120,6,0,P|466:196|504:208,1,75.0000028610231,2|0,3:1|0:1,0:1:0:0:
231,261,292292,2,0,P|189:261|151:249,1,75.0000028610231,2|0,0:1|0:1,0:1:0:0:
337,46,292463,2,0,L|344:130,1,75.0000028610231,2|0,3:1|0:1,0:1:0:0:
341,321,292635,2,0,L|327:227,1,75.0000028610231,2|0,0:1|0:1,0:1:0:0:
151,112,292806,2,0,P|189:98|229:100,1,75.0000028610231,2|0,3:1|0:1,0:1:0:0:
506,141,292978,2,0,P|466:152|426:151,1,75.0000028610231,2|0,0:1|0:1,0:1:0:0:
200,6,293149,6,2,P|134:61|177:182,1,179.999994506836,2|0,3:1|0:1,0:1:0:0:
426,143,293492,6,0,P|463:142|498:131,1,75.0000028610231,2|0,3:1|0:1,0:1:0:0:
221,90,293664,2,0,P|183:90|148:102,1,75.0000028610231,2|0,0:1|0:1,0:1:0:0:
341,321,293835,2,0,L|327:227,1,75.0000028610231,2|0,3:1|0:1,0:1:0:0:
337,46,294006,2,0,L|346:140,1,75.0000028610231,2|0,0:1|0:1,0:1:0:0:
158,251,294177,2,0,P|194:260|231:260,1,75.0000028610231,2|0,3:1|0:1,0:1:0:0:
499,206,294349,2,0,P|463:196|425:197,1,75.0000028610231,2|0,0:1|0:1,0:1:0:0:
219,332,294520,6,2,P|150:261|212:168,1,179.999994506836,2|0,3:1|0:1,0:1:0:0:
262,137,294863,1,0,3:0:0:0:
98,330,295035,1,2,0:0:0:0:
98,330,295120,1,2,0:0:0:0:
98,330,295206,2,0,P|78:278|79:221,1,87.500000834465,2|0,3:1|0:1,0:1:0:0:
157,8,295377,2,0,P|177:60|175:117,1,87.500000834465,2|0,0:1|0:1,0:1:0:0:
308,267,295549,2,0,P|264:267|223:253,1,87.500000834465,2|0,3:1|0:1,0:1:0:0:
333,52,295720,2,0,P|376:51|417:65,1,87.500000834465,2|0,0:1|0:1,0:1:0:0:
463,263,295892,6,2,P|326:149|449:67,1,350.00000333786,2|0,3:1|3:1,0:1:0:0:
122,326,296406,1,2,0:0:0:0:
122,326,296492,1,2,0:0:0:0:
122,326,296577,2,0,P|165:331|226:308,1,87.500000834465,2|0,3:1|0:1,0:1:0:0:
422,169,296749,2,0,P|378:163|317:186,1,87.500000834465,2|0,0:1|0:1,0:1:0:0:
394,366,296920,2,0,L|384:265,1,87.500000834465,2|0,3:1|0:1,0:1:0:0:
150,133,297092,2,0,L|159:233,1,87.500000834465,2|0,0:1|0:1,0:1:0:0:
253,67,297263,5,4,3:1:0:0:
220,37,297348,1,0,3:1:0:0:
180,20,297434,1,0,3:1:0:0:
137,18,297520,1,0,3:1:0:0:
95,30,297605,1,6,3:1:0:0:
60,56,297691,1,0,3:1:0:0:
36,92,297777,1,2,3:1:0:0:
25,134,297862,1,0,3:1:0:0:
29,178,297948,1,6,3:1:0:0:
41,219,298035,1,0,3:1:0:0:
44,263,298121,1,2,3:1:0:0:
33,305,298207,1,0,3:1:0:0:
11,342,298292,5,8,3:1:0:0:
54,313,298377,1,0,3:1:0:0:
105,302,298463,1,0,3:1:0:0:
156,310,298549,1,0,3:1:0:0:
201,336,298635,5,4,3:1:0:0:
223,299,298720,1,0,3:1:0:0:
230,255,298806,1,0,3:1:0:0:
225,211,298892,1,0,3:1:0:0:
210,169,298977,1,6,3:1:0:0:
204,125,299063,1,0,3:1:0:0:
217,83,299149,1,2,3:1:0:0:
247,51,299235,1,0,3:1:0:0:
290,33,299320,1,6,3:1:0:0:
340,38,299406,1,0,3:1:0:0:
384,66,299492,1,2,3:1:0:0:
408,113,299577,1,0,3:1:0:0:
404,169,299663,1,2,3:1:0:0:
369,214,299749,1,0,3:1:0:0:
313,234,299835,1,2,3:1:0:0:
252,220,299920,1,0,3:1:0:0:
214,169,300006,6,0,P|212:143|213:118,14,37.5000014305115,4|0|0|0|0|0|0|0|0|0|0|0|0|0|0,3:1|2:0|2:0|2:0|2:0|2:0|2:0|2:0|2:0|2:0|2:0|2:0|2:0|2:0|2:0,2:0:0:0:
300,74,300692,2,0,L|305:44,12,18.7500007152558,0|0|0|0|0|0|0|0|0|0|0|0|0,3:1|2:0|2:0|2:0|2:0|2:0|2:0|2:0|2:0|2:0|2:0|2:0|2:0,2:0:0:0:
210,26,301035,2,0,L|205:-4,12,18.7500007152558,0|0|0|0|0|0|0|0|0|0|0|0|0,3:1|2:0|2:0|2:0|2:0|2:0|2:0|2:0|2:0|2:0|2:0|2:0|2:0,2:0:0:0:
212,131,301377,5,0,3:0:0:0:
212,131,301720,1,0,3:0:0:0:
212,131,302063,1,0,3:0:0:0:
207,206,302406,2,0,L|214:111,1,75,0|0,3:0|0:0,0:0:0:0:
255,104,302749,6,0,L|238:339,1,200,4|0,0:0|0:0,0:0:0:0:
162,167,303263,1,2,0:0:0:0:
145,147,303349,1,2,0:0:0:0:
123,134,303435,2,0,P|73:130|15:179,1,100,2|0,0:0|0:0,0:0:0:0:
12,267,303777,1,0,0:0:0:0:
12,267,303949,1,0,0:0:0:0:
208,230,304120,6,0,P|248:157|196:22,1,200,2|0,0:0|0:0,0:0:0:0:
98,50,304635,1,0,0:0:0:0:
98,50,304806,2,0,P|141:121|284:143,1,200,2|0,0:0|0:0,0:0:0:0:
376,93,305320,1,0,0:0:0:0:
397,309,305492,5,6,3:1:0:0:
464,133,305663,1,2,0:0:0:0:
307,227,305835,1,2,0:0:0:0:
506,253,306006,1,2,0:0:0:0:
286,146,306177,6,0,P|231:195|253:290,1,150,6|0,3:1|0:0,0:0:0:0:
287,335,306520,2,0,P|213:278|140:320,1,179.999994506836,6|0,3:1|0:0,0:0:0:0:
211,356,306863,5,2,3:1:0:0:
256,192,306949,12,0,312349,2:0:0:0:
