osu file format v14

[General]
AudioFilename: audio.mp3
AudioLeadIn: 0
PreviewTime: 257406
Countdown: 0
SampleSet: Normal
StackLeniency: 0.7
Mode: 2
LetterboxInBreaks: 0
WidescreenStoryboard: 0

[Editor]
Bookmarks: 28463,83320,115892,149149,187549,220463,247892,280806
DistanceSpacing: 1
BeatDivisor: 4
GridSize: 32
TimelineZoom: 2.899999

[Metadata]
Title:Cycle Hit
TitleUnicode:サイクルヒット
Artist:KASAI HARCORES
ArtistUnicode:葛西ハーコーズ
Creator:Spectator
Version:Grand Slam
Source:
Tags:Ascendance DJ Genki Genkianamei かめりあ Kamelcamellia Cametek Camellia C-Show EP2 Episode of pro Allstars Baseball 葛西西高校 Nishi High School M3-39 Marathon
BeatmapID:1465042
BeatmapSetID:692367

[Difficulty]
HPDrainRate:6
CircleSize:4
OverallDifficulty:9.7
ApproachRate:9.7
SliderMultiplier:1.92
SliderTickRate:2

[Events]
//Background and Video events
0,0,"baseball.png",0,0
//Break Periods
2,193235,198025
//Storyboard Layer 0 (Background)
//Storyboard Layer 1 (Fail)
//Storyboard Layer 2 (Pass)
//Storyboard Layer 3 (Foreground)
//Storyboard Sound Samples

[TimingPoints]
1035,342.857142857143,4,2,1,65,1,0
12006,-100,4,1,1,70,0,0
21606,-125,4,1,1,70,0,0
27435,-125,4,1,1,73,0,0
27777,-125,4,1,1,75,0,0
33949,-100,4,1,1,70,0,0
39435,-86.9565217391304,4,1,2,80,0,1
39520,-86.9565217391304,4,1,1,65,0,1
41835,-76.9230769230769,4,1,1,65,0,1
42177,-86.9565217391304,4,1,1,65,0,1
61377,-100,4,2,1,65,0,0
70977,-100,4,2,1,55,0,0
71663,-100,4,2,1,60,0,0
72349,-100,4,1,1,60,0,0
81263,-100,4,1,1,65,0,0
83320,-100,4,1,1,70,0,0
94292,-76.9230769230769,4,1,2,80,0,1
94377,-76.9230769230769,4,1,1,70,0,1
105263,-76.9230769230769,4,1,1,75,0,1
116235,-100,4,2,1,65,0,0
116920,-100,4,2,1,60,0,0
117606,-100,4,2,1,55,0,0
118292,-100,4,2,1,50,0,0
118977,-100,4,2,1,40,0,0
119663,-100,4,2,1,35,0,0
120349,-100,4,2,1,30,0,0
121035,-100,4,2,1,27,0,0
121720,-100,4,1,1,25,0,0
127206,-100,4,1,1,40,0,0
135435,-100,4,1,1,30,0,0
135777,-100,4,1,1,35,0,0
136120,-100,4,1,1,40,0,0
136806,-100,4,1,1,45,0,0
138177,-100,4,1,1,70,0,0
165263,-66.6666666666667,4,1,1,65,0,0
165606,-86.9565217391304,4,1,2,85,0,1
165692,-86.9565217391304,4,1,1,75,0,1
170749,-50,4,1,1,80,0,1
171092,-86.9565217391304,4,1,1,75,0,1
175206,-50,4,1,1,75,0,1
175377,-40,4,1,1,75,0,1
175549,-33.3333333333333,4,1,1,75,0,1
175720,-28.5714285714286,4,1,1,75,0,1
175892,-25,4,1,1,75,0,1
176235,-50,4,1,1,75,0,1
176577,-83.3333333333333,4,1,1,75,0,1
187549,-100,4,2,1,65,0,0
198520,-111.111111111111,4,1,1,65,0,0
218749,-111.111111111111,4,1,1,70,0,0
219777,-100,4,1,1,75,0,0
220463,-95.2380952380952,4,1,1,75,0,0
230063,-95.2380952380952,4,1,1,78,0,0
241720,-95.2380952380952,4,1,1,70,0,0
253377,-90.9090909090909,4,1,1,80,0,0
258863,-76.9230769230769,4,1,2,95,0,1
258949,-76.9230769230769,4,1,1,85,0,1
279435,-76.9230769230769,4,1,1,85,0,0
280806,-74.0740740740741,4,2,2,95,0,1
280892,-74.0740740740741,4,1,1,95,0,1
302749,-100,4,1,1,50,0,0
307035,-100,4,2,1,35,0,0
307549,-100,4,2,1,30,0,0
308235,-100,4,2,1,27,0,0
308920,-100,4,2,1,24,0,0
309606,-100,4,2,1,21,0,0
310292,-100,4,2,1,18,0,0
310977,-100,4,2,1,15,0,0
311663,-100,4,2,1,12,0,0
312349,-100,4,2,1,9,0,0

[Colours]
Combo1 : 198,198,198
Combo2 : 255,68,68

[HitObjects]
378,310,1035,6,0,P|433:292|415:169,1,192,2|0,0:0|0:0,0:0:0:0:
301,179,1549,2,0,L|282:121,2,48,0|0|2,0:0|0:0|0:0,0:0:0:0:
415,184,1892,2,0,L|432:90,1,96,0|2,0:0|0:0,0:0:0:0:
301,87,2235,1,0,0:0:0:0:
450,87,2406,2,0,P|368:56|256:91,1,192,2|2,0:0|0:0,0:0:0:0:
366,136,2920,1,0,0:0:0:0:
476,139,3092,2,0,P|473:62|362:24,1,192,2|0,0:0|0:0,0:0:0:0:
140,339,3777,6,0,P|85:321|103:198,1,192,2|0,0:0|0:0,0:0:0:0:
217,208,4291,2,0,L|236:150,2,48,0|0|2,0:0|0:0|0:0,0:0:0:0:
103,213,4634,2,0,L|86:119,1,96,0|2,0:0|0:0,0:0:0:0:
217,116,4977,1,0,0:0:0:0:
88,134,5149,2,0,L|197:130,1,96,2|0,0:0|0:0,0:0:0:0:
305,219,5492,2,0,L|204:225,1,96,2|0,0:0|0:0,0:0:0:0:
55,308,5835,2,2,P|41:241|169:180,1,192
351,176,6520,6,0,L|141:164,1,192,2|0,0:0|0:0,0:0:0:0:
268,319,7035,2,0,L|287:246,2,48,0|0|2,0:0|0:0|0:0,0:0:0:0:
147,319,7377,1,0,0:0:0:0:
272,318,7549,2,0,L|380:318,1,96,2|0,0:0|0:0,0:0:0:0:
235,267,7892,6,0,P|208:225|214:159,1,96,2|0,0:0|0:0,0:0:0:0:
353,168,8235,2,0,L|282:79,1,96,2|0,0:0|0:0,0:0:0:0:
421,354,8577,2,0,P|448:312|442:246,1,96,2|0,0:0|0:0,0:0:0:0:
291,242,8920,2,0,L|361:157,1,96,2|0,0:0|0:0,0:0:0:0:
480,163,9263,6,0,P|465:116|415:79,1,96,2|0,0:0|0:0,0:0:0:0:
280,72,9606,2,0,P|328:81|367:44,1,96,2|0,0:0|0:0,0:0:0:0:
229,181,9949,2,0,P|244:228|294:265,1,96,2|0,0:0|0:0,0:0:0:0:
429,272,10292,2,0,P|381:263|342:300,1,96,2|0,0:0|0:0,0:0:0:0:
207,351,10635,5,0,1:0:0:0:
171,308,10720,1,0,1:0:0:0:
168,254,10806,1,0,1:0:0:0:
204,214,10892,1,0,1:0:0:0:
259,202,10977,1,0,1:0:0:0:
295,158,11063,1,0,1:0:0:0:
301,101,11149,1,0,1:0:0:0:
262,59,11235,1,0,1:0:0:0:
96,273,11320,2,0,P|72:215|136:151,1,144,0|0,1:0|0:0,0:0:0:0:
188,80,11663,2,0,L|69:71,1,96,0|0,1:0|0:0,0:0:0:0:
381,232,12006,6,0,B|473:208|473:208|380:232,1,192,2|0,0:0|0:0,0:0:0:0:
243,235,12520,2,0,L|230:163,2,48,0|0|2,0:0|0:0|0:0,0:0:0:0:
381,232,12863,1,0,0:0:0:0:
229,168,13035,2,0,L|211:63,1,96,2|0,0:0|0:0,0:0:0:0:
355,286,13377,6,0,L|373:181,1,96,2|0,0:0|0:0,0:0:0:0:
192,160,13720,1,0,0:0:0:0:
315,160,13892,1,0,0:0:0:0:
157,286,14063,2,0,L|139:181,1,96,2|0,0:0|0:0,0:0:0:0:
420,192,14406,1,4,0:2:0:0:
184,303,14749,6,0,L|386:297,1,192,2|0,0:0|0:0,0:0:0:0:
254,235,15263,2,0,L|233:174,2,48,0|0|2,0:0|0:0|0:0,0:0:0:0:
395,232,15606,1,0,0:0:0:0:
291,113,15777,2,0,L|399:114,1,96,2|0,0:0|0:0,0:0:0:0:
154,227,16120,5,10,0:0:0:0:
20,230,16292,1,0,0:0:0:0:
168,150,16463,1,10,0:0:0:0:
34,153,16635,1,0,0:0:0:0:
327,206,16806,2,0,L|362:97,1,96,8|8,0:0|0:0,0:0:0:0:
74,88,17149,1,4,0:2:0:0:
371,314,17492,6,0,L|160:322,1,192,2|0,0:0|0:0,0:0:0:0:
309,218,18006,2,0,L|324:159,2,48,0|0|2,0:0|0:0|0:0,0:0:0:0:
166,167,18349,1,0,0:0:0:0:
303,113,18520,2,0,L|328:8,1,96,2|0,0:0|0:0,0:0:0:0:
69,338,18863,6,0,L|44:234,1,96,2|0,0:0|0:0,0:0:0:0:
225,242,19206,1,2,0:0:0:0:
89,244,19377,1,0,0:0:0:0:
252,227,19549,2,0,L|366:230,1,96,2|0,0:0|0:0,0:0:0:0:
478,134,19892,2,0,L|378:134,1,96,4|0,0:2|0:0,0:0:0:0:
248,294,20235,6,0,L|364:287,1,96,2|0,0:0|0:0,0:0:0:0:
490,139,20577,2,2,L|389:127,1,96,2|0,0:0|0:0,0:0:0:0:
244,290,20920,1,0,0:0:0:0:
212,247,21006,1,0,0:0:0:0:
229,196,21092,1,0,0:0:0:0:
278,178,21177,1,0,0:0:0:0:
332,172,21263,1,0,0:0:0:0:
364,129,21349,1,0,0:0:0:0:
347,78,21435,1,0,0:0:0:0:
298,60,21520,1,0,0:0:0:0:
93,369,21606,6,0,B|24:353|-11:296|43:197|129:227|129:227|204:253|247:219|274:123|177:68|125:113,1,537.6
359,202,22977,6,0,L|518:197,2,153.6,0|0|0,1:0|1:0|1:0,1:0:0:0:
156,203,24349,2,0,L|-3:198,2,153.6,0|0|0,1:0|1:0|1:0,1:0:0:0:
379,325,25720,6,0,L|390:163,1,153.6,0|0,1:0|0:0,0:0:0:0:
107,333,26406,2,0,L|97:98,1,230.4,0|0,1:0|0:0,0:0:0:0:
337,351,27092,5,0,0:0:0:0:
370,333,27177,1,0,0:0:0:0:
386,298,27263,1,0,0:0:0:0:
377,260,27349,1,0,0:0:0:0:
347,235,27435,1,0,0:0:0:0:
314,215,27520,1,0,0:0:0:0:
292,182,27606,1,0,0:0:0:0:
294,143,27692,1,0,0:0:0:0:
319,115,27777,2,0,L|356:109,1,38.4
185,39,27949,2,0,L|147:33,1,38.4
316,40,28120,1,0,0:0:0:0:
39,324,28463,6,0,L|29:220,1,76.8,4|0,0:0|2:0,0:0:0:0:
157,221,28806,2,0,L|245:210,1,76.8,8|0,1:0|2:0,0:0:0:0:
120,125,29149,2,0,L|208:109,1,76.8,4|0,0:0|2:0,0:0:0:0:
338,120,29492,2,0,L|348:32,1,76.8,8|0,0:0|1:0,0:0:0:0:
108,36,29835,5,4,0:0:0:0:
228,48,30006,1,0,2:0:0:0:
353,61,30177,1,8,0:0:0:0:
228,48,30349,1,0,2:0:0:0:
375,151,30520,2,0,L|365:239,1,76.8,4|0,0:0|1:0,0:0:0:0:
226,286,30863,2,0,L|144:295,1,76.8,8|4,0:0|1:0,0:0:0:0:
462,337,31206,6,0,L|374:330,1,76.8,4|0,0:2|2:0,0:0:0:0:
257,258,31549,2,0,L|146:250,1,76.8,8|0,0:0|0:0,0:0:0:0:
356,192,31892,1,4,0:0:0:0:
221,179,32063,1,0,0:0:0:0:
368,193,32235,2,0,L|387:104,1,76.8,8|0,0:0|0:0,0:0:0:0:
87,53,32577,5,4,0:0:0:0:
224,77,32749,1,0,0:0:0:0:
87,53,32920,1,8,0:0:0:0:
247,158,33092,1,0,0:0:0:0:
285,153,33177,1,0,0:0:0:0:
323,148,33263,1,4,0:0:0:0:
189,225,33435,1,0,0:0:0:0:
341,322,33606,2,0,L|349:239,1,76.8,8|0,0:0|0:0,0:0:0:0:
294,213,33863,1,0,0:0:0:0:
144,288,33949,5,4,0:2:0:0:
114,270,33992,1,0,0:0:0:0:
104,252,34034,1,0,0:0:0:0:
103,204,34120,1,0,0:0:0:0:
142,169,34206,1,0,0:0:0:0:
307,187,34292,2,0,L|312:126,1,48,8|0,0:0|0:0,0:0:0:0:
249,101,34463,2,0,L|200:91,1,48
434,133,34635,6,0,L|449:63,1,48,8|0,0:0|0:0,0:0:0:0:
375,49,34806,2,0,L|324:42,1,48
375,49,34977,2,0,L|442:40,1,48,8|0,0:0|0:0,0:0:0:0:
501,98,35149,2,0,L|493:165,1,48
222,330,35320,5,8,0:0:0:0:
220,306,35362,1,0,0:0:0:0:
218,282,35405,1,0,0:0:0:0:
300,239,35492,2,0,L|296:172,1,48
107,152,35663,2,0,L|51:152,1,48,8|0,0:0|0:0,0:0:0:0:
124,151,35835,2,0,L|202:151,1,48
362,113,36006,6,0,L|361:173,1,48,8|0,0:0|0:0,0:0:0:0:
282,198,36177,2,0,L|282:257,1,48
471,328,36349,2,0,L|419:330,1,48,8|0,0:0|0:0,0:0:0:0:
225,335,36520,2,0,L|178:335,1,48
420,261,36692,6,0,L|440:243,6,24
274,198,37035,2,0,L|255:178,6,24
107,208,37377,6,0,L|80:213,6,24
346,268,37720,1,0,0:0:0:0:
363,252,37762,1,0,0:0:0:0:
374,230,37805,1,0,0:0:0:0:
376,207,37848,1,0,0:0:0:0:
370,184,37891,1,0,0:0:0:0:
356,164,37934,1,0,0:0:0:0:
336,152,37977,1,0,0:0:0:0:
88,110,38063,6,0,L|285:103,2,192,4|0|2,0:0|2:0|2:0,0:0:0:0:
228,223,38920,2,0,L|235:170,1,48,2|0,2:0|2:0,0:0:0:0:
72,275,39092,2,0,L|120:275,1,48,2|0,0:3|0:0,0:0:0:0:
302,324,39263,2,0,L|351:324,1,48,2|0,0:3|0:0,0:0:0:0:
96,354,39435,5,6,1:2:0:0:
76,334,39477,1,0,2:0:0:0:
65,309,39520,1,0,2:0:0:0:
63,282,39563,1,0,2:0:0:0:
70,255,39606,1,0,2:0:0:0:
87,233,39649,1,0,2:0:0:0:
109,218,39692,1,0,2:0:0:0:
276,234,39777,6,0,L|283:170,1,55.2000010528565,10|0,0:0|0:0,0:0:0:0:
190,152,39949,2,0,L|180:94,1,55.2000010528565
343,187,40120,2,0,L|407:187,1,55.2000010528565,6|0,0:0|0:0,0:0:0:0:
466,118,40292,2,0,L|402:117,1,55.2000010528565
180,55,40463,2,0,L|297:55,1,110.400002105713,8|2,0:0|0:3,0:0:0:0:
236,89,40720,1,2,0:3:0:0:
42,262,40806,6,0,L|38:139,1,110.400002105713,4|0,0:0|0:0,0:0:0:0:
94,122,41063,1,0,0:0:0:0:
289,236,41149,2,0,L|299:157,1,55.2000010528565,10|0,0:0|0:0,0:0:0:0:
219,147,41320,2,0,L|226:72,1,55.2000010528565
461,73,41492,5,6,0:0:0:0:
384,125,41577,2,0,L|387:195,1,55.2000010528565
461,73,41749,1,0,0:0:0:0:
267,155,41835,2,0,L|205:151,1,62.3999971435548,8|0,0:0|0:0,0:0:0:0:
34,60,42006,2,0,L|125:52,1,62.3999971435548,2|2,3:0|3:0,0:0:0:0:
415,117,42177,5,4,0:0:0:0:
454,144,42220,1,0,3:0:0:0:
453,172,42262,1,0,3:0:0:0:
412,199,42305,1,0,3:0:0:0:
352,218,42349,2,0,L|352:286,1,55.2000010528565,2|8,3:0|3:0,0:0:0:0:
495,324,42520,1,10,0:0:0:0:
316,299,42606,2,0,L|260:299,2,55.2000010528565,0|4|4,0:0|0:0|0:0,0:0:0:0:
495,250,42863,6,0,L|365:250,1,110.400002105713,6|4,0:0|0:0,0:0:0:0:
441,216,43120,1,0,0:0:0:0:
242,269,43206,2,0,L|261:211,1,55.2000010528565,8|0,0:0|0:0,0:0:0:0:
444,144,43377,2,0,L|431:62,1,55.2000010528565
265,49,43549,5,0,0:0:0:0:
238,55,43591,1,0,3:0:0:0:
217,73,43634,1,0,3:0:0:0:
213,102,43677,1,0,3:0:0:0:
238,55,43720,2,0,L|299:56,1,55.2000010528565,2|4,3:0|1:0,0:0:0:0:
135,136,43892,5,10,0:0:0:0:
307,194,43977,2,0,L|308:129,1,55.2000010528565,0|2,0:0|3:0,0:0:0:0:
247,107,44149,1,2,3:0:0:0:
65,67,44235,6,0,L|75:132,1,55.2000010528565,2|0,0:0|0:0,0:0:0:0:
166,122,44406,2,2,L|177:180,1,55.2000010528565,2|2,1:3|1:3,1:3:0:0:
27,266,44577,2,0,L|114:266,1,55.2000010528565,8|0,0:0|0:0,0:0:0:0:
273,267,44749,2,0,L|333:268,1,55.2000010528565,4|0,0:0|0:0,0:0:0:0:
168,312,44920,5,4,0:0:0:0:
146,295,44962,1,0,3:0:0:0:
139,268,45005,1,0,3:0:0:0:
146,241,45048,1,0,3:0:0:0:
170,227,45091,1,0,3:0:0:0:
254,225,45177,1,0,3:0:0:0:
89,170,45263,6,0,L|25:171,1,55.2000010528565,10|0,0:0|0:0,0:0:0:0:
89,170,45435,2,0,L|157:170,1,55.2000010528565
295,218,45606,2,0,L|307:153,1,55.2000010528565,6|0,0:0|0:0,0:0:0:0:
228,142,45777,2,0,L|206:81,1,55.2000010528565,2|2,3:0|0:3,0:0:0:0:
387,117,45949,2,0,L|499:117,1,110.400002105713,8|0,0:0|0:0,0:0:0:0:
450,82,46206,1,0,0:0:0:0:
228,142,46292,5,0,0:0:0:0:
203,170,46334,1,0,3:0:0:0:
228,197,46377,1,0,3:0:0:0:
269,228,46420,1,0,3:0:0:0:
269,255,46463,1,0,3:0:0:0:
199,291,46549,1,0,3:0:0:0:
381,322,46635,6,0,L|443:322,1,55.2000010528565,10|0,1:0|0:0,0:0:0:0:
491,322,46806,2,0,L|432:322,1,55.2000010528565
194,358,46977,2,0,L|196:300,1,55.2000010528565,6|0,0:0|0:0,0:0:0:0:
268,322,47149,2,0,L|326:317,1,55.2000010528565
144,253,47320,2,0,L|140:190,1,55.2000010528565,8|0,0:0|0:0,0:0:0:0:
331,123,47492,2,0,L|269:114,1,55.2000010528565,2|2,3:0|3:0,3:0:0:0:
91,157,47663,5,4,0:0:0:0:
72,137,47705,1,0,3:0:0:0:
65,110,47748,1,0,3:0:0:0:
73,84,47791,1,0,3:0:0:0:
103,68,47835,2,0,L|166:68,1,55.2000010528565,4|0,1:0|1:0,0:0:0:0:
365,71,48006,5,2,3:0:0:0:
400,113,48092,1,0,0:0:0:0:
389,166,48177,1,2,3:0:0:0:
339,190,48263,1,0,0:0:0:0:
107,305,48349,2,0,P|85:246|137:196,1,110.400002105713,6|4,0:0|0:0,0:0:0:0:
160,196,48606,1,0,0:0:0:0:
366,195,48692,2,0,L|305:195,1,55.2000010528565,2|0,0:3|0:0,0:0:0:0:
132,155,48863,2,0,L|63:155,1,55.2000010528565,2|0,3:0|0:0,0:0:0:0:
262,88,49035,6,0,P|331:112|430:76,1,165.600003158569,4|0,2:0|2:0,0:0:0:0:
336,146,49377,2,0,P|260:129|172:160,1,165.600003158569,2|0,2:0|2:0,0:0:0:0:
262,88,49720,2,0,P|331:112|430:76,1,165.600003158569,2|0,2:0|2:0,2:0:0:0:
213,193,50062,2,0,P|137:176|49:207,1,165.600003158569,2|0,2:0|2:0,2:0:0:0:
452,301,50406,6,0,L|463:272,1,27.6000005264282,12|0,1:0|2:0,0:0:0:0:
251,297,50749,5,4,0:0:0:0:
223,250,50834,1,0,0:0:0:0:
234,198,50920,1,4,0:0:0:0:
278,167,51006,1,0,0:0:0:0:
355,182,51092,2,0,L|362:122,1,55.2000010528565,4|0,0:0|0:0,0:0:0:0:
274,109,51263,2,0,L|282:44,1,55.2000010528565,4|0,0:0|0:0,0:0:0:0:
478,81,51435,2,0,L|347:82,1,110.400002105713,2|2,3:0|3:0,0:0:0:0:
313,84,51692,1,4,1:0:0:0:
121,67,51777,5,4,0:0:0:0:
103,94,51819,1,0,3:0:0:0:
125,122,51862,1,0,3:0:0:0:
162,136,51905,1,0,3:0:0:0:
204,153,51948,1,0,3:0:0:0:
221,182,51991,1,0,3:0:0:0:
207,217,52034,1,0,3:0:0:0:
20,334,52120,5,10,0:0:0:0:
9,280,52205,1,0,0:0:0:0:
35,233,52291,1,0,0:0:0:0:
86,214,52377,1,0,0:0:0:0:
353,214,52463,2,0,L|287:215,1,55.2000010528565,6|0,0:0|0:0,0:0:0:0:
127,160,52635,2,0,L|185:160,1,55.2000010528565,2|0,3:0|0:0,0:0:0:0:
391,117,52806,2,0,L|325:117,1,55.2000010528565,8|0,0:0|0:0,0:0:0:0:
391,117,52977,2,0,L|406:54,1,55.2000010528565,2|0,3:0|0:0,0:0:0:0:
227,81,53149,5,4,0:0:0:0:
210,102,53191,1,0,3:0:0:0:
207,129,53234,1,0,3:0:0:0:
221,152,53277,1,0,3:0:0:0:
247,158,53320,1,0,3:0:0:0:
342,174,53406,1,0,1:0:0:0:
143,259,53492,1,10,1:0:0:0:
313,315,53577,2,0,L|393:314,2,55.2000010528565,4|4|0,0:0|0:0|0:0,0:0:0:0:
116,351,53835,6,0,L|116:287,1,55.2000010528565,4|0,0:0|0:0,0:0:0:0:
209,286,54006,2,0,L|213:227,1,55.2000010528565,2|4,3:0|3:0,0:0:0:0:
55,207,54177,1,8,0:0:0:0:
43,154,54262,1,0,3:0:0:0:
67,105,54348,1,2,3:0:0:0:
117,83,54434,1,0,3:0:0:0:
275,154,54520,5,4,0:0:0:0:
304,133,54562,1,0,3:0:0:0:
318,107,54605,1,0,3:0:0:0:
302,79,54648,1,0,3:0:0:0:
272,59,54691,1,0,3:0:0:0:
191,59,54777,1,0,0:0:0:0:
434,96,54863,1,8,0:0:0:0:
285,94,54949,1,0,0:0:0:0:
229,93,55034,1,0,0:0:0:0:
174,93,55120,1,0,0:0:0:0:
368,201,55206,6,0,L|433:202,1,55.2000010528565,6|0,0:0|0:0,0:0:0:0:
230,318,55377,2,0,L|311:318,1,55.2000010528565,2|0,3:0|0:0,0:0:0:0:
476,358,55549,1,8,0:0:0:0:
499,309,55634,1,0,0:0:0:0:
482,258,55720,1,4,1:0:0:0:
435,232,55806,1,0,0:0:0:0:
242,253,55892,5,4,0:0:0:0:
226,230,55934,1,0,3:0:0:0:
219,203,55977,1,0,3:0:0:0:
222,176,56020,1,0,3:0:0:0:
234,152,56063,1,0,3:0:0:0:
254,133,56106,1,0,3:0:0:0:
279,122,56149,1,0,3:0:0:0:
426,134,56235,6,0,L|363:134,1,55.2000010528565,8|0,0:0|0:0,0:0:0:0:
198,127,56406,2,0,L|136:127,1,55.2000010528565
198,127,56577,2,0,L|285:127,1,55.2000010528565,8|0,0:0|0:0,0:0:0:0:
50,87,56749,2,0,L|43:14,1,55.2000010528565,2|2,0:3|0:3,0:0:0:0:
278,47,56920,1,8,0:0:0:0:
198,127,57006,2,0,L|169:192,2,55.2000010528565,0|4|0,0:0|0:0|0:0,0:0:0:0:
387,313,57263,5,4,0:0:0:0:
403,291,57305,1,0,3:0:0:0:
411,264,57348,1,0,3:0:0:0:
407,237,57391,1,0,3:0:0:0:
393,214,57434,1,0,3:0:0:0:
371,197,57477,1,0,3:0:0:0:
345,191,57520,1,0,3:0:0:0:
181,288,57606,6,0,L|177:220,1,55.2000010528565,8|0,0:0|0:0,0:0:0:0:
396,114,57777,2,0,L|463:107,1,55.2000010528565
396,114,57949,2,0,L|332:109,1,55.2000010528565,8|0,0:0|0:0,0:0:0:0:
148,145,58120,2,0,L|86:138,1,55.2000010528565,2|2,0:3|0:3,0:0:0:0:
292,318,58292,2,0,L|301:255,1,55.2000010528565,8|0,0:0|0:0,0:0:0:0:
218,239,58463,2,0,L|227:177,1,55.2000010528565,4|0,0:0|0:0,0:0:0:0:
461,230,58635,5,6,0:0:0:0:
492,186,58720,1,0,0:0:0:0:
483,133,58806,1,2,3:0:0:0:
439,101,58892,1,0,0:0:0:0:
188,97,58977,1,10,0:0:0:0:
352,170,59063,2,0,L|409:170,2,55.2000010528565,0|4|0,0:0|0:0|0:0,0:0:0:0:
163,325,59320,5,10,0:0:0:0:
134,278,59405,1,0,0:0:0:0:
145,226,59491,1,2,3:0:0:0:
188,194,59577,1,0,0:0:0:0:
376,197,59663,2,0,L|308:197,1,55.2000010528565,10|0,0:0|0:0,0:0:0:0:
115,144,59835,2,0,L|111:77,1,55.2000010528565,4|0,0:0|0:0,0:0:0:0:
340,46,60006,5,2,0:0:0:0:
365,55,60048,1,0,0:0:0:0:
386,73,60091,1,0,0:0:0:0:
400,96,60134,1,0,0:0:0:0:
405,123,60177,1,0,0:0:0:0:
400,150,60220,1,0,0:0:0:0:
386,174,60263,1,0,0:0:0:0:
365,192,60306,1,0,0:0:0:0:
253,199,60349,5,2,0:0:0:0:
227,208,60391,1,0,0:0:0:0:
206,226,60434,1,0,0:0:0:0:
192,249,60477,1,0,0:0:0:0:
187,276,60520,1,0,0:0:0:0:
192,303,60563,1,0,0:0:0:0:
206,327,60606,1,0,0:0:0:0:
227,345,60649,1,0,0:0:0:0:
405,123,60692,5,2,0:0:0:0:
431,132,60734,1,0,0:0:0:0:
452,150,60777,1,0,0:0:0:0:
466,173,60820,1,0,0:0:0:0:
471,200,60863,1,0,0:0:0:0:
466,227,60906,1,0,0:0:0:0:
452,251,60949,1,0,0:0:0:0:
431,269,60992,1,0,0:0:0:0:
251,285,61035,2,0,L|190:286,1,55.2000010528565,2|0,0:0|0:0,0:0:0:0:
409,342,61206,2,0,L|471:341,1,55.2000010528565,4|0,0:0|0:0,0:0:0:0:
161,361,61377,6,0,P|113:285|175:215,1,192,4|0,0:2|0:0,0:0:0:0:
267,213,61892,1,0,0:0:0:0:
405,210,62063,2,0,P|454:134|373:60,1,192,2|0,0:0|0:0,0:0:0:0:
285,62,62577,1,0,0:0:0:0:
411,66,62749,6,0,L|507:66,1,96,2|0,0:0|0:0,0:0:0:0:
376,147,63092,2,0,L|483:146,1,96,2|0,0:0|0:0,0:0:0:0:
183,326,63435,2,0,P|146:252|212:167,1,192,2|0,0:0|0:0,0:0:0:0:
305,165,63949,1,0,0:0:0:0:
164,104,64120,6,0,L|360:103,1,192,2|0,0:0|0:0,0:0:0:0:
258,41,64635,1,0,0:0:0:0:
105,95,64806,2,0,P|45:163|117:249,1,192,2|0,0:0|0:0,0:0:0:0:
197,253,65320,1,0,0:0:0:0:
78,340,65492,6,0,L|69:239,1,96,2|0,0:0|0:0,0:0:0:0:
222,256,65835,2,0,L|233:149,1,96,2|0,0:0|0:0,0:0:0:0:
124,113,66177,2,0,L|357:111,1,192,2|0,0:0|0:0,0:0:0:0:
429,110,66692,1,0,0:0:0:0:
187,314,66863,6,0,P|149:235|221:164,1,192,2|0,0:0|0:0,0:0:0:0:
325,163,67377,1,0,0:0:0:0:
195,163,67549,2,0,L|-10:164,1,192,2|0,0:0|0:0,0:0:0:0:
97,122,68063,1,0,0:0:0:0:
258,137,68235,6,0,L|251:239,1,96,2|0,0:0|0:0,0:0:0:0:
129,313,68577,2,0,L|19:319,1,96,2|0,0:0|0:0,0:0:0:0:
306,170,68920,2,0,L|505:186,1,192,2|0,0:0|0:0,0:0:0:0:
393,230,69435,1,0,0:0:0:0:
165,338,69606,6,0,P|131:275|220:177,1,192,2|0,0:0|0:0,0:0:0:0:
303,172,70120,1,0,0:0:0:0:
465,182,70292,2,0,P|506:106|421:26,1,192,2|0,0:0|0:0,0:0:0:0:
338,25,70806,1,0,0:0:0:0:
209,70,70977,5,4,1:0:0:0:
174,102,71062,1,0,1:0:0:0:
171,148,71148,1,0,1:0:0:0:
201,184,71234,1,0,1:0:0:0:
249,185,71320,1,4,1:0:0:0:
283,217,71405,1,0,1:0:0:0:
286,263,71491,1,0,1:0:0:0:
256,299,71577,1,0,1:0:0:0:
80,307,71663,6,4,L|3:307,1,48,4|0,1:0|1:0,1:0:0:0:
301,316,71835,2,4,L|368:316,1,48,4|0,1:0|1:0,1:0:0:0:
68,244,72006,2,0,P|41:187|102:129,1,144,4|0,0:2|2:0,0:0:0:0:
353,192,72349,6,0,P|405:122|325:40,1,192,2|0,0:0|0:0,0:0:0:0:
229,43,72863,1,0,0:0:0:0:
336,117,73035,2,0,L|230:118,1,96,2|0,0:0|0:0,0:0:0:0:
120,204,73377,2,0,L|225:204,1,96
357,314,73720,5,2,0:0:0:0:
435,266,73891,1,0,0:0:0:0:
437,174,74062,1,2,0:0:0:0:
360,123,74234,1,0,0:0:0:0:
88,225,74406,2,0,P|45:157|137:65,1,192,2|0,0:0|0:0,0:0:0:0:
203,63,74920,1,0,0:0:0:0:
459,62,75092,6,0,L|250:62,1,192,2|0,0:0|0:0,0:0:0:0:
384,109,75606,1,0,0:0:0:0:
254,170,75777,2,0,L|265:268,1,96,2|0,0:0|0:0,0:0:0:0:
392,257,76120,2,0,L|400:358,1,96
270,319,76463,6,0,L|172:328,1,96,2|0,0:0|0:0,0:0:0:0:
280,235,76806,2,0,L|393:248,1,96,2|0,0:0|0:0,0:0:0:0:
111,267,77149,2,0,P|71:199|133:115,1,192,2|0,0:0|0:0,0:0:0:0:
254,153,77663,2,0,L|259:100,1,48,0|0,0:0|2:0,0:0:0:0:
68,26,77835,6,2,L|264:37,2,192,2|0|2,0:0|0:0|0:0,0:0:0:0:
287,101,78863,2,0,L|283:203,1,96
400,243,79206,6,0,L|186:252,2,192,2|2|2,0:0|0:0|0:0,0:0:0:0:
137,342,80235,2,0,L|134:235,1,96
266,273,80577,6,0,P|316:202|234:139,1,192,2|0,0:0|0:0,0:0:0:0:
101,81,81263,2,0,L|310:93,1,192,2|0,0:0|0:0,0:0:0:0:
184,27,81777,1,0,0:0:0:0:
438,95,81949,6,0,L|432:203,1,96,2|0,0:0|0:0,0:0:0:0:
274,214,82292,2,0,L|269:329,1,96,2|0,0:0|0:0,0:0:0:0:
110,363,82635,1,4,0:0:0:0:
68,330,82720,1,0,0:0:0:0:
69,283,82806,1,4,0:0:0:0:
114,249,82892,1,0,0:0:0:0:
274,214,82977,2,0,L|442:222,1,144,4|0,0:2|2:0,0:0:0:0:
171,328,83320,6,0,L|160:215,1,96,4|0,0:0|0:0,0:0:0:0:
314,222,83663,2,0,L|325:109,1,96,8|0,1:0|0:0,0:0:0:0:
266,82,83920,1,0,0:0:0:0:
75,264,84006,2,0,L|43:147,1,96,4|0,1:0|0:0,0:0:0:0:
199,169,84349,2,0,L|231:52,1,96,8|0,1:0|0:0,0:0:0:0:
156,29,84606,1,0,0:0:0:0:
352,287,84692,6,0,L|457:283,1,96,4|0,0:0|0:0,0:0:0:0:
272,223,85035,2,0,L|167:219,1,96,8|0,0:0|0:0,0:0:0:0:
248,206,85292,1,0,0:0:0:0:
404,111,85377,2,0,L|509:107,1,96,4|0,0:0|0:0,0:0:0:0:
242,103,85720,2,0,L|137:99,1,96,8|0,0:0|0:0,0:0:0:0:
218,86,85977,1,0,0:0:0:0:
449,309,86063,6,0,L|466:193,1,96,4|0,0:2|0:0,0:0:0:0:
159,214,86406,2,0,L|144:106,1,96,8|0,0:0|0:0,0:0:0:0:
218,118,86663,1,0,0:0:0:0:
431,200,86749,2,0,L|448:84,1,96,4|0,0:1|0:0,0:0:0:0:
77,304,87092,2,0,L|62:196,1,96,8|0,0:0|0:0,0:0:0:0:
136,208,87349,1,0,0:0:0:0:
375,261,87435,6,0,L|502:257,1,96,4|0,0:1|0:0,0:0:0:0:
170,343,87777,2,0,L|43:339,1,96,8|0,0:1|0:0,0:0:0:0:
149,325,88035,1,0,0:0:0:0:
394,344,88120,2,0,L|521:340,1,96,4|0,0:1|0:0,0:0:0:0:
93,266,88463,1,8,0:0:0:0:
62,223,88549,1,0,0:0:0:0:
81,174,88635,1,0,0:0:0:0:
129,158,88720,1,0,0:0:0:0:
342,339,88806,6,0,L|350:251,1,48,4|0,1:2|1:0,1:0:0:0:
264,265,88977,2,0,L|256:177,1,48,0|0,1:0|1:0,1:0:0:0:
419,189,89149,2,0,L|427:101,1,48,8|0,1:0|1:0,1:0:0:0:
341,115,89320,2,0,L|333:27,1,48,0|0,1:0|1:0,1:0:0:0:
417,29,89492,6,0,L|492:23,1,48,4|0,0:0|0:0,0:0:0:0:
268,281,89663,2,0,L|260:193,1,48,0|0,1:0|1:0,1:0:0:0:
346,207,89835,2,0,L|354:119,1,48,8|0,1:0|1:0,1:0:0:0:
163,118,90006,2,0,L|93:102,1,48
341,324,90177,6,0,L|410:313,1,48,4|0,1:0|1:0,1:0:0:0:
154,325,90349,2,0,L|141:253,1,48,0|0,1:0|1:0,1:0:0:0:
222,229,90520,2,0,L|232:157,1,48,8|0,1:0|1:0,1:0:0:0:
146,137,90692,2,0,L|131:81,1,48,0|0,1:0|1:0,1:0:0:0:
324,157,90863,6,0,L|365:78,1,48,8|0,1:0|1:0,1:0:0:0:
188,157,91035,2,0,L|147:78,1,48,0|0,1:0|1:0,1:0:0:0:
387,245,91206,2,0,L|437:219,1,48,8|0,1:0|1:0,1:0:0:0:
125,245,91377,2,0,L|75:219,1,48,0|0,1:0|1:0,1:0:0:0:
420,261,91549,6,0,L|440:243,6,24
274,198,91892,6,0,L|255:178,6,24
107,208,92234,6,0,L|80:213,6,24
323,251,92577,5,0,0:0:0:0:
349,233,92619,1,0,0:0:0:0:
362,207,92662,1,0,0:0:0:0:
367,178,92705,1,0,0:0:0:0:
359,150,92748,1,0,0:0:0:0:
338,129,92791,1,0,0:0:0:0:
312,116,92834,1,0,0:0:0:0:
141,320,92920,6,0,L|132:263,1,48,0|0,1:2|1:2,1:2:0:0:
50,232,93092,2,0,L|40:173,1,48,0|0,1:2|1:2,1:2:0:0:
244,258,93263,2,0,L|253:201,1,48,2|0,1:2|1:2,1:2:0:0:
339,164,93435,2,0,L|349:105,1,48,0|0,1:2|1:2,1:2:0:0:
181,229,93606,6,0,L|172:172,1,48,2|0,1:2|1:2,1:2:0:0:
24,125,93777,2,0,L|14:66,1,48,0|0,1:2|1:2,1:2:0:0:
210,306,93949,2,0,L|219:249,1,48,2|0,1:2|1:2,1:2:0:0:
469,118,94120,2,0,L|479:59,1,48,0|0,1:2|1:2,1:2:0:0:
271,145,94292,6,0,L|112:132,1,124.79999428711,6|0,1:2|0:0,0:0:0:0:
40,256,94635,1,0,1:0:0:0:
279,324,94806,2,0,L|353:317,1,62.3999971435548
165,299,94977,2,0,L|156:231,1,62.3999971435548,10|0,0:0|0:0,0:0:0:0:
76,227,95149,2,0,L|68:157,1,62.3999971435548
283,173,95320,2,0,L|292:105,1,62.3999971435548,6|0,0:0|0:0,0:0:0:0:
372,101,95492,2,0,L|380:31,1,62.3999971435548
211,335,95663,6,0,L|86:324,1,124.79999428711,2|0,0:0|0:0,0:0:0:0:
261,215,96006,1,4,0:0:0:0:
135,134,96177,2,0,L|64:127,1,62.3999971435548
339,314,96349,2,0,L|348:246,1,62.3999971435548,10|0,0:0|0:0,0:0:0:0:
428,242,96521,2,0,L|436:172,1,62.3999971435548
221,188,96692,2,0,L|212:120,1,62.3999971435548,2|0,0:0|0:0,0:0:0:0:
132,116,96864,2,0,L|124:46,1,62.3999971435548
337,72,97035,5,4,2:2:0:0:
199,248,97206,1,0,0:1:0:0:
262,244,97292,1,0,0:3:0:0:
324,241,97377,1,4,0:0:0:0:
459,128,97549,1,4,0:0:0:0:
216,359,97720,2,0,L|208:269,1,62.3999971435548,10|0,0:0|0:0,0:0:0:0:
123,303,97892,2,0,L|115:216,1,62.3999971435548
268,206,98063,2,0,L|274:125,1,62.3999971435548,2|0,0:0|0:0,0:0:0:0:
360,103,98235,2,0,L|369:27,1,62.3999971435548
142,184,98406,6,0,P|93:145|107:78,1,124.79999428711,0|0,1:0|0:0,0:0:0:0:
351,103,98749,1,4,0:0:0:0:
67,101,98920,1,0,0:0:0:0:
370,184,99092,2,0,P|419:145|405:78,1,124.79999428711,8|0,0:0|0:0,0:0:0:0:
240,157,99435,2,0,P|156:119|128:33,1,187.199991430664,2|0,0:0|0:0,0:0:0:0:
302,345,99777,6,0,L|334:223,1,124.79999428711,4|0,2:0|0:0,0:0:0:0:
70,228,100120,1,4,0:0:0:0:
211,277,100292,2,0,L|132:269,1,62.3999971435548
386,349,100463,2,0,L|403:272,1,62.3999971435548,10|0,0:0|0:0,0:0:0:0:
253,239,100635,2,0,L|236:162,1,62.3999971435548
326,176,100806,2,0,L|343:99,1,62.3999971435548,6|0,0:0|0:0,0:0:0:0:
193,66,100978,2,0,L|176:-11,1,62.3999971435548
451,303,101149,6,0,L|478:177,1,124.79999428711,2|0,0:0|0:0,0:0:0:0:
178,186,101492,1,4,0:0:0:0:
300,122,101663,2,0,L|370:125,1,62.3999971435548
160,331,101835,2,0,L|83:329,1,62.3999971435548,10|0,0:0|0:0,0:0:0:0:
199,235,102006,2,0,L|270:237,1,62.3999971435548
71,134,102177,2,0,L|-6:132,1,62.3999971435548,6|0,0:0|0:0,0:0:0:0:
110,38,102349,2,0,L|181:40,1,62.3999971435548
356,210,102520,5,4,1:2:0:0:
212,338,102692,1,0,0:0:0:0:
274,331,102777,1,0,0:0:0:0:
337,325,102863,1,4,0:0:0:0:
475,229,103035,1,0,0:0:0:0:
233,265,103206,2,0,L|218:181,1,62.3999971435548,10|0,0:0|0:0,0:0:0:0:
79,216,103377,2,0,L|60:125,1,62.3999971435548
273,265,103549,2,0,L|288:181,1,62.3999971435548,6|0,0:0|0:0,0:0:0:0:
433,216,103720,2,0,L|452:125,1,62.3999971435548
161,329,103892,5,4,0:0:0:0:
125,290,103977,1,0,2:0:0:0:
131,237,104063,1,0,2:0:0:0:
175,208,104149,1,0,2:0:0:0:
335,201,104235,1,2,1:2:0:0:
371,162,104320,1,0,2:0:0:0:
365,109,104406,1,0,2:0:0:0:
321,80,104492,1,0,2:0:0:0:
212,343,104577,6,0,L|196:281,1,62.3999971435548,2|0,1:2|1:0,1:0:0:0:
302,344,104749,2,0,L|315:281,1,62.3999971435548,0|0,1:0|1:0,1:0:0:0:
168,185,104920,2,0,L|92:177,1,62.3999971435548,2|0,1:1|1:0,1:0:0:0:
341,185,105092,2,0,L|417:177,1,62.3999971435548,0|0,1:0|1:0,1:0:0:0:
77,274,105263,6,0,P|24:224|117:177,1,187.199991430664,4|0,0:2|0:0,0:0:0:0:
146,163,105606,1,4,0:0:0:0:
427,274,105777,2,0,L|443:176,1,62.3999971435548,4|0,0:0|0:0,0:0:0:0:
175,337,105949,2,0,L|91:336,1,62.3999971435548,10|0,0:0|0:0,0:0:0:0:
326,183,106120,2,0,L|410:182,1,62.3999971435548
143,226,106292,2,0,L|59:225,1,62.3999971435548,6|0,0:0|0:0,0:0:0:0:
294,72,106463,2,0,L|378:71,1,62.3999971435548
120,302,106635,6,0,P|105:240|213:177,1,187.199991430664,2|0,0:0|0:0,0:0:0:0:
237,87,106977,2,0,L|96:70,1,124.79999428711,4|0,0:0|0:0,0:0:0:0:
266,323,107320,2,0,L|283:227,1,62.3999971435548,10|0,0:0|0:0,0:0:0:0:
431,234,107492,2,0,L|447:160,1,62.3999971435548
246,323,107663,2,0,L|229:227,1,62.3999971435548,6|0,0:0|0:0,0:0:0:0:
56,235,107835,2,0,L|40:161,1,62.3999971435548
284,328,108006,6,0,P|337:295|329:219,1,124.79999428711,4|2,1:2|0:3,0:0:0:0:
278,190,108263,1,0,0:0:0:0:
80,212,108349,2,0,P|32:175|45:94,1,124.79999428711,4|0,0:0|0:0,0:0:0:0:
186,304,108692,2,0,L|199:231,1,62.3999971435548,10|0,0:0|0:0,0:0:0:0:
387,256,108863,2,0,L|453:248,1,62.3999971435548
231,128,109035,2,0,L|313:119,1,62.3999971435548,6|0,0:0|0:0,0:0:0:0:
448,108,109206,2,0,L|463:41,1,62.3999971435548
225,230,109377,6,0,P|181:186|270:152,1,187.199991430664,4|0,0:1|0:0,0:0:0:0:
413,303,109720,2,0,P|456:256|408:175,1,124.79999428711,2|0,0:0|0:0,0:0:0:0:
372,128,109977,2,0,L|497:128,1,124.79999428711,2|0,0:0|0:0,0:0:0:0:
282,312,110235,2,0,P|239:265|287:184,1,124.79999428711,2|0,0:0|0:0,0:0:0:0:
335,140,110492,2,0,L|198:139,1,124.79999428711,2|0,0:0|0:0,0:0:0:0:
45,310,110749,6,0,L|21:172,1,124.79999428711,4|0,0:2|0:0,0:0:0:0:
84,143,111006,1,0,0:0:0:0:
307,236,111092,2,0,L|160:222,1,124.79999428711,4|0,0:0|0:0,0:0:0:0:
412,333,111435,6,0,L|431:248,1,62.3999971435548,10|0,0:0|0:0,0:0:0:0:
261,215,111606,2,0,L|242:130,1,62.3999971435548
440,187,111777,2,0,L|459:102,1,62.3999971435548,2|0,0:0|0:0,0:0:0:0:
261,77,111949,2,0,L|248:17,1,62.3999971435548
419,359,112120,6,0,P|450:300|360:237,1,187.199991430664,4|0,0:0|0:0,0:0:0:0:
318,220,112463,2,0,L|455:216,1,124.79999428711,4|0,0:0|0:0,0:0:0:0:
255,344,112806,2,0,L|246:267,1,62.3999971435548,14|0,0:0|0:0,0:0:0:0:
68,264,112977,2,0,L|59:187,1,62.3999971435548
270,182,113149,2,0,L|279:105,1,62.3999971435548,2|0,0:0|0:0,0:0:0:0:
457,102,113320,2,0,L|466:25,1,62.3999971435548
67,369,113492,6,0,L|62:280,1,62.3999971435548,4|0,1:2|0:0,0:0:0:0:
154,336,113663,2,0,L|149:247,1,62.3999971435548,4|0,1:1|0:0,0:0:0:0:
242,359,113835,2,0,L|237:270,1,62.3999971435548,4|0,1:1|0:0,0:0:0:0:
329,326,114006,2,0,L|324:237,1,62.3999971435548,4|0,1:1|0:0,0:0:0:0:
485,371,114177,6,0,L|498:283,1,62.3999971435548,4|0,1:2|0:0,0:0:0:0:
336,365,114349,2,0,L|349:277,1,62.3999971435548,4|0,1:1|0:0,0:0:0:0:
189,363,114520,2,0,L|202:275,1,62.3999971435548,4|0,1:2|0:0,0:0:0:0:
42,359,114692,2,0,L|55:271,1,62.3999971435548,4|0,1:1|0:0,0:0:0:0:
288,50,114863,5,0,0:0:0:0:
313,59,114905,1,0,0:0:0:0:
334,77,114948,1,0,0:0:0:0:
348,100,114991,1,0,0:0:0:0:
353,127,115034,1,0,0:0:0:0:
348,154,115077,1,0,0:0:0:0:
334,178,115120,1,0,0:0:0:0:
148,194,115206,5,0,0:0:0:0:
122,203,115248,1,0,0:0:0:0:
101,221,115291,1,0,0:0:0:0:
87,244,115334,1,0,0:0:0:0:
82,271,115377,1,0,0:0:0:0:
87,298,115420,1,0,0:0:0:0:
101,322,115463,1,0,0:0:0:0:
353,127,115549,5,0,0:0:0:0:
379,136,115591,1,0,0:0:0:0:
400,154,115634,1,0,0:0:0:0:
414,177,115677,1,0,0:0:0:0:
419,204,115720,1,0,0:0:0:0:
414,231,115763,1,0,0:0:0:0:
400,255,115806,1,0,0:0:0:0:
155,346,115892,2,0,L|93:345,1,62.3999971435548
357,346,116063,2,0,L|419:345,1,62.3999971435548
112,243,116235,5,4,0:2:0:0:
256,192,116406,12,0,121377,0:0:0:0:
180,307,121720,6,0,L|378:301,1,192,2|0,0:2|0:0,0:0:0:0:
264,219,122235,1,0,0:0:0:0:
261,171,122320,1,0,0:0:0:0:
259,122,122406,1,2,0:2:0:0:
384,132,122577,1,0,0:0:0:0:
245,136,122749,2,0,L|124:132,1,96,2|0,0:2|0:0,0:0:0:0:
300,338,123092,6,0,P|344:269|280:177,1,192,2|0,0:2|0:0,0:0:0:0:
144,179,123606,1,0,0:0:0:0:
281,174,123777,2,0,L|506:175,1,192,2|0,0:2|0:0,0:0:0:0:
353,173,124292,1,0,0:0:0:0:
219,170,124463,6,0,L|202:288,1,96,2|0,0:2|0:0,0:0:0:0:
352,246,124806,2,0,L|369:364,1,96,2|0,0:2|0:0,0:0:0:0:
217,348,125149,1,2,0:2:0:0:
440,346,125492,1,2,0:2:0:0:
147,282,125835,1,2,0:2:0:0:
147,282,127206,6,0,P|89:231|167:159,1,192,2|0,0:2|0:0,0:0:0:0:
286,226,127720,1,0,0:0:0:0:
295,178,127806,1,0,0:0:0:0:
304,130,127892,1,2,0:2:0:0:
158,125,128063,1,0,0:0:0:0:
304,110,128235,2,0,L|426:110,1,96,2|0,0:2|0:0,0:0:0:0:
271,284,128577,6,0,L|59:264,1,192,2|2,0:2|0:2,0:0:0:0:
187,276,129092,1,0,0:0:0:0:
287,286,129263,1,2,0:2:0:0:
445,205,129606,1,0,0:0:0:0:
341,229,129777,1,0,0:0:0:0:
95,290,129949,6,0,P|42:233|106:147,1,192,2|0,0:2|0:0,0:0:0:0:
230,182,130463,2,0,L|249:123,2,48,0|0|2,0:0|0:0|0:2,0:0:0:0:
97,228,130806,1,0,0:0:0:0:
235,308,130977,2,0,L|349:304,1,96,2|0,0:2|0:0,0:0:0:0:
456,228,131320,6,0,L|338:218,1,96,2|0,0:2|0:0,0:0:0:0:
221,171,131663,2,0,L|341:167,1,96,2|0,0:2|0:0,0:0:0:0:
465,192,132006,2,0,P|455:129|363:74,1,144,2|0,0:2|0:0,0:0:0:0:
320,78,132349,1,2,0:2:0:0:
454,76,132520,1,0,0:0:0:0:
208,281,132692,6,0,P|192:219|297:149,1,192,2|0,0:2|0:0,0:0:0:0:
421,242,133206,1,0,0:0:0:0:
376,223,133292,1,0,0:0:0:0:
332,204,133377,1,2,0:2:0:0:
194,207,133549,1,0,0:0:0:0:
327,293,133720,2,0,L|342:177,1,96,2|0,0:2|0:0,0:0:0:0:
102,218,134063,6,0,P|77:173|104:120,1,96
225,90,134406,2,0,P|187:59|121:65,1,96,2|0,0:2|0:0,0:0:0:0:
410,216,134749,2,0,P|435:171|408:118,1,96,2|0,0:2|0:0,0:0:0:0:
305,97,135092,1,2,0:2:0:0:
429,96,135263,1,2,0:2:0:0:
194,297,135435,6,0,P|146:274|78:293,1,96,2|0,0:2|0:0,0:0:0:0:
254,193,135778,2,0,L|371:188,1,96,2|0,0:2|0:0,0:0:0:0:
488,248,136120,1,2,0:2:0:0:
358,201,136292,1,0,0:0:0:0:
507,170,136463,1,2,0:2:0:0:
377,123,136635,1,0,0:0:0:0:
257,315,136806,6,0,L|231:225,1,48,4|0,0:0|0:0,0:0:0:0:
324,240,136977,2,0,L|334:168,1,48,4|0,0:0|0:0,0:0:0:0:
235,175,137149,2,0,L|209:85,1,48,4|0,0:0|0:0,0:0:0:0:
302,100,137320,2,0,L|312:28,1,48,4|0,0:0|0:0,0:0:0:0:
91,293,137492,2,0,P|69:240|134:173,1,144,4|0,0:0|0:0,0:0:0:0:
202,105,137835,2,0,L|66:117,1,96,4|0,0:0|2:0,0:0:0:0:
411,294,138177,6,0,B|507:295|507:295|404:293,1,192,2|0,1:1|0:0,0:0:0:0:
273,190,138692,2,0,L|257:122,2,48,0|0|2,0:0|0:0|0:0,0:0:0:0:
416,195,139035,1,0,0:0:0:0:
272,289,139206,2,0,L|386:285,1,96,2|0,0:0|0:0,0:0:0:0:
233,200,139549,6,0,L|337:197,1,96,2|0,0:0|0:0,0:0:0:0:
445,90,139892,2,0,L|334:86,1,96,2|0,0:0|0:0,0:0:0:0:
221,128,140235,2,0,P|187:82|208:29,1,96,2|0,0:0|0:0,0:0:0:0:
457,7,140577,1,4,0:2:0:0:
184,303,140920,6,0,L|386:297,1,192
254,235,141435,2,0,L|233:174,2,48,0|0|2,0:0|0:0|0:0,0:0:0:0:
374,233,141777,1,0,0:0:0:0:
266,164,141949,2,0,L|374:165,1,96,2|0,0:0|0:0,0:0:0:0:
224,288,142292,5,10,0:0:0:0:
90,291,142463,1,0,0:0:0:0:
224,288,142634,1,10,0:0:0:0:
90,291,142806,1,0,0:0:0:0:
363,292,142977,2,0,L|398:183,1,96,10|8,0:0|0:0,0:0:0:0:
16,166,143320,1,4,0:2:0:0:
252,187,143663,6,0,L|55:177,1,192,2|0,0:0|0:0,0:0:0:0:
166,333,144177,1,0,0:0:0:0:
170,285,144263,1,0,0:0:0:0:
174,237,144349,1,2,0:0:0:0:
55,189,144520,1,0,0:0:0:0:
185,136,144692,2,0,L|83:137,1,96,2|0,0:0|0:0,0:0:0:0:
225,247,145035,6,0,L|343:243,1,96,2|0,0:0|0:0,0:0:0:0:
449,285,145377,2,0,P|482:245|462:173,1,96,2|0,0:0|0:0,0:0:0:0:
345,222,145720,2,0,L|328:25,1,192,2|4,0:0|0:2,0:0:0:0:
464,38,146235,1,0,2:0:0:0:
192,288,146406,5,2,0:0:0:0:
79,275,146577,1,0,0:0:0:0:
192,288,146749,1,2,0:0:0:0:
79,275,146920,1,0,0:0:0:0:
421,340,147092,5,4,0:0:0:0:
453,297,147178,1,0,0:0:0:0:
436,246,147264,1,0,0:0:0:0:
387,228,147349,1,0,0:0:0:0:
333,222,147435,1,4,0:0:0:0:
301,179,147521,1,0,0:0:0:0:
318,128,147607,1,0,0:0:0:0:
367,110,147692,1,0,0:0:0:0:
93,369,147777,6,0,B|24:353|-11:296|43:197|129:227|129:227|204:253|247:219|274:123|177:68|150:99,1,480
75,242,148806,2,0,L|10:237,2,48,2|0|0,0:2|0:0|0:0,0:0:0:0:
361,367,149149,6,0,P|394:260|316:212,1,192
166,198,149835,2,0,L|374:179,1,192
70,304,150520,6,0,P|37:197|115:149,1,192
235,113,151206,2,0,L|27:94,1,192
458,282,151892,6,0,L|472:75,1,192
25,196,152577,2,0,L|344:216,1,288
49,346,153263,6,0,L|42:144,1,192
202,250,153777,1,0,0:0:0:0:
76,163,153949,2,0,L|19:163,1,48
237,142,154120,2,0,L|306:142,1,48
76,163,154292,2,0,P|46:93|106:34,1,144,4|0,0:2|0:0,0:0:0:0:
389,31,154635,6,0,L|407:61,1,24,4|0,0:0|2:0,0:0:0:0:
288,115,154806,1,0,0:0:0:0:
411,165,154977,1,0,0:0:0:0:
64,144,155149,6,0,L|46:174,1,24,4|0,0:0|2:0,0:0:0:0:
165,228,155320,1,0,0:0:0:0:
42,278,155491,1,0,0:0:0:0:
362,247,155663,2,0,L|493:261,1,96,4|0,0:0|0:0,0:0:0:0:
188,353,156006,6,0,L|184:323,1,24,4|0,0:0|2:0,0:0:0:0:
292,282,156177,1,0,0:0:0:0:
400,247,156349,1,0,0:0:0:0:
101,195,156520,2,0,L|100:158,1,24,4|0,0:0|2:0,0:0:0:0:
212,116,156692,1,0,0:0:0:0:
90,52,156863,1,0,0:0:0:0:
392,83,157035,2,0,L|501:79,1,96,4|4,1:0|0:0,0:0:0:0:
438,112,157292,1,0,0:0:0:0:
186,172,157377,6,0,L|199:202,1,24,4|0,0:2|2:0,0:0:0:0:
317,221,157549,1,0,0:0:0:0:
175,287,157720,1,0,0:0:0:0:
470,352,157892,2,0,L|480:319,1,24,4|0,0:0|2:0,0:0:0:0:
348,252,158064,1,0,0:0:0:0:
482,178,158235,1,0,0:0:0:0:
209,118,158406,2,0,L|326:108,1,96,4|0,0:0|0:0,0:0:0:0:
43,255,158749,6,0,L|51:229,1,24,4|0,0:0|2:0,0:0:0:0:
182,207,158920,1,0,0:0:0:0:
313,188,159092,1,0,0:0:0:0:
22,153,159263,2,0,L|30:127,1,24,4|0,1:0|2:0,0:0:0:0:
161,105,159434,1,0,0:0:0:0:
292,86,159606,1,0,0:0:0:0:
36,49,159777,2,0,L|26:158,1,96,4|4,0:0|0:0,0:0:0:0:
78,176,160035,1,0,0:0:0:0:
363,342,160120,6,0,L|368:291,1,48,4|0,0:2|0:0,0:0:0:0:
313,266,160292,2,0,L|261:259,1,48
363,248,160463,2,0,L|375:184,1,48,8|0,0:0|0:0,0:0:0:0:
108,143,160635,2,0,L|170:137,1,48
356,84,160806,6,0,L|421:76,1,48,8|0,0:0|0:0,0:0:0:0:
356,84,160977,2,0,L|301:91,1,48
99,92,161149,2,0,L|79:30,1,48,8|0,0:0|0:0,0:0:0:0:
362,196,161320,2,0,L|377:262,1,48
86,317,161492,6,0,L|34:320,1,48,8|0,0:0|0:0,0:0:0:0:
107,318,161663,2,0,L|168:313,1,48
86,317,161835,2,0,L|13:326,1,48,8|0,0:0|0:0,0:0:0:0:
370,348,162006,2,0,L|378:295,1,48
181,207,162177,6,0,L|236:202,1,48,8|0,0:0|0:0,0:0:0:0:
294,197,162349,2,0,L|367:191,1,48
128,120,162520,2,0,L|113:67,1,48,8|0,0:0|0:0,0:0:0:0:
343,116,162692,2,0,L|429:107,1,48
73,331,162863,6,0,L|21:331,1,48,8|0,0:0|0:0,0:0:0:0:
73,331,163035,2,0,L|137:335,1,48,8|0,0:0|0:0,0:0:0:0:
287,229,163206,2,0,L|359:224,1,48,8|0,0:0|0:0,0:0:0:0:
292,232,163377,2,0,L|226:241,1,48,8|0,0:0|0:0,0:0:0:0:
64,164,163549,6,0,L|116:164,1,48,4|0,0:0|0:0,0:0:0:0:
333,122,163720,2,0,L|399:122,1,48,8|0,0:0|0:0,0:0:0:0:
99,66,163892,2,0,L|163:66,1,48,4|0,0:0|0:0,0:0:0:0:
400,208,164063,2,0,L|464:208,1,48,8|0,0:0|0:0,0:0:0:0:
221,293,164235,6,0,L|-8:292,2,192
379,296,165092,1,0,0:0:0:0:
80,352,165263,2,0,P|46:287|120:246,1,144.000005493164,4|0,0:2|2:0,0:0:0:0:
435,240,165606,5,6,0:2:0:0:
292,147,165777,1,0,0:0:0:0:
339,145,165862,1,0,0:0:0:0:
387,143,165948,1,8,0:0:0:0:
97,54,166120,2,0,L|148:52,1,27.6000005264282,2|0,0:0|2:0,0:0:0:0:
253,32,166292,1,0,0:0:0:0:
16,172,166463,2,0,L|64:168,1,27.6000005264282,6|0,0:0|2:0,0:0:0:0:
185,160,166635,1,8,0:0:0:0:
67,307,166806,2,0,L|56:235,1,55.2000010528565,2|0,0:3|0:0,0:0:0:0:
344,251,166977,6,0,L|221:261,2,110.400002105713,4|0|8,0:0|0:0|0:0,0:0:0:0:
54,224,167492,2,0,L|43:184,1,27.6000005264282,2|0,0:0|2:0,0:0:0:0:
146,154,167663,1,4,0:0:0:0:
399,63,167835,2,0,L|429:60,1,27.6000005264282,2|0,0:0|2:0,0:0:0:0:
192,178,168006,2,0,L|158:185,1,27.6000005264282,10|0,0:0|2:0,0:0:0:0:
399,247,168177,2,0,L|435:242,1,27.6000005264282,2|0,0:0|2:0,0:0:0:0:
173,332,168349,5,4,0:0:0:0:
131,285,168434,1,0,1:0:0:0:
140,232,168520,1,0,1:0:0:0:
196,203,168606,1,0,1:0:0:0:
422,193,168692,2,0,L|322:199,1,55.2000010528565,8|0,0:0|0:0,0:0:0:0:
160,57,168863,2,0,L|295:67,1,110.400002105713
94,128,169206,1,4,0:0:0:0:
345,276,169377,1,8,0:0:0:0:
403,246,169462,1,0,0:0:0:0:
409,192,169548,1,0,0:0:0:0:
361,148,169634,1,0,0:0:0:0:
177,130,169720,6,0,L|142:132,1,27.6000005264282,6|0,0:0|2:0,0:0:0:0:
42,136,169892,2,0,L|9:138,1,27.6000005264282,2|0,0:0|2:0,1:0:0:0:
336,247,170063,2,0,L|301:248,1,27.6000005264282,10|0,0:0|2:0,0:0:0:0:
59,314,170235,2,0,L|91:313,1,27.6000005264282,2|0,0:0|2:0,0:0:0:0:
209,314,170406,2,0,L|253:311,1,27.6000005264282,2|0,0:0|2:0,0:0:0:0:
117,257,170577,2,0,L|108:192,1,55.2000010528565,4|0,0:0|0:0,0:0:0:0:
359,248,170749,6,0,B|487:228|487:228|331:201|331:201|323:200,1,288,8|0,0:0|0:0,0:0:0:0:
141,201,171092,5,4,0:2:0:0:
285,157,171263,2,0,L|350:157,2,55.2000010528565,4|0|8,0:0|0:0|0:0,0:0:0:0:
14,55,171606,2,0,L|51:55,1,27.6000005264282,2|0,0:0|2:0,0:0:0:0:
143,56,171777,1,0,0:0:0:0:
462,48,171949,2,0,L|425:48,1,27.6000005264282,6|0,0:0|2:0,0:0:0:0:
333,49,172120,1,8,0:0:0:0:
473,120,172292,2,0,L|462:207,1,55.2000010528565
225,212,172463,6,0,L|113:212,1,110.400002105713,4|0,0:0|0:0,0:0:0:0:
306,270,172806,1,8,0:0:0:0:
38,154,172977,2,0,L|82:151,1,27.6000005264282,2|0,0:0|2:0,0:0:0:0:
198,144,173149,1,0,0:0:0:0:
482,112,173320,2,0,L|448:119,1,27.6000005264282,6|0,0:0|2:0,0:0:0:0:
242,169,173492,2,0,L|230:203,1,27.6000005264282,10|0,0:0|2:0,0:0:0:0:
436,308,173663,2,0,L|451:340,1,27.6000005264282,2|0,0:0|2:0,0:0:0:0:
308,325,173835,6,0,L|246:328,1,55.2000010528565,4|0,0:2|0:0,0:0:0:0:
35,261,174006,2,0,L|95:258,1,55.2000010528565,4|0,0:0|0:0,0:0:0:0:
364,238,174177,2,0,L|371:179,1,55.2000010528565,8|0,0:0|0:0,0:0:0:0:
142,70,174349,2,0,L|293:75,1,110.400002105713,2|0,0:2|0:0,0:0:0:0:
86,179,174692,2,0,L|74:115,1,55.2000010528565,2|0,0:2|0:0,0:0:0:0:
252,147,174863,1,8,0:1:0:0:
133,136,175035,1,8,0:0:0:0:
364,303,175206,6,0,L|178:303,1,168,4|0,0:0|2:0,0:0:0:0:
196,303,175377,2,0,L|409:304,1,210,2|0,2:0|2:0,0:0:0:0:
405,303,175549,2,0,L|149:303,1,252.000009613037,4|0,0:0|2:0,0:0:0:0:
152,303,175720,2,0,L|447:304,1,294.000002803802,2|0,2:0|2:0,0:0:0:0:
445,303,175892,2,0,L|11:303,1,384,4|4,0:0|1:0,0:0:0:0:
410,301,176235,2,0,P|455:188|363:161,1,192,4|0,0:2|0:0,0:0:0:0:
136,61,176577,5,4,0:0:0:0:
108,69,176619,1,0,3:0:0:0:
87,88,176662,1,0,3:0:0:0:
76,115,176705,1,0,3:0:0:0:
76,143,176748,1,0,3:0:0:0:
88,169,176791,1,0,3:0:0:0:
110,187,176834,1,0,3:0:0:0:
272,261,176920,2,0,L|279:198,1,57.5999982421876,4|0,0:0|2:0,0:0:0:0:
56,297,177092,6,0,L|98:301,1,28.7999991210938,2|0,0:0|2:0,0:0:0:0:
389,332,177263,1,8,0:0:0:0:
271,260,177435,2,0,L|279:204,1,28.7999991210938,6|0,0:0|2:0,0:0:0:0:
423,218,177606,1,0,0:0:0:0:
477,180,177691,1,0,2:0:0:0:
481,123,177777,1,2,2:2:0:0:
435,74,177863,1,0,2:0:0:0:
221,37,177949,5,4,0:0:0:0:
201,57,177991,1,0,3:0:0:0:
188,83,178034,1,0,3:0:0:0:
186,112,178077,1,0,3:0:0:0:
193,139,178120,1,0,3:0:0:0:
208,163,178163,1,0,3:0:0:0:
231,181,178206,1,0,3:0:0:0:
258,190,178248,1,0,3:0:0:0:
290,190,178292,5,2,0:0:0:0:
314,203,178335,1,0,3:0:0:0:
326,229,178377,1,0,3:0:0:0:
319,257,178420,1,0,3:0:0:0:
94,314,178463,2,0,L|56:312,2,28.7999991210938,4|0|0,0:0|0:0|0:0,0:0:0:0:
352,352,178635,6,0,L|385:328,1,28.7999991210938,10|0,0:0|2:0,0:0:0:0:
123,232,178806,2,0,L|156:203,1,28.7999991210938,0|0,0:0|2:0,0:0:0:0:
447,185,178977,2,0,L|443:138,1,28.7999991210938,2|0,0:0|2:0,0:0:0:0:
179,107,179149,2,0,L|169:52,1,28.7999991210938,0|0,0:0|2:0,0:0:0:0:
403,41,179320,5,4,0:0:0:0:
376,52,179362,1,0,3:0:0:0:
354,70,179405,1,0,3:0:0:0:
337,93,179448,1,0,3:0:0:0:
328,120,179491,1,0,3:0:0:0:
326,149,179534,1,0,3:0:0:0:
332,177,179577,1,0,3:0:0:0:
345,203,179619,1,0,3:0:0:0:
365,223,179662,1,0,3:0:0:0:
389,238,179705,1,0,3:0:0:0:
417,246,179748,1,0,3:0:0:0:
230,282,179835,2,0,L|149:288,1,57.5999982421876,4|0,0:0|0:0,0:0:0:0:
434,347,180006,6,0,L|438:313,1,28.7999991210938,8|0,0:0|2:0,0:0:0:0:
306,278,180177,2,0,L|186:259,1,115.199996484375,0|4,0:0|0:0,0:0:0:0:
348,178,180520,2,0,L|366:119,1,57.5999982421876,4|0,0:0|0:0,0:0:0:0:
98,55,180692,6,0,L|113:92,1,28.7999991210938,2|0,0:2|2:0,0:0:0:0:
231,101,180863,2,0,L|243:139,1,28.7999991210938,2|0,0:2|2:0,0:0:0:0:
29,216,181035,2,0,L|46:268,1,28.7999991210938,2|0,0:2|2:0,0:0:0:0:
286,272,181206,2,0,L|298:308,1,28.7999991210938,2|0,0:2|2:0,0:0:0:0:
171,329,181377,2,0,L|151:373,1,28.7999991210938,8|0,1:1|2:0,0:0:0:0:
313,262,181549,1,4,0:0:0:0:
70,216,181720,5,2,0:2:0:0:
57,190,181763,1,0,3:0:0:0:
53,161,181806,1,0,3:0:0:0:
58,133,181849,1,0,3:0:0:0:
71,107,181892,1,0,3:0:0:0:
92,87,181935,1,0,3:0:0:0:
117,74,181978,1,0,3:0:0:0:
145,69,182020,1,0,3:0:0:0:
313,262,182063,5,4,0:0:0:0:
353,221,182148,1,0,0:0:0:0:
368,166,182234,1,0,0:0:0:0:
356,111,182320,1,0,0:0:0:0:
318,68,182405,1,4,0:0:0:0:
265,48,182491,1,0,0:0:0:0:
431,64,182577,2,0,L|467:57,2,28.7999991210938,2|0|0,0:0|0:0|0:0,0:0:0:0:
231,182,182749,6,0,L|185:175,1,28.7999991210938,8|0,0:0|2:0,0:0:0:0:
313,262,182920,2,0,L|428:249,1,115.199996484375,2|4,0:0|0:0,0:0:0:0:
312,363,183263,2,0,L|230:354,1,57.5999982421876
44,306,183435,6,0,L|39:222,1,57.5999982421876
137,229,183606,2,0,L|135:162,1,57.5999982421876
39,109,183777,2,0,L|110:100,1,57.5999982421876
345,106,183949,2,0,L|356:37,1,57.5999982421876,2|0,0:0|0:0,0:0:0:0:
168,53,184120,6,0,L|126:46,1,28.7999991210938,0|0,0:0|2:0,0:0:0:0:
363,198,184292,2,0,L|313:190,1,28.7999991210938,2|0,0:0|2:0,0:0:0:0:
124,303,184463,2,0,L|118:270,1,28.7999991210938,6|0,0:0|2:0,0:0:0:0:
385,340,184635,2,0,L|431:334,1,28.7999991210938,2|0,0:0|2:0,0:0:0:0:
208,360,184806,5,4,0:0:0:0:
199,303,184891,1,0,0:0:0:0:
225,253,184977,1,0,0:0:0:0:
275,227,185063,1,0,0:0:0:0:
108,210,185149,1,8,0:0:0:0:
99,153,185234,1,0,0:0:0:0:
125,103,185320,1,0,0:0:0:0:
175,77,185406,1,0,0:0:0:0:
384,72,185492,6,0,L|419:72,2,28.7999991210938,4|0|0,0:0|0:0|0:0,0:0:0:0:
285,108,185663,2,0,L|289:177,1,57.5999982421876
394,181,185835,1,8,0:0:0:0:
455,220,185920,1,0,0:0:0:0:
453,276,186006,1,0,0:0:0:0:
391,314,186092,1,0,0:0:0:0:
151,361,186177,6,0,L|146:325,1,28.7999991210938,2|0,0:0|0:0,0:0:0:0:
271,282,186349,2,0,L|269:239,1,28.7999991210938,0|0,0:0|3:0,0:0:0:0:
218,231,186435,1,0,3:0:0:0:
49,191,186520,6,0,L|42:153,1,28.7999991210938,2|0,0:0|0:0,0:0:0:0:
167,108,186692,2,0,L|176:65,1,28.7999991210938,0|0,0:0|3:0,0:0:0:0:
216,63,186777,1,0,3:0:0:0:
435,51,186863,6,0,L|471:49,1,28.7999991210938,2|0,0:0|0:0,0:0:0:0:
349,133,187035,2,0,L|311:136,1,28.7999991210938,4|0,0:0|0:0,0:0:0:0:
469,183,187206,1,8,0:0:0:0:
506,225,187291,1,0,0:0:0:0:
500,280,187377,1,4,0:0:0:0:
456,315,187463,1,4,0:0:0:0:
96,160,187549,1,4,0:2:0:0:
256,192,187635,12,0,193035,0:0:0:0:
316,324,198520,6,0,L|329:235,1,86.3999973632813,2|0,0:0|0:0,0:0:0:0:
218,249,198863,2,0,L|231:160,1,86.3999973632813,2|0,0:0|0:0,0:0:0:0:
102,310,199206,2,0,L|115:221,1,86.3999973632813,2|0,0:0|0:0,0:0:0:0:
231,221,199549,1,2,0:0:0:0:
96,224,199720,1,2,0:0:0:0:
237,233,199892,2,0,L|224:144,1,86.3999973632813,2|0,0:0|0:0,0:0:0:0:
369,296,200235,2,0,L|356:207,1,86.3999973632813,2|0,0:0|0:0,0:0:0:0:
500,190,200577,1,2,0:0:0:0:
372,190,200749,1,2,0:0:0:0:
500,190,200920,1,2,0:0:0:0:
196,324,201263,6,0,L|183:235,1,86.3999973632813,2|0,0:0|0:0,0:0:0:0:
294,249,201606,2,0,L|281:160,1,86.3999973632813,2|0,0:0|0:0,0:0:0:0:
410,310,201949,2,0,L|397:221,1,86.3999973632813,2|0,0:0|0:0,0:0:0:0:
281,221,202292,1,2,0:0:0:0:
416,224,202463,1,2,0:0:0:0:
275,233,202635,2,0,L|288:144,1,86.3999973632813,2|0,0:0|0:0,0:0:0:0:
143,296,202978,2,0,L|156:207,1,86.3999973632813,2|0,0:0|0:0,0:0:0:0:
12,190,203320,1,2,0:0:0:0:
140,190,203492,1,2,0:0:0:0:
12,190,203663,1,2,0:0:0:0:
291,309,204006,6,0,L|304:220,1,86.3999973632813,2|0,0:0|0:0,0:0:0:0:
193,234,204349,2,0,L|206:145,1,86.3999973632813,2|0,0:0|0:0,0:0:0:0:
77,295,204692,2,0,L|90:206,1,86.3999973632813,2|0,0:0|0:0,0:0:0:0:
206,206,205035,1,2,0:0:0:0:
71,209,205206,1,2,0:0:0:0:
218,303,205377,2,0,L|205:211,1,86.3999973632813,2|0,0:0|0:0,0:0:0:0:
350,298,205720,2,0,L|337:206,1,86.3999973632813,2|0,0:0|0:0,0:0:0:0:
483,214,206063,1,2,0:0:0:0:
357,214,206235,1,2,0:0:0:0:
483,214,206406,1,2,0:0:0:0:
202,349,206749,6,0,P|164:312|163:259,1,86.3999973632813,2|0,0:0|0:0,0:0:0:0:
301,249,207092,1,2,0:0:0:0:
168,249,207263,1,2,0:0:0:0:
310,349,207435,2,0,P|348:312|349:259,1,86.3999973632813,2|0,0:0|0:0,0:0:0:0:
211,249,207778,1,2,0:0:0:0:
344,249,207949,1,2,0:0:0:0:
222,332,208120,2,0,L|331:332,1,86.3999973632813,2|0,1:0|0:0,0:0:0:0:
189,252,208463,2,0,L|300:252,1,86.3999973632813,2|0,1:0|0:0,0:0:0:0:
154,178,208806,2,0,P|95:136|173:98,1,172.799994726563,2|0,0:0|0:0,0:0:0:0:
384,320,209492,6,0,P|340:290|279:290,1,86.3999973632813,2|0,0:0|0:0,0:0:0:0:
418,217,209835,2,0,P|374:187|313:187,1,86.3999973632813,2|0,0:0|0:0,0:0:0:0:
452,118,210177,2,0,P|408:88|347:88,1,86.3999973632813,2|0,0:0|0:0,0:0:0:0:
251,129,210520,1,2,0:0:0:0:
364,183,210692,1,2,0:0:0:0:
243,331,210863,2,0,P|287:301|348:301,1,86.3999973632813,2|0,0:0|0:0,0:0:0:0:
209,228,211206,2,0,P|253:198|314:198,1,86.3999973632813,2|0,0:0|0:0,0:0:0:0:
425,191,211549,1,2,0:0:0:0:
304,187,211720,1,2,0:0:0:0:
425,191,211892,1,2,0:0:0:0:
304,187,212063,1,0,0:0:0:0:
128,320,212235,6,0,P|172:290|233:290,1,86.3999973632813,2|0,0:0|0:0,0:0:0:0:
87,217,212578,2,0,P|131:187|192:187,1,86.3999973632813,2|0,0:0|0:0,0:0:0:0:
39,117,212920,2,0,P|83:87|144:87,1,86.3999973632813,2|0,0:0|0:0,0:0:0:0:
261,129,213263,1,2,0:0:0:0:
148,183,213435,1,2,0:0:0:0:
269,331,213606,2,0,P|225:301|164:301,1,86.3999973632813,2|0,0:0|0:0,0:0:0:0:
321,232,213949,2,0,P|277:202|216:202,1,86.3999973632813,2|0,0:0|0:0,0:0:0:0:
65,191,214292,1,2,0:0:0:0:
203,187,214463,1,2,0:0:0:0:
65,191,214635,1,2,0:0:0:0:
203,187,214806,1,0,0:0:0:0:
451,351,214977,5,6,0:0:0:0:
482,321,215063,1,0,0:0:0:0:
489,278,215149,1,0,0:0:0:0:
467,240,215235,1,0,0:0:0:0:
411,220,215320,1,4,0:0:0:0:
380,190,215406,1,0,0:0:0:0:
373,147,215492,1,0,0:0:0:0:
395,109,215578,1,0,0:0:0:0:
467,109,215663,6,0,L|450:41,1,43.1999986816407,6|0,0:0|0:0,0:0:0:0:
369,113,215835,2,0,L|352:45,1,43.1999986816407
271,113,216006,2,0,L|254:45,1,43.1999986816407,6|0,0:0|0:0,0:0:0:0:
172,120,216178,2,0,L|155:52,1,43.1999986816407,2|0,0:0|0:0,0:0:0:0:
233,312,216349,6,0,L|241:241,1,43.1999986816407,6|0,0:0|0:0,0:0:0:0:
145,233,216520,2,0,L|131:174,1,43.1999986816407
333,162,216692,2,0,L|341:91,1,43.1999986816407,6|0,0:0|0:0,0:0:0:0:
245,83,216863,2,0,L|231:24,1,43.1999986816407
435,350,217035,6,0,L|446:274,1,43.1999986816407,6|0,0:0|0:0,0:0:0:0:
356,242,217206,2,0,L|299:243,1,43.1999986816407,2|0,0:0|0:0,0:0:0:0:
416,138,217377,2,0,L|481:137,1,43.1999986816407,6|0,0:0|0:0,0:0:0:0:
220,64,217549,2,0,L|199:131,1,43.1999986816407
431,238,217720,6,0,L|472:237,6,21.5999993408203,2|0|0|0|0|0|0,0:0|0:0|0:0|0:0|0:0|0:0|0:0,0:0:0:0:
220,152,218063,2,0,L|191:148,6,21.5999993408203,2|0|0|0|0|0|0,0:0|0:0|0:0|0:0|0:0|0:0|0:0,0:0:0:0:
448,32,218406,6,0,L|477:28,6,21.5999993408203,2|0|0|0|0|0|0,0:0|0:0|0:0|0:0|0:0|0:0|0:0,0:0:0:0:
225,239,218749,1,2,0:0:0:0:
202,227,218792,1,0,0:0:0:0:
184,208,218835,1,0,0:0:0:0:
174,184,218877,1,0,0:0:0:0:
175,159,218920,1,0,0:0:0:0:
189,138,218963,1,0,0:0:0:0:
209,123,219006,1,0,0:0:0:0:
439,332,219092,6,0,P|479:258|329:157,1,302.399990771485,4|0,0:0|2:0,0:0:0:0:
129,209,219777,6,0,P|61:192|45:108,1,144,2|0,0:0|2:0,0:0:0:0:
383,209,220120,2,0,P|451:192|469:111,1,144,2|0,0:0|2:0,0:0:0:0:
193,327,220463,6,0,P|150:263|243:168,1,201.599993847656,4|0,0:2|0:0,0:0:0:0:
347,167,220977,2,0,L|418:177,2,50.3999984619141,0|0|2,0:0|0:0|0:0,0:0:0:0:
205,154,221320,1,0,0:0:0:0:
357,52,221492,2,0,L|345:162,1,100.799996923828,2|0,0:0|0:0,0:0:0:0:
77,305,221835,6,0,L|288:292,1,201.599993847656,2|2,0:0|0:0,0:0:0:0:
149,234,222349,1,0,0:0:0:0:
286,224,222520,2,0,P|301:146|225:103,1,151.199995385742,2|0,0:0|2:0,0:0:0:0:
49,93,222863,1,4,0:2:0:0:
174,53,223035,1,0,0:0:0:0:
438,209,223206,6,0,L|233:196,1,201.599993847656,2|0,0:0|0:0,0:0:0:0:
387,88,223720,1,0,0:0:0:0:
381,138,223805,1,0,0:0:0:0:
375,188,223892,1,2,0:0:0:0:
221,195,224063,1,0,0:0:0:0:
361,274,224235,2,0,L|472:289,1,100.799996923828,2|0,0:0|0:0,0:0:0:0:
163,363,224577,6,0,L|152:262,1,100.799996923828,10|0,0:0|0:0,0:0:0:0:
286,217,224920,2,0,L|274:99,1,100.799996923828,10|0,0:0|0:0,0:0:0:0:
140,92,225263,1,10,0:0:0:0:
444,170,225435,1,12,0:0:0:0:
140,92,225606,2,0,P|93:152|151:219,1,151.199995385742,4|0,0:2|2:0,0:0:0:0:
363,349,225949,6,0,P|411:282|325:192,1,201.599993847656,2|0,0:0|0:0,0:0:0:0:
201,193,226463,1,0,0:0:0:0:
150,197,226548,1,0,0:0:0:0:
100,202,226634,1,2,0:0:0:0:
266,121,226806,1,0,0:0:0:0:
151,303,226977,2,0,L|137:191,1,100.799996923828,2|0,0:0|0:0,0:0:0:0:
391,38,227320,6,0,L|175:52,1,201.599993847656,2|2,0:0|0:0,0:0:0:0:
311,123,227835,1,0,0:0:0:0:
182,235,228006,2,0,L|166:132,1,100.799996923828,2|0,0:0|0:0,0:0:0:0:
466,288,228349,2,0,L|343:303,1,100.799996923828,6|0,1:2|0:0,0:0:0:0:
64,351,228692,5,2,0:0:0:0:
56,252,228863,1,0,0:0:0:0:
113,171,229034,1,2,0:0:0:0:
208,145,229206,1,0,0:0:0:0:
46,105,229377,2,0,L|26:-3,1,100.799996923828,2|0,0:0|0:0,0:0:0:0:
171,42,229720,1,2,0:0:0:0:
442,40,229892,1,2,0:0:0:0:
290,133,230063,6,0,L|400:143,1,100.799996923828,2|0,0:0|0:0,0:0:0:0:
7,290,230406,2,0,L|127:299,1,100.799996923828,2|0,0:0|0:0,0:0:0:0:
358,254,230749,1,2,0:0:0:0:
207,242,230920,1,4,0:0:0:0:
449,300,231092,1,10,0:0:0:0:
499,271,231177,1,0,0:0:0:0:
507,222,231263,1,0,0:0:0:0:
470,177,231349,1,0,0:0:0:0:
207,242,231435,6,0,P|181:144|246:96,1,151.199995385742,4|0,0:0|2:0,0:0:0:0:
270,101,231777,1,4,0:0:0:0:
132,77,231949,2,0,L|61:77,2,50.3999984619141,2|0|6,0:0|0:0|0:0,0:0:0:0:
270,101,232292,1,0,0:0:0:0:
105,261,232463,2,0,L|82:146,1,100.799996923828,2|0,0:0|0:0,0:0:0:0:
421,318,232806,6,0,L|316:333,1,100.799996923828,6|0,0:0|0:0,0:0:0:0:
176,288,233149,2,0,L|164:178,1,100.799996923828,6|0,0:0|0:0,0:0:0:0:
480,122,233492,2,0,L|297:138,1,151.199995385742,6|0,0:0|2:0,0:0:0:0:
123,91,233835,2,0,L|16:104,1,100.799996923828,4|0,0:2|0:0,0:0:0:0:
272,313,234177,6,0,P|316:241|266:164,1,151.199995385742,6|0,0:0|2:0,0:0:0:0:
226,161,234520,1,6,0:0:0:0:
57,162,234692,1,2,0:0:0:0:
107,162,234777,1,0,0:0:0:0:
157,162,234863,1,6,0:0:0:0:
321,165,235035,1,0,0:0:0:0:
157,162,235206,2,0,L|135:49,1,100.799996923828,6|0,0:0|0:0,0:0:0:0:
386,93,235549,6,0,L|504:83,1,100.799996923828,10|0,0:0|0:0,0:0:0:0:
206,294,235892,2,0,L|78:287,2,100.799996923828,10|0|10,0:0|0:0|0:0,0:0:0:0:
481,310,236406,1,4,0:0:0:0:
202,292,236577,2,0,P|177:217|247:160,1,151.199995385742,4|0,0:2|2:0,0:0:0:0:
456,180,236920,6,0,P|492:110|414:50,1,151.199995385742,6|0,0:0|2:0,0:0:0:0:
391,46,237263,1,4,0:0:0:0:
237,72,237435,1,2,0:0:0:0:
244,121,237520,1,0,0:0:0:0:
252,171,237606,1,6,0:0:0:0:
387,212,237777,1,0,0:0:0:0:
253,289,237949,2,0,L|357:305,1,100.799996923828,6|0,0:0|0:0,0:0:0:0:
51,357,238292,6,0,P|19:266|108:190,1,201.599993847656,2|6,0:0|0:0,0:0:0:0:
207,183,238806,1,0,0:0:0:0:
450,255,238977,2,0,P|505:195|459:110,1,151.199995385742,6|0,0:0|2:0,0:0:0:0:
276,74,239320,2,0,L|134:75,1,100.799996923828,6|0,1:2|0:0,0:0:0:0:
436,171,239663,6,0,L|324:171,2,100.799996923828,6|0|6,0:0|0:0|0:0,0:0:0:0:
144,117,240177,1,0,0:0:0:0:
399,321,240349,1,6,0:0:0:0:
436,272,240434,1,0,0:0:0:0:
426,223,240520,1,0,0:0:0:0:
374,194,240606,1,0,0:0:0:0:
110,260,240692,2,0,P|86:188|163:127,1,151.199995385742,6|0,0:0|2:0,0:0:0:0:
332,60,241035,6,0,B|437:71|437:71|426:184|426:184|295:177|295:177|300:270,1,403.199987695313,4|4,0:0|0:0,0:0:0:0:
438,269,241892,1,0,0:0:0:0:
294,333,242063,2,0,L|234:332,1,50.3999984619141,2|0,0:2|0:0,0:0:0:0:
294,333,242235,2,0,L|372:335,1,50.3999984619141
79,354,242406,6,0,P|41:274|128:176,1,201.599993847656
285,154,243092,2,0,L|80:129,1,201.599993847656
253,254,243777,2,0,L|468:238,1,201.599993847656
266,357,244463,2,0,L|470:341,1,201.599993847656
47,312,245149,6,0,L|28:102,1,201.599993847656
466,43,245835,2,0,L|238:56,1,201.599993847656
386,116,246349,1,0,0:0:0:0:
195,317,246520,5,0,0:0:0:0:
172,272,246605,1,0,0:0:0:0:
178,223,246691,1,0,0:0:0:0:
210,185,246777,1,0,0:0:0:0:
258,171,246862,1,0,0:0:0:0:
309,173,246949,2,0,L|397:185,2,50.3999984619141
108,162,247206,5,0,0:0:0:0:
65,124,247291,1,0,0:0:0:0:
65,74,247377,1,0,0:0:0:0:
108,37,247463,1,0,0:0:0:0:
296,84,247549,2,0,L|461:76,1,151.199995385742,4|0,0:2|2:0,0:0:0:0:
193,329,247892,6,0,P|159:277|198:222,1,100.799996923828,2|0,0:2|0:0,0:0:0:0:
247,212,248149,1,0,0:0:0:0:
163,188,248235,2,0,P|129:136|168:81,1,100.799996923828,2|0,0:2|0:0,0:0:0:0:
214,71,248492,1,0,0:0:0:0:
293,132,248577,6,0,L|305:62,1,50.3999984619141,2|0,0:2|0:0,0:0:0:0:
217,77,248749,2,0,L|230:12,1,50.3999984619141
312,92,248920,2,0,L|450:93,1,100.799996923828,2|0,0:2|0:0,0:0:0:0:
336,91,249177,1,0,0:0:0:0:
258,212,249263,6,0,P|231:168|251:110,1,100.799996923828,2|0,0:2|0:0,0:0:0:0:
332,65,249520,2,0,L|208:55,1,100.799996923828
321,158,249777,2,0,L|335:88,1,50.3999984619141,2|0,0:2|0:0,0:0:0:0:
233,283,249949,6,0,L|169:284,1,50.3999984619141,2|0,0:2|0:0,0:0:0:0:
91,233,250120,2,0,L|76:155,1,50.3999984619141
182,128,250292,2,0,L|263:125,1,50.3999984619141,2|0,0:2|0:0,0:0:0:0:
144,37,250463,2,0,L|58:37,1,50.3999984619141
329,332,250635,6,0,P|377:322|431:274,1,100.799996923828,2|0,0:2|0:0,0:0:0:0:
343,243,250892,1,0,0:0:0:0:
426,222,250977,2,0,L|441:114,1,100.799996923828,2|0,0:2|0:0,0:0:0:0:
360,99,251235,1,0,0:0:0:0:
282,175,251320,6,0,L|266:53,1,100.799996923828,2|0,0:2|0:0,0:0:0:0:
353,73,251577,1,0,0:0:0:0:
271,259,251663,1,2,0:2:0:0:
233,224,251749,1,0,0:0:0:0:
223,174,251835,1,0,0:0:0:0:
258,138,251920,1,0,0:0:0:0:
355,138,252006,6,0,L|361:61,1,50.3999984619141,2|0,0:2|0:0,0:0:0:0:
257,69,252177,2,0,L|250:7,1,50.3999984619141
351,27,252349,2,0,L|406:27,1,50.3999984619141,2|0,0:2|0:0,0:0:0:0:
461,91,252520,2,0,L|471:167,1,50.3999984619141,2|0,0:2|0:0,0:0:0:0:
360,219,252692,6,0,L|284:220,1,50.3999984619141,2|0,0:2|0:0,0:0:0:0:
216,325,252863,2,0,L|288:323,1,50.3999984619141
351,367,253035,2,0,L|363:289,1,50.3999984619141,2|0,0:2|0:0,0:0:0:0:
270,258,253206,2,0,L|258:182,1,50.3999984619141
479,254,253377,6,0,L|402:243,1,52.8000016113282,4|0,0:2|0:0,0:0:0:0:
255,323,253549,2,0,L|243:250,1,52.8000016113282
453,313,253720,2,0,L|382:281,1,52.8000016113282,12|0,0:0|0:0,0:0:0:0:
208,318,253892,2,0,L|217:245,1,52.8000016113282
429,345,254063,2,0,L|364:301,1,52.8000016113282,12|0,0:0|0:0,0:0:0:0:
165,314,254235,2,0,L|186:243,1,52.8000016113282
399,372,254406,2,0,L|343:318,1,52.8000016113282,12|0,0:0|0:0,0:0:0:0:
118,311,254578,2,0,L|151:245,1,52.8000016113282,4|0,0:0|0:0,0:0:0:0:
366,394,254749,6,0,L|320:331,1,52.8000016113282,4|0,0:2|0:0,0:0:0:0:
65,304,254921,2,0,L|109:245,1,52.8000016113282
329,411,255092,2,0,L|295:340,1,52.8000016113282,8|0,0:0|0:0,0:0:0:0:
49,248,255264,2,0,L|103:197,1,52.8000016113282
290,420,255435,2,0,L|268:344,1,52.8000016113282,8|0,0:0|0:0,0:0:0:0:
30,205,255607,2,0,L|92:164,1,52.8000016113282,4|0,0:0|0:0,0:0:0:0:
249,422,255777,2,0,L|329:402,1,52.8000016113282,8|0,0:0|0:0,0:0:0:0:
76,119,255949,2,0,L|13:130,1,52.8000016113282,4|0,0:0|0:0,0:0:0:0:
323,271,256120,5,0,0:0:0:0:
351,264,256163,1,0,0:0:0:0:
374,246,256206,1,0,0:0:0:0:
389,221,256249,1,0,0:0:0:0:
394,192,256292,1,0,0:0:0:0:
384,164,256335,1,0,0:0:0:0:
362,145,256377,1,0,0:0:0:0:
335,131,256420,1,0,0:0:0:0:
189,271,256463,5,0,0:0:0:0:
161,264,256506,1,0,0:0:0:0:
138,246,256549,1,0,0:0:0:0:
123,221,256592,1,0,0:0:0:0:
118,192,256635,1,0,0:0:0:0:
128,164,256678,1,0,0:0:0:0:
150,145,256720,1,0,0:0:0:0:
177,131,256763,1,0,0:0:0:0:
358,176,256806,5,0,0:0:0:0:
384,164,256849,1,0,0:0:0:0:
404,142,256892,1,0,0:0:0:0:
414,115,256935,1,0,0:0:0:0:
413,85,256978,1,0,0:0:0:0:
398,60,257021,1,0,0:0:0:0:
372,45,257063,1,0,0:0:0:0:
343,36,257106,1,0,0:0:0:0:
154,176,257149,5,0,0:0:0:0:
128,164,257192,1,0,0:0:0:0:
108,142,257235,1,0,0:0:0:0:
98,115,257278,1,0,0:0:0:0:
99,85,257321,1,0,0:0:0:0:
114,60,257364,1,0,0:0:0:0:
140,45,257406,1,0,0:0:0:0:
169,36,257449,1,0,0:0:0:0:
396,301,257492,6,0,L|411:189,1,105.600003222656,2|0,1:2|1:2,2:2:0:0:
257,296,257835,6,0,L|272:184,1,105.600003222656,2|0,1:2|1:0,2:0:0:0:
122,295,258177,6,0,L|137:183,1,105.600003222656,2|4,1:2|1:0,2:0:0:0:
395,194,258520,5,4,1:2:0:0:
88,337,258863,6,0,L|3:327,1,62.3999971435548,6|0,0:2|0:0,0:0:0:0:
242,294,259035,2,0,P|274:248|244:177,1,124.79999428711,2|8,0:0|0:0,0:0:0:0:
183,168,259292,1,0,0:0:0:0:
96,192,259377,2,0,L|86:112,1,62.3999971435548,2|0,0:0|0:0,0:0:0:0:
310,337,259549,6,0,L|463:328,1,124.79999428711,6|0,0:0|0:0,0:0:0:0:
354,245,259806,2,0,L|210:233,1,124.79999428711,2|0,0:0|0:0,0:0:0:0:
319,161,260063,2,0,L|407:153,1,62.3999971435548,2|0,0:0|0:0,0:0:0:0:
166,345,260235,6,0,P|129:292|155:227,1,124.79999428711,6|0,0:0|0:0,0:0:0:0:
304,282,260492,2,0,P|341:229|315:164,1,124.79999428711,2|0,0:0|0:0,0:0:0:0:
165,136,260749,2,0,L|68:135,1,62.3999971435548,2|0,0:0|0:0,0:0:0:0:
309,336,260920,6,0,L|436:328,1,124.79999428711,6|0,0:0|0:0,0:0:0:0:
371,249,261177,1,0,0:0:0:0:
271,227,261263,2,0,L|260:151,1,62.3999971435548,10|0,0:0|0:0,0:0:0:0:
367,109,261435,2,0,L|378:33,1,62.3999971435548
146,301,261606,6,0,L|72:291,1,62.3999971435548,6|0,0:0|0:0,0:0:0:0:
263,309,261777,2,0,P|301:255|262:172,1,124.79999428711,2|8,0:0|0:0,0:0:0:0:
211,182,262035,1,0,0:0:0:0:
118,208,262120,2,0,L|102:129,1,62.3999971435548,2|0,0:0|0:0,0:0:0:0:
307,313,262292,6,0,L|462:291,1,124.79999428711,6|0,0:0|0:0,0:0:0:0:
338,217,262549,2,0,L|206:203,1,124.79999428711,2|0,0:0|0:0,0:0:0:0:
295,115,262806,2,0,L|307:43,1,62.3999971435548,2|0,0:0|0:0,0:0:0:0:
156,311,262977,6,0,L|11:306,1,124.79999428711,6|0,0:0|0:0,0:0:0:0:
128,224,263235,2,0,L|284:229,1,124.79999428711,2|0,0:0|0:0,0:0:0:0:
193,145,263492,2,0,L|96:160,1,62.3999971435548,2|0,0:0|0:0,0:0:0:0:
385,234,263663,5,4,0:0:0:0:
456,180,263749,2,0,P|437:118|364:85,1,124.79999428711,2|0,0:0|0:0,0:0:0:0:
278,276,264006,2,0,L|341:269,1,62.3999971435548,10|0,0:0|0:0,0:0:0:0:
423,184,264177,2,0,L|508:177,1,62.3999971435548
255,333,264349,6,0,L|186:320,1,62.3999971435548,4|0,0:0|0:0,0:0:0:0:
356,300,264520,2,0,P|376:237|330:178,1,124.79999428711,2|8,0:0|0:0,0:0:0:0:
257,164,264777,1,0,0:0:0:0:
344,122,264863,2,0,L|389:116,2,31.1999985717774,0|0|0,1:0|1:0|1:0,1:0:0:0:
176,244,265035,6,0,L|45:228,1,124.79999428711,6|0,0:0|0:0,0:0:0:0:
141,142,265292,2,0,L|-11:124,1,124.79999428711,2|0,0:0|0:0,0:0:0:0:
224,181,265549,2,0,L|298:164,1,62.3999971435548,2|0,0:0|0:0,0:0:0:0:
454,240,265720,6,0,P|479:176|434:115,1,124.79999428711,6|0,0:0|0:0,0:0:0:0:
352,119,265977,2,0,L|491:84,1,124.79999428711,2|0,0:0|0:0,0:0:0:0:
279,150,266235,2,0,L|202:138,1,62.3999971435548,2|0,0:0|0:0,0:0:0:0:
369,346,266406,6,0,P|406:285|365:215,1,124.79999428711,6|0,0:0|0:0,0:0:0:0:
303,236,266663,1,0,0:0:0:0:
208,239,266749,2,0,L|199:175,1,62.3999971435548,10|0,0:0|0:0,0:0:0:0:
367,122,266920,2,0,L|381:43,1,62.3999971435548
106,348,267092,6,0,L|257:339,1,124.79999428711,6|0,0:0|0:0,0:0:0:0:
494,231,267349,2,0,L|345:220,1,124.79999428711,2|0,0:0|0:0,0:0:0:0:
196,173,267606,2,0,L|175:87,1,62.3999971435548,2|0,0:0|0:0,0:0:0:0:
276,91,267777,6,0,L|426:116,1,124.79999428711,4|0,0:0|0:0,0:0:0:0:
312,145,268035,1,0,0:0:0:0:
218,201,268120,2,0,L|188:89,1,62.3999971435548,10|0,0:0|0:0,0:0:0:0:
388,206,268292,2,0,L|418:94,1,62.3999971435548
186,325,268463,6,0,L|60:305,1,124.79999428711,6|0,0:0|0:0,0:0:0:0:
318,324,268720,2,0,L|462:309,1,124.79999428711,2|0,0:0|0:0,0:0:0:0:
349,238,268977,2,0,L|343:165,1,62.3999971435548,2|0,0:0|0:0,0:0:0:0:
440,161,269149,6,2,L|452:90,1,62.3999971435548,6|2,0:0|0:0,0:0:0:0:
362,56,269320,2,0,L|266:42,1,62.3999971435548
189,337,269492,2,0,L|171:251,1,62.3999971435548,10|0,0:0|0:0,0:0:0:0:
372,179,269663,2,0,L|384:111,1,62.3999971435548,4|0,0:0|0:0,0:0:0:0:
127,200,269835,6,2,L|29:195,1,62.3999971435548,4|2,0:2|0:0,0:0:0:0:
267,298,270006,2,0,P|299:238|259:171,1,124.79999428711,2|8,0:0|0:0,0:0:0:0:
199,166,270263,1,0,0:0:0:0:
110,199,270349,2,0,L|99:131,1,62.3999971435548,2|0,0:0|0:0,0:0:0:0:
292,340,270520,6,0,P|356:337|417:269,1,124.79999428711,6|0,0:0|0:0,0:0:0:0:
306,257,270777,2,0,P|273:195|319:139,1,124.79999428711,2|0,0:0|0:0,0:0:0:0:
465,165,271035,2,0,L|479:98,1,62.3999971435548,2|0,0:0|0:0,0:0:0:0:
270,109,271206,6,0,L|136:98,1,124.79999428711,6|0,0:0|0:0,0:0:0:0:
237,216,271463,2,0,L|381:200,1,124.79999428711,2|0,0:0|0:0,0:0:0:0:
269,297,271720,2,0,L|255:357,1,62.3999971435548,2|0,0:0|0:0,0:0:0:0:
454,327,271892,6,0,P|468:263|393:192,1,124.79999428711,6|0,0:0|0:0,0:0:0:0:
353,192,272149,1,0,0:0:0:0:
179,249,272235,2,0,L|106:247,1,62.3999971435548,10|0,0:0|0:0,0:0:0:0:
304,75,272406,2,0,L|386:79,1,62.3999971435548
176,334,272577,6,0,L|165:254,1,62.3999971435548,6|0,0:0|0:0,0:0:0:0:
338,278,272749,2,0,P|374:228|336:153,1,124.79999428711,2|8,0:0|0:0,0:0:0:0:
280,152,273006,1,0,0:0:0:0:
187,152,273092,2,0,L|166:81,1,62.3999971435548,2|0,0:0|0:0,0:0:0:0:
369,333,273263,6,0,L|503:321,1,124.79999428711,6|0,0:0|0:0,0:0:0:0:
315,246,273520,2,0,L|341:98,1,124.79999428711,2|0,0:0|0:0,0:0:0:0:
426,163,273777,2,0,L|507:161,1,62.3999971435548,2|0,0:0|0:0,0:0:0:0:
106,345,273949,6,0,L|20:327,2,62.3999971435548
270,259,274206,2,0,L|347:240,2,62.3999971435548,0|8|0,0:0|0:0|0:0,0:0:0:0:
432,114,274463,2,0,L|454:22,1,62.3999971435548,2|0,0:0|0:0,0:0:0:0:
169,143,274635,5,4,0:0:0:0:
93,188,274720,2,0,P|56:131|110:64,1,124.79999428711,2|0,0:0|0:0,0:0:0:0:
270,258,274977,2,0,L|364:256,1,62.3999971435548,10|0,0:0|0:0,0:0:0:0:
420,181,275149,2,0,L|319:185,1,62.3999971435548
71,343,275320,6,0,P|21:292|64:233,1,124.79999428711,4|0,0:2|0:0,0:0:0:0:
293,249,275663,2,0,L|284:174,1,62.3999971435548,10|0,0:0|0:0,0:0:0:0:
200,154,275835,1,0,0:0:0:0:
441,343,276006,6,0,P|491:292|448:233,1,124.79999428711,10|4,0:0|0:0,0:0:0:0:
214,240,276349,1,10,0:0:0:0:
455,233,276520,1,4,0:0:0:0:
120,330,276692,6,0,P|49:303|-25:287,1,124.79999428711,4|0,0:2|0:0,0:0:0:0:
306,215,277035,2,0,L|226:199,1,62.3999971435548,10|0,0:0|0:0,0:0:0:0:
153,228,277206,1,0,0:0:0:0:
392,330,277377,6,0,P|463:303|537:287,1,124.79999428711,10|4,0:0|0:0,0:0:0:0:
216,253,277720,1,10,0:0:0:0:
446,203,277892,1,6,0:0:0:0:
38,267,278063,6,0,P|32:178|74:157,1,124.79999428711,4|0,0:2|0:0,0:0:0:0:
316,118,278406,2,0,L|246:102,1,62.3999971435548,10|0,0:0|0:0,0:0:0:0:
168,111,278577,1,4,0:0:0:0:
474,267,278749,6,0,P|496:202|453:152,1,124.79999428711,4|0,0:2|0:0,0:0:0:0:
196,118,279092,2,0,L|266:102,1,62.3999971435548,10|0,0:0|0:0,0:0:0:0:
344,111,279263,1,4,0:0:0:0:
96,352,279435,6,0,P|57:301|86:244,1,124.79999428711,4|0,0:1|2:0,0:0:0:0:
238,207,279777,1,2,2:0:0:0:
71,204,279949,1,0,0:0:0:0:
376,72,280120,6,0,L|442:61,1,62.3999971435548,2|0,2:0|0:0,0:0:0:0:
197,69,280292,2,0,L|131:58,1,62.3999971435548,4|0,0:0|0:0,0:0:0:0:
432,311,280463,2,0,P|468:242|363:202,1,187.199991430664,4|0,0:2|2:0,0:0:0:0:
98,288,280806,6,0,P|82:195|153:158,1,129.600000494385,6|0,1:2|0:0,0:0:0:0:
258,162,281149,2,0,L|332:161,1,64.8000002471924,10|0,0:0|0:0,0:0:0:0:
258,162,281320,2,0,L|181:163,1,64.8000002471924
397,83,281492,1,6,0:0:0:0:
481,141,281577,2,0,L|495:208,2,64.8000002471924
156,243,281835,2,0,L|220:242,1,64.8000002471924,10|0,0:0|0:0,0:0:0:0:
390,302,282006,2,0,L|480:302,1,64.8000002471924
233,343,282177,6,0,L|72:343,1,129.600000494385,4|0,0:0|0:0,0:0:0:0:
279,292,282520,2,0,L|324:239,1,64.8000002471924,10|0,0:0|0:0,0:0:0:0:
410,220,282692,2,0,L|415:137,1,64.8000002471924
210,153,282863,2,0,L|139:152,1,64.8000002471924,6|0,0:0|0:0,0:0:0:0:
264,126,283035,2,0,L|271:43,1,64.8000002471924
64,120,283206,1,10,0:0:0:0:
33,175,283292,1,0,0:0:0:0:
51,236,283377,1,4,0:0:0:0:
106,266,283463,1,0,0:0:0:0:
331,311,283549,6,0,L|198:321,2,129.600000494385,4|0|10,0:2|0:0|0:0,0:0:0:0:
205,238,284063,2,0,L|194:182,2,32.4000001235962
353,197,284235,2,0,L|434:184,1,64.8000002471924,6|0,0:0|0:0,0:0:0:0:
187,117,284406,2,0,L|182:35,1,64.8000002471924
371,90,284577,2,0,L|300:96,1,64.8000002471924,10|0,0:0|0:0,0:0:0:0:
81,151,284749,2,0,L|90:233,1,64.8000002471924
360,287,284920,5,4,0:0:0:0:
230,294,285091,1,0,0:0:0:0:
101,301,285262,1,10,0:0:0:0:
244,364,285435,1,0,0:0:0:0:
246,331,285477,1,0,0:0:0:0:
249,299,285520,1,0,0:0:0:0:
75,208,285606,2,0,L|68:103,1,64.8000002471924,6|0,0:0|0:0,0:0:0:0:
285,114,285777,2,0,L|285:28,1,64.8000002471924
111,41,285949,2,0,L|30:47,1,64.8000002471924,10|0,0:0|0:0,0:0:0:0:
300,207,286120,2,0,L|376:201,1,64.8000002471924
160,285,286292,6,0,L|5:290,2,129.600000494385,4|0|8,0:2|0:0|0:0,0:0:0:0:
449,356,286806,2,0,L|464:305,1,32.4000001235962,2|0,0:0|2:0,0:0:0:0:
206,220,286977,2,0,L|346:210,1,129.600000494385,4|2,0:0|0:0,0:0:0:0:
368,209,287192,1,0,2:0:0:0:
241,141,287320,2,0,L|229:93,1,32.4000001235962,10|0,0:0|2:0,0:0:0:0:
356,87,287492,2,0,L|443:76,1,64.8000002471924
189,66,287663,6,0,L|49:53,1,129.600000494385,4|0,0:0|0:0,0:0:0:0:
215,25,288006,1,8,0:0:0:0:
99,125,288177,2,0,L|107:172,1,32.4000001235962,2|0,0:0|2:0,0:0:0:0:
229,181,288349,1,4,0:0:0:0:
467,235,288520,2,0,L|458:271,1,32.4000001235962,2|0,0:0|2:0,0:0:0:0:
320,295,288692,2,0,L|306:330,1,32.4000001235962,10|0,0:0|2:0,0:0:0:0:
185,332,288863,2,0,L|161:353,1,32.4000001235962,2|0,0:0|2:0,0:0:0:0:
461,342,289035,6,0,L|323:324,2,129.600000494385,4|0|8,0:2|0:0|0:0,0:0:0:0:
127,349,289549,1,0,0:0:0:0:
413,264,289720,2,0,L|396:123,1,129.600000494385,6|0,0:0|0:0,0:0:0:0:
143,177,290063,2,0,L|71:177,1,64.8000002471924,8|0,0:0|0:0,0:0:0:0:
341,105,290235,2,0,L|420:105,1,64.8000002471924
83,62,290406,5,6,0:0:0:0:
233,94,290577,1,0,0:0:0:0:
85,160,290749,1,6,0:0:0:0:
236,195,290920,1,0,0:0:0:0:
489,254,291092,1,10,0:0:0:0:
253,283,291263,1,4,0:0:0:0:
19,339,291435,2,0,L|171:333,1,129.600000494385,4|0,0:2|2:0,0:0:0:0:
454,356,291777,6,0,L|460:282,1,64.8000002471924,4|0,0:2|0:0,0:0:0:0:
385,252,291949,2,0,L|303:221,1,64.8000002471924
105,306,292120,1,10,0:0:0:0:
62,254,292205,1,0,0:0:0:0:
71,191,292291,1,0,0:0:0:0:
128,154,292377,1,0,0:0:0:0:
312,172,292463,6,0,L|319:92,1,64.8000002471924,6|0,0:0|0:0,0:0:0:0:
245,44,292635,2,0,L|319:32,1,64.8000002471924
489,119,292806,2,0,L|407:108,1,64.8000002471924,10|0,0:0|0:0,0:0:0:0:
337,157,292977,2,0,L|250:149,1,64.8000002471924
75,283,293149,6,0,L|72:170,1,64.8000002471924,4|0,0:0|0:0,0:0:0:0:
167,237,293320,2,0,L|241:231,1,64.8000002471924
49,126,293492,2,0,L|156:130,1,64.8000002471924,10|0,0:0|0:0,0:0:0:0:
178,130,293663,2,0,L|99:127,1,64.8000002471924
312,222,293835,5,6,0:0:0:0:
342,166,293920,1,0,0:0:0:0:
326,105,294006,1,0,0:0:0:0:
271,73,294092,1,0,0:0:0:0:
90,65,294177,2,0,L|7:65,1,64.8000002471924,10|0,0:0|0:0,0:0:0:0:
90,65,294349,2,0,L|194:62,1,64.8000002471924,4|0,0:0|0:0,0:0:0:0:
383,137,294520,6,0,L|375:208,1,64.8000002471924,4|0,0:2|0:0,0:0:0:0:
282,213,294692,2,0,L|274:300,1,64.8000002471924
473,346,294863,2,0,L|392:353,1,64.8000002471924,10|0,0:0|0:0,0:0:0:0:
119,329,295035,1,2,0:0:0:0:
113,297,295077,1,0,0:0:0:0:
108,265,295120,1,0,0:0:0:0:
324,270,295206,6,0,L|420:254,1,64.8000002471924,6|0,0:0|0:0,0:0:0:0:
144,170,295377,2,0,L|226:152,1,64.8000002471924
421,161,295549,2,0,L|423:52,1,64.8000002471924,10|0,0:0|0:0,0:0:0:0:
181,82,295720,2,0,L|96:68,1,64.8000002471924
331,147,295892,6,0,L|340:62,1,64.8000002471924,6|0,0:0|0:0,0:0:0:0:
248,108,296063,2,0,L|161:101,1,64.8000002471924
258,190,296235,2,0,L|329:194,1,64.8000002471924,8|0,0:0|0:0,0:0:0:0:
89,323,296406,1,0,0:0:0:0:
85,290,296448,1,0,0:0:0:0:
81,258,296491,1,0,0:0:0:0:
320,275,296577,6,0,L|432:265,1,64.8000002471924,6|0,0:0|0:0,0:0:0:0:
173,200,296749,2,0,L|165:118,1,64.8000002471924
419,127,296920,2,0,L|347:127,1,64.8000002471924,10|0,0:0|0:0,0:0:0:0:
110,68,297092,2,0,L|37:67,1,64.8000002471924,4|0,0:0|0:0,0:0:0:0:
288,125,297263,6,0,L|352:125,1,64.8000002471924,4|0,0:2|0:0,0:0:0:0:
419,127,297435,2,0,L|332:128,1,64.8000002471924
163,317,297606,2,0,L|97:317,1,64.8000002471924,8|0,0:0|0:0,0:0:0:0:
319,351,297777,2,0,L|357:351,2,32.4000001235962,6|0|0,0:0|0:0|0:0,0:0:0:0:
91,241,297949,6,0,L|108:162,1,64.8000002471924,4|0,0:0|0:0,0:0:0:0:
329,120,298120,1,2,0:0:0:0:
296,114,298162,1,0,0:0:0:0:
264,109,298205,1,0,0:0:0:0:
91,241,298292,2,0,L|79:155,1,64.8000002471924,8|0,0:0|0:0,0:0:0:0:
387,269,298463,2,0,L|472:264,1,64.8000002471924,4|0,0:0|0:0,0:0:0:0:
201,362,298635,6,0,L|199:288,1,64.8000002471924,4|0,0:2|0:0,0:0:0:0:
289,303,298806,2,0,L|370:297,1,64.8000002471924
116,245,298977,2,0,L|113:175,1,64.8000002471924,8|0,0:0|0:0,0:0:0:0:
342,174,299149,1,2,0:0:0:0:
374,171,299191,1,0,0:0:0:0:
406,168,299234,1,0,0:0:0:0:
175,149,299320,5,4,0:0:0:0:
165,118,299362,1,0,0:0:0:0:
165,85,299405,1,0,0:0:0:0:
334,265,299492,1,2,0:0:0:0:
343,234,299534,1,0,0:0:0:0:
343,201,299577,1,0,0:0:0:0:
141,315,299663,1,10,0:0:0:0:
108,315,299705,1,0,0:0:0:0:
76,315,299748,1,0,0:0:0:0:
347,353,299835,1,2,0:0:0:0:
379,353,299877,1,0,0:0:0:0:
411,354,299920,1,0,0:0:0:0:
155,354,300006,5,4,0:2:0:0:
144,327,300048,1,0,0:0:0:0:
140,295,300091,1,0,0:0:0:0:
145,263,300134,1,0,0:0:0:0:
158,233,300177,1,0,0:0:0:0:
179,208,300220,1,0,0:0:0:0:
205,190,300263,1,0,0:0:0:0:
236,179,300306,1,0,0:0:0:0:
426,237,300349,5,0,0:0:0:0:
449,214,300391,1,0,0:0:0:0:
463,185,300434,1,0,0:0:0:0:
466,153,300477,1,0,0:0:0:0:
459,122,300520,1,0,0:0:0:0:
441,95,300563,1,0,0:0:0:0:
416,75,300606,1,0,0:0:0:0:
385,66,300649,1,0,0:0:0:0:
193,143,300692,5,0,0:0:0:0:
161,143,300734,1,0,0:0:0:0:
129,143,300777,1,0,0:0:0:0:
111,170,300821,1,0,0:0:0:0:
319,143,300863,5,0,0:0:0:0:
351,143,300905,1,0,0:0:0:0:
383,143,300948,1,0,0:0:0:0:
401,170,300992,1,0,0:0:0:0:
198,60,301035,5,0,0:0:0:0:
165,60,301077,1,0,0:0:0:0:
133,60,301120,1,0,0:0:0:0:
115,87,301163,1,0,0:0:0:0:
316,59,301206,5,0,0:0:0:0:
348,59,301248,1,0,0:0:0:0:
380,59,301291,1,0,0:0:0:0:
392,87,301335,1,0,0:0:0:0:
96,224,301377,5,0,0:0:0:0:
256,224,301720,1,0,0:0:0:0:
416,224,302063,1,0,0:0:0:0:
288,352,302235,2,0,L|224:320,1,64.8000002471924,4|0,0:0|0:0,0:0:0:0:
44,208,302406,2,0,L|270:193,1,194.400000741577,4|0,0:2|2:0,0:0:0:0:
434,288,302749,6,0,P|477:215|388:126,1,192,4|0,0:2|0:0,0:0:0:0:
272,113,303263,2,0,L|202:120,2,48,0|0|2,0:0|0:0|0:2,0:0:0:0:
416,104,303606,1,0,0:0:0:0:
270,117,303777,2,0,L|152:112,1,96,2|0,0:2|0:0,0:0:0:0:
335,267,304120,6,0,P|378:197|295:112,1,192,2|2,0:2|0:2,0:0:0:0:
178,118,304635,1,0,0:0:0:0:
330,150,304806,2,0,L|228:136,1,96,2|0,0:2|0:0,0:0:0:0:
384,283,305149,2,0,L|496:283,1,96,2|0,0:2|0:0,0:0:0:0:
173,373,305492,6,0,L|159:251,1,96,4|0,0:2|0:0,0:0:0:0:
307,250,305835,2,0,L|328:132,1,96,2|4,0:2|0:0,0:0:0:0:
39,129,306177,2,0,L|206:119,1,144,4|0,0:2|2:0,0:0:0:0:
402,232,306520,2,0,L|259:239,1,144,4|0,0:2|2:0,0:0:0:0:
27,289,306863,5,4,0:2:0:0:
256,192,307035,12,0,312349,0:0:0:0:
