osu file format v14

[General]
AudioFilename: audio.mp3
AudioLeadIn: 0
PreviewTime: 257435
Countdown: 0
SampleSet: Normal
StackLeniency: 0.3
Mode: 1
LetterboxInBreaks: 0
WidescreenStoryboard: 0

[Editor]
Bookmarks: 1035,39435,61377,94292,116235,138177,165606,187549,220463,258863,312349
DistanceSpacing: 1.2
BeatDivisor: 4
GridSize: 32
TimelineZoom: 1.7

[Metadata]
Title:Cycle Hit
TitleUnicode:サイクルヒット
Artist:KASAI HARCORES
ArtistUnicode:葛西ハーコーズ
Creator:Midnaait
Version:Strike
Source:
Tags:DJ Genki Genkianamei かめりあ Kamelcamellia Cametek Camellia C-Show EP2 Episode of pro Allstars Baseball 葛西西高校 Nishi High School M3-39 Marathon
BeatmapID:1419340
BeatmapSetID:671254

[Difficulty]
HPDrainRate:4.5
CircleSize:3.8
OverallDifficulty:7
ApproachRate:8
SliderMultiplier:1.4
SliderTickRate:1

[Events]
//Background and Video events
0,0,"bg.jpg",0,0
//Break Periods
2,116435,120970
2,193235,197770
//Storyboard Layer 0 (Background)
//Storyboard Layer 1 (Fail)
//Storyboard Layer 2 (Pass)
//Storyboard Layer 3 (Foreground)
//Storyboard Sound Samples

[TimingPoints]
1035,342.857142857143,4,1,0,100,1,0
21692,-100,4,1,0,30,0,0
22720,-100,4,1,0,100,0,0
29835,-99.009900990099,4,1,0,100,0,0
31206,-98.0392156862745,4,1,0,100,0,0
32577,-97.0873786407767,4,1,0,100,0,0
33949,-96.1538461538461,4,1,0,100,0,0
35320,-95.2380952380952,4,1,0,100,0,0
36692,-94.3396226415094,4,1,0,100,0,0
38406,-93.4579439252336,4,1,0,100,0,0
38749,-92.5925925925926,4,1,0,100,0,0
39092,-91.743119266055,4,1,0,100,0,0
39435,-90.9090909090909,4,1,0,100,0,1
50406,-90.9090909090909,4,1,0,100,0,0
51777,-90.9090909090909,4,1,0,100,0,1
61377,-90.9090909090909,4,1,0,100,0,0
61892,-91.743119266055,4,1,0,100,0,0
62063,-92.5925925925926,4,1,0,100,0,0
62577,-94.3396226415094,4,1,0,100,0,0
62749,-95.2380952380952,4,1,0,100,0,0
62920,-96.1538461538461,4,1,0,100,0,0
63092,-97.0873786407767,4,1,0,100,0,0
63263,-98.0392156862745,4,1,0,100,0,0
63435,-99.009900990099,4,1,0,100,0,0
63949,-100,4,1,0,100,0,0
84692,-99.009900990099,4,1,0,100,0,0
86063,-98.0392156862745,4,1,0,100,0,0
87435,-97.0873786407767,4,1,0,100,0,0
88806,-96.1538461538461,4,1,0,100,0,0
90177,-95.2380952380952,4,1,0,100,0,0
91549,-94.3396226415094,4,1,0,100,0,0
93263,-92.5925925925926,4,1,0,100,0,0
94292,-90.9090909090909,4,1,0,100,0,1
103892,-90.9090909090909,4,1,0,100,0,0
105263,-89.2857142857143,4,1,0,100,0,1
114906,-89.2857142857143,4,1,0,30,0,0
116149,-89.2857142857143,4,1,0,100,0,0
116235,-89.2857142857143,4,1,0,100,0,0
121720,-100,4,1,0,100,0,0
147863,-100,4,1,0,30,0,0
148891,-100,4,1,0,100,0,0
156006,-99.009900990099,4,1,0,100,0,0
157463,-98.0392156862745,4,1,0,100,0,0
158749,-97.0873786407767,4,1,0,100,0,0
160120,-96.1538461538461,4,1,0,100,0,0
161492,-95.2380952380952,4,1,0,100,0,0
162863,-94.3396226415094,4,1,0,100,0,0
164577,-93.4579439252336,4,1,0,100,0,0
164920,-91.743119266055,4,1,0,100,0,0
165263,-90.0900900900901,4,1,0,100,0,0
165435,-88.4955752212389,4,1,0,100,0,0
165606,-86.9565217391304,4,1,0,100,0,1
175206,-86.9565217391304,4,1,0,100,0,0
175377,-87.719298245614,4,1,0,100,0,0
175549,-88.4955752212389,4,1,0,100,0,0
175720,-89.2857142857143,4,1,0,100,0,0
175892,-90.0900900900901,4,1,0,100,0,0
176235,-90.9090909090909,4,1,0,100,0,0
176577,-86.9565217391304,4,1,0,100,0,1
187549,-86.9565217391304,4,1,0,100,0,0
187635,-86.9565217391304,4,1,0,30,0,0
198435,-100,4,1,0,100,0,0
241120,-100,4,1,0,30,0,0
242148,-100,4,1,0,100,0,0
249349,-99.009900990099,4,1,0,100,0,0
250892,-98.0392156862745,4,1,0,100,0,0
252092,-97.0873786407767,4,1,0,100,0,0
253377,-96.1538461538461,4,1,0,100,0,0
254749,-95.2380952380952,4,1,0,100,0,0
256120,-94.3396226415094,4,1,0,100,0,0
257835,-93.4579439252336,4,1,0,100,0,0
258177,-92.5925925925926,4,1,0,100,0,0
258520,-91.743119266055,4,1,0,100,0,0
258863,-90.9090909090909,4,1,0,100,0,1
279435,-90.9090909090909,4,1,0,100,0,0
279606,-91.743119266055,4,1,0,100,0,0
279777,-92.5925925925926,4,1,0,100,0,0
279949,-93.4579439252336,4,1,0,100,0,0
280120,-94.3396226415094,4,1,0,100,0,0
280463,-95.2380952380952,4,1,0,100,0,0
280806,-90.9090909090909,4,1,0,100,0,1
297263,-90.0900900900901,4,1,0,100,0,1
297949,-89.2857142857143,4,1,0,100,0,1
298635,-88.4955752212389,4,1,0,100,0,1
299320,-87.719298245614,4,1,0,100,0,1
300006,-86.9565217391304,4,1,0,100,0,1
300692,-86.2068965517241,4,1,0,100,0,1
302749,-100,4,1,0,100,0,0
306949,-100,4,1,0,30,0,0

[Colours]
Combo1 : 122,122,122
Combo2 : 225,43,43
Combo3 : 157,157,157
Combo4 : 151,0,0
SliderTrackOverride : 120,120,120
SliderBorder : 230,230,230

[HitObjects]
160,128,1035,5,12,0:0:0:0:
160,128,1549,1,0,0:0:0:0:
160,128,1635,1,8,0:0:0:0:
160,128,1720,1,0,0:0:0:0:
160,128,1892,1,0,0:0:0:0:
160,128,2063,1,8,0:0:0:0:
160,128,2235,1,0,0:0:0:0:
160,128,2406,1,8,0:0:0:0:
160,128,2749,1,8,0:0:0:0:
160,128,2920,1,8,0:0:0:0:
160,128,3092,1,0,0:0:0:0:
160,128,3777,1,8,0:0:0:0:
160,128,4292,1,0,0:0:0:0:
160,128,4377,1,8,0:0:0:0:
160,128,4463,1,0,0:0:0:0:
160,128,4635,1,0,0:0:0:0:
160,128,4806,1,8,0:0:0:0:
160,128,4977,1,0,0:0:0:0:
160,128,5149,1,0,0:0:0:0:
160,128,5320,1,8,0:0:0:0:
160,128,5492,1,8,0:0:0:0:
160,128,5663,1,0,0:0:0:0:
160,128,5835,1,8,0:0:0:0:
160,128,6177,1,0,0:0:0:0:
160,128,6520,1,8,0:0:0:0:
160,128,7035,1,0,0:0:0:0:
160,128,7120,1,8,0:0:0:0:
160,128,7206,1,0,0:0:0:0:
160,128,7377,1,0,0:0:0:0:
160,128,7549,1,8,0:0:0:0:
160,128,7720,1,0,0:0:0:0:
160,128,7892,1,8,0:0:0:0:
160,128,8063,1,0,0:0:0:0:
160,128,8235,1,8,0:0:0:0:
160,128,8406,1,8,0:0:0:0:
160,128,8577,1,0,0:0:0:0:
160,128,8920,1,0,0:0:0:0:
160,128,9092,1,0,0:0:0:0:
160,128,9263,1,8,0:0:0:0:
160,128,9435,1,8,0:0:0:0:
160,128,9606,1,0,0:0:0:0:
160,128,9777,1,8,0:0:0:0:
160,128,9949,1,0,0:0:0:0:
160,128,10120,1,0,0:0:0:0:
160,128,10292,1,8,0:0:0:0:
160,128,10463,1,0,0:0:0:0:
160,128,10549,1,0,0:0:0:0:
160,128,10635,1,8,0:0:0:0:
160,128,10720,1,0,0:0:0:0:
160,128,10806,1,0,0:0:0:0:
160,128,10892,1,0,0:0:0:0:
160,128,10977,1,0,0:0:0:0:
160,128,11063,1,0,0:0:0:0:
160,128,11149,1,0,0:0:0:0:
160,128,11320,1,12,0:0:0:0:
160,128,11663,1,4,0:0:0:0:
160,128,12006,1,12,0:0:0:0:
160,128,12520,1,0,0:0:0:0:
160,128,12606,1,8,0:0:0:0:
160,128,12692,1,0,0:0:0:0:
160,128,12863,1,0,0:0:0:0:
160,128,13035,1,8,0:0:0:0:
160,128,13206,1,0,0:0:0:0:
160,128,13377,1,8,0:0:0:0:
160,128,13635,1,0,0:0:0:0:
160,128,13720,1,8,0:0:0:0:
160,128,13892,1,8,0:0:0:0:
160,128,14063,1,0,0:0:0:0:
160,128,14406,1,12,0:0:0:0:
160,128,14749,1,8,0:0:0:0:
160,128,15263,1,0,0:0:0:0:
160,128,15349,1,8,0:0:0:0:
160,128,15435,1,0,0:0:0:0:
160,128,15606,1,0,0:0:0:0:
160,128,15777,1,8,0:0:0:0:
160,128,15949,1,0,0:0:0:0:
160,128,16035,1,0,0:0:0:0:
160,128,16120,1,8,0:0:0:0:
160,128,16292,1,0,0:0:0:0:
160,128,16463,1,8,0:0:0:0:
160,128,16635,1,8,0:0:0:0:
160,128,16806,1,0,0:0:0:0:
160,128,16977,1,12,0:0:0:0:
160,128,17149,1,12,0:0:0:0:
160,128,17492,1,8,0:0:0:0:
160,128,18006,1,0,0:0:0:0:
160,128,18092,1,8,0:0:0:0:
160,128,18177,1,0,0:0:0:0:
160,128,18349,1,0,0:0:0:0:
160,128,18520,1,8,0:0:0:0:
160,128,18692,1,0,0:0:0:0:
160,128,18863,1,8,0:0:0:0:
160,128,19120,1,0,0:0:0:0:
160,128,19206,1,8,0:0:0:0:
160,128,19377,1,8,0:0:0:0:
160,128,19549,1,0,0:0:0:0:
160,128,19892,1,12,0:0:0:0:
160,128,20063,1,0,0:0:0:0:
160,128,20235,1,8,0:0:0:0:
160,128,20406,1,8,0:0:0:0:
160,128,20577,1,0,0:0:0:0:
160,128,20749,1,8,0:0:0:0:
160,128,20920,1,0,0:0:0:0:
160,128,21092,1,0,0:0:0:0:
160,128,21177,1,0,0:0:0:0:
160,128,21263,1,8,0:0:0:0:
160,128,21349,1,0,0:0:0:0:
160,128,21435,1,8,0:0:0:0:
160,128,21520,1,8,0:0:0:0:
160,128,21606,1,0,0:0:0:0:
256,192,21777,8,0,22635,0:0:0:0:
160,128,22977,5,4,0:0:0:0:
160,128,23320,1,4,0:0:0:0:
160,128,23663,1,12,0:0:0:0:
160,128,24349,1,4,0:0:0:0:
160,128,24692,1,4,0:0:0:0:
160,128,25035,1,12,0:0:0:0:
160,128,25720,1,12,0:0:0:0:
160,128,26063,1,4,0:0:0:0:
160,128,26406,1,12,0:0:0:0:
160,128,27092,1,4,0:0:0:0:
160,128,27435,1,4,0:0:0:0:
160,128,27777,1,8,0:0:0:0:
160,128,27863,1,0,0:0:0:0:
160,128,27949,1,0,0:0:0:0:
160,128,28035,1,0,0:0:0:0:
160,128,28120,1,12,0:0:0:0:
160,128,28463,1,12,0:0:0:0:
160,128,28635,1,0,0:0:0:0:
160,128,28806,1,8,0:0:0:0:
160,128,28977,1,8,0:0:0:0:
160,128,29063,1,8,0:0:0:0:
160,128,29149,1,0,0:0:0:0:
160,128,29320,1,0,0:0:0:0:
160,128,29492,1,8,0:0:0:0:
160,128,29663,1,0,0:0:0:0:
160,128,29835,1,8,0:0:0:0:
160,128,30006,1,0,0:0:0:0:
160,128,30177,1,8,0:0:0:0:
160,128,30349,1,8,0:0:0:0:
160,128,30435,1,8,0:0:0:0:
160,128,30520,1,0,0:0:0:0:
160,128,30692,1,0,0:0:0:0:
160,128,30777,1,0,0:0:0:0:
160,128,30863,1,8,0:0:0:0:
160,128,31035,1,0,0:0:0:0:
160,128,31206,1,8,0:0:0:0:
160,128,31377,1,8,0:0:0:0:
160,128,31549,1,0,0:0:0:0:
160,128,31720,1,0,0:0:0:0:
160,128,31892,1,8,0:0:0:0:
160,128,31977,1,0,0:0:0:0:
160,128,32063,1,0,0:0:0:0:
160,128,32149,1,0,0:0:0:0:
160,128,32235,1,8,0:0:0:0:
160,128,32406,1,0,0:0:0:0:
160,128,32577,1,8,0:0:0:0:
160,128,32749,1,0,0:0:0:0:
160,128,32835,1,0,0:0:0:0:
160,128,32920,1,8,0:0:0:0:
160,128,33092,1,8,0:0:0:0:
160,128,33177,1,8,0:0:0:0:
160,128,33263,1,0,0:0:0:0:
160,128,33435,1,0,0:0:0:0:
160,128,33606,1,8,0:0:0:0:
160,128,33777,1,0,0:0:0:0:
160,128,33949,1,8,0:0:0:0:
160,128,34035,1,0,0:0:0:0:
160,128,34120,1,0,0:0:0:0:
160,128,34206,1,0,0:0:0:0:
160,128,34292,1,8,0:0:0:0:
160,128,34377,1,0,0:0:0:0:
160,128,34463,1,8,0:0:0:0:
160,128,34549,1,8,0:0:0:0:
160,128,34635,1,0,0:0:0:0:
160,128,34720,1,0,0:0:0:0:
160,128,34806,1,8,0:0:0:0:
160,128,34892,1,0,0:0:0:0:
160,128,34977,1,8,0:0:0:0:
160,128,35063,1,8,0:0:0:0:
160,128,35149,1,0,0:0:0:0:
160,128,35235,1,0,0:0:0:0:
160,128,35320,1,8,0:0:0:0:
160,128,35406,1,8,0:0:0:0:
160,128,35492,1,0,0:0:0:0:
160,128,35577,1,0,0:0:0:0:
160,128,35663,1,8,0:0:0:0:
160,128,35749,1,0,0:0:0:0:
160,128,35835,1,8,0:0:0:0:
160,128,35920,1,8,0:0:0:0:
160,128,36006,1,0,0:0:0:0:
160,128,36092,1,8,0:0:0:0:
160,128,36177,1,0,0:0:0:0:
160,128,36263,1,0,0:0:0:0:
160,128,36349,1,8,0:0:0:0:
160,128,36435,1,8,0:0:0:0:
160,128,36520,1,0,0:0:0:0:
160,128,36606,1,0,0:0:0:0:
160,128,36692,1,8,0:0:0:0:
160,128,36749,1,8,0:0:0:0:
160,128,36806,1,8,0:0:0:0:
160,128,36863,1,0,0:0:0:0:
160,128,36949,1,0,0:0:0:0:
160,128,37035,1,8,0:0:0:0:
160,128,37092,1,8,0:0:0:0:
160,128,37149,1,8,0:0:0:0:
160,128,37206,1,0,0:0:0:0:
160,128,37292,1,0,0:0:0:0:
160,128,37377,1,8,0:0:0:0:
160,128,37435,1,0,0:0:0:0:
160,128,37492,1,0,0:0:0:0:
160,128,37549,1,8,0:0:0:0:
160,128,37635,1,0,0:0:0:0:
160,128,37720,1,8,0:0:0:0:
160,128,37777,1,8,0:0:0:0:
160,128,37835,1,8,0:0:0:0:
160,128,37892,1,8,0:0:0:0:
160,128,37949,1,8,0:0:0:0:
160,128,38006,1,8,0:0:0:0:
160,128,38063,1,0,0:0:0:0:
160,128,38406,1,0,0:0:0:0:
160,128,38749,1,0,0:0:0:0:
160,128,39092,1,12,0:0:0:0:
160,128,39435,1,4,0:0:0:0:
160,128,39777,1,0,0:0:0:0:
160,128,39863,1,8,0:0:0:0:
160,128,39949,1,8,0:0:0:0:
160,128,40035,1,8,0:0:0:0:
160,128,40120,1,0,0:0:0:0:
160,128,40206,1,8,0:0:0:0:
160,128,40292,1,8,0:0:0:0:
160,128,40377,1,8,0:0:0:0:
160,128,40463,1,0,0:0:0:0:
160,128,40549,1,8,0:0:0:0:
160,128,40635,1,0,0:0:0:0:
160,128,40720,1,8,0:0:0:0:
160,128,40806,1,0,0:0:0:0:
160,128,40977,1,0,0:0:0:0:
160,128,41063,1,8,0:0:0:0:
160,128,41149,1,0,0:0:0:0:
160,128,41235,1,8,0:0:0:0:
160,128,41320,1,8,0:0:0:0:
160,128,41406,1,8,0:0:0:0:
160,128,41492,1,0,0:0:0:0:
160,128,41577,1,8,0:0:0:0:
160,128,41663,1,8,0:0:0:0:
160,128,41749,1,8,0:0:0:0:
160,128,41835,1,0,0:0:0:0:
160,128,41920,1,0,0:0:0:0:
160,128,42006,1,8,0:0:0:0:
160,128,42092,1,8,0:0:0:0:
160,128,42177,1,0,0:0:0:0:
160,128,42349,1,8,0:0:0:0:
160,128,42435,1,8,0:0:0:0:
160,128,42520,1,0,0:0:0:0:
160,128,42606,1,0,0:0:0:0:
160,128,42692,1,8,0:0:0:0:
160,128,42777,1,8,0:0:0:0:
160,128,42863,1,0,0:0:0:0:
160,128,42949,1,8,0:0:0:0:
160,128,43035,1,0,0:0:0:0:
160,128,43120,1,0,0:0:0:0:
160,128,43206,1,8,0:0:0:0:
160,128,43292,1,0,0:0:0:0:
160,128,43377,1,8,0:0:0:0:
160,128,43463,1,8,0:0:0:0:
160,128,43549,1,0,0:0:0:0:
160,128,43720,1,8,0:0:0:0:
160,128,43806,1,8,0:0:0:0:
160,128,43892,1,0,0:0:0:0:
160,128,43977,1,8,0:0:0:0:
160,128,44063,1,8,0:0:0:0:
160,128,44149,1,0,0:0:0:0:
160,128,44235,1,8,0:0:0:0:
160,128,44320,1,8,0:0:0:0:
160,128,44406,1,8,0:0:0:0:
160,128,44492,1,8,0:0:0:0:
160,128,44577,1,0,0:0:0:0:
160,128,44663,1,0,0:0:0:0:
160,128,44749,1,8,0:0:0:0:
160,128,44835,1,8,0:0:0:0:
160,128,44920,1,0,0:0:0:0:
160,128,45263,1,0,0:0:0:0:
160,128,45349,1,8,0:0:0:0:
160,128,45435,1,8,0:0:0:0:
160,128,45520,1,8,0:0:0:0:
160,128,45606,1,0,0:0:0:0:
160,128,45692,1,8,0:0:0:0:
160,128,45777,1,8,0:0:0:0:
160,128,45863,1,8,0:0:0:0:
160,128,45949,1,0,0:0:0:0:
160,128,46035,1,8,0:0:0:0:
160,128,46120,1,0,0:0:0:0:
160,128,46206,1,8,0:0:0:0:
160,128,46292,1,0,0:0:0:0:
160,128,46463,1,0,0:0:0:0:
160,128,46549,1,8,0:0:0:0:
160,128,46635,1,0,0:0:0:0:
160,128,46720,1,8,0:0:0:0:
160,128,46806,1,8,0:0:0:0:
160,128,46892,1,8,0:0:0:0:
160,128,46977,1,0,0:0:0:0:
160,128,47063,1,8,0:0:0:0:
160,128,47149,1,8,0:0:0:0:
160,128,47235,1,8,0:0:0:0:
160,128,47320,1,0,0:0:0:0:
160,128,47406,1,0,0:0:0:0:
160,128,47492,1,0,0:0:0:0:
160,128,47577,1,0,0:0:0:0:
160,128,47663,1,8,0:0:0:0:
160,128,47835,1,8,0:0:0:0:
160,128,47920,1,8,0:0:0:0:
160,128,48006,1,0,0:0:0:0:
160,128,48092,1,0,0:0:0:0:
160,128,48177,1,8,0:0:0:0:
160,128,48263,1,8,0:0:0:0:
160,128,48349,1,0,0:0:0:0:
160,128,48435,1,8,0:0:0:0:
160,128,48520,1,0,0:0:0:0:
160,128,48606,1,0,0:0:0:0:
160,128,48692,1,8,0:0:0:0:
160,128,48777,1,0,0:0:0:0:
160,128,48863,1,8,0:0:0:0:
160,128,48949,1,8,0:0:0:0:
160,128,49035,1,0,0:0:0:0:
160,128,49206,1,8,0:0:0:0:
160,128,49292,1,8,0:0:0:0:
160,128,49377,1,0,0:0:0:0:
160,128,49549,1,0,0:0:0:0:
160,128,49635,1,0,0:0:0:0:
160,128,49720,1,8,0:0:0:0:
160,128,49806,1,8,0:0:0:0:
160,128,49892,1,0,0:0:0:0:
160,128,49977,1,0,0:0:0:0:
160,128,50063,1,8,0:0:0:0:
160,128,50406,1,4,0:0:0:0:
192,128,50749,1,0,0:0:0:0:
192,128,50835,1,0,0:0:0:0:
192,128,50920,1,8,0:0:0:0:
192,128,51006,1,8,0:0:0:0:
192,128,51092,1,0,0:0:0:0:
192,128,51177,1,8,0:0:0:0:
192,128,51263,1,0,0:0:0:0:
192,128,51349,1,0,0:0:0:0:
192,128,51435,1,8,0:0:0:0:
192,128,51606,1,8,0:0:0:0:
192,128,51777,1,4,0:0:0:0:
192,128,52120,1,0,0:0:0:0:
192,128,52206,1,8,0:0:0:0:
192,128,52292,1,8,0:0:0:0:
192,128,52377,1,8,0:0:0:0:
192,128,52463,1,0,0:0:0:0:
192,128,52549,1,8,0:0:0:0:
192,128,52635,1,0,0:0:0:0:
192,128,52720,1,0,0:0:0:0:
192,128,52806,1,8,0:0:0:0:
192,128,52892,1,0,0:0:0:0:
192,128,52977,1,8,0:0:0:0:
192,128,53063,1,8,0:0:0:0:
192,128,53149,1,0,0:0:0:0:
192,128,53320,1,0,0:0:0:0:
192,128,53406,1,8,0:0:0:0:
192,128,53492,1,0,0:0:0:0:
192,128,53577,1,0,0:0:0:0:
192,128,53663,1,8,0:0:0:0:
192,128,53749,1,8,0:0:0:0:
192,128,53835,1,0,0:0:0:0:
192,128,53920,1,8,0:0:0:0:
192,128,54006,1,0,0:0:0:0:
192,128,54092,1,0,0:0:0:0:
192,128,54177,1,8,0:0:0:0:
192,128,54263,1,8,0:0:0:0:
192,128,54349,1,8,0:0:0:0:
192,128,54435,1,8,0:0:0:0:
192,128,54520,1,0,0:0:0:0:
192,128,54692,1,0,0:0:0:0:
192,128,54777,1,8,0:0:0:0:
192,128,54863,1,0,0:0:0:0:
192,128,54949,1,0,0:0:0:0:
192,128,55035,1,8,0:0:0:0:
192,128,55120,1,0,0:0:0:0:
192,128,55206,1,8,0:0:0:0:
192,128,55292,1,8,0:0:0:0:
192,128,55377,1,8,0:0:0:0:
192,128,55463,1,8,0:0:0:0:
192,128,55549,1,0,0:0:0:0:
192,128,55635,1,0,0:0:0:0:
192,128,55720,1,8,0:0:0:0:
192,128,55806,1,8,0:0:0:0:
192,128,55892,1,0,0:0:0:0:
192,128,56063,1,0,0:0:0:0:
192,128,56235,1,8,0:0:0:0:
192,128,56320,1,0,0:0:0:0:
192,128,56406,1,8,0:0:0:0:
192,128,56492,1,8,0:0:0:0:
192,128,56577,1,0,0:0:0:0:
192,128,56749,1,0,0:0:0:0:
192,128,56835,1,0,0:0:0:0:
192,128,56920,1,8,0:0:0:0:
192,128,57092,1,8,0:0:0:0:
192,128,57177,1,8,0:0:0:0:
192,128,57263,1,0,0:0:0:0:
192,128,57435,1,8,0:0:0:0:
192,128,57520,1,0,0:0:0:0:
192,128,57606,1,8,0:0:0:0:
192,128,57692,1,8,0:0:0:0:
192,128,57777,1,0,0:0:0:0:
192,128,57863,1,8,0:0:0:0:
192,128,57949,1,0,0:0:0:0:
192,128,58120,1,0,0:0:0:0:
192,128,58206,1,0,0:0:0:0:
192,128,58292,1,8,0:0:0:0:
192,128,58377,1,8,0:0:0:0:
192,128,58463,1,0,0:0:0:0:
192,128,58635,1,8,0:0:0:0:
192,128,58720,1,8,0:0:0:0:
192,128,58806,1,8,0:0:0:0:
192,128,58892,1,8,0:0:0:0:
192,128,58977,1,0,0:0:0:0:
192,128,59063,1,0,0:0:0:0:
192,128,59149,1,8,0:0:0:0:
192,128,59235,1,8,0:0:0:0:
192,128,59320,1,0,0:0:0:0:
192,128,59406,1,8,0:0:0:0:
192,128,59492,1,8,0:0:0:0:
192,128,59577,1,8,0:0:0:0:
192,128,59663,1,0,0:0:0:0:
192,128,59749,1,8,0:0:0:0:
192,128,59835,1,0,0:0:0:0:
192,128,59920,1,0,0:0:0:0:
160,128,60006,1,8,0:0:0:0:
160,128,60063,1,8,0:0:0:0:
160,128,60120,1,8,0:0:0:0:
160,128,60177,1,0,0:0:0:0:
160,128,60263,1,0,0:0:0:0:
160,128,60349,1,8,0:0:0:0:
160,128,60406,1,8,0:0:0:0:
160,128,60463,1,8,0:0:0:0:
160,128,60520,1,0,0:0:0:0:
160,128,60606,1,0,0:0:0:0:
160,128,60692,1,8,0:0:0:0:
160,128,60749,1,0,0:0:0:0:
160,128,60806,1,0,0:0:0:0:
160,128,60863,1,8,0:0:0:0:
160,128,60949,1,0,0:0:0:0:
160,128,61035,1,8,0:0:0:0:
160,128,61092,1,8,0:0:0:0:
160,128,61149,1,8,0:0:0:0:
160,128,61206,1,8,0:0:0:0:
160,128,61263,1,8,0:0:0:0:
160,128,61320,1,8,0:0:0:0:
160,128,61377,1,0,0:0:0:0:
192,128,61892,1,0,0:0:0:0:
192,128,62063,1,8,0:0:0:0:
192,128,62577,1,0,0:0:0:0:
192,128,62749,1,8,0:0:0:0:
192,128,62920,1,0,0:0:0:0:
192,128,63092,1,8,0:0:0:0:
192,128,63263,1,8,0:0:0:0:
192,128,63435,1,8,0:0:0:0:
192,128,63949,1,0,0:0:0:0:
192,128,64120,1,8,0:0:0:0:
192,128,64635,1,0,0:0:0:0:
192,128,64806,1,8,0:0:0:0:
192,128,65320,1,0,0:0:0:0:
192,128,65492,1,8,0:0:0:0:
192,128,65663,1,8,0:0:0:0:
192,128,65835,1,8,0:0:0:0:
192,128,66006,1,0,0:0:0:0:
192,128,66177,1,8,0:0:0:0:
192,128,66863,1,8,0:0:0:0:
192,128,67377,1,0,0:0:0:0:
192,128,67549,1,8,0:0:0:0:
192,128,68063,1,0,0:0:0:0:
192,128,68235,1,8,0:0:0:0:
192,128,68406,1,0,0:0:0:0:
192,128,68577,1,8,0:0:0:0:
192,128,68749,1,8,0:0:0:0:
192,128,68920,1,8,0:0:0:0:
192,128,69435,1,0,0:0:0:0:
192,128,69606,1,8,0:0:0:0:
192,128,70120,1,0,0:0:0:0:
192,128,70292,1,8,0:0:0:0:
192,128,70806,1,0,0:0:0:0:
192,128,70977,1,8,0:0:0:0:
192,128,71063,1,0,0:0:0:0:
192,128,71149,1,8,0:0:0:0:
192,128,71235,1,8,0:0:0:0:
192,128,71320,1,0,0:0:0:0:
192,128,71406,1,8,0:0:0:0:
192,128,71492,1,0,0:0:0:0:
192,128,71577,1,0,0:0:0:0:
192,128,71663,1,8,0:0:0:0:
192,128,71749,1,0,0:0:0:0:
192,128,71835,1,0,0:0:0:0:
192,128,72006,1,12,0:0:0:0:
192,128,72349,1,4,0:0:0:0:
192,128,72692,1,0,0:0:0:0:
192,128,72863,1,0,0:0:0:0:
192,128,73035,1,8,0:0:0:0:
192,128,73377,1,0,0:0:0:0:
192,128,73549,1,0,0:0:0:0:
192,128,73720,1,8,0:0:0:0:
192,128,73892,1,0,0:0:0:0:
192,128,74063,1,8,0:0:0:0:
192,128,74235,1,8,0:0:0:0:
192,128,74406,1,8,0:0:0:0:
192,128,74920,1,0,0:0:0:0:
192,128,75092,1,8,0:0:0:0:
192,128,75435,1,0,0:0:0:0:
192,128,75606,1,0,0:0:0:0:
192,128,75777,1,8,0:0:0:0:
192,128,76120,1,0,0:0:0:0:
192,128,76292,1,8,0:0:0:0:
192,128,76463,1,0,0:0:0:0:
192,128,76635,1,8,0:0:0:0:
192,128,76806,1,8,0:0:0:0:
192,128,76977,1,0,0:0:0:0:
192,128,77149,1,8,0:0:0:0:
192,128,77835,1,12,0:0:0:0:
192,128,78177,1,12,0:0:0:0:
192,128,78520,1,4,0:0:0:0:
192,128,79206,1,12,0:0:0:0:
192,128,79549,1,12,0:0:0:0:
192,128,79892,1,4,0:0:0:0:
192,128,80577,1,12,0:0:0:0:
192,128,80920,1,4,0:0:0:0:
192,128,81263,1,12,0:0:0:0:
192,128,81949,1,12,0:0:0:0:
192,128,82292,1,12,0:0:0:0:
192,128,82635,1,0,0:0:0:0:
192,128,82720,1,0,0:0:0:0:
192,128,82806,1,0,0:0:0:0:
192,128,82892,1,0,0:0:0:0:
192,128,82977,1,12,0:0:0:0:
160,128,83320,1,12,0:0:0:0:
160,128,83492,1,0,0:0:0:0:
160,128,83663,1,8,0:0:0:0:
160,128,83835,1,8,0:0:0:0:
160,128,83920,1,8,0:0:0:0:
160,128,84006,1,0,0:0:0:0:
160,128,84177,1,0,0:0:0:0:
160,128,84349,1,8,0:0:0:0:
160,128,84520,1,0,0:0:0:0:
160,128,84692,1,8,0:0:0:0:
160,128,84863,1,0,0:0:0:0:
160,128,85035,1,8,0:0:0:0:
160,128,85206,1,8,0:0:0:0:
160,128,85292,1,8,0:0:0:0:
160,128,85377,1,0,0:0:0:0:
160,128,85549,1,0,0:0:0:0:
160,128,85635,1,0,0:0:0:0:
160,128,85720,1,8,0:0:0:0:
160,128,85892,1,0,0:0:0:0:
160,128,86063,1,8,0:0:0:0:
160,128,86235,1,8,0:0:0:0:
160,128,86406,1,0,0:0:0:0:
160,128,86577,1,0,0:0:0:0:
160,128,86749,1,8,0:0:0:0:
160,128,86835,1,0,0:0:0:0:
160,128,86920,1,0,0:0:0:0:
160,128,87006,1,0,0:0:0:0:
160,128,87092,1,8,0:0:0:0:
160,128,87263,1,0,0:0:0:0:
160,128,87435,1,8,0:0:0:0:
160,128,87606,1,0,0:0:0:0:
160,128,87692,1,0,0:0:0:0:
160,128,87777,1,8,0:0:0:0:
160,128,87949,1,8,0:0:0:0:
160,128,88035,1,8,0:0:0:0:
160,128,88120,1,0,0:0:0:0:
160,128,88206,1,0,0:0:0:0:
160,128,88292,1,0,0:0:0:0:
160,128,88463,1,8,0:0:0:0:
160,128,88635,1,0,0:0:0:0:
160,128,88806,1,8,0:0:0:0:
160,128,88892,1,0,0:0:0:0:
160,128,88977,1,0,0:0:0:0:
160,128,89063,1,0,0:0:0:0:
160,128,89149,1,8,0:0:0:0:
160,128,89235,1,8,0:0:0:0:
160,128,89320,1,8,0:0:0:0:
160,128,89406,1,0,0:0:0:0:
160,128,89492,1,8,0:0:0:0:
160,128,89577,1,8,0:0:0:0:
160,128,89663,1,0,0:0:0:0:
160,128,89749,1,0,0:0:0:0:
160,128,89835,1,8,0:0:0:0:
160,128,89920,1,8,0:0:0:0:
160,128,90006,1,0,0:0:0:0:
160,128,90092,1,0,0:0:0:0:
160,128,90177,1,8,0:0:0:0:
160,128,90263,1,8,0:0:0:0:
160,128,90349,1,0,0:0:0:0:
160,128,90435,1,0,0:0:0:0:
160,128,90520,1,8,0:0:0:0:
160,128,90606,1,8,0:0:0:0:
160,128,90692,1,8,0:0:0:0:
160,128,90777,1,0,0:0:0:0:
160,128,90863,1,8,0:0:0:0:
160,128,90949,1,8,0:0:0:0:
160,128,91035,1,0,0:0:0:0:
160,128,91120,1,0,0:0:0:0:
160,128,91206,1,8,0:0:0:0:
160,128,91292,1,8,0:0:0:0:
160,128,91377,1,0,0:0:0:0:
160,128,91463,1,0,0:0:0:0:
160,128,91549,1,8,0:0:0:0:
160,128,91606,1,8,0:0:0:0:
160,128,91663,1,8,0:0:0:0:
160,128,91720,1,0,0:0:0:0:
160,128,91806,1,0,0:0:0:0:
160,128,91892,1,8,0:0:0:0:
160,128,91949,1,8,0:0:0:0:
160,128,92006,1,8,0:0:0:0:
160,128,92063,1,0,0:0:0:0:
160,128,92149,1,0,0:0:0:0:
160,128,92235,1,8,0:0:0:0:
160,128,92292,1,0,0:0:0:0:
160,128,92349,1,0,0:0:0:0:
160,128,92406,1,8,0:0:0:0:
160,128,92492,1,0,0:0:0:0:
160,128,92577,1,8,0:0:0:0:
160,128,92635,1,8,0:0:0:0:
160,128,92692,1,8,0:0:0:0:
160,128,92749,1,8,0:0:0:0:
160,128,92806,1,8,0:0:0:0:
160,128,92863,1,8,0:0:0:0:
160,128,92920,1,0,0:0:0:0:
64,128,93263,2,0,L|128:128,10,37.8000009228516
128,128,94292,1,4,0:0:0:0:
160,128,94635,1,8,0:0:0:0:
160,128,94806,1,0,0:0:0:0:
160,128,94863,1,0,0:0:0:0:
160,128,94920,1,0,0:0:0:0:
160,128,94977,1,8,0:0:0:0:
160,128,95063,1,8,0:0:0:0:
160,128,95149,1,8,0:0:0:0:
160,128,95235,1,0,0:0:0:0:
160,128,95320,1,8,0:0:0:0:
160,128,95406,1,8,0:0:0:0:
160,128,95492,1,8,0:0:0:0:
160,128,95577,1,0,0:0:0:0:
160,128,95663,1,8,0:0:0:0:
160,128,96006,1,0,0:0:0:0:
160,128,96177,1,0,0:0:0:0:
160,128,96235,1,0,0:0:0:0:
160,128,96292,1,0,0:0:0:0:
160,128,96349,1,8,0:0:0:0:
160,128,96435,1,8,0:0:0:0:
160,128,96520,1,8,0:0:0:0:
160,128,96606,1,0,0:0:0:0:
160,128,96692,1,8,0:0:0:0:
192,128,96777,1,8,0:0:0:0:
160,128,96863,1,8,0:0:0:0:
160,128,96949,1,8,0:0:0:0:
160,128,97035,1,0,0:0:0:0:
192,128,97206,1,0,0:0:0:0:
192,128,97292,1,8,0:0:0:0:
160,128,97377,1,0,0:0:0:0:
160,128,97549,1,0,0:0:0:0:
160,128,97720,1,8,0:0:0:0:
160,128,97806,1,8,0:0:0:0:
160,128,97892,1,8,0:0:0:0:
160,128,97977,1,0,0:0:0:0:
160,128,98063,1,8,0:0:0:0:
160,128,98149,1,8,0:0:0:0:
160,128,98235,1,8,0:0:0:0:
160,128,98320,1,8,0:0:0:0:
160,128,98406,1,0,0:0:0:0:
160,128,98577,1,8,0:0:0:0:
160,128,98620,1,8,0:0:0:0:
160,128,98749,1,8,0:0:0:0:
160,128,98792,1,8,0:0:0:0:
160,128,98920,1,8,0:0:0:0:
160,128,98963,1,8,0:0:0:0:
160,128,99092,1,0,0:0:0:0:
160,128,99263,1,8,0:0:0:0:
160,128,99306,1,8,0:0:0:0:
160,128,99435,1,8,0:0:0:0:
160,128,99477,1,8,0:0:0:0:
160,128,99777,1,4,0:0:0:0:
160,128,100120,1,8,0:0:0:0:
160,128,100292,1,0,0:0:0:0:
160,128,100349,1,0,0:0:0:0:
160,128,100406,1,0,0:0:0:0:
160,128,100463,1,8,0:0:0:0:
160,128,100549,1,8,0:0:0:0:
160,128,100635,1,8,0:0:0:0:
160,128,100720,1,0,0:0:0:0:
160,128,100806,1,8,0:0:0:0:
160,128,100892,1,8,0:0:0:0:
160,128,100977,1,8,0:0:0:0:
160,128,101063,1,0,0:0:0:0:
160,128,101149,1,8,0:0:0:0:
160,128,101492,1,0,0:0:0:0:
160,128,101663,1,0,0:0:0:0:
160,128,101720,1,0,0:0:0:0:
160,128,101777,1,0,0:0:0:0:
160,128,101835,1,8,0:0:0:0:
160,128,101920,1,8,0:0:0:0:
160,128,102006,1,8,0:0:0:0:
160,128,102092,1,0,0:0:0:0:
160,128,102177,1,8,0:0:0:0:
192,128,102263,1,8,0:0:0:0:
160,128,102349,1,8,0:0:0:0:
160,128,102435,1,8,0:0:0:0:
160,128,102520,1,0,0:0:0:0:
192,128,102692,1,0,0:0:0:0:
192,128,102777,1,8,0:0:0:0:
160,128,102863,1,0,0:0:0:0:
160,128,103035,1,0,0:0:0:0:
160,128,103206,1,8,0:0:0:0:
160,128,103292,1,8,0:0:0:0:
160,128,103377,1,8,0:0:0:0:
160,128,103463,1,0,0:0:0:0:
160,128,103549,1,8,0:0:0:0:
160,128,103635,1,8,0:0:0:0:
160,128,103720,1,8,0:0:0:0:
160,128,103806,1,8,0:0:0:0:
160,128,103892,1,0,0:0:0:0:
160,128,104063,1,0,0:0:0:0:
160,128,104149,1,0,0:0:0:0:
160,128,104235,1,0,0:0:0:0:
160,128,104320,1,0,0:0:0:0:
160,128,104406,1,0,0:0:0:0:
160,128,104492,1,0,0:0:0:0:
160,128,104577,1,8,0:0:0:0:
160,128,104749,1,0,0:0:0:0:
160,128,104920,1,8,0:0:0:0:
160,128,105263,1,4,0:0:0:0:
160,128,105606,1,8,0:0:0:0:
160,128,105777,1,0,0:0:0:0:
160,128,105835,1,0,0:0:0:0:
160,128,105892,1,0,0:0:0:0:
160,128,105949,1,8,0:0:0:0:
160,128,106035,1,8,0:0:0:0:
160,128,106120,1,8,0:0:0:0:
160,128,106206,1,8,0:0:0:0:
160,128,106292,1,0,0:0:0:0:
160,128,106377,1,8,0:0:0:0:
160,128,106463,1,8,0:0:0:0:
160,128,106549,1,8,0:0:0:0:
160,128,106635,1,0,0:0:0:0:
160,128,106977,1,0,0:0:0:0:
160,128,107149,1,0,0:0:0:0:
160,128,107206,1,0,0:0:0:0:
160,128,107263,1,0,0:0:0:0:
160,128,107320,1,8,0:0:0:0:
160,128,107406,1,8,0:0:0:0:
160,128,107492,1,8,0:0:0:0:
160,128,107577,1,8,0:0:0:0:
160,128,107663,1,0,0:0:0:0:
192,128,107749,1,8,0:0:0:0:
160,128,107835,1,8,0:0:0:0:
160,128,107920,1,8,0:0:0:0:
160,128,108006,1,0,0:0:0:0:
192,128,108177,1,0,0:0:0:0:
192,128,108263,1,8,0:0:0:0:
160,128,108349,1,0,0:0:0:0:
160,128,108520,1,0,0:0:0:0:
160,128,108692,1,8,0:0:0:0:
160,128,108777,1,8,0:0:0:0:
160,128,108863,1,8,0:0:0:0:
160,128,108949,1,8,0:0:0:0:
160,128,109035,1,0,0:0:0:0:
160,128,109120,1,8,0:0:0:0:
160,128,109206,1,8,0:0:0:0:
160,128,109292,1,8,0:0:0:0:
160,128,109377,1,0,0:0:0:0:
160,128,109549,1,0,0:0:0:0:
160,128,109720,1,8,0:0:0:0:
160,128,109806,1,8,0:0:0:0:
160,128,109977,1,0,0:0:0:0:
160,128,110063,1,8,0:0:0:0:
160,128,110235,1,0,0:0:0:0:
160,128,110406,1,8,0:0:0:0:
160,128,110492,1,0,0:0:0:0:
160,128,110749,1,4,0:0:0:0:
160,128,111092,1,8,0:0:0:0:
160,128,111263,1,0,0:0:0:0:
160,128,111320,1,0,0:0:0:0:
160,128,111377,1,0,0:0:0:0:
160,128,111435,1,8,0:0:0:0:
160,128,111520,1,8,0:0:0:0:
160,128,111606,1,8,0:0:0:0:
160,128,111692,1,8,0:0:0:0:
160,128,111777,1,0,0:0:0:0:
160,128,111863,1,8,0:0:0:0:
160,128,111949,1,8,0:0:0:0:
160,128,112035,1,8,0:0:0:0:
160,128,112120,1,0,0:0:0:0:
160,128,112463,1,0,0:0:0:0:
160,128,112635,1,0,0:0:0:0:
160,128,112692,1,0,0:0:0:0:
160,128,112749,1,0,0:0:0:0:
160,128,112806,1,8,0:0:0:0:
160,128,112892,1,8,0:0:0:0:
160,128,112977,1,8,0:0:0:0:
160,128,113063,1,8,0:0:0:0:
160,128,113149,1,0,0:0:0:0:
192,128,113235,1,8,0:0:0:0:
160,128,113320,1,8,0:0:0:0:
160,128,113406,1,8,0:0:0:0:
160,128,113492,1,0,0:0:0:0:
192,128,113663,1,0,0:0:0:0:
192,128,113749,1,8,0:0:0:0:
160,128,113835,1,0,0:0:0:0:
192,128,113920,1,0,0:0:0:0:
160,128,114006,1,0,0:0:0:0:
160,128,114177,1,8,0:0:0:0:
160,128,114263,1,8,0:0:0:0:
160,128,114349,1,8,0:0:0:0:
160,128,114435,1,8,0:0:0:0:
160,128,114520,1,0,0:0:0:0:
160,128,114606,1,8,0:0:0:0:
160,128,114692,1,8,0:0:0:0:
160,128,114777,1,8,0:0:0:0:
160,128,114863,1,0,0:0:0:0:
256,192,114949,8,0,116063,0:0:0:0:
224,160,116235,5,4,0:0:0:0:
128,160,121720,5,0,0:0:0:0:
128,160,122235,1,0,0:0:0:0:
128,160,122320,1,0,0:0:0:0:
128,160,122406,1,0,0:0:0:0:
128,160,122577,1,0,0:0:0:0:
128,160,122749,1,0,0:0:0:0:
128,160,122920,1,0,0:0:0:0:
128,160,123092,1,8,0:0:0:0:
128,160,123435,1,8,0:0:0:0:
128,160,123606,1,8,0:0:0:0:
128,160,123777,1,0,0:0:0:0:
128,160,124120,1,0,0:0:0:0:
128,160,124292,1,0,0:0:0:0:
128,160,124463,1,8,0:0:0:0:
128,160,124635,1,8,0:0:0:0:
128,160,124806,1,0,0:0:0:0:
128,160,124977,1,8,0:0:0:0:
128,160,125149,1,0,0:0:0:0:
128,160,125492,1,8,0:0:0:0:
128,160,125835,1,0,0:0:0:0:
160,128,127206,1,8,0:0:0:0:
160,128,127549,1,8,0:0:0:0:
160,128,127720,1,0,0:0:0:0:
160,128,127806,1,0,0:0:0:0:
160,128,127892,1,8,0:0:0:0:
160,128,128063,1,0,0:0:0:0:
160,128,128235,1,8,0:0:0:0:
160,128,128406,1,0,0:0:0:0:
160,128,128577,1,8,0:0:0:0:
160,128,128920,1,8,0:0:0:0:
160,128,129092,1,0,0:0:0:0:
160,128,129263,1,8,0:0:0:0:
160,128,129606,1,8,0:0:0:0:
160,128,129777,1,8,0:0:0:0:
160,128,129949,1,8,0:0:0:0:
160,128,130292,1,8,0:0:0:0:
160,128,130463,1,0,0:0:0:0:
160,128,130549,1,0,0:0:0:0:
160,128,130635,1,8,0:0:0:0:
160,128,130806,1,0,0:0:0:0:
160,128,130977,1,8,0:0:0:0:
160,128,131149,1,0,0:0:0:0:
160,128,131320,1,8,0:0:0:0:
160,128,131492,1,0,0:0:0:0:
160,128,131663,1,8,0:0:0:0:
160,128,131835,1,8,0:0:0:0:
160,128,132006,1,8,0:0:0:0:
160,128,132263,1,8,0:0:0:0:
160,128,132349,1,8,0:0:0:0:
160,128,132520,1,8,0:0:0:0:
160,128,132692,1,8,0:0:0:0:
160,128,133035,1,8,0:0:0:0:
160,128,133206,1,0,0:0:0:0:
160,128,133292,1,0,0:0:0:0:
160,128,133377,1,8,0:0:0:0:
160,128,133549,1,0,0:0:0:0:
160,128,133720,1,8,0:0:0:0:
160,128,133892,1,0,0:0:0:0:
160,128,134063,1,8,0:0:0:0:
160,128,134235,1,0,0:0:0:0:
160,128,134406,1,8,0:0:0:0:
160,128,134577,1,8,0:0:0:0:
160,128,134749,1,0,0:0:0:0:
160,128,135092,1,0,0:0:0:0:
160,128,135263,1,0,0:0:0:0:
160,128,135435,1,8,0:0:0:0:
160,128,135606,1,8,0:0:0:0:
160,128,135777,1,0,0:0:0:0:
160,128,135949,1,8,0:0:0:0:
160,128,136120,1,0,0:0:0:0:
160,128,136292,1,0,0:0:0:0:
160,128,136463,1,8,0:0:0:0:
160,128,136635,1,0,0:0:0:0:
160,128,136720,1,0,0:0:0:0:
160,128,136806,1,8,0:0:0:0:
160,128,136892,1,0,0:0:0:0:
160,128,136977,1,8,0:0:0:0:
160,128,137063,1,8,0:0:0:0:
160,128,137149,1,0,0:0:0:0:
160,128,137235,1,0,0:0:0:0:
160,128,137320,1,0,0:0:0:0:
160,128,137492,1,12,0:0:0:0:
160,128,137835,1,4,0:0:0:0:
160,128,138177,1,12,0:0:0:0:
160,128,138692,1,0,0:0:0:0:
160,128,138777,1,8,0:0:0:0:
160,128,138863,1,0,0:0:0:0:
160,128,139035,1,0,0:0:0:0:
160,128,139206,1,8,0:0:0:0:
160,128,139377,1,0,0:0:0:0:
160,128,139549,1,8,0:0:0:0:
160,128,139806,1,0,0:0:0:0:
160,128,139892,1,8,0:0:0:0:
160,128,140063,1,8,0:0:0:0:
160,128,140235,1,0,0:0:0:0:
160,128,140577,1,12,0:0:0:0:
160,128,140920,1,8,0:0:0:0:
160,128,141435,1,0,0:0:0:0:
160,128,141520,1,8,0:0:0:0:
160,128,141606,1,0,0:0:0:0:
160,128,141777,1,0,0:0:0:0:
160,128,141949,1,8,0:0:0:0:
160,128,142120,1,0,0:0:0:0:
160,128,142206,1,0,0:0:0:0:
160,128,142292,1,8,0:0:0:0:
160,128,142463,1,0,0:0:0:0:
160,128,142635,1,8,0:0:0:0:
160,128,142806,1,8,0:0:0:0:
160,128,142977,1,0,0:0:0:0:
160,128,143149,1,12,0:0:0:0:
160,128,143320,1,12,0:0:0:0:
160,128,143663,1,8,0:0:0:0:
160,128,144177,1,0,0:0:0:0:
160,128,144263,1,8,0:0:0:0:
160,128,144349,1,0,0:0:0:0:
160,128,144520,1,0,0:0:0:0:
160,128,144692,1,8,0:0:0:0:
160,128,144863,1,0,0:0:0:0:
160,128,145035,1,8,0:0:0:0:
160,128,145292,1,0,0:0:0:0:
160,128,145377,1,8,0:0:0:0:
160,128,145549,1,8,0:0:0:0:
160,128,145720,1,0,0:0:0:0:
160,128,146063,1,12,0:0:0:0:
160,128,146235,1,0,0:0:0:0:
160,128,146406,1,8,0:0:0:0:
160,128,146577,1,8,0:0:0:0:
160,128,146749,1,0,0:0:0:0:
160,128,146920,1,8,0:0:0:0:
160,128,147092,1,0,0:0:0:0:
160,128,147263,1,0,0:0:0:0:
160,128,147349,1,0,0:0:0:0:
160,128,147435,1,8,0:0:0:0:
160,128,147520,1,0,0:0:0:0:
160,128,147606,1,8,0:0:0:0:
160,128,147692,1,8,0:0:0:0:
160,128,147777,1,0,0:0:0:0:
256,192,147949,8,0,148806,0:0:0:0:
160,128,149149,5,12,0:0:0:0:
160,128,149492,1,4,0:0:0:0:
160,128,149835,1,4,0:0:0:0:
160,128,150520,1,12,0:0:0:0:
160,128,150863,1,4,0:0:0:0:
160,128,151206,1,4,0:0:0:0:
160,128,151892,1,12,0:0:0:0:
160,128,152235,1,4,0:0:0:0:
160,128,152577,1,12,0:0:0:0:
160,128,153263,1,12,0:0:0:0:
160,128,153606,1,4,0:0:0:0:
160,128,153949,1,0,0:0:0:0:
160,128,154035,1,0,0:0:0:0:
160,128,154120,1,0,0:0:0:0:
160,128,154206,1,0,0:0:0:0:
160,128,154292,1,12,0:0:0:0:
160,128,154635,1,12,0:0:0:0:
160,128,154806,1,0,0:0:0:0:
160,128,154977,1,8,0:0:0:0:
160,128,155149,1,8,0:0:0:0:
160,128,155235,1,8,0:0:0:0:
160,128,155320,1,0,0:0:0:0:
160,128,155492,1,0,0:0:0:0:
160,128,155663,1,8,0:0:0:0:
160,128,155835,1,0,0:0:0:0:
160,128,156006,1,8,0:0:0:0:
160,128,156177,1,0,0:0:0:0:
160,128,156349,1,8,0:0:0:0:
160,128,156520,1,8,0:0:0:0:
160,128,156606,1,8,0:0:0:0:
160,128,156692,1,0,0:0:0:0:
160,128,156863,1,0,0:0:0:0:
160,128,157035,1,8,0:0:0:0:
160,128,157206,1,0,0:0:0:0:
160,128,157292,1,0,0:0:0:0:
160,128,157377,1,8,0:0:0:0:
160,128,157549,1,8,0:0:0:0:
160,128,157720,1,0,0:0:0:0:
160,128,157892,1,0,0:0:0:0:
160,128,158063,1,8,0:0:0:0:
160,128,158149,1,0,0:0:0:0:
160,128,158235,1,0,0:0:0:0:
160,128,158320,1,0,0:0:0:0:
160,128,158406,1,8,0:0:0:0:
160,128,158577,1,0,0:0:0:0:
160,128,158749,1,8,0:0:0:0:
160,128,158920,1,0,0:0:0:0:
160,128,159006,1,0,0:0:0:0:
160,128,159092,1,8,0:0:0:0:
160,128,159263,1,0,0:0:0:0:
160,128,159349,1,8,0:0:0:0:
160,128,159435,1,0,0:0:0:0:
160,128,159520,1,0,0:0:0:0:
160,128,159606,1,0,0:0:0:0:
160,128,159692,1,0,0:0:0:0:
160,128,159777,1,8,0:0:0:0:
160,128,159949,1,0,0:0:0:0:
160,128,160120,1,8,0:0:0:0:
160,128,160206,1,8,0:0:0:0:
160,128,160292,1,0,0:0:0:0:
160,128,160377,1,0,0:0:0:0:
160,128,160463,1,8,0:0:0:0:
160,128,160549,1,0,0:0:0:0:
160,128,160635,1,0,0:0:0:0:
160,128,160720,1,0,0:0:0:0:
160,128,160806,1,8,0:0:0:0:
160,128,160892,1,0,0:0:0:0:
160,128,160977,1,8,0:0:0:0:
160,128,161063,1,0,0:0:0:0:
160,128,161149,1,8,0:0:0:0:
160,128,161235,1,8,0:0:0:0:
160,128,161320,1,0,0:0:0:0:
160,128,161406,1,0,0:0:0:0:
160,128,161492,1,8,0:0:0:0:
160,128,161577,1,8,0:0:0:0:
160,128,161663,1,0,0:0:0:0:
160,128,161749,1,0,0:0:0:0:
160,128,161835,1,8,0:0:0:0:
160,128,161920,1,0,0:0:0:0:
160,128,162006,1,0,0:0:0:0:
160,128,162092,1,0,0:0:0:0:
160,128,162177,1,8,0:0:0:0:
160,128,162263,1,0,0:0:0:0:
160,128,162349,1,8,0:0:0:0:
160,128,162435,1,0,0:0:0:0:
160,128,162520,1,8,0:0:0:0:
160,128,162606,1,8,0:0:0:0:
160,128,162692,1,0,0:0:0:0:
160,128,162777,1,0,0:0:0:0:
160,128,162863,1,8,0:0:0:0:
160,128,162949,1,8,0:0:0:0:
160,128,163035,1,8,0:0:0:0:
160,128,163120,1,0,0:0:0:0:
160,128,163206,1,8,0:0:0:0:
160,128,163292,1,8,0:0:0:0:
160,128,163377,1,0,0:0:0:0:
160,128,163463,1,0,0:0:0:0:
160,128,163549,1,8,0:0:0:0:
160,128,163635,1,8,0:0:0:0:
160,128,163720,1,8,0:0:0:0:
160,128,163806,1,8,0:0:0:0:
160,128,163892,1,8,0:0:0:0:
160,128,163977,1,8,0:0:0:0:
160,128,164063,1,8,0:0:0:0:
160,128,164149,1,8,0:0:0:0:
160,128,164235,1,0,0:0:0:0:
160,128,164577,1,0,0:0:0:0:
160,128,164920,1,0,0:0:0:0:
160,128,165263,1,8,0:0:0:0:
160,128,165435,1,0,0:0:0:0:
160,128,165606,1,4,0:0:0:0:
160,128,165863,1,0,0:0:0:0:
192,128,165949,1,8,0:0:0:0:
160,128,166120,1,8,0:0:0:0:
160,128,166206,1,8,0:0:0:0:
160,128,166292,1,0,0:0:0:0:
160,128,166463,1,8,0:0:0:0:
192,128,166635,1,8,0:0:0:0:
160,128,166806,1,0,0:0:0:0:
160,128,166892,1,8,0:0:0:0:
192,128,166977,1,0,0:0:0:0:
160,128,167235,1,0,0:0:0:0:
192,128,167320,1,8,0:0:0:0:
192,128,167492,1,8,0:0:0:0:
160,128,167577,1,8,0:0:0:0:
160,128,167663,1,0,0:0:0:0:
192,128,167835,1,8,0:0:0:0:
160,128,167920,1,0,0:0:0:0:
192,128,168006,1,8,0:0:0:0:
160,128,168092,1,0,0:0:0:0:
160,128,168177,1,8,0:0:0:0:
160,128,168263,1,8,0:0:0:0:
192,128,168349,1,0,0:0:0:0:
160,128,168606,1,0,0:0:0:0:
192,128,168692,1,8,0:0:0:0:
192,128,168863,1,0,0:0:0:0:
192,128,169035,1,8,0:0:0:0:
192,128,169120,1,8,0:0:0:0:
192,128,169206,1,0,0:0:0:0:
192,128,169377,1,8,0:0:0:0:
192,128,169549,1,0,0:0:0:0:
192,128,169720,1,0,0:0:0:0:
192,128,169892,1,0,0:0:0:0:
192,128,170063,1,8,0:0:0:0:
192,128,170235,1,8,0:0:0:0:
192,128,170406,1,0,0:0:0:0:
192,128,170577,1,0,0:0:0:0:
192,128,170663,1,0,0:0:0:0:
192,128,170749,1,8,0:0:0:0:
192,128,171092,1,0,0:0:0:0:
160,128,171349,1,0,0:0:0:0:
192,128,171435,1,8,0:0:0:0:
160,128,171606,1,8,0:0:0:0:
160,128,171692,1,8,0:0:0:0:
160,128,171777,1,0,0:0:0:0:
160,128,171949,1,8,0:0:0:0:
192,128,172120,1,8,0:0:0:0:
160,128,172292,1,0,0:0:0:0:
160,128,172377,1,8,0:0:0:0:
192,128,172463,1,0,0:0:0:0:
160,128,172720,1,0,0:0:0:0:
192,128,172806,1,8,0:0:0:0:
192,128,172977,1,8,0:0:0:0:
160,128,173063,1,8,0:0:0:0:
160,128,173149,1,0,0:0:0:0:
192,128,173320,1,8,0:0:0:0:
160,128,173406,1,0,0:0:0:0:
192,128,173492,1,8,0:0:0:0:
160,128,173577,1,0,0:0:0:0:
160,128,173663,1,8,0:0:0:0:
160,128,173749,1,8,0:0:0:0:
192,128,173835,1,0,0:0:0:0:
160,128,174092,1,8,0:0:0:0:
192,128,174177,1,0,0:0:0:0:
192,128,174349,1,8,0:0:0:0:
192,128,174520,1,0,0:0:0:0:
192,128,174606,1,8,0:0:0:0:
192,128,174692,1,0,0:0:0:0:
192,128,174863,1,8,0:0:0:0:
192,128,174949,1,0,0:0:0:0:
192,128,175035,1,8,0:0:0:0:
192,128,175206,1,0,0:0:0:0:
192,128,175377,1,0,0:0:0:0:
192,128,175549,1,8,0:0:0:0:
192,128,175720,1,0,0:0:0:0:
192,128,175892,1,8,0:0:0:0:
192,128,176235,1,8,0:0:0:0:
192,128,176577,1,4,0:0:0:0:
160,128,176835,1,0,0:0:0:0:
192,128,176920,1,8,0:0:0:0:
160,128,177092,1,8,0:0:0:0:
160,128,177177,1,8,0:0:0:0:
160,128,177263,1,0,0:0:0:0:
160,128,177435,1,8,0:0:0:0:
192,128,177606,1,8,0:0:0:0:
160,128,177777,1,0,0:0:0:0:
160,128,177863,1,8,0:0:0:0:
192,128,177949,1,0,0:0:0:0:
160,128,178206,1,0,0:0:0:0:
192,128,178292,1,8,0:0:0:0:
192,128,178463,1,8,0:0:0:0:
160,128,178549,1,0,0:0:0:0:
160,128,178635,1,8,0:0:0:0:
192,128,178720,1,0,0:0:0:0:
192,128,178806,1,8,0:0:0:0:
160,128,178892,1,0,0:0:0:0:
192,128,178977,1,8,0:0:0:0:
160,128,179063,1,0,0:0:0:0:
160,128,179149,1,8,0:0:0:0:
160,128,179235,1,8,0:0:0:0:
192,128,179320,1,0,0:0:0:0:
160,128,179577,1,0,0:0:0:0:
192,128,179663,1,8,0:0:0:0:
192,128,179835,1,0,0:0:0:0:
192,128,180006,1,8,0:0:0:0:
192,128,180092,1,8,0:0:0:0:
192,128,180177,1,0,0:0:0:0:
192,128,180263,1,0,0:0:0:0:
192,128,180349,1,8,0:0:0:0:
192,128,180520,1,0,0:0:0:0:
192,128,180606,1,0,0:0:0:0:
192,128,180692,1,0,0:0:0:0:
192,128,180863,1,0,0:0:0:0:
192,128,181035,1,8,0:0:0:0:
192,128,181206,1,8,0:0:0:0:
192,128,181377,1,0,0:0:0:0:
192,128,181549,1,0,0:0:0:0:
192,128,181635,1,0,0:0:0:0:
192,128,181720,1,8,0:0:0:0:
192,128,182063,1,4,0:0:0:0:
160,128,182320,1,0,0:0:0:0:
192,128,182406,1,8,0:0:0:0:
160,128,182577,1,8,0:0:0:0:
160,128,182663,1,8,0:0:0:0:
160,128,182749,1,0,0:0:0:0:
160,128,182920,1,8,0:0:0:0:
192,128,183092,1,8,0:0:0:0:
192,128,183177,1,0,0:0:0:0:
160,128,183263,1,0,0:0:0:0:
160,128,183349,1,8,0:0:0:0:
192,128,183435,1,0,0:0:0:0:
160,128,183692,1,0,0:0:0:0:
192,128,183777,1,8,0:0:0:0:
192,128,183949,1,8,0:0:0:0:
160,128,184035,1,0,0:0:0:0:
160,128,184120,1,8,0:0:0:0:
192,128,184206,1,0,0:0:0:0:
192,128,184292,1,8,0:0:0:0:
160,128,184377,1,0,0:0:0:0:
192,128,184463,1,8,0:0:0:0:
160,128,184549,1,0,0:0:0:0:
160,128,184635,1,8,0:0:0:0:
160,128,184720,1,8,0:0:0:0:
192,128,184806,1,0,0:0:0:0:
160,128,184892,1,0,0:0:0:0:
160,128,184977,1,0,0:0:0:0:
160,128,185063,1,0,0:0:0:0:
160,128,185149,1,8,0:0:0:0:
160,128,185235,1,8,0:0:0:0:
160,128,185320,1,8,0:0:0:0:
160,128,185406,1,0,0:0:0:0:
160,128,185492,1,8,0:0:0:0:
160,128,185577,1,0,0:0:0:0:
160,128,185663,1,0,0:0:0:0:
160,128,185749,1,0,0:0:0:0:
160,128,185835,1,8,0:0:0:0:
160,128,185920,1,8,0:0:0:0:
160,128,186006,1,0,0:0:0:0:
192,128,186092,1,0,0:0:0:0:
192,128,186177,1,8,0:0:0:0:
192,128,186349,1,8,0:0:0:0:
192,128,186520,1,0,0:0:0:0:
192,128,186692,1,8,0:0:0:0:
192,128,186863,1,0,0:0:0:0:
192,128,187035,1,0,0:0:0:0:
192,128,187206,1,8,0:0:0:0:
192,128,187549,1,4,0:0:0:0:
256,192,187720,8,0,193035,0:0:0:0:
224,128,198520,5,0,0:0:0:0:
224,128,198863,1,0,0:0:0:0:
224,128,199206,1,0,0:0:0:0:
224,128,199549,1,0,0:0:0:0:
224,128,199720,1,0,0:0:0:0:
224,128,199892,1,8,0:0:0:0:
224,128,200235,1,8,0:0:0:0:
224,128,200577,1,8,0:0:0:0:
224,128,200749,1,8,0:0:0:0:
224,128,200920,1,0,0:0:0:0:
224,128,201263,1,0,0:0:0:0:
224,128,201606,1,0,0:0:0:0:
224,128,201949,1,0,0:0:0:0:
224,128,202292,1,0,0:0:0:0:
224,128,202463,1,0,0:0:0:0:
224,128,202635,1,8,0:0:0:0:
224,128,202977,1,8,0:0:0:0:
224,128,203320,1,8,0:0:0:0:
224,128,203492,1,0,0:0:0:0:
224,128,203663,1,0,0:0:0:0:
224,128,204006,1,8,0:0:0:0:
224,128,204349,1,8,0:0:0:0:
224,128,204692,1,8,0:0:0:0:
224,128,205035,1,0,0:0:0:0:
224,128,205206,1,0,0:0:0:0:
224,128,205377,1,8,0:0:0:0:
224,128,205720,1,8,0:0:0:0:
224,128,206063,1,8,0:0:0:0:
224,128,206235,1,0,0:0:0:0:
224,128,206406,1,0,0:0:0:0:
224,128,206749,1,0,0:0:0:0:
224,128,206920,1,0,0:0:0:0:
224,128,207092,1,8,0:0:0:0:
224,128,207263,1,0,0:0:0:0:
224,128,207435,1,0,0:0:0:0:
224,128,207606,1,0,0:0:0:0:
224,128,207777,1,8,0:0:0:0:
224,128,207949,1,0,0:0:0:0:
224,128,208120,1,8,0:0:0:0:
224,128,208292,1,0,0:0:0:0:
224,128,208463,1,8,0:0:0:0:
224,128,208635,1,8,0:0:0:0:
224,128,208806,1,8,0:0:0:0:
224,128,209492,1,0,0:0:0:0:
224,128,209835,1,0,0:0:0:0:
224,128,210177,1,0,0:0:0:0:
224,128,210520,1,0,0:0:0:0:
224,128,210692,1,0,0:0:0:0:
224,128,210863,1,8,0:0:0:0:
224,128,211206,1,8,0:0:0:0:
224,128,211549,1,8,0:0:0:0:
224,128,211720,1,8,0:0:0:0:
224,128,211892,1,0,0:0:0:0:
224,128,212235,1,0,0:0:0:0:
224,128,212577,1,0,0:0:0:0:
224,128,212920,1,0,0:0:0:0:
224,128,213263,1,0,0:0:0:0:
224,128,213435,1,0,0:0:0:0:
224,128,213606,1,8,0:0:0:0:
224,128,213949,1,8,0:0:0:0:
224,128,214292,1,8,0:0:0:0:
224,128,214463,1,0,0:0:0:0:
224,128,214635,1,0,0:0:0:0:
224,128,214806,1,0,0:0:0:0:
224,128,214977,1,8,0:0:0:0:
224,128,215149,1,0,0:0:0:0:
224,128,215320,1,8,0:0:0:0:
224,128,215492,1,0,0:0:0:0:
224,128,215663,1,8,0:0:0:0:
224,128,215835,1,0,0:0:0:0:
224,128,215920,1,0,0:0:0:0:
224,128,216006,1,8,0:0:0:0:
224,128,216177,1,8,0:0:0:0:
224,128,216349,1,8,0:0:0:0:
224,128,216520,1,0,0:0:0:0:
224,128,216606,1,0,0:0:0:0:
224,128,216692,1,8,0:0:0:0:
224,128,216863,1,0,0:0:0:0:
224,128,217035,1,8,0:0:0:0:
224,128,217120,1,0,0:0:0:0:
224,128,217206,1,8,0:0:0:0:
224,128,217292,1,8,0:0:0:0:
224,128,217377,1,0,0:0:0:0:
224,128,217549,1,0,0:0:0:0:
224,128,217720,1,8,0:0:0:0:
224,128,217777,1,0,0:0:0:0:
224,128,217835,1,0,0:0:0:0:
224,128,217892,1,8,0:0:0:0:
224,128,217977,1,0,0:0:0:0:
224,128,218063,1,8,0:0:0:0:
224,128,218120,1,8,0:0:0:0:
224,128,218177,1,8,0:0:0:0:
224,128,218235,1,0,0:0:0:0:
224,128,218320,1,0,0:0:0:0:
224,128,218406,1,8,0:0:0:0:
224,128,218463,1,0,0:0:0:0:
224,128,218520,1,0,0:0:0:0:
224,128,218577,1,8,0:0:0:0:
224,128,218663,1,0,0:0:0:0:
224,128,218749,1,8,0:0:0:0:
224,128,218806,1,8,0:0:0:0:
224,128,218863,1,8,0:0:0:0:
224,128,218920,1,8,0:0:0:0:
224,128,218977,1,8,0:0:0:0:
224,128,219035,1,8,0:0:0:0:
224,128,219092,1,0,0:0:0:0:
224,128,219777,1,12,0:0:0:0:
224,128,220120,1,4,0:0:0:0:
160,128,220463,1,12,0:0:0:0:
160,128,220977,1,0,0:0:0:0:
160,128,221063,1,8,0:0:0:0:
160,128,221149,1,0,0:0:0:0:
160,128,221320,1,0,0:0:0:0:
160,128,221492,1,8,0:0:0:0:
160,128,221663,1,0,0:0:0:0:
160,128,221835,1,8,0:0:0:0:
160,128,222177,1,8,0:0:0:0:
160,128,222349,1,8,0:0:0:0:
160,128,222520,1,0,0:0:0:0:
160,128,222863,1,12,0:0:0:0:
160,128,223206,1,8,0:0:0:0:
160,128,223720,1,0,0:0:0:0:
160,128,223806,1,8,0:0:0:0:
160,128,223892,1,0,0:0:0:0:
160,128,224063,1,0,0:0:0:0:
160,128,224235,1,8,0:0:0:0:
160,128,224406,1,0,0:0:0:0:
160,128,224577,1,8,0:0:0:0:
160,128,224749,1,0,0:0:0:0:
160,128,224920,1,8,0:0:0:0:
160,128,225092,1,8,0:0:0:0:
160,128,225263,1,0,0:0:0:0:
160,128,225435,1,12,0:0:0:0:
160,128,225606,1,12,0:0:0:0:
160,128,225949,1,8,0:0:0:0:
160,128,226463,1,0,0:0:0:0:
160,128,226549,1,8,0:0:0:0:
160,128,226635,1,0,0:0:0:0:
160,128,226806,1,0,0:0:0:0:
160,128,226977,1,8,0:0:0:0:
160,128,227149,1,0,0:0:0:0:
160,128,227320,1,8,0:0:0:0:
160,128,227663,1,8,0:0:0:0:
160,128,227835,1,8,0:0:0:0:
160,128,228006,1,0,0:0:0:0:
160,128,228349,1,12,0:0:0:0:
160,128,228520,1,0,0:0:0:0:
160,128,228692,1,8,0:0:0:0:
160,128,228863,1,8,0:0:0:0:
160,128,229035,1,0,0:0:0:0:
160,128,229206,1,8,0:0:0:0:
160,128,229377,1,0,0:0:0:0:
160,128,229720,1,0,0:0:0:0:
160,128,229892,1,8,0:0:0:0:
160,128,230063,1,8,0:0:0:0:
160,128,230149,1,8,0:0:0:0:
128,128,230235,1,0,0:0:0:0:
160,128,230320,1,0,0:0:0:0:
160,128,230406,1,8,0:0:0:0:
160,128,230577,1,0,0:0:0:0:
160,128,230663,1,0,0:0:0:0:
160,128,230749,1,8,0:0:0:0:
160,128,230920,1,8,0:0:0:0:
160,128,231092,1,0,0:0:0:0:
160,128,231177,1,0,0:0:0:0:
160,128,231263,1,0,0:0:0:0:
160,128,231349,1,0,0:0:0:0:
160,128,231435,1,12,0:0:0:0:
160,128,231777,1,8,0:0:0:0:
160,128,231949,1,0,0:0:0:0:
160,128,232035,1,8,0:0:0:0:
160,128,232120,1,0,0:0:0:0:
160,128,232292,1,0,0:0:0:0:
160,128,232463,1,8,0:0:0:0:
160,128,232635,1,0,0:0:0:0:
160,128,232806,1,8,0:0:0:0:
160,128,233063,1,0,0:0:0:0:
160,128,233149,1,8,0:0:0:0:
160,128,233320,1,8,0:0:0:0:
160,128,233492,1,0,0:0:0:0:
160,128,233663,1,0,0:0:0:0:
160,128,233835,1,12,0:0:0:0:
160,128,234177,1,8,0:0:0:0:
160,128,234520,1,8,0:0:0:0:
160,128,234692,1,0,0:0:0:0:
160,128,234777,1,8,0:0:0:0:
160,128,234863,1,0,0:0:0:0:
160,128,235035,1,0,0:0:0:0:
160,128,235206,1,8,0:0:0:0:
160,128,235377,1,0,0:0:0:0:
160,128,235463,1,0,0:0:0:0:
160,128,235549,1,8,0:0:0:0:
160,128,235720,1,0,0:0:0:0:
160,128,235892,1,8,0:0:0:0:
160,128,236063,1,8,0:0:0:0:
160,128,236235,1,0,0:0:0:0:
160,128,236406,1,12,0:0:0:0:
160,128,236577,1,12,0:0:0:0:
160,128,236920,1,8,0:0:0:0:
160,128,237263,1,8,0:0:0:0:
160,128,237435,1,0,0:0:0:0:
160,128,237520,1,8,0:0:0:0:
160,128,237606,1,0,0:0:0:0:
160,128,237777,1,0,0:0:0:0:
160,128,237949,1,8,0:0:0:0:
160,128,238120,1,0,0:0:0:0:
160,128,238292,1,8,0:0:0:0:
160,128,238549,1,0,0:0:0:0:
160,128,238635,1,8,0:0:0:0:
160,128,238806,1,8,0:0:0:0:
160,128,238977,1,0,0:0:0:0:
160,128,239320,1,12,0:0:0:0:
160,128,239492,1,0,0:0:0:0:
160,128,239577,1,0,0:0:0:0:
160,128,239663,1,8,0:0:0:0:
160,128,239835,1,8,0:0:0:0:
160,128,240006,1,0,0:0:0:0:
160,128,240177,1,8,0:0:0:0:
160,128,240349,1,0,0:0:0:0:
160,128,240520,1,0,0:0:0:0:
160,128,240606,1,0,0:0:0:0:
160,128,240692,1,8,0:0:0:0:
160,128,240777,1,0,0:0:0:0:
160,128,240863,1,8,0:0:0:0:
160,128,240949,1,8,0:0:0:0:
160,128,241035,1,0,0:0:0:0:
256,192,241206,8,0,242063,0:0:0:0:
160,128,242406,5,12,0:0:0:0:
160,128,242749,1,12,0:0:0:0:
160,128,243092,1,12,0:0:0:0:
160,128,243777,1,12,0:0:0:0:
160,128,244120,1,12,0:0:0:0:
160,128,244463,1,12,0:0:0:0:
160,128,245149,1,12,0:0:0:0:
160,128,245492,1,4,0:0:0:0:
160,128,245835,1,12,0:0:0:0:
160,128,246520,1,12,0:0:0:0:
160,128,246863,1,12,0:0:0:0:
160,128,247206,1,8,0:0:0:0:
160,128,247292,1,0,0:0:0:0:
160,128,247377,1,0,0:0:0:0:
160,128,247463,1,0,0:0:0:0:
160,128,247549,1,12,0:0:0:0:
160,128,247892,1,0,0:0:0:0:
160,128,247977,1,0,0:0:0:0:
160,128,248063,1,8,0:0:0:0:
160,128,248235,1,8,0:0:0:0:
160,128,248406,1,0,0:0:0:0:
160,128,248492,1,8,0:0:0:0:
160,128,248577,1,0,0:0:0:0:
160,128,248749,1,0,0:0:0:0:
160,128,248835,1,8,0:0:0:0:
160,128,249006,1,0,0:0:0:0:
160,128,249092,1,8,0:0:0:0:
160,128,249177,1,8,0:0:0:0:
160,128,249263,1,0,0:0:0:0:
160,128,249435,1,0,0:0:0:0:
160,128,249520,1,8,0:0:0:0:
160,128,249692,1,8,0:0:0:0:
160,128,249777,1,0,0:0:0:0:
160,128,249949,1,0,0:0:0:0:
160,128,250035,1,8,0:0:0:0:
160,128,250120,1,0,0:0:0:0:
160,128,250206,1,0,0:0:0:0:
160,128,250292,1,8,0:0:0:0:
192,128,250377,1,0,0:0:0:0:
160,128,250463,1,8,0:0:0:0:
160,128,250549,1,8,0:0:0:0:
160,128,250635,1,0,0:0:0:0:
160,128,250720,1,0,0:0:0:0:
160,128,250806,1,8,0:0:0:0:
160,128,250977,1,8,0:0:0:0:
160,160,251063,1,0,0:0:0:0:
160,128,251149,1,0,0:0:0:0:
160,128,251235,1,8,0:0:0:0:
160,128,251320,1,0,0:0:0:0:
160,128,251492,1,0,0:0:0:0:
160,128,251577,1,8,0:0:0:0:
160,128,251749,1,0,0:0:0:0:
160,128,251835,1,8,0:0:0:0:
160,128,251920,1,8,0:0:0:0:
160,128,252006,1,0,0:0:0:0:
160,128,252177,1,0,0:0:0:0:
160,128,252263,1,8,0:0:0:0:
160,128,252349,1,0,0:0:0:0:
160,128,252435,1,8,0:0:0:0:
160,128,252520,1,0,0:0:0:0:
160,128,252692,1,0,0:0:0:0:
160,128,252777,1,8,0:0:0:0:
160,128,252863,1,0,0:0:0:0:
160,128,252949,1,0,0:0:0:0:
160,128,253035,1,8,0:0:0:0:
192,128,253120,1,0,0:0:0:0:
160,128,253206,1,8,0:0:0:0:
160,128,253292,1,8,0:0:0:0:
160,128,253377,1,0,0:0:0:0:
160,128,253463,1,0,0:0:0:0:
160,128,253549,1,8,0:0:0:0:
160,128,253635,1,0,0:0:0:0:
160,128,253720,1,0,0:0:0:0:
160,128,253806,1,0,0:0:0:0:
160,128,253892,1,8,0:0:0:0:
160,128,253977,1,8,0:0:0:0:
160,128,254063,1,8,0:0:0:0:
160,128,254149,1,0,0:0:0:0:
160,128,254235,1,0,0:0:0:0:
160,128,254320,1,8,0:0:0:0:
160,128,254406,1,0,0:0:0:0:
160,128,254492,1,0,0:0:0:0:
160,128,254577,1,8,0:0:0:0:
160,128,254663,1,8,0:0:0:0:
160,128,254749,1,0,0:0:0:0:
160,128,254835,1,0,0:0:0:0:
160,128,254920,1,8,0:0:0:0:
160,128,255006,1,0,0:0:0:0:
160,128,255092,1,0,0:0:0:0:
160,128,255177,1,0,0:0:0:0:
160,128,255263,1,8,0:0:0:0:
160,128,255349,1,8,0:0:0:0:
160,128,255435,1,8,0:0:0:0:
160,128,255520,1,0,0:0:0:0:
160,128,255606,1,0,0:0:0:0:
160,128,255692,1,8,0:0:0:0:
160,128,255777,1,0,0:0:0:0:
160,128,255863,1,0,0:0:0:0:
160,128,255949,1,8,0:0:0:0:
160,128,256035,1,0,0:0:0:0:
160,128,256120,1,8,0:0:0:0:
160,128,256177,1,8,0:0:0:0:
160,128,256235,1,8,0:0:0:0:
160,128,256292,1,0,0:0:0:0:
160,128,256377,1,0,0:0:0:0:
160,128,256463,1,8,0:0:0:0:
160,128,256520,1,8,0:0:0:0:
160,128,256577,1,8,0:0:0:0:
160,128,256635,1,0,0:0:0:0:
160,128,256720,1,0,0:0:0:0:
160,128,256806,1,8,0:0:0:0:
160,128,256863,1,0,0:0:0:0:
160,128,256920,1,0,0:0:0:0:
160,128,256977,1,8,0:0:0:0:
160,128,257063,1,0,0:0:0:0:
160,128,257149,1,8,0:0:0:0:
160,128,257206,1,8,0:0:0:0:
160,128,257263,1,8,0:0:0:0:
160,128,257320,1,8,0:0:0:0:
160,128,257377,1,8,0:0:0:0:
160,128,257435,1,8,0:0:0:0:
160,128,257492,1,0,0:0:0:0:
160,128,257835,1,0,0:0:0:0:
160,128,258177,1,0,0:0:0:0:
160,128,258520,1,12,0:0:0:0:
160,128,258863,1,0,0:0:0:0:
160,128,258949,1,0,0:0:0:0:
160,128,259035,1,8,0:0:0:0:
160,128,259206,1,0,0:0:0:0:
160,128,259292,1,0,0:0:0:0:
160,128,259377,1,8,0:0:0:0:
160,128,259463,1,8,0:0:0:0:
160,128,259549,1,0,0:0:0:0:
160,128,259720,1,0,0:0:0:0:
160,128,259806,1,8,0:0:0:0:
160,128,259977,1,0,0:0:0:0:
160,128,260063,1,8,0:0:0:0:
160,128,260149,1,8,0:0:0:0:
160,128,260235,1,0,0:0:0:0:
160,128,260406,1,0,0:0:0:0:
160,128,260492,1,8,0:0:0:0:
160,128,260663,1,8,0:0:0:0:
160,128,260749,1,0,0:0:0:0:
160,128,260920,1,8,0:0:0:0:
160,128,261092,1,0,0:0:0:0:
160,128,261177,1,0,0:0:0:0:
160,128,261263,1,8,0:0:0:0:
192,128,261349,1,0,0:0:0:0:
160,128,261435,1,8,0:0:0:0:
160,128,261520,1,8,0:0:0:0:
160,128,261606,1,0,0:0:0:0:
160,128,261692,1,0,0:0:0:0:
160,128,261777,1,8,0:0:0:0:
160,128,261949,1,8,0:0:0:0:
160,160,262035,1,0,0:0:0:0:
160,128,262120,1,0,0:0:0:0:
160,128,262206,1,8,0:0:0:0:
160,128,262292,1,0,0:0:0:0:
160,128,262463,1,0,0:0:0:0:
160,128,262549,1,8,0:0:0:0:
160,128,262720,1,0,0:0:0:0:
160,128,262806,1,8,0:0:0:0:
160,128,262892,1,8,0:0:0:0:
160,128,262977,1,0,0:0:0:0:
160,128,263063,1,0,0:0:0:0:
160,128,263149,1,0,0:0:0:0:
160,128,263235,1,8,0:0:0:0:
160,128,263320,1,0,0:0:0:0:
160,128,263406,1,8,0:0:0:0:
160,128,263492,1,8,0:0:0:0:
160,128,263577,1,0,0:0:0:0:
160,128,263663,1,0,0:0:0:0:
160,128,263749,1,8,0:0:0:0:
160,128,263835,1,0,0:0:0:0:
160,128,263920,1,8,0:0:0:0:
160,128,264006,1,8,0:0:0:0:
192,128,264092,1,0,0:0:0:0:
160,128,264177,1,8,0:0:0:0:
160,128,264263,1,8,0:0:0:0:
160,128,264349,1,0,0:0:0:0:
160,128,264435,1,0,0:0:0:0:
160,128,264520,1,8,0:0:0:0:
160,128,264692,1,0,0:0:0:0:
160,128,264777,1,0,0:0:0:0:
160,128,264863,1,8,0:0:0:0:
160,128,264949,1,8,0:0:0:0:
160,128,265035,1,0,0:0:0:0:
160,128,265206,1,8,0:0:0:0:
160,128,265292,1,8,0:0:0:0:
160,128,265463,1,0,0:0:0:0:
160,128,265549,1,8,0:0:0:0:
160,128,265635,1,8,0:0:0:0:
160,128,265720,1,0,0:0:0:0:
160,128,265892,1,0,0:0:0:0:
160,128,265977,1,8,0:0:0:0:
160,128,266149,1,8,0:0:0:0:
160,128,266235,1,0,0:0:0:0:
160,128,266320,1,0,0:0:0:0:
160,128,266406,1,8,0:0:0:0:
160,128,266577,1,8,0:0:0:0:
160,128,266663,1,0,0:0:0:0:
160,128,266749,1,8,0:0:0:0:
192,128,266835,1,8,0:0:0:0:
160,128,266920,1,0,0:0:0:0:
160,128,267006,1,0,0:0:0:0:
160,128,267092,1,8,0:0:0:0:
160,128,267263,1,0,0:0:0:0:
160,128,267349,1,8,0:0:0:0:
160,128,267520,1,8,0:0:0:0:
160,128,267606,1,0,0:0:0:0:
160,128,267777,1,0,0:0:0:0:
160,128,267863,1,8,0:0:0:0:
160,128,267949,1,0,0:0:0:0:
160,128,268035,1,0,0:0:0:0:
160,128,268120,1,8,0:0:0:0:
160,128,268206,1,8,0:0:0:0:
160,128,268292,1,0,0:0:0:0:
160,128,268377,1,0,0:0:0:0:
160,128,268463,1,8,0:0:0:0:
160,128,268635,1,0,0:0:0:0:
160,128,268720,1,8,0:0:0:0:
160,128,268892,1,8,0:0:0:0:
160,128,268977,1,0,0:0:0:0:
160,128,269149,1,0,0:0:0:0:
160,128,269235,1,8,0:0:0:0:
160,128,269320,1,0,0:0:0:0:
160,128,269406,1,0,0:0:0:0:
160,128,269492,1,8,0:0:0:0:
192,128,269577,1,8,0:0:0:0:
160,128,269663,1,0,0:0:0:0:
160,128,269749,1,8,0:0:0:0:
160,128,269835,1,0,0:0:0:0:
160,128,269920,1,0,0:0:0:0:
160,128,270006,1,8,0:0:0:0:
160,128,270177,1,0,0:0:0:0:
160,128,270263,1,0,0:0:0:0:
160,128,270349,1,8,0:0:0:0:
160,128,270435,1,8,0:0:0:0:
160,128,270520,1,0,0:0:0:0:
160,128,270692,1,0,0:0:0:0:
160,128,270777,1,8,0:0:0:0:
160,128,270949,1,0,0:0:0:0:
160,128,271035,1,8,0:0:0:0:
160,128,271120,1,8,0:0:0:0:
160,128,271206,1,0,0:0:0:0:
160,128,271377,1,0,0:0:0:0:
160,128,271463,1,8,0:0:0:0:
160,128,271635,1,8,0:0:0:0:
160,128,271720,1,0,0:0:0:0:
160,128,271892,1,8,0:0:0:0:
160,128,272063,1,0,0:0:0:0:
160,128,272149,1,0,0:0:0:0:
160,128,272235,1,8,0:0:0:0:
192,128,272320,1,0,0:0:0:0:
160,128,272406,1,8,0:0:0:0:
160,128,272492,1,8,0:0:0:0:
160,128,272577,1,0,0:0:0:0:
160,128,272663,1,0,0:0:0:0:
160,128,272749,1,8,0:0:0:0:
160,128,272920,1,8,0:0:0:0:
160,160,273006,1,0,0:0:0:0:
160,128,273092,1,0,0:0:0:0:
160,128,273177,1,8,0:0:0:0:
160,128,273263,1,0,0:0:0:0:
160,128,273435,1,0,0:0:0:0:
160,128,273520,1,8,0:0:0:0:
160,128,273692,1,0,0:0:0:0:
160,128,273777,1,8,0:0:0:0:
160,128,273863,1,8,0:0:0:0:
160,128,273949,1,0,0:0:0:0:
160,128,274035,1,0,0:0:0:0:
160,128,274120,1,0,0:0:0:0:
160,128,274206,1,8,0:0:0:0:
160,128,274292,1,0,0:0:0:0:
160,128,274377,1,8,0:0:0:0:
160,128,274463,1,8,0:0:0:0:
160,128,274549,1,0,0:0:0:0:
160,128,274635,1,0,0:0:0:0:
160,128,274720,1,8,0:0:0:0:
160,128,274806,1,0,0:0:0:0:
160,128,274892,1,8,0:0:0:0:
160,128,274977,1,8,0:0:0:0:
192,128,275063,1,0,0:0:0:0:
160,128,275149,1,8,0:0:0:0:
160,128,275235,1,8,0:0:0:0:
160,128,275320,1,0,0:0:0:0:
160,128,275492,1,0,0:0:0:0:
160,128,275663,1,8,0:0:0:0:
160,128,275749,1,8,0:0:0:0:
160,128,275835,1,0,0:0:0:0:
160,128,275920,1,0,0:0:0:0:
160,128,276006,1,8,0:0:0:0:
160,128,276177,1,0,0:0:0:0:
160,128,276263,1,8,0:0:0:0:
160,128,276435,1,0,0:0:0:0:
160,128,276520,1,8,0:0:0:0:
160,128,276606,1,8,0:0:0:0:
160,128,276692,1,0,0:0:0:0:
160,128,276863,1,0,0:0:0:0:
160,128,277035,1,8,0:0:0:0:
160,128,277120,1,8,0:0:0:0:
160,128,277206,1,0,0:0:0:0:
160,128,277292,1,0,0:0:0:0:
160,128,277377,1,8,0:0:0:0:
160,128,277549,1,0,0:0:0:0:
160,128,277635,1,8,0:0:0:0:
160,128,277720,1,0,0:0:0:0:
192,128,277806,1,0,0:0:0:0:
160,128,277892,1,8,0:0:0:0:
160,128,277977,1,8,0:0:0:0:
160,128,278063,1,0,0:0:0:0:
160,128,278149,1,0,0:0:0:0:
160,128,278235,1,8,0:0:0:0:
160,128,278320,1,0,0:0:0:0:
160,128,278406,1,8,0:0:0:0:
160,128,278492,1,8,0:0:0:0:
160,128,278577,1,0,0:0:0:0:
160,128,278663,1,8,0:0:0:0:
160,128,278749,1,0,0:0:0:0:
160,128,278835,1,0,0:0:0:0:
160,128,278920,1,8,0:0:0:0:
160,128,279006,1,0,0:0:0:0:
160,128,279092,1,8,0:0:0:0:
160,128,279177,1,8,0:0:0:0:
160,128,279263,1,0,0:0:0:0:
160,128,279349,1,8,0:0:0:0:
160,128,279435,1,0,0:0:0:0:
160,128,279606,1,0,0:0:0:0:
160,128,279777,1,8,0:0:0:0:
160,128,279949,1,0,0:0:0:0:
160,128,280120,1,8,0:0:0:0:
160,128,280463,1,8,0:0:0:0:
160,128,280806,1,4,0:0:0:0:
160,128,281149,1,8,0:0:0:0:
160,128,281235,1,8,0:0:0:0:
160,128,281320,1,8,0:0:0:0:
160,128,281406,1,8,0:0:0:0:
160,128,281492,1,0,0:0:0:0:
160,128,281577,1,8,0:0:0:0:
160,128,281663,1,8,0:0:0:0:
160,128,281749,1,8,0:0:0:0:
160,128,281835,1,0,0:0:0:0:
160,128,281920,1,8,0:0:0:0:
160,128,282006,1,8,0:0:0:0:
160,128,282092,1,8,0:0:0:0:
160,128,282177,1,0,0:0:0:0:
160,128,282349,1,0,0:0:0:0:
160,128,282520,1,8,0:0:0:0:
160,128,282606,1,8,0:0:0:0:
160,128,282692,1,8,0:0:0:0:
160,128,282777,1,8,0:0:0:0:
160,128,282863,1,0,0:0:0:0:
160,128,282949,1,8,0:0:0:0:
160,128,283035,1,8,0:0:0:0:
160,128,283120,1,8,0:0:0:0:
160,128,283206,1,0,0:0:0:0:
160,128,283292,1,8,0:0:0:0:
160,128,283377,1,8,0:0:0:0:
160,128,283463,1,8,0:0:0:0:
160,128,283549,1,0,0:0:0:0:
160,128,283806,1,8,0:0:0:0:
160,160,283892,1,0,0:0:0:0:
160,128,284063,1,0,0:0:0:0:
160,128,284120,1,0,0:0:0:0:
160,128,284177,1,0,0:0:0:0:
160,128,284235,1,8,0:0:0:0:
160,128,284320,1,8,0:0:0:0:
160,128,284406,1,8,0:0:0:0:
160,128,284492,1,0,0:0:0:0:
160,128,284577,1,8,0:0:0:0:
160,128,284663,1,8,0:0:0:0:
160,128,284749,1,8,0:0:0:0:
160,128,284835,1,0,0:0:0:0:
160,128,284920,1,8,0:0:0:0:
160,128,285177,1,0,0:0:0:0:
160,128,285263,1,8,0:0:0:0:
160,128,285435,1,0,0:0:0:0:
160,128,285492,1,0,0:0:0:0:
160,128,285549,1,0,0:0:0:0:
160,128,285606,1,8,0:0:0:0:
160,128,285692,1,8,0:0:0:0:
160,128,285777,1,8,0:0:0:0:
160,128,285863,1,0,0:0:0:0:
160,128,285949,1,8,0:0:0:0:
192,128,286035,1,8,0:0:0:0:
160,128,286120,1,8,0:0:0:0:
160,128,286206,1,8,0:0:0:0:
160,128,286292,1,0,0:0:0:0:
160,128,286549,1,8,0:0:0:0:
160,128,286635,1,0,0:0:0:0:
192,128,286806,1,8,0:0:0:0:
192,128,286977,1,0,0:0:0:0:
192,128,287063,1,0,0:0:0:0:
192,128,287149,1,8,0:0:0:0:
224,128,287320,1,0,0:0:0:0:
192,128,287406,1,8,0:0:0:0:
192,128,287492,1,0,0:0:0:0:
192,128,287663,1,0,0:0:0:0:
192,128,287920,1,8,0:0:0:0:
192,128,288006,1,0,0:0:0:0:
192,128,288177,1,8,0:0:0:0:
192,128,288349,1,0,0:0:0:0:
192,128,288435,1,0,0:0:0:0:
192,128,288520,1,8,0:0:0:0:
192,128,288606,1,0,0:0:0:0:
192,128,288692,1,8,0:0:0:0:
192,128,288777,1,0,0:0:0:0:
192,128,288863,1,8,0:0:0:0:
192,128,288949,1,8,0:0:0:0:
192,128,289035,1,0,0:0:0:0:
160,128,289206,1,0,0:0:0:0:
160,128,289292,1,0,0:0:0:0:
192,128,289377,1,8,0:0:0:0:
192,128,289549,1,0,0:0:0:0:
192,128,289720,1,8,0:0:0:0:
192,128,289806,1,8,0:0:0:0:
192,128,289892,1,0,0:0:0:0:
192,128,289977,1,0,0:0:0:0:
192,128,290063,1,8,0:0:0:0:
192,128,290235,1,8,0:0:0:0:
192,128,290406,1,0,0:0:0:0:
192,128,290577,1,0,0:0:0:0:
192,128,290749,1,8,0:0:0:0:
192,128,290920,1,0,0:0:0:0:
192,128,291092,1,8,0:0:0:0:
192,128,291435,1,0,0:0:0:0:
160,128,291777,1,4,0:0:0:0:
160,128,292120,1,8,0:0:0:0:
160,128,292206,1,8,0:0:0:0:
160,128,292292,1,8,0:0:0:0:
160,128,292377,1,8,0:0:0:0:
160,128,292463,1,0,0:0:0:0:
160,128,292549,1,8,0:0:0:0:
160,128,292635,1,8,0:0:0:0:
160,128,292720,1,8,0:0:0:0:
160,128,292806,1,0,0:0:0:0:
160,128,292892,1,8,0:0:0:0:
160,128,292977,1,8,0:0:0:0:
160,128,293063,1,8,0:0:0:0:
160,128,293149,1,0,0:0:0:0:
160,128,293320,1,0,0:0:0:0:
160,128,293492,1,8,0:0:0:0:
160,128,293577,1,8,0:0:0:0:
160,128,293663,1,8,0:0:0:0:
160,128,293749,1,8,0:0:0:0:
160,128,293835,1,0,0:0:0:0:
160,128,293920,1,8,0:0:0:0:
160,128,294006,1,8,0:0:0:0:
160,128,294092,1,8,0:0:0:0:
160,128,294177,1,0,0:0:0:0:
160,128,294263,1,8,0:0:0:0:
160,128,294349,1,8,0:0:0:0:
160,128,294435,1,8,0:0:0:0:
160,128,294520,1,0,0:0:0:0:
160,128,294777,1,8,0:0:0:0:
160,160,294863,1,0,0:0:0:0:
160,128,295035,1,0,0:0:0:0:
160,128,295092,1,0,0:0:0:0:
160,128,295149,1,0,0:0:0:0:
160,128,295206,1,8,0:0:0:0:
160,128,295292,1,8,0:0:0:0:
160,128,295377,1,8,0:0:0:0:
160,128,295463,1,0,0:0:0:0:
160,128,295549,1,8,0:0:0:0:
160,128,295635,1,8,0:0:0:0:
160,128,295720,1,8,0:0:0:0:
160,128,295806,1,0,0:0:0:0:
160,128,295892,1,8,0:0:0:0:
160,128,296149,1,8,0:0:0:0:
160,128,296235,1,0,0:0:0:0:
160,128,296406,1,0,0:0:0:0:
160,128,296463,1,0,0:0:0:0:
160,128,296520,1,0,0:0:0:0:
160,128,296577,1,8,0:0:0:0:
160,128,296663,1,8,0:0:0:0:
160,128,296749,1,8,0:0:0:0:
160,128,296835,1,0,0:0:0:0:
160,128,296920,1,8,0:0:0:0:
192,128,297006,1,8,0:0:0:0:
160,128,297092,1,8,0:0:0:0:
160,128,297177,1,0,0:0:0:0:
160,128,297263,1,8,0:0:0:0:
192,128,297435,1,0,0:0:0:0:
160,128,297520,1,0,0:0:0:0:
160,128,297606,1,8,0:0:0:0:
192,128,297692,1,0,0:0:0:0:
192,128,297777,1,8,0:0:0:0:
192,128,297863,1,8,0:0:0:0:
192,128,297949,1,0,0:0:0:0:
192,128,298035,1,0,0:0:0:0:
192,128,298120,1,8,0:0:0:0:
192,128,298206,1,8,0:0:0:0:
224,128,298292,1,0,0:0:0:0:
192,128,298377,1,0,0:0:0:0:
192,128,298463,1,0,0:0:0:0:
192,128,298549,1,0,0:0:0:0:
192,128,298635,1,8,0:0:0:0:
192,128,298720,1,0,0:0:0:0:
192,128,298806,1,0,0:0:0:0:
192,128,298892,1,0,0:0:0:0:
192,128,298977,1,8,0:0:0:0:
192,128,299063,1,0,0:0:0:0:
192,128,299149,1,8,0:0:0:0:
192,128,299235,1,8,0:0:0:0:
192,128,299320,1,0,0:0:0:0:
192,128,299406,1,0,0:0:0:0:
192,128,299492,1,8,0:0:0:0:
192,128,299577,1,0,0:0:0:0:
192,128,299663,1,8,0:0:0:0:
192,128,299749,1,0,0:0:0:0:
192,128,299835,1,8,0:0:0:0:
192,128,299920,1,0,0:0:0:0:
192,128,300006,1,8,0:0:0:0:
192,128,300063,1,8,0:0:0:0:
192,128,300120,1,8,0:0:0:0:
192,128,300177,1,0,0:0:0:0:
192,128,300263,1,0,0:0:0:0:
192,128,300349,1,8,0:0:0:0:
192,128,300406,1,8,0:0:0:0:
192,128,300463,1,8,0:0:0:0:
192,128,300520,1,0,0:0:0:0:
192,128,300606,1,0,0:0:0:0:
192,128,300692,1,8,0:0:0:0:
192,128,300749,1,0,0:0:0:0:
192,128,300806,1,0,0:0:0:0:
192,128,300863,1,8,0:0:0:0:
192,128,300949,1,0,0:0:0:0:
192,128,301035,1,8,0:0:0:0:
192,128,301092,1,8,0:0:0:0:
192,128,301149,1,8,0:0:0:0:
192,128,301206,1,8,0:0:0:0:
192,128,301263,1,8,0:0:0:0:
192,128,301320,1,8,0:0:0:0:
192,128,301377,1,0,0:0:0:0:
192,128,301720,1,8,0:0:0:0:
192,128,302063,1,8,0:0:0:0:
192,128,302406,1,4,0:0:0:0:
160,160,302749,1,12,0:0:0:0:
160,160,303263,1,0,0:0:0:0:
160,160,303349,1,8,0:0:0:0:
160,160,303435,1,0,0:0:0:0:
160,160,303606,1,0,0:0:0:0:
160,160,303777,1,8,0:0:0:0:
160,160,303949,1,0,0:0:0:0:
160,160,304120,1,8,0:0:0:0:
160,160,304463,1,8,0:0:0:0:
160,160,304635,1,8,0:0:0:0:
160,160,304806,1,0,0:0:0:0:
160,160,305149,1,0,0:0:0:0:
160,160,305320,1,0,0:0:0:0:
160,160,305492,1,12,0:0:0:0:
160,160,305663,1,8,0:0:0:0:
160,160,305835,1,0,0:0:0:0:
160,160,306006,1,8,0:0:0:0:
160,160,306177,1,4,0:0:0:0:
160,160,306520,1,12,0:0:0:0:
160,160,306863,1,4,0:0:0:0:
256,192,307035,8,0,312349,0:0:0:0:
