osu file format v14

[General]
AudioFilename: audio.mp3
AudioLeadIn: 0
PreviewTime: 253495
Countdown: 0
SampleSet: Soft
StackLeniency: 0.8
Mode: 3
LetterboxInBreaks: 0
SpecialStyle: 0
WidescreenStoryboard: 0

[Editor]
DistanceSpacing: 1.1
BeatDivisor: 4
GridSize: 4
TimelineZoom: 1.4

[Metadata]
Title:Cycle Hit
TitleUnicode:サイクルヒット
Artist:KASAI HARCORES
ArtistUnicode:葛西ハーコーズ
Creator:Dubstek
Version:Natural Cycle
Source:
Tags:DJ Genki Genkianamei かめりあ かめるかめりあ Kamelcamellia Cametek Camellia C-Show EP2 Episode of pro Allstars Baseball 葛西西高校 Nishi High School M3-39 Marathon instrumental Other
BeatmapID:1573892
BeatmapSetID:746817

[Difficulty]
HPDrainRate:8.5
CircleSize:4
OverallDifficulty:8.5
ApproachRate:5
SliderMultiplier:2.99999990463257
SliderTickRate:1

[Events]
//Background and Video events
0,0,"bg.jpg",0,0
//Break Periods
//Storyboard Layer 0 (Background)
//Storyboard Layer 1 (Fail)
//Storyboard Layer 2 (Pass)
//Storyboard Layer 3 (Foreground)
//Storyboard Sound Samples

[TimingPoints]
1153,342.857142857143,4,2,1,70,1,0
11438,-35.7142857142857,4,2,1,70,0,0
11481,-45.4545454545455,4,2,1,70,0,0
11524,-200,4,2,1,70,0,0
11781,-35.7142857142857,4,2,1,70,0,0
11824,-45.4545454545455,4,2,1,70,0,0
11867,-200,4,2,1,70,0,0
12124,-100,4,2,1,70,0,0
23095,-333.333333333333,4,2,1,70,0,0
23309,-90.9090909090909,4,2,1,70,0,0
23352,-52.6315789473684,4,2,1,70,0,0
23395,-37.037037037037,4,2,1,70,0,0
23437,-333.333333333333,4,2,1,70,0,0
23652,-90.9090909090909,4,2,1,70,0,0
23695,-52.6315789473684,4,2,1,70,0,0
23737,-37.037037037037,4,2,1,70,0,0
23780,-333.333333333333,4,2,1,70,0,0
24338,-90.9090909090909,4,2,1,70,0,0
24381,-52.6315789473684,4,2,1,70,0,0
24424,-37.037037037037,4,2,1,70,0,0
24466,-333.333333333333,4,2,1,70,0,0
24680,-90.9090909090909,4,2,1,70,0,0
24723,-52.6315789473684,4,2,1,70,0,0
24766,-37.037037037037,4,2,1,70,0,0
24809,-333.333333333333,4,2,1,70,0,0
25023,-90.9090909090909,4,2,1,70,0,0
25066,-52.6315789473684,4,2,1,70,0,0
25109,-37.037037037037,4,2,1,70,0,0
25152,-333.333333333333,4,2,1,70,0,0
25710,-90.9090909090909,4,2,1,70,0,0
25753,-52.6315789473684,4,2,1,70,0,0
25795,-37.037037037037,4,2,1,70,0,0
25837,-333.333333333333,4,2,1,70,0,0
26053,-90.9090909090909,4,2,1,70,0,0
26095,-52.6315789473684,4,2,1,70,0,0
26138,-37.037037037037,4,2,1,70,0,0
26180,-333.333333333333,4,2,1,70,0,0
26395,-90.9090909090909,4,2,1,70,0,0
26438,-52.6315789473684,4,2,1,70,0,0
26481,-37.037037037037,4,2,1,70,0,0
26524,-333.333333333333,4,2,1,70,0,0
27081,-90.9090909090909,4,2,1,70,0,0
27124,-52.6315789473684,4,2,1,70,0,0
27167,-37.037037037037,4,2,1,70,0,0
27210,-333.333333333333,4,2,1,70,0,0
27424,-90.9090909090909,4,2,1,70,0,0
27467,-52.6315789473684,4,2,1,70,0,0
27510,-37.037037037037,4,2,1,70,0,0
27553,-35.7142857142857,4,2,1,70,0,0
27595,-250.000000000001,4,2,1,70,0,0
27724,-100,4,2,1,70,0,0
28238,-35.7142857142857,4,2,1,70,0,0
28324,-250.000000000013,4,2,1,70,0,0
28581,-100,4,2,1,70,0,0
34067,-76.9230769230769,4,2,1,70,0,0
34110,-142.857142857143,4,2,1,70,0,0
34153,-100,4,2,1,70,0,0
34410,-76.9230769230769,4,2,1,70,0,0
34453,-142.857142857143,4,2,1,70,0,0
34495,-100,4,2,1,70,0,0
34753,-66.6666666666667,4,2,1,70,0,0
34795,-200,4,2,1,70,0,0
34838,-100,4,2,1,70,0,0
35095,-66.6666666666667,4,2,1,70,0,0
35138,-200,4,2,1,70,0,0
35181,-100,4,2,1,70,0,0
35438,-58.8235294117647,4,2,1,70,0,0
35481,-333.333333333334,4,2,1,70,0,0
35524,-100,4,2,1,70,0,0
35781,-58.8235294117647,4,2,1,70,0,0
35824,-250.000000000001,4,2,1,70,0,0
35867,-100,4,2,1,70,0,0
36124,-52.6315789473684,4,2,1,70,0,0
36167,-1000,4,2,1,70,0,0
36210,-100,4,2,1,70,0,0
36467,-52.6315789473684,4,2,1,70,0,0
36510,-1000,4,2,1,70,0,0
36553,-100,4,2,1,70,0,0
36810,-58.8235294117654,4,2,1,5,0,0
36831,-333.333333333333,4,2,1,5,0,0
36853,-58.8235294117654,4,2,1,5,0,0
36874,-333.333333333333,4,2,1,5,0,0
36895,-58.8235294117654,4,2,1,5,0,0
36917,-333.333333333333,4,2,1,5,0,0
36938,-58.8235294117654,4,2,1,5,0,0
36960,-333.333333333333,4,2,1,5,0,0
36981,-58.8235294117654,4,2,1,5,0,0
37003,-333.333333333333,4,2,1,5,0,0
37024,-58.8235294117654,4,2,1,5,0,0
37045,-333.333333333333,4,2,1,5,0,0
37067,-58.8235294117654,4,2,1,5,0,0
37088,-333.333333333333,4,2,1,5,0,0
37110,-58.8235294117654,4,2,1,5,0,0
37131,-333.333333333333,4,2,1,5,0,0
37153,-58.8235294117654,4,2,1,10,0,0
37174,-333.333333333333,4,2,1,10,0,0
37195,-58.8235294117654,4,2,1,10,0,0
37217,-333.333333333333,4,2,1,10,0,0
37238,-58.8235294117654,4,2,1,10,0,0
37260,-333.333333333333,4,2,1,10,0,0
37281,-58.8235294117654,4,2,1,10,0,0
37303,-333.333333333333,4,2,1,10,0,0
37324,-58.8235294117654,4,2,1,10,0,0
37345,-333.333333333333,4,2,1,10,0,0
37367,-58.8235294117654,4,2,1,10,0,0
37388,-333.333333333333,4,2,1,10,0,0
37410,-58.8235294117654,4,2,1,10,0,0
37431,-333.333333333333,4,2,1,10,0,0
37453,-58.8235294117654,4,2,1,10,0,0
37474,-333.333333333333,4,2,1,10,0,0
37495,-58.8235294117654,4,2,1,30,0,0
37517,-333.333333333333,4,2,1,30,0,0
37538,-58.8235294117654,4,2,1,30,0,0
37560,-333.333333333333,4,2,1,30,0,0
37581,-58.8235294117654,4,2,1,30,0,0
37603,-333.333333333333,4,2,1,30,0,0
37624,-58.8235294117654,4,2,1,30,0,0
37645,-333.333333333333,4,2,1,30,0,0
37667,-58.8235294117654,4,2,1,30,0,0
37688,-333.333333333333,4,2,1,30,0,0
37710,-58.8235294117654,4,2,1,30,0,0
37731,-333.333333333333,4,2,1,30,0,0
37753,-58.8235294117654,4,2,1,30,0,0
37774,-333.333333333333,4,2,1,30,0,0
37795,-58.8235294117654,4,2,1,30,0,0
37817,-333.333333333333,4,2,1,30,0,0
37838,-58.8235294117654,4,2,1,50,0,0
37860,-333.333333333333,4,2,1,50,0,0
37881,-58.8235294117654,4,2,1,50,0,0
37903,-333.333333333333,4,2,1,50,0,0
37924,-58.8235294117654,4,2,1,50,0,0
37945,-333.333333333333,4,2,1,50,0,0
37967,-62.5000000000008,4,2,1,50,0,0
37988,-333.333333333333,4,2,1,50,0,0
38010,-58.8235294117654,4,2,1,50,0,0
38031,-333.333333333333,4,2,1,50,0,0
38053,-58.8235294117654,4,2,1,50,0,0
38074,-333.333333333333,4,2,1,50,0,0
38095,-58.8235294117654,4,2,1,50,0,0
38117,-333.333333333333,4,2,1,50,0,0
38138,-58.8235294117654,4,2,1,50,0,0
38160,-333.333333333333,4,2,1,50,0,0
38181,-100,4,2,1,70,0,0
39553,-41.6666666666667,4,2,1,70,0,1
39595,-166.666666666667,4,2,1,70,0,1
39724,-100,4,2,1,70,0,1
40924,-41.6666666666667,4,2,1,70,0,1
40967,-166.666666666667,4,2,1,70,0,1
41095,-100,4,2,1,70,0,1
42295,-41.6666666666667,4,2,1,70,0,1
42338,-166.666666666667,4,2,1,70,0,1
42467,-100,4,2,1,70,0,1
43667,-41.6666666666667,4,2,1,70,0,1
43710,-166.666666666667,4,2,1,70,0,1
43838,-100,4,2,1,70,0,1
45038,-41.6666666666667,4,2,1,70,0,1
45081,-166.666666666667,4,2,1,70,0,1
45210,-100,4,2,1,70,0,1
46410,-41.6666666666667,4,2,1,70,0,1
46453,-166.666666666667,4,2,1,70,0,1
46581,-100,4,2,1,70,0,1
47781,-41.6666666666667,4,2,1,70,0,1
47824,-166.666666666667,4,2,1,70,0,1
47953,-100,4,2,1,70,0,1
49153,-41.6666666666667,4,2,1,70,0,1
49195,-166.666666666667,4,2,1,70,0,1
49324,-100,4,2,1,70,0,1
49495,-41.6666666666667,4,2,1,70,0,1
49538,-166.666666666667,4,2,1,70,0,1
49667,-100,4,2,1,70,0,1
49838,-41.6666666666667,4,2,1,70,0,1
49881,-166.666666666667,4,2,1,70,0,1
50010,-100,4,2,1,70,0,1
50181,-52.6315789473684,4,2,1,70,0,1
50224,-1000,4,2,1,70,0,1
50267,-52.6315789473684,4,2,1,70,0,1
50310,-1000,4,2,1,70,0,1
50353,-52.6315789473684,4,2,1,70,0,1
50395,-1000,4,2,1,70,0,1
50438,-52.6315789473684,4,2,1,70,0,1
50481,-1000,4,2,1,70,0,1
50524,-35.7142857142857,4,2,1,70,0,1
50610,-250,4,2,1,70,0,1
50867,-100,4,2,1,70,0,1
51895,-41.6666666666667,4,2,1,70,0,1
51938,-166.666666666667,4,2,1,70,0,1
52067,-100,4,2,1,70,0,1
53267,-41.6666666666667,4,2,1,70,0,1
53310,-166.666666666667,4,2,1,70,0,1
53438,-100,4,2,1,70,0,1
54638,-41.6666666666667,4,2,1,70,0,1
54681,-166.666666666667,4,2,1,70,0,1
54810,-100,4,2,1,70,0,1
56010,-41.6666666666667,4,2,1,70,0,1
56053,-166.666666666667,4,2,1,70,0,1
56181,-100,4,2,1,70,0,1
57381,-41.6666666666667,4,2,1,70,0,1
57424,-166.666666666667,4,2,1,70,0,1
57553,-100,4,2,1,70,0,1
60124,-58.8235294117654,4,2,1,5,0,1
60145,-333.333333333333,4,2,1,5,0,1
60167,-58.8235294117654,4,2,1,5,0,1
60188,-333.333333333333,4,2,1,5,0,1
60210,-58.8235294117654,4,2,1,5,0,1
60231,-333.333333333333,4,2,1,5,0,1
60253,-58.8235294117654,4,2,1,5,0,1
60274,-333.333333333333,4,2,1,5,0,1
60295,-58.8235294117654,4,2,1,5,0,1
60317,-333.333333333333,4,2,1,5,0,1
60338,-58.8235294117654,4,2,1,5,0,1
60360,-333.333333333333,4,2,1,5,0,1
60381,-58.8235294117654,4,2,1,5,0,1
60403,-333.333333333333,4,2,1,5,0,1
60424,-58.8235294117654,4,2,1,5,0,1
60445,-333.333333333333,4,2,1,5,0,1
60467,-58.8235294117654,4,2,1,10,0,1
60488,-333.333333333333,4,2,1,10,0,1
60510,-58.8235294117654,4,2,1,10,0,1
60531,-333.333333333333,4,2,1,10,0,1
60553,-58.8235294117654,4,2,1,10,0,1
60574,-333.333333333333,4,2,1,10,0,1
60595,-58.8235294117654,4,2,1,10,0,1
60617,-333.333333333333,4,2,1,10,0,1
60638,-58.8235294117654,4,2,1,10,0,1
60660,-333.333333333333,4,2,1,10,0,1
60681,-58.8235294117654,4,2,1,10,0,1
60703,-333.333333333333,4,2,1,10,0,1
60724,-58.8235294117654,4,2,1,10,0,1
60745,-333.333333333333,4,2,1,10,0,1
60767,-58.8235294117654,4,2,1,10,0,1
60788,-333.333333333333,4,2,1,10,0,1
60810,-58.8235294117654,4,2,1,30,0,1
60831,-333.333333333333,4,2,1,30,0,1
60853,-58.8235294117654,4,2,1,30,0,1
60874,-333.333333333333,4,2,1,30,0,1
60895,-58.8235294117654,4,2,1,30,0,1
60917,-333.333333333333,4,2,1,30,0,1
60938,-58.8235294117654,4,2,1,30,0,1
60960,-333.333333333333,4,2,1,30,0,1
60981,-58.8235294117654,4,2,1,30,0,1
61003,-333.333333333333,4,2,1,30,0,1
61024,-58.8235294117654,4,2,1,30,0,1
61045,-333.333333333333,4,2,1,30,0,1
61067,-58.8235294117654,4,2,1,30,0,1
61088,-333.333333333333,4,2,1,30,0,1
61110,-58.8235294117654,4,2,1,30,0,1
61131,-333.333333333333,4,2,1,30,0,1
61153,-58.8235294117654,4,2,1,50,0,1
61174,-333.333333333333,4,2,1,50,0,1
61195,-58.8235294117654,4,2,1,50,0,1
61217,-333.333333333333,4,2,1,50,0,1
61238,-58.8235294117654,4,2,1,50,0,1
61260,-333.333333333333,4,2,1,50,0,1
61281,-58.8235294117654,4,2,1,50,0,1
61303,-333.333333333333,4,2,1,50,0,1
61324,-58.8235294117654,4,2,1,50,0,1
61345,-333.333333333333,4,2,1,50,0,1
61367,-58.8235294117654,4,2,1,50,0,1
61388,-333.333333333333,4,2,1,50,0,1
61410,-58.8235294117654,4,2,1,50,0,1
61431,-333.333333333333,4,2,1,50,0,1
61453,-58.8235294117654,4,2,1,50,0,1
61474,-333.333333333333,4,2,1,50,0,1
61495,-100,4,2,1,70,0,0
72124,-35.7142857142857,4,2,1,70,0,0
72210,-250,4,2,1,70,0,0
72467,-100,4,2,1,70,0,0
77953,-41.6666666666667,4,2,1,70,0,0
78038,-166.666666666667,4,2,1,70,0,0
78295,-100,4,2,1,70,0,0
79324,-41.6666666666667,4,2,1,70,0,0
79410,-166.666666666667,4,2,1,70,0,0
79667,-100,4,2,1,70,0,0
80695,-66.6666666666667,4,2,1,70,0,0
80781,-200,4,2,1,70,0,0
80867,-100,4,2,1,70,0,0
81038,-66.6666666666667,4,2,1,70,0,0
81124,-200,4,2,1,70,0,0
81210,-100,4,2,1,70,0,0
81381,-66.6666666666667,4,2,1,70,0,0
81467,-200,4,2,1,70,0,0
81553,-100,4,2,1,70,0,0
83095,-333.333333333333,4,2,1,70,0,0
83310,-90.9090909090926,4,2,1,70,0,0
83353,-52.631578947369,4,2,1,70,0,0
83395,-37.0370370370373,4,2,1,70,0,0
83438,-100,4,2,1,70,0,0
88924,-76.9230769230769,4,2,1,70,0,0
88967,-142.857142857143,4,2,1,70,0,0
89010,-100,4,2,1,70,0,0
89267,-76.9230769230769,4,2,1,70,0,0
89310,-142.857142857143,4,2,1,70,0,0
89353,-100,4,2,1,70,0,0
89610,-66.6666666666667,4,2,1,70,0,0
89653,-200,4,2,1,70,0,0
89695,-100,4,2,1,70,0,0
89953,-66.6666666666667,4,2,1,70,0,0
89995,-200,4,2,1,70,0,0
90038,-100,4,2,1,70,0,0
90295,-58.8235294117647,4,2,1,70,0,0
90338,-333.333333333333,4,2,1,70,0,0
90381,-100,4,2,1,70,0,0
90638,-58.8235294117647,4,2,1,70,0,0
90681,-333.333333333333,4,2,1,70,0,0
90724,-100,4,2,1,70,0,0
90981,-52.6315789473684,4,2,1,70,0,0
91024,-1000,4,2,1,70,0,0
91067,-100,4,2,1,70,0,0
91324,-52.6315789473684,4,2,1,70,0,0
91367,-1000,4,2,1,70,0,0
91410,-100,4,2,1,70,0,0
91667,-58.8235294117654,4,2,1,5,0,0
91688,-333.333333333333,4,2,1,5,0,0
91710,-58.8235294117654,4,2,1,5,0,0
91731,-333.333333333333,4,2,1,5,0,0
91753,-58.8235294117654,4,2,1,5,0,0
91774,-333.333333333333,4,2,1,5,0,0
91796,-58.8235294117654,4,2,1,5,0,0
91817,-333.333333333333,4,2,1,5,0,0
91838,-58.8235294117654,4,2,1,5,0,0
91860,-333.333333333333,4,2,1,5,0,0
91881,-58.8235294117654,4,2,1,5,0,0
91903,-333.333333333333,4,2,1,5,0,0
91924,-58.8235294117654,4,2,1,5,0,0
91945,-333.333333333333,4,2,1,5,0,0
91967,-58.8235294117654,4,2,1,5,0,0
91988,-333.333333333333,4,2,1,5,0,0
92010,-58.8235294117654,4,2,1,10,0,0
92031,-333.333333333333,4,2,1,10,0,0
92053,-58.8235294117654,4,2,1,10,0,0
92074,-333.333333333333,4,2,1,10,0,0
92096,-58.8235294117654,4,2,1,10,0,0
92117,-333.333333333333,4,2,1,10,0,0
92138,-58.8235294117654,4,2,1,10,0,0
92160,-333.333333333333,4,2,1,10,0,0
92181,-58.8235294117654,4,2,1,10,0,0
92203,-333.333333333333,4,2,1,10,0,0
92224,-58.8235294117654,4,2,1,10,0,0
92245,-333.333333333333,4,2,1,10,0,0
92267,-58.8235294117654,4,2,1,10,0,0
92288,-333.333333333333,4,2,1,10,0,0
92310,-58.8235294117654,4,2,1,10,0,0
92331,-333.333333333333,4,2,1,10,0,0
92353,-58.8235294117654,4,2,1,30,0,0
92374,-333.333333333333,4,2,1,30,0,0
92396,-58.8235294117654,4,2,1,30,0,0
92417,-333.333333333333,4,2,1,30,0,0
92438,-58.8235294117654,4,2,1,30,0,0
92460,-333.333333333333,4,2,1,30,0,0
92481,-58.8235294117654,4,2,1,30,0,0
92503,-333.333333333333,4,2,1,30,0,0
92524,-58.8235294117654,4,2,1,50,0,0
92545,-333.333333333333,4,2,1,50,0,0
92567,-58.8235294117654,4,2,1,50,0,0
92588,-333.333333333333,4,2,1,50,0,0
92610,-58.8235294117654,4,2,1,50,0,0
92631,-333.333333333333,4,2,1,50,0,0
92653,-58.8235294117654,4,2,1,50,0,0
92674,-333.333333333333,4,2,1,50,0,0
92696,-58.8235294117654,4,2,1,50,0,0
92717,-333.333333333333,4,2,1,50,0,0
92738,-58.8235294117654,4,2,1,50,0,0
92760,-333.333333333333,4,2,1,50,0,0
92781,-58.8235294117654,4,2,1,50,0,0
92803,-333.333333333333,4,2,1,50,0,0
92824,-58.8235294117654,4,2,1,50,0,0
92845,-333.333333333333,4,2,1,50,0,0
92867,-58.8235294117654,4,2,1,50,0,0
92888,-333.333333333333,4,2,1,50,0,0
92910,-58.8235294117654,4,2,1,50,0,0
92931,-333.333333333333,4,2,1,50,0,0
92953,-58.8235294117654,4,2,1,50,0,0
92974,-333.333333333333,4,2,1,50,0,0
92996,-58.8235294117654,4,2,1,50,0,0
93017,-333.333333333333,4,2,1,50,0,0
93038,-100,4,2,1,70,0,0
94410,-100,4,2,1,70,0,1
94924,-55.5555555555562,4,2,1,70,0,1
94945,-500,4,2,1,70,0,1
94967,-55.5555555555562,4,2,1,70,0,1
94988,-500,4,2,1,70,0,1
95010,-55.5555555555562,4,2,1,70,0,1
95031,-500,4,2,1,70,0,1
95053,-55.5555555555562,4,2,1,70,0,1
95074,-500,4,2,1,70,0,1
95095,-100,4,2,1,70,0,1
96295,-55.5555555555562,4,2,1,70,0,1
96317,-500,4,2,1,70,0,1
96338,-55.5555555555562,4,2,1,70,0,1
96360,-500,4,2,1,70,0,1
96381,-55.5555555555562,4,2,1,70,0,1
96403,-500,4,2,1,70,0,1
96424,-55.5555555555562,4,2,1,70,0,1
96445,-500,4,2,1,70,0,1
96467,-100,4,2,1,70,0,1
98695,-41.6666666666667,4,2,1,70,0,1
98738,-166.666666666667,4,2,1,70,0,1
98867,-41.6666666666667,4,2,1,70,0,1
98910,-166.666666666667,4,2,1,70,0,1
99038,-41.6666666666667,4,2,1,70,0,1
99081,-166.666666666667,4,2,1,70,0,1
99210,-41.6666666666667,4,2,1,70,0,1
99253,-166.666666666667,4,2,1,70,0,1
99381,-41.6666666666667,4,2,1,70,0,1
99424,-166.666666666667,4,2,1,70,0,1
99553,-41.6666666666667,4,2,1,70,0,1
99595,-166.666666666667,4,2,1,70,0,1
99724,-100,4,2,1,70,0,1
99895,-52.6315789473684,4,2,1,70,0,1
99938,-1000,4,2,1,70,0,1
99981,-52.6315789473684,4,2,1,70,0,1
100024,-1000,4,2,1,70,0,1
100067,-100,4,2,1,70,0,1
100410,-55.5555555555562,4,2,1,70,0,1
100431,-500,4,2,1,70,0,1
100453,-55.5555555555562,4,2,1,70,0,1
100474,-500,4,2,1,70,0,1
100495,-55.5555555555562,4,2,1,70,0,1
100517,-500,4,2,1,70,0,1
100538,-55.5555555555562,4,2,1,70,0,1
100560,-500,4,2,1,70,0,1
100581,-100,4,2,1,70,0,1
101781,-55.5555555555562,4,2,1,70,0,1
101803,-500,4,2,1,70,0,1
101824,-55.5555555555562,4,2,1,70,0,1
101845,-500,4,2,1,70,0,1
101867,-55.5555555555562,4,2,1,70,0,1
101888,-500,4,2,1,70,0,1
101910,-55.5555555555562,4,2,1,70,0,1
101931,-500,4,2,1,70,0,1
101953,-100,4,2,1,70,0,1
105895,-55.5555555555562,4,2,1,70,0,1
105917,-500,4,2,1,70,0,1
105938,-55.5555555555562,4,2,1,70,0,1
105960,-500,4,2,1,70,0,1
105981,-55.5555555555562,4,2,1,70,0,1
106003,-500,4,2,1,70,0,1
106024,-55.5555555555562,4,2,1,70,0,1
106045,-500,4,2,1,70,0,1
106067,-100,4,2,1,70,0,1
106753,-52.6315789473684,4,2,1,70,0,1
106795,-1000,4,2,1,70,0,1
106838,-52.6315789473684,4,2,1,70,0,1
106881,-1000,4,2,1,70,0,1
106924,-52.6315789473684,4,2,1,70,0,1
106967,-1000,4,2,1,70,0,1
107010,-100,4,2,1,70,0,1
107267,-55.5555555555562,4,2,1,70,0,1
107288,-500,4,2,1,70,0,1
107310,-55.5555555555562,4,2,1,70,0,1
107331,-500,4,2,1,70,0,1
107353,-55.5555555555562,4,2,1,70,0,1
107374,-500,4,2,1,70,0,1
107395,-55.5555555555562,4,2,1,70,0,1
107417,-500,4,2,1,70,0,1
107438,-100,4,2,1,70,0,1
109495,-250,4,2,1,70,0,1
109581,-76.9230769230769,4,2,1,70,0,1
109753,-100,4,2,1,70,0,1
109838,-250,4,2,1,70,0,1
109924,-76.9230769230769,4,2,1,70,0,1
110010,-100,4,2,1,70,0,1
110181,-250,4,2,1,70,0,1
110267,-76.9230769230769,4,2,1,70,0,1
110353,-250,4,2,1,70,0,1
110438,-76.9230769230769,4,2,1,70,0,1
110524,-100,4,2,1,70,0,1
110610,-250,4,2,1,70,0,1
110695,-76.9230769230769,4,2,1,70,0,1
110781,-100,4,2,1,70,0,1
111381,-55.5555555555562,4,2,1,70,0,1
111403,-500,4,2,1,70,0,1
111424,-55.5555555555562,4,2,1,70,0,1
111445,-500,4,2,1,70,0,1
111467,-55.5555555555562,4,2,1,70,0,1
111488,-500,4,2,1,70,0,1
111510,-55.5555555555562,4,2,1,70,0,1
111531,-500,4,2,1,70,0,1
111553,-100,4,2,1,70,0,1
112238,-52.6315789473684,4,2,1,70,0,1
112281,-1000,4,2,1,70,0,1
112324,-52.6315789473684,4,2,1,70,0,1
112367,-1000,4,2,1,70,0,1
112410,-52.6315789473684,4,2,1,70,0,1
112453,-1000,4,2,1,70,0,1
112495,-100,4,2,1,70,0,1
112753,-55.5555555555562,4,2,1,70,0,1
112774,-500,4,2,1,70,0,1
112795,-55.5555555555562,4,2,1,70,0,1
112817,-500,4,2,1,70,0,1
112838,-55.5555555555562,4,2,1,70,0,1
112860,-500,4,2,1,70,0,1
112881,-55.5555555555562,4,2,1,70,0,1
112903,-500,4,2,1,70,0,1
112924,-100,4,2,1,70,0,1
114981,-58.8235294117654,4,2,1,5,0,1
115003,-333.333333333333,4,2,1,5,0,1
115024,-58.8235294117654,4,2,1,5,0,1
115045,-333.333333333333,4,2,1,5,0,1
115067,-58.8235294117654,4,2,1,5,0,1
115088,-333.333333333333,4,2,1,5,0,1
115110,-58.8235294117654,4,2,1,5,0,1
115131,-333.333333333333,4,2,1,5,0,1
115153,-58.8235294117654,4,2,1,5,0,1
115174,-333.333333333333,4,2,1,5,0,1
115195,-58.8235294117654,4,2,1,5,0,1
115217,-333.333333333333,4,2,1,5,0,1
115238,-58.8235294117654,4,2,1,5,0,1
115260,-333.333333333333,4,2,1,5,0,1
115281,-58.8235294117654,4,2,1,5,0,1
115303,-333.333333333333,4,2,1,5,0,1
115324,-58.8235294117654,4,2,1,10,0,1
115345,-333.333333333333,4,2,1,10,0,1
115367,-58.8235294117654,4,2,1,10,0,1
115388,-333.333333333333,4,2,1,10,0,1
115410,-58.8235294117654,4,2,1,10,0,1
115431,-333.333333333333,4,2,1,10,0,1
115453,-58.8235294117654,4,2,1,10,0,1
115474,-333.333333333333,4,2,1,10,0,1
115495,-58.8235294117654,4,2,1,10,0,1
115517,-333.333333333333,4,2,1,10,0,1
115538,-58.8235294117654,4,2,1,10,0,1
115560,-333.333333333333,4,2,1,10,0,1
115581,-58.8235294117654,4,2,1,10,0,1
115603,-333.333333333333,4,2,1,10,0,1
115624,-58.8235294117654,4,2,1,10,0,1
115645,-333.333333333333,4,2,1,10,0,1
115667,-58.8235294117654,4,2,1,30,0,1
115688,-333.333333333333,4,2,1,30,0,1
115710,-58.8235294117654,4,2,1,30,0,1
115731,-333.333333333333,4,2,1,30,0,1
115753,-58.8235294117654,4,2,1,30,0,1
115774,-333.333333333333,4,2,1,30,0,1
115795,-58.8235294117654,4,2,1,30,0,1
115817,-333.333333333333,4,2,1,30,0,1
115838,-58.8235294117654,4,2,1,30,0,1
115860,-333.333333333333,4,2,1,30,0,1
115881,-58.8235294117654,4,2,1,30,0,1
115903,-333.333333333333,4,2,1,30,0,1
115924,-58.8235294117654,4,2,1,30,0,1
115945,-333.333333333333,4,2,1,30,0,1
115967,-58.8235294117654,4,2,1,30,0,1
115988,-333.333333333333,4,2,1,30,0,1
116010,-58.8235294117654,4,2,1,50,0,1
116031,-333.333333333333,4,2,1,50,0,1
116053,-58.8235294117654,4,2,1,50,0,1
116074,-333.333333333333,4,2,1,50,0,1
116095,-58.8235294117654,4,2,1,50,0,1
116117,-333.333333333333,4,2,1,50,0,1
116138,-58.8235294117654,4,2,1,50,0,1
116160,-333.333333333333,4,2,1,50,0,1
116181,-58.8235294117654,4,2,1,50,0,1
116203,-333.333333333333,4,2,1,50,0,1
116224,-58.8235294117654,4,2,1,50,0,1
116245,-333.333333333333,4,2,1,50,0,1
116267,-58.8235294117654,4,2,1,50,0,1
116288,-333.333333333333,4,2,1,50,0,1
116310,-58.8235294117654,4,2,1,50,0,0
116331,-333.333333333333,4,2,1,50,0,0
116353,-111.111111111111,4,2,1,70,0,0
126638,-100,4,2,1,70,0,0
137610,-35.7142857142857,4,2,1,70,0,0
137653,-45.4545454545455,4,2,1,70,0,0
137695,-200,4,2,1,70,0,0
137953,-35.7142857142857,4,2,1,70,0,0
137995,-45.4545454545455,4,2,1,70,0,0
138038,-200,4,2,1,70,0,0
138295,-100,4,2,1,70,0,0
149267,-333.333333333333,4,2,1,70,0,0
149481,-90.9090909090909,4,2,1,70,0,0
149524,-52.6315789473684,4,2,1,70,0,0
149567,-37.037037037037,4,2,1,70,0,0
149610,-333.333333333333,4,2,1,70,0,0
149824,-90.9090909090909,4,2,1,70,0,0
149867,-52.6315789473684,4,2,1,70,0,0
149910,-37.037037037037,4,2,1,70,0,0
149953,-333.333333333333,4,2,1,70,0,0
150510,-90.9090909090909,4,2,1,70,0,0
150553,-52.6315789473684,4,2,1,70,0,0
150595,-37.037037037037,4,2,1,70,0,0
150638,-333.333333333333,4,2,1,70,0,0
150853,-90.9090909090909,4,2,1,70,0,0
150895,-52.6315789473684,4,2,1,70,0,0
150938,-37.037037037037,4,2,1,70,0,0
150981,-333.333333333333,4,2,1,70,0,0
151195,-90.9090909090909,4,2,1,70,0,0
151238,-52.6315789473684,4,2,1,70,0,0
151281,-37.037037037037,4,2,1,70,0,0
151324,-333.333333333333,4,2,1,70,0,0
151881,-90.9090909090909,4,2,1,70,0,0
151924,-52.6315789473684,4,2,1,70,0,0
151967,-37.037037037037,4,2,1,70,0,0
152010,-333.333333333333,4,2,1,70,0,0
152224,-90.9090909090909,4,2,1,70,0,0
152267,-52.6315789473684,4,2,1,70,0,0
152310,-37.037037037037,4,2,1,70,0,0
152353,-333.333333333333,4,2,1,70,0,0
152567,-90.9090909090909,4,2,1,70,0,0
152610,-52.6315789473684,4,2,1,70,0,0
152653,-37.037037037037,4,2,1,70,0,0
152695,-333.333333333333,4,2,1,70,0,0
153253,-90.9090909090909,4,2,1,70,0,0
153295,-52.6315789473684,4,2,1,70,0,0
153338,-37.037037037037,4,2,1,70,0,0
153381,-333.333333333333,4,2,1,70,0,0
153595,-90.9090909090909,4,2,1,70,0,0
153638,-52.6315789473684,4,2,1,70,0,0
153681,-37.037037037037,4,2,1,70,0,0
153724,-35.7142857142857,4,2,1,70,0,0
153767,-250,4,2,1,70,0,0
153895,-100,4,2,1,70,0,0
154410,-333.333333333333,4,2,1,70,0,0
154624,-90.9090909090909,4,2,1,70,0,0
154667,-52.6315789473684,4,2,1,70,0,0
154710,-37.037037037037,4,2,1,70,0,0
154753,-100,4,2,1,70,0,0
160238,-76.9230769230769,4,2,1,70,0,0
160281,-142.857142857143,4,2,1,70,0,0
160324,-100,4,2,1,70,0,0
160581,-76.9230769230769,4,2,1,70,0,0
160624,-142.857142857143,4,2,1,70,0,0
160667,-100,4,2,1,70,0,0
160924,-66.6666666666667,4,2,1,70,0,0
160967,-200,4,2,1,70,0,0
161010,-100,4,2,1,70,0,0
161267,-66.6666666666667,4,2,1,70,0,0
161310,-200,4,2,1,70,0,0
161353,-100,4,2,1,70,0,0
161610,-58.8235294117647,4,2,1,70,0,0
161653,-333.333333333334,4,2,1,70,0,0
161695,-100,4,2,1,70,0,0
161953,-58.8235294117647,4,2,1,70,0,0
161995,-250.000000000001,4,2,1,70,0,0
162038,-100,4,2,1,70,0,0
162295,-52.6315789473684,4,2,1,70,0,0
162338,-1000,4,2,1,70,0,0
162381,-100,4,2,1,70,0,0
162638,-52.6315789473684,4,2,1,70,0,0
162681,-1000,4,2,1,70,0,0
162724,-100,4,2,1,70,0,0
162981,-40,4,2,1,70,0,0
163003,-200,4,2,1,70,0,0
163067,-100,4,2,1,70,0,0
163153,-40,4,2,1,70,0,0
163174,-200,4,2,1,70,0,0
163238,-100,4,2,1,70,0,0
163324,-40,4,2,1,70,0,0
163345,-200,4,2,1,70,0,0
163410,-100,4,2,1,70,0,0
163495,-40,4,2,1,70,0,0
163517,-200,4,2,1,70,0,0
163581,-100,4,2,1,70,0,0
163667,-40,4,2,1,70,0,0
163688,-200,4,2,1,70,0,0
163753,-40,4,2,1,70,0,0
163774,-200,4,2,1,70,0,0
163838,-40,4,2,1,70,0,0
163860,-200,4,2,1,70,0,0
163924,-40,4,2,1,70,0,0
163945,-200,4,2,1,70,0,0
164010,-40,4,2,1,70,0,0
164031,-200,4,2,1,70,0,0
164095,-40,4,2,1,70,0,0
164117,-200,4,2,1,70,0,0
164181,-40,4,2,1,70,0,0
164203,-200,4,2,1,70,0,0
164267,-40,4,2,1,70,0,0
164288,-200,4,2,1,70,0,0
164353,-333.333333333333,4,2,1,70,0,0
164567,-90.9090909090909,4,2,1,70,0,0
164610,-52.6315789473684,4,2,1,70,0,0
164653,-37.037037037037,4,2,1,70,0,0
164695,-333.333333333333,4,2,1,70,0,0
164910,-90.9090909090909,4,2,1,70,0,0
164953,-52.6315789473684,4,2,1,70,0,0
164995,-37.037037037037,4,2,1,70,0,0
165038,-333.333333333333,4,2,1,70,0,0
165253,-90.9090909090909,4,2,1,70,0,0
165295,-52.6315789473684,4,2,1,70,0,0
165338,-37.037037037037,4,2,1,70,0,0
165381,-71.4285714285714,4,2,1,70,0,0
165467,-166.666666666667,4,2,1,70,0,0
165553,-71.4285714285714,4,2,1,70,0,0
165638,-166.666666666667,4,2,1,70,0,0
165724,-100,4,2,1,70,0,1
166238,-40,4,2,1,70,0,1
166281,-200,4,2,1,70,0,1
166410,-100,4,2,1,70,0,1
166581,-40,4,2,1,70,0,1
166624,-200,4,2,1,70,0,1
166753,-100,4,2,1,70,0,1
167095,-66.6666666666667,4,2,1,70,0,1
167181,-200,4,2,1,70,0,1
167267,-58.8235294117654,4,2,1,70,0,1
167288,-333.333333333333,4,2,1,70,0,1
167310,-58.8235294117654,4,2,1,70,0,1
167331,-333.333333333333,4,2,1,70,0,1
167353,-58.8235294117647,4,2,1,70,0,1
167374,-333.333333333333,4,2,1,70,0,1
167395,-58.8235294117647,4,2,1,70,0,1
167417,-333.333333333333,4,2,1,70,0,1
167438,-100,4,2,1,70,0,1
167610,-40,4,2,1,70,0,1
167653,-200,4,2,1,70,0,1
167781,-100,4,2,1,70,0,1
167953,-40,4,2,1,70,0,1
167974,-200,4,2,1,70,0,1
168038,-100,4,2,1,70,0,1
168124,-40,4,2,1,70,0,1
168145,-200,4,2,1,70,0,1
168209,-100,4,2,1,70,0,1
168295,-40,4,2,1,70,0,1
168316,-200,4,2,1,70,0,1
168380,-100,4,2,1,70,0,1
168467,-40,4,2,1,70,0,1
168488,-200,4,2,1,70,0,1
168552,-100,4,2,1,70,0,1
168981,-52.6315789473684,4,2,1,70,0,1
169003,-1000,4,2,1,70,0,1
169024,-52.6315789473684,4,2,1,70,0,1
169045,-1000,4,2,1,70,0,1
169067,-52.6315789473684,4,2,1,70,0,1
169088,-1000,4,2,1,70,0,1
169110,-52.6315789473684,4,2,1,70,0,1
169131,-1000,4,2,1,70,0,1
169153,-100,4,2,1,70,0,1
169324,-52.6315789473684,4,2,1,70,0,1
169345,-1000,4,2,1,70,0,1
169367,-52.6315789473684,4,2,1,70,0,1
169388,-1000,4,2,1,70,0,1
169410,-52.6315789473684,4,2,1,70,0,1
169431,-1000,4,2,1,70,0,1
169453,-52.6315789473684,4,2,1,70,0,1
169474,-1000,4,2,1,70,0,1
169495,-100,4,2,1,70,0,1
169667,-52.6315789473684,4,2,1,70,0,1
169688,-1000,4,2,1,70,0,1
169710,-52.6315789473684,4,2,1,70,0,1
169731,-1000,4,2,1,70,0,1
169753,-52.6315789473684,4,2,1,70,0,1
169774,-1000,4,2,1,70,0,1
169795,-52.6315789473684,4,2,1,70,0,1
169817,-1000,4,2,1,70,0,1
169838,-100,4,2,1,70,0,1
170867,-50.251256281407,4,2,1,70,0,1
170888,-10000,4,2,1,70,0,1
170910,-50.251256281407,4,2,1,70,0,1
170931,-10000,4,2,1,70,0,1
170953,-50.251256281407,4,2,1,70,0,1
170974,-10000,4,2,1,70,0,1
170995,-50.251256281407,4,2,1,70,0,1
171017,-10000,4,2,1,70,0,1
171038,-50.251256281407,4,2,1,70,0,1
171060,-10000,4,2,1,70,0,1
171081,-50.251256281407,4,2,1,70,0,1
171103,-10000,4,2,1,70,0,1
171124,-50.251256281407,4,2,1,70,0,1
171145,-10000,4,2,1,70,0,1
171167,-50.251256281407,4,2,1,70,0,1
171188,-10000,4,2,1,70,0,1
171210,-100,4,2,1,70,0,1
171724,-40,4,2,1,70,0,1
171767,-200,4,2,1,70,0,1
171895,-100,4,2,1,70,0,1
172067,-40,4,2,1,70,0,1
172110,-200,4,2,1,70,0,1
172238,-100,4,2,1,70,0,1
172581,-58.8235294117647,4,2,1,70,0,1
172667,-333.333333333333,4,2,1,70,0,1
172753,-58.8235294117654,4,2,1,70,0,1
172774,-333.333333333333,4,2,1,70,0,1
172795,-58.8235294117654,4,2,1,70,0,1
172817,-333.333333333333,4,2,1,70,0,1
172838,-58.8235294117647,4,2,1,70,0,1
172860,-333.333333333333,4,2,1,70,0,1
172881,-58.8235294117647,4,2,1,70,0,1
172903,-333.333333333333,4,2,1,70,0,1
172924,-100,4,2,1,70,0,1
173095,-40,4,2,1,70,0,1
173138,-200,4,2,1,70,0,1
173267,-100,4,2,1,70,0,1
173438,-40,4,2,1,70,0,1
173460,-200,4,2,1,70,0,1
173524,-100,4,2,1,70,0,1
173610,-40,4,2,1,70,0,1
173631,-200,4,2,1,70,0,1
173695,-100,4,2,1,70,0,1
173781,-40,4,2,1,70,0,1
173803,-200,4,2,1,70,0,1
173867,-100,4,2,1,70,0,1
174467,-52.6315789473684,4,2,1,70,0,1
174488,-1000,4,2,1,70,0,1
174510,-52.6315789473684,4,2,1,70,0,1
174531,-1000,4,2,1,70,0,1
174553,-52.6315789473684,4,2,1,70,0,1
174574,-1000,4,2,1,70,0,1
174595,-52.6315789473684,4,2,1,70,0,1
174617,-1000,4,2,1,70,0,1
174638,-100,4,2,1,70,0,1
174981,-40,4,2,1,70,0,1
175024,-200,4,2,1,70,0,1
175153,-40,4,2,1,70,0,1
175195,-200,4,2,1,70,0,1
175324,-45.4545454545455,4,2,1,70,0,1
175367,-166.666666666667,4,2,1,70,0,1
175495,-45.4545454545455,4,2,1,70,0,1
175538,-166.666666666667,4,2,1,70,0,1
175667,-45.4545454545455,4,2,1,70,0,1
175710,-166.666666666667,4,2,1,70,0,1
175838,-45.4545454545455,4,2,1,70,0,1
175881,-166.666666666667,4,2,1,70,0,1
176010,-100,4,2,1,70,0,1
176695,-58.8235294117647,4,2,1,70,0,1
176781,-333.333333333334,4,2,1,70,0,1
176867,-58.8235294117647,4,2,1,70,0,1
176888,-333.333333333334,4,2,1,70,0,1
176910,-58.8235294117647,4,2,1,70,0,1
176931,-333.333333333334,4,2,1,70,0,1
176953,-58.8235294117647,4,2,1,70,0,1
176974,-333.333333333334,4,2,1,70,0,1
176995,-58.8235294117647,4,2,1,70,0,1
177017,-333.333333333334,4,2,1,70,0,1
177038,-100,4,2,1,70,0,1
177210,-40,4,2,1,70,0,1
177253,-200,4,2,1,70,0,1
177381,-100,4,2,1,70,0,1
177553,-40,4,2,1,70,0,1
177595,-200,4,2,1,70,0,1
177724,-100,4,2,1,70,0,1
178067,-58.8235294117647,4,2,1,70,0,1
178153,-333.333333333334,4,2,1,70,0,1
178238,-58.8235294117647,4,2,1,70,0,1
178260,-333.333333333334,4,2,1,70,0,1
178281,-58.8235294117647,4,2,1,70,0,1
178303,-333.333333333334,4,2,1,70,0,1
178324,-58.8235294117647,4,2,1,70,0,1
178345,-333.333333333334,4,2,1,70,0,1
178367,-58.8235294117647,4,2,1,70,0,1
178388,-333.333333333334,4,2,1,70,0,1
178410,-100,4,2,1,70,0,1
178581,-40,4,2,1,70,0,1
178603,-200,4,2,1,70,0,1
178667,-100,4,2,1,70,0,1
178753,-40,4,2,1,70,0,1
178774,-200,4,2,1,70,0,1
178838,-100,4,2,1,70,0,1
178924,-40,4,2,1,70,0,1
178945,-200,4,2,1,70,0,1
179010,-100,4,2,1,70,0,1
179095,-40,4,2,1,70,0,1
179117,-200,4,2,1,70,0,1
179181,-100,4,2,1,70,0,1
179267,-40,4,2,1,70,0,1
179288,-200,4,2,1,70,0,1
179353,-100,4,2,1,70,0,1
179953,-52.6315789473684,4,2,1,70,0,1
179974,-1000,4,2,1,70,0,1
179995,-52.6315789473684,4,2,1,70,0,1
180017,-1000,4,2,1,70,0,1
180038,-52.6315789473684,4,2,1,70,0,1
180060,-1000,4,2,1,70,0,1
180081,-52.6315789473684,4,2,1,70,0,1
180103,-1000,4,2,1,70,0,1
180124,-100,4,2,1,70,0,1
180295,-52.6315789473684,4,2,1,70,0,1
180317,-1000,4,2,1,70,0,1
180338,-52.6315789473684,4,2,1,70,0,1
180360,-1000,4,2,1,70,0,1
180381,-52.6315789473684,4,2,1,70,0,1
180403,-1000,4,2,1,70,0,1
180424,-52.6315789473684,4,2,1,70,0,1
180445,-1000,4,2,1,70,0,1
180467,-100,4,2,1,70,0,1
180638,-52.6315789473684,4,2,1,70,0,1
180660,-1000,4,2,1,70,0,1
180681,-52.6315789473684,4,2,1,70,0,1
180703,-1000,4,2,1,70,0,1
180724,-52.6315789473684,4,2,1,70,0,1
180745,-1000,4,2,1,70,0,1
180767,-52.6315789473684,4,2,1,70,0,1
180788,-1000,4,2,1,70,0,1
180810,-100,4,2,1,70,0,1
181838,-50.251256281407,4,2,1,70,0,1
181860,-10000,4,2,1,70,0,1
181881,-50.251256281407,4,2,1,70,0,1
181903,-10000,4,2,1,70,0,1
181924,-50.251256281407,4,2,1,70,0,1
181945,-10000,4,2,1,70,0,1
181967,-50.251256281407,4,2,1,70,0,1
181988,-10000,4,2,1,70,0,1
182010,-50.251256281407,4,2,1,70,0,1
182031,-10000,4,2,1,70,0,1
182053,-50.251256281407,4,2,1,70,0,1
182074,-10000,4,2,1,70,0,1
182095,-50.251256281407,4,2,1,70,0,1
182117,-10000,4,2,1,70,0,1
182138,-50.251256281407,4,2,1,70,0,1
182160,-10000,4,2,1,70,0,1
182181,-58.8235294117647,4,2,1,70,0,1
182267,-333.333333333334,4,2,1,70,0,1
182353,-58.8235294117647,4,2,1,70,0,1
182374,-333.333333333334,4,2,1,70,0,1
182395,-58.8235294117647,4,2,1,70,0,1
182417,-333.333333333334,4,2,1,70,0,1
182438,-58.8235294117647,4,2,1,70,0,1
182460,-333.333333333334,4,2,1,70,0,1
182481,-58.8235294117647,4,2,1,70,0,1
182503,-333.333333333334,4,2,1,70,0,1
182524,-100,4,2,1,70,0,1
182695,-40,4,2,1,70,0,1
182738,-200,4,2,1,70,0,1
182867,-100,4,2,1,70,0,1
183038,-40,4,2,1,70,0,1
183081,-200,4,2,1,70,0,1
183210,-100,4,2,1,70,0,1
183553,-58.8235294117647,4,2,1,70,0,1
183638,-333.333333333334,4,2,1,70,0,1
183724,-58.8235294117647,4,2,1,70,0,1
183745,-333.333333333334,4,2,1,70,0,1
183767,-58.8235294117647,4,2,1,70,0,1
183788,-333.333333333334,4,2,1,70,0,1
183810,-58.8235294117647,4,2,1,70,0,1
183831,-333.333333333334,4,2,1,70,0,1
183853,-58.8235294117647,4,2,1,70,0,1
183874,-333.333333333334,4,2,1,70,0,1
183895,-100,4,2,1,70,0,1
184067,-40,4,2,1,70,0,1
184088,-200,4,2,1,70,0,1
184153,-100,4,2,1,70,0,1
184238,-40,4,2,1,70,0,1
184260,-200,4,2,1,70,0,1
184324,-100,4,2,1,70,0,1
184410,-40,4,2,1,70,0,1
184431,-200,4,2,1,70,0,1
184495,-100,4,2,1,70,0,1
184581,-40,4,2,1,70,0,1
184603,-200,4,2,1,70,0,1
184667,-100,4,2,1,70,0,1
184753,-40,4,2,1,70,0,1
184774,-200,4,2,1,70,0,1
184838,-100,4,2,1,70,0,1
187324,-333.333333333333,4,2,1,70,0,1
187538,-90.9090909090909,4,2,1,70,0,1
187581,-52.6315789473684,4,2,1,70,0,1
187624,-37.037037037037,4,2,1,70,0,1
187667,-125,4,2,1,70,0,0
198638,-100,4,2,1,70,0,0
218867,-58.8235294117647,4,2,1,70,0,0
218888,-333.333333333333,4,2,1,70,0,0
218910,-58.8235294117647,4,2,1,70,0,0
218931,-333.333333333333,4,2,1,70,0,0
218953,-58.8235294117647,4,2,1,70,0,0
218974,-333.333333333333,4,2,1,70,0,0
218995,-58.8235294117647,4,2,1,70,0,0
219017,-333.333333333333,4,2,1,70,0,0
219038,-58.8235294117647,4,2,1,70,0,0
219060,-333.333333333333,4,2,1,70,0,0
219081,-58.8235294117647,4,2,1,70,0,0
219103,-333.333333333333,4,2,1,70,0,0
219124,-58.8235294117647,4,2,1,70,0,0
219145,-333.333333333333,4,2,1,70,0,0
219167,-58.8235294117647,4,2,1,70,0,0
219188,-333.333333333333,4,2,1,70,0,0
219210,-100,4,2,1,70,0,0
219895,-35.7142857142857,4,2,1,70,0,0
219938,-45.4545454545455,4,2,1,70,0,0
219981,-200,4,2,1,70,0,0
220238,-35.7142857142857,4,2,1,70,0,0
220281,-45.4545454545455,4,2,1,70,0,0
220324,-200,4,2,1,70,0,0
220581,-100,4,2,1,70,0,0
242524,-333.333333333333,4,2,1,70,0,0
242738,-90.9090909090909,4,2,1,70,0,0
242781,-52.6315789473684,4,2,1,70,0,0
242824,-37.037037037037,4,2,1,70,0,0
242867,-333.333333333333,4,2,1,70,0,0
243081,-90.9090909090909,4,2,1,70,0,0
243124,-52.6315789473684,4,2,1,70,0,0
243167,-37.037037037037,4,2,1,70,0,0
243210,-333.333333333333,4,2,1,70,0,0
243767,-90.9090909090909,4,2,1,70,0,0
243810,-52.6315789473684,4,2,1,70,0,0
243853,-37.037037037037,4,2,1,70,0,0
243895,-333.333333333333,4,2,1,70,0,0
244110,-90.9090909090909,4,2,1,70,0,0
244153,-52.6315789473684,4,2,1,70,0,0
244195,-37.037037037037,4,2,1,70,0,0
244238,-333.333333333333,4,2,1,70,0,0
244453,-90.9090909090909,4,2,1,70,0,0
244495,-52.6315789473684,4,2,1,70,0,0
244538,-37.037037037037,4,2,1,70,0,0
244581,-333.333333333333,4,2,1,70,0,0
245138,-90.9090909090909,4,2,1,70,0,0
245181,-52.6315789473684,4,2,1,70,0,0
245224,-37.037037037037,4,2,1,70,0,0
245267,-333.333333333333,4,2,1,70,0,0
245481,-90.9090909090909,4,2,1,70,0,0
245524,-52.6315789473684,4,2,1,70,0,0
245567,-37.037037037037,4,2,1,70,0,0
245610,-333.333333333333,4,2,1,70,0,0
245824,-90.9090909090909,4,2,1,70,0,0
245867,-52.6315789473684,4,2,1,70,0,0
245910,-37.037037037037,4,2,1,70,0,0
245953,-333.333333333333,4,2,1,70,0,0
246510,-90.9090909090909,4,2,1,70,0,0
246553,-52.6315789473684,4,2,1,70,0,0
246595,-37.037037037037,4,2,1,70,0,0
246638,-333.333333333333,4,2,1,70,0,0
246853,-90.9090909090909,4,2,1,70,0,0
246895,-52.6315789473684,4,2,1,70,0,0
246938,-37.037037037037,4,2,1,70,0,0
246981,-35.7142857142857,4,2,1,70,0,0
247024,-250,4,2,1,70,0,0
247153,-100,4,2,1,70,0,0
247667,-35.7142857142857,4,2,1,70,0,0
247753,-250,4,2,1,70,0,0
248010,-76.9230769230769,4,2,1,70,0,0
248053,-142.857142857143,4,2,1,70,0,0
248095,-100,4,2,1,70,0,0
248353,-76.9230769230769,4,2,1,70,0,0
248395,-142.857142857143,4,2,1,70,0,0
248438,-100,4,2,1,70,0,0
248695,-76.9230769230769,4,2,1,70,0,0
248738,-142.857142857143,4,2,1,70,0,0
248781,-100,4,2,1,70,0,0
249038,-76.9230769230769,4,2,1,70,0,0
249081,-142.857142857143,4,2,1,70,0,0
249124,-100,4,2,1,70,0,0
249381,-76.9230769230769,4,2,1,70,0,0
249424,-142.857142857143,4,2,1,70,0,0
249467,-100,4,2,1,70,0,0
249724,-76.9230769230769,4,2,1,70,0,0
249767,-142.857142857143,4,2,1,70,0,0
249810,-100,4,2,1,70,0,0
250067,-76.9230769230769,4,2,1,70,0,0
250110,-142.857142857143,4,2,1,70,0,0
250153,-100,4,2,1,70,0,0
250410,-76.9230769230769,4,2,1,70,0,0
250453,-142.857142857143,4,2,1,70,0,0
250495,-100,4,2,1,70,0,0
250753,-76.9230769230769,4,2,1,70,0,0
250795,-142.857142857143,4,2,1,70,0,0
250838,-100,4,2,1,70,0,0
251095,-76.9230769230769,4,2,1,70,0,0
251138,-142.857142857143,4,2,1,70,0,0
251181,-100,4,2,1,70,0,0
251438,-76.9230769230769,4,2,1,70,0,0
251481,-142.857142857143,4,2,1,70,0,0
251524,-100,4,2,1,70,0,0
251781,-76.9230769230769,4,2,1,70,0,0
251824,-142.857142857143,4,2,1,70,0,0
251867,-100,4,2,1,70,0,0
252124,-76.9230769230769,4,2,1,70,0,0
252167,-142.857142857143,4,2,1,70,0,0
252210,-100,4,2,1,70,0,0
252467,-76.9230769230769,4,2,1,70,0,0
252510,-142.857142857143,4,2,1,70,0,0
252553,-100,4,2,1,70,0,0
252810,-76.9230769230769,4,2,1,70,0,0
252853,-142.857142857143,4,2,1,70,0,0
252895,-100,4,2,1,70,0,0
253153,-76.9230769230769,4,2,1,70,0,0
253195,-142.857142857143,4,2,1,70,0,0
253238,-100,4,2,1,70,0,0
253495,-76.9230769230769,4,2,1,70,0,0
253538,-142.857142857143,4,2,1,70,0,0
253581,-100,4,2,1,70,0,0
253838,-76.9230769230769,4,2,1,70,0,0
253881,-142.857142857143,4,2,1,70,0,0
253924,-100,4,2,1,70,0,0
254181,-66.6666666666667,4,2,1,70,0,0
254224,-200,4,2,1,70,0,0
254267,-100,4,2,1,70,0,0
254524,-66.6666666666667,4,2,1,70,0,0
254567,-200,4,2,1,70,0,0
254610,-100,4,2,1,70,0,0
254867,-58.8235294117647,4,2,1,70,0,0
254910,-333.333333333333,4,2,1,70,0,0
254953,-100,4,2,1,70,0,0
255210,-58.8235294117647,4,2,1,70,0,0
255253,-333.333333333333,4,2,1,70,0,0
255295,-100,4,2,1,70,0,0
255553,-52.6315789473684,4,2,1,70,0,0
255595,-1000,4,2,1,70,0,0
255638,-100,4,2,1,70,0,0
255895,-52.6315789473684,4,2,1,70,0,0
255938,-1000,4,2,1,70,0,0
255981,-100,4,2,1,70,0,0
256238,-58.8235294117647,4,2,1,5,0,0
256260,-333.333333333333,4,2,1,5,0,0
256281,-58.8235294117654,4,2,1,5,0,0
256303,-333.333333333333,4,2,1,5,0,0
256324,-58.8235294117654,4,2,1,5,0,0
256345,-333.333333333333,4,2,1,5,0,0
256367,-58.8235294117654,4,2,1,5,0,0
256388,-333.333333333333,4,2,1,5,0,0
256410,-58.8235294117654,4,2,1,5,0,0
256431,-333.333333333333,4,2,1,5,0,0
256453,-58.8235294117654,4,2,1,5,0,0
256474,-333.333333333333,4,2,1,5,0,0
256495,-58.8235294117654,4,2,1,5,0,0
256517,-333.333333333333,4,2,1,5,0,0
256538,-58.8235294117654,4,2,1,5,0,0
256560,-333.333333333333,4,2,1,5,0,0
256581,-58.8235294117654,4,2,1,10,0,0
256603,-333.333333333333,4,2,1,10,0,0
256624,-58.8235294117654,4,2,1,10,0,0
256645,-333.333333333333,4,2,1,10,0,0
256667,-58.8235294117654,4,2,1,10,0,0
256688,-333.333333333333,4,2,1,10,0,0
256710,-58.8235294117654,4,2,1,10,0,0
256731,-333.333333333333,4,2,1,10,0,0
256753,-58.8235294117654,4,2,1,10,0,0
256774,-333.333333333333,4,2,1,10,0,0
256795,-58.8235294117654,4,2,1,10,0,0
256817,-333.333333333333,4,2,1,10,0,0
256838,-58.8235294117654,4,2,1,10,0,0
256860,-333.333333333333,4,2,1,10,0,0
256881,-58.8235294117654,4,2,1,10,0,0
256903,-333.333333333333,4,2,1,10,0,0
256924,-58.8235294117654,4,2,1,30,0,0
256945,-333.333333333333,4,2,1,30,0,0
256967,-58.8235294117654,4,2,1,30,0,0
256988,-333.333333333333,4,2,1,30,0,0
257010,-58.8235294117654,4,2,1,30,0,0
257031,-333.333333333333,4,2,1,30,0,0
257053,-58.8235294117654,4,2,1,30,0,0
257074,-333.333333333333,4,2,1,30,0,0
257095,-58.8235294117654,4,2,1,30,0,0
257117,-333.333333333333,4,2,1,30,0,0
257138,-58.8235294117654,4,2,1,30,0,0
257160,-333.333333333333,4,2,1,30,0,0
257181,-58.8235294117654,4,2,1,30,0,0
257203,-333.333333333333,4,2,1,30,0,0
257224,-58.8235294117654,4,2,1,30,0,0
257245,-333.333333333333,4,2,1,30,0,0
257267,-58.8235294117654,4,2,1,50,0,0
257288,-333.333333333333,4,2,1,50,0,0
257310,-58.8235294117654,4,2,1,50,0,0
257331,-333.333333333333,4,2,1,50,0,0
257353,-58.8235294117654,4,2,1,50,0,0
257374,-333.333333333333,4,2,1,50,0,0
257395,-58.8235294117654,4,2,1,50,0,0
257417,-333.333333333333,4,2,1,50,0,0
257438,-58.8235294117654,4,2,1,50,0,0
257460,-333.333333333333,4,2,1,50,0,0
257481,-58.8235294117654,4,2,1,50,0,0
257503,-333.333333333333,4,2,1,50,0,0
257524,-58.8235294117654,4,2,1,50,0,0
257545,-333.333333333333,4,2,1,50,0,0
257567,-58.8235294117654,4,2,1,50,0,0
257588,-333.333333333333,4,2,1,50,0,0
257610,-100,4,2,1,70,0,0
257695,-333.333333333333,4,2,1,70,0,0
257824,-90.9090909090909,4,2,1,70,0,0
257867,-52.6315789473684,4,2,1,70,0,0
257910,-37.037037037037,4,2,1,70,0,0
257953,-333.333333333333,4,2,1,70,0,0
258167,-90.9090909090909,4,2,1,70,0,0
258210,-52.6315789473684,4,2,1,70,0,0
258253,-37.037037037037,4,2,1,70,0,0
258295,-333.333333333333,4,2,1,70,0,0
258510,-90.9090909090909,4,2,1,70,0,0
258553,-52.6315789473684,4,2,1,70,0,0
258595,-37.0370370370369,4,2,1,70,0,0
258638,-333.333333333322,4,2,1,70,0,0
258853,-90.9090909090909,4,2,1,70,0,0
258895,-52.6315789473684,4,2,1,70,0,0
258938,-37.037037037037,4,2,1,70,0,0
258981,-100,4,2,1,70,0,0
280581,-35.7142857142857,4,2,1,70,0,0
280667,-250,4,2,1,70,0,0
280924,-58.8235294117647,4,2,1,70,0,1
280967,-333.333333333333,4,2,1,70,0,1
281010,-58.8235294117647,4,2,1,70,0,1
281053,-333.333333333333,4,2,1,70,0,1
281095,-100,4,2,1,70,0,1
282295,-58.8235294117647,4,2,1,70,0,1
282338,-333.333333333333,4,2,1,70,0,1
282381,-58.8235294117647,4,2,1,70,0,1
282424,-333.333333333333,4,2,1,70,0,1
282467,-100,4,2,1,70,0,1
284181,-55.5555555555562,4,2,1,70,0,1
284203,-500,4,2,1,70,0,1
284224,-55.5555555555562,4,2,1,70,0,1
284245,-500,4,2,1,70,0,1
284267,-55.5555555555562,4,2,1,70,0,1
284288,-500,4,2,1,70,0,1
284310,-55.5555555555562,4,2,1,70,0,1
284331,-500,4,2,1,70,0,1
284353,-100,4,2,1,70,0,1
285038,-58.8235294117647,4,2,1,70,0,1
285081,-333.333333333333,4,2,1,70,0,1
285124,-58.8235294117647,4,2,1,70,0,1
285167,-333.333333333333,4,2,1,70,0,1
285210,-100,4,2,1,70,0,1
285553,-55.5555555555562,4,2,1,70,0,1
285574,-500,4,2,1,70,0,1
285595,-55.5555555555562,4,2,1,70,0,1
285617,-500,4,2,1,70,0,1
285638,-55.5555555555562,4,2,1,70,0,1
285660,-500,4,2,1,70,0,1
285681,-55.5555555555562,4,2,1,70,0,1
285703,-500,4,2,1,70,0,1
285724,-100,4,2,1,70,0,1
286410,-58.8235294117654,4,2,1,70,0,1
286495,-333.333333333356,4,2,1,70,0,1
286581,-58.8235294117654,4,2,1,70,0,1
286603,-333.333333333356,4,2,1,70,0,1
286624,-58.8235294117654,4,2,1,70,0,1
286645,-333.333333333356,4,2,1,70,0,1
286667,-58.8235294117654,4,2,1,70,0,1
286688,-333.333333333356,4,2,1,70,0,1
286710,-58.8235294117654,4,2,1,70,0,1
286731,-333.333333333356,4,2,1,70,0,1
286753,-100,4,2,1,70,0,1
286924,-40,4,2,1,70,0,1
286967,-200,4,2,1,70,0,1
287095,-100,4,2,1,70,0,1
287267,-40,4,2,1,70,0,1
287310,-200,4,2,1,70,0,1
287438,-100,4,2,1,70,0,1
287781,-58.8235294117654,4,2,1,70,0,1
287867,-333.333333333356,4,2,1,70,0,1
287953,-58.8235294117654,4,2,1,70,0,1
287974,-333.333333333356,4,2,1,70,0,1
287995,-58.8235294117654,4,2,1,70,0,1
288017,-333.333333333356,4,2,1,70,0,1
288038,-58.8235294117654,4,2,1,70,0,1
288060,-333.333333333356,4,2,1,70,0,1
288081,-58.8235294117654,4,2,1,70,0,1
288103,-333.333333333356,4,2,1,70,0,1
288124,-100,4,2,1,70,0,1
288295,-40.0000000000003,4,2,1,70,0,1
288338,-200.000000000008,4,2,1,70,0,1
288467,-100,4,2,1,70,0,1
288638,-40.0000000000003,4,2,1,70,0,1
288660,-200.000000000008,4,2,1,70,0,1
288724,-100,4,2,1,70,0,1
288810,-40.0000000000003,4,2,1,70,0,1
288831,-200.000000000008,4,2,1,70,0,1
288895,-100,4,2,1,70,0,1
288981,-40.0000000000003,4,2,1,70,0,1
289003,-200.000000000008,4,2,1,70,0,1
289067,-100,4,2,1,70,0,1
291553,-333.333333333333,4,2,1,70,0,1
291767,-90.9090909090909,4,2,1,70,0,1
291810,-52.6315789473684,4,2,1,70,0,1
291853,-37.037037037037,4,2,1,70,0,1
291895,-58.8235294117647,4,2,1,70,0,1
291938,-333.333333333333,4,2,1,70,0,1
291981,-58.8235294117647,4,2,1,70,0,1
292024,-333.333333333333,4,2,1,70,0,1
292067,-100,4,2,1,70,0,1
293267,-58.8235294117647,4,2,1,70,0,1
293310,-333.333333333333,4,2,1,70,0,1
293353,-58.8235294117647,4,2,1,70,0,1
293395,-333.333333333333,4,2,1,70,0,1
293438,-100,4,2,1,70,0,1
295153,-55.5555555555562,4,2,1,70,0,1
295174,-500,4,2,1,70,0,1
295195,-55.5555555555562,4,2,1,70,0,1
295217,-500,4,2,1,70,0,1
295238,-55.5555555555562,4,2,1,70,0,1
295260,-500,4,2,1,70,0,1
295281,-55.5555555555562,4,2,1,70,0,1
295303,-500,4,2,1,70,0,1
295324,-100,4,2,1,70,0,1
296010,-58.8235294117654,4,2,1,70,0,1
296053,-333.333333333333,4,2,1,70,0,1
296095,-58.8235294117654,4,2,1,70,0,1
296138,-333.333333333333,4,2,1,70,0,1
296181,-100,4,2,1,70,0,1
296524,-55.5555555555562,4,2,1,70,0,1
296545,-500,4,2,1,70,0,1
296567,-55.5555555555562,4,2,1,70,0,1
296588,-500,4,2,1,70,0,1
296610,-55.5555555555562,4,2,1,70,0,1
296631,-500,4,2,1,70,0,1
296653,-55.5555555555562,4,2,1,70,0,1
296674,-500,4,2,1,70,0,1
296695,-100,4,2,1,70,0,1
297381,-76.9230769230769,4,2,1,70,0,1
297424,-142.857142857143,4,2,1,70,0,1
297467,-100,4,2,1,70,0,1
297724,-76.9230769230769,4,2,1,70,0,1
297767,-142.857142857143,4,2,1,70,0,1
297810,-100,4,2,1,70,0,1
298067,-66.6666666666667,4,2,1,70,0,1
298110,-200,4,2,1,70,0,1
298153,-100,4,2,1,70,0,1
298410,-66.6666666666667,4,2,1,70,0,1
298453,-200,4,2,1,70,0,1
298495,-100,4,2,1,70,0,1
298753,-58.8235294117647,4,2,1,70,0,1
298795,-333.333333333333,4,2,1,70,0,1
298838,-100,4,2,1,70,0,1
299095,-58.8235294117647,4,2,1,70,0,1
299138,-333.333333333333,4,2,1,70,0,1
299181,-100,4,2,1,70,0,1
299438,-52.6315789473684,4,2,1,70,0,1
299481,-1000,4,2,1,70,0,1
299524,-100,4,2,1,70,0,1
299781,-52.6315789473684,4,2,1,70,0,1
299824,-1000,4,2,1,70,0,1
299867,-100,4,2,1,70,0,1
300124,-58.8235294117654,4,2,1,5,0,1
300145,-333.333333333333,4,2,1,5,0,1
300167,-58.8235294117654,4,2,1,5,0,1
300188,-333.333333333333,4,2,1,5,0,1
300210,-58.8235294117654,4,2,1,5,0,1
300231,-333.333333333333,4,2,1,5,0,1
300253,-58.8235294117654,4,2,1,5,0,1
300274,-333.333333333333,4,2,1,5,0,1
300295,-58.8235294117654,4,2,1,5,0,1
300317,-333.333333333333,4,2,1,5,0,1
300338,-58.8235294117654,4,2,1,5,0,1
300360,-333.333333333333,4,2,1,5,0,1
300381,-58.8235294117654,4,2,1,5,0,1
300403,-333.333333333333,4,2,1,5,0,1
300424,-58.8235294117654,4,2,1,5,0,1
300445,-333.333333333333,4,2,1,5,0,1
300467,-58.8235294117654,4,2,1,10,0,1
300488,-333.333333333333,4,2,1,10,0,1
300510,-58.8235294117654,4,2,1,10,0,1
300531,-333.333333333333,4,2,1,10,0,1
300553,-58.8235294117654,4,2,1,10,0,1
300574,-333.333333333333,4,2,1,10,0,1
300595,-58.8235294117654,4,2,1,10,0,1
300617,-333.333333333333,4,2,1,10,0,1
300638,-58.8235294117654,4,2,1,10,0,1
300660,-333.333333333333,4,2,1,10,0,1
300681,-58.8235294117654,4,2,1,10,0,1
300703,-333.333333333333,4,2,1,10,0,1
300724,-58.8235294117654,4,2,1,10,0,1
300745,-333.333333333333,4,2,1,10,0,1
300767,-58.8235294117654,4,2,1,10,0,1
300788,-333.333333333333,4,2,1,10,0,1
300810,-58.8235294117654,4,2,1,30,0,1
300831,-333.333333333333,4,2,1,30,0,1
300853,-58.8235294117654,4,2,1,30,0,1
300874,-333.333333333333,4,2,1,30,0,1
300895,-58.8235294117654,4,2,1,30,0,1
300917,-333.333333333333,4,2,1,30,0,1
300938,-58.8235294117654,4,2,1,30,0,1
300960,-333.333333333333,4,2,1,30,0,1
300981,-58.8235294117654,4,2,1,30,0,1
301003,-333.333333333333,4,2,1,30,0,1
301024,-58.8235294117654,4,2,1,30,0,1
301045,-333.333333333333,4,2,1,30,0,1
301067,-58.8235294117654,4,2,1,30,0,1
301088,-333.333333333333,4,2,1,30,0,1
301110,-58.8235294117654,4,2,1,30,0,1
301131,-333.333333333333,4,2,1,30,0,1
301153,-58.8235294117654,4,2,1,50,0,1
301174,-333.333333333333,4,2,1,50,0,1
301195,-58.8235294117654,4,2,1,50,0,1
301217,-333.333333333333,4,2,1,50,0,1
301238,-58.8235294117654,4,2,1,50,0,1
301260,-333.333333333333,4,2,1,50,0,1
301281,-58.8235294117654,4,2,1,50,0,1
301303,-333.333333333333,4,2,1,50,0,1
301324,-58.8235294117654,4,2,1,50,0,1
301345,-333.333333333333,4,2,1,50,0,1
301367,-58.8235294117654,4,2,1,50,0,1
301388,-333.333333333333,4,2,1,50,0,1
301410,-58.8235294117654,4,2,1,50,0,1
301431,-333.333333333333,4,2,1,50,0,1
301453,-58.8235294117654,4,2,1,50,0,1
301474,-500,4,2,1,50,0,1
301495,-100,4,2,1,70,0,1
301838,-333.333333333333,4,2,1,70,0,1
302053,-90.9090909090909,4,2,1,70,0,1
302095,-52.6315789473684,4,2,1,70,0,1
302138,-37.037037037037,4,2,1,70,0,1
302181,-333.333333333333,4,2,1,70,0,1
302395,-90.9090909090909,4,2,1,70,0,1
302438,-52.6315789473684,4,2,1,70,0,1
302481,-37.037037037037,4,2,1,70,0,1
302524,-333.333333333333,4,2,1,70,0,1
302738,-90.9090909090909,4,2,1,70,0,1
302781,-52.6315789473684,4,2,1,70,0,1
302824,-37.037037037037,4,2,1,70,0,1
302867,-100,4,2,1,70,0,0
306295,-333.333333333333,4,2,1,70,0,0
306510,-90.9090909090909,4,2,1,70,0,0
306553,-52.6315789473684,4,2,1,70,0,0
306595,-37.037037037037,4,2,1,70,0,0
306638,-333.333333333333,4,2,1,70,0,0
306853,-90.9090909090909,4,2,1,70,0,0
306895,-52.6315789473684,4,2,1,70,0,0
306938,-37.037037037037,4,2,1,70,0,0
306981,-166.666666666666,4,2,1,70,0,0

[HitObjects]
448,192,1153,5,0,0:0:0:70:soft-hitnormal2.wav
320,192,1153,1,0,0:0:0:0:
64,192,1153,1,0,0:0:0:0:
192,192,1324,1,0,0:0:0:0:
192,192,1495,1,0,0:0:0:0:
320,192,1667,1,0,0:0:0:70:soft-hitnormal2.wav
64,192,1753,1,0,0:0:0:70:soft-hitnormal2.wav
448,192,1838,1,0,0:0:0:70:soft-hitnormal2.wav
192,192,2010,1,0,0:0:0:70:soft-hitnormal2.wav
320,192,2181,1,0,0:0:0:70:soft-hitnormal2.wav
192,192,2353,1,0,0:0:0:70:soft-hitnormal2.wav
64,192,2524,1,0,0:0:0:70:soft-hitnormal2.wav
64,192,2695,1,0,0:0:0:0:
448,192,2867,1,0,0:0:0:70:soft-hitnormal2.wav
192,192,3038,1,0,0:0:0:70:soft-hitnormal2.wav
64,192,3210,1,0,0:0:0:70:soft-hitnormal2.wav
320,192,3381,1,0,0:0:0:0:
320,192,3553,1,0,0:0:0:0:
320,192,3724,1,0,0:0:0:0:
448,192,3895,1,0,0:0:0:70:soft-hitnormal2.wav
192,192,4067,1,0,0:0:0:0:
192,192,4238,1,0,0:0:0:0:
320,192,4410,1,0,0:0:0:70:soft-hitnormal2.wav
64,192,4495,1,0,0:0:0:70:soft-hitnormal2.wav
448,192,4581,1,0,0:0:0:70:soft-hitnormal2.wav
192,192,4753,1,0,0:0:0:70:soft-hitnormal2.wav
448,192,4924,1,0,0:0:0:70:soft-hitnormal2.wav
320,192,5095,1,0,0:0:0:70:soft-hitnormal2.wav
64,192,5267,1,0,0:0:0:70:soft-hitnormal2.wav
192,192,5438,1,0,0:0:0:70:soft-hitnormal2.wav
320,192,5610,1,0,0:0:0:70:soft-hitnormal2.wav
448,192,5781,1,0,0:0:0:70:soft-hitnormal2.wav
64,192,5953,1,0,0:0:0:70:soft-hitnormal2.wav
64,192,6124,1,0,0:0:0:0:
320,192,6295,1,0,0:0:0:70:soft-hitnormal2.wav
320,192,6467,1,0,0:0:0:0:
192,192,6638,1,0,0:0:0:0:
64,192,6638,1,0,0:0:0:70:soft-hitnormal2.wav
448,192,6810,1,0,0:0:0:0:
448,192,6981,1,0,0:0:0:0:
64,192,7153,1,0,0:0:0:70:soft-hitnormal2.wav
192,192,7153,1,0,0:0:0:0:
320,192,7238,1,0,0:0:0:70:soft-hitnormal2.wav
448,192,7324,1,0,0:0:0:70:soft-hitnormal2.wav
192,192,7324,1,0,0:0:0:0:
320,192,7495,1,0,0:0:0:70:soft-hitnormal2.wav
192,192,7667,1,0,0:0:0:70:soft-hitnormal2.wav
64,192,7838,1,0,0:0:0:70:soft-hitnormal2.wav
320,192,8010,1,0,0:0:0:0:
448,192,8010,1,0,0:0:0:70:soft-hitnormal2.wav
192,192,8181,1,0,0:0:0:0:
448,192,8353,1,0,0:0:0:70:soft-hitnormal2.wav
320,192,8353,1,0,0:0:0:0:
320,192,8524,1,0,0:0:0:70:soft-hitnormal2.wav
192,192,8524,1,0,0:0:0:0:
192,192,8695,1,0,0:0:0:70:soft-hitnormal2.wav
64,192,8695,1,0,0:0:0:0:
320,192,8867,1,0,0:0:0:0:
320,192,9038,1,0,0:0:0:70:soft-hitnormal2.wav
64,192,9038,1,0,0:0:0:0:
192,192,9210,1,0,0:0:0:70:soft-hitnormal2.wav
64,192,9210,1,0,0:0:0:0:
448,192,9381,1,0,0:0:0:70:soft-hitnormal2.wav
320,192,9381,1,0,0:0:0:0:
448,192,9553,1,0,0:0:0:0:
192,192,9553,1,0,0:0:0:70:soft-hitnormal2.wav
64,192,9724,1,0,0:0:0:0:
320,192,9724,1,0,0:0:0:70:soft-hitnormal2.wav
192,192,9895,1,0,0:0:0:0:
64,192,9895,1,0,0:0:0:70:soft-hitnormal2.wav
320,192,10067,1,0,0:0:0:0:
64,192,10067,128,0,10410:0:0:0:70:soft-hitnormal2.wav
192,192,10238,1,0,0:0:0:0:
320,192,10410,1,0,0:0:0:0:
448,192,10410,128,0,10753:0:0:0:70:soft-hitnormal2.wav
192,192,10581,1,0,0:0:0:0:
64,192,10753,1,0,0:0:0:0:
192,192,10753,1,2,0:0:0:0:
448,192,10838,1,0,0:0:0:0:
320,192,10838,1,2,0:0:0:0:
64,192,10924,1,0,0:0:0:0:
192,192,10924,1,2,0:0:0:0:
448,192,11010,1,0,0:0:0:0:
320,192,11010,1,2,0:0:0:0:
64,192,11095,1,0,0:0:0:0:
192,192,11095,1,2,0:0:0:0:
448,192,11181,1,0,0:0:0:0:
320,192,11181,1,2,0:0:0:0:
64,192,11267,1,0,0:0:0:0:
192,192,11267,1,2,0:0:0:0:
320,192,11353,1,2,0:0:0:0:
64,192,11438,1,0,0:0:0:70:drum-hitfinish.wav
448,192,11438,1,0,0:0:0:0:
192,192,11438,1,0,0:0:0:0:
192,192,11781,1,0,0:0:0:70:normal-hitwhistle5.wav
64,192,11781,1,0,0:0:0:70:drum-hitfinish.wav
448,192,11781,1,0,0:0:0:0:
448,192,12124,128,0,12467:0:0:0:70:drum-hitfinish.wav
320,192,12124,128,0,12467:0:0:0:0:
64,192,12124,1,0,0:0:0:70:normal-hitfinish10.wav
448,192,12638,1,0,0:0:0:70:drum-hitfinish.wav
320,192,12638,1,0,0:0:0:0:
64,192,12724,1,0,0:0:0:70:drum-hitfinish.wav
192,192,12724,1,0,0:0:0:0:
320,192,12810,1,0,0:0:0:70:drum-hitfinish.wav
448,192,12810,128,0,12981:0:0:0:0:
64,192,12981,1,0,0:0:0:70:drum-hitfinish.wav
192,192,12981,128,0,13153:0:0:0:0:
448,192,13153,1,0,0:0:0:70:drum-hitfinish.wav
320,192,13153,128,0,13324:0:0:0:0:
192,192,13324,1,0,0:0:0:70:drum-hitfinish.wav
64,192,13324,128,0,13495:0:0:0:0:
320,192,13495,128,0,13838:0:0:0:70:drum-hitfinish.wav
448,192,13495,1,0,0:0:0:0:
64,192,13838,1,0,0:0:0:70:drum-hitfinish.wav
448,192,13838,128,0,14010:0:0:0:0:
320,192,14010,1,0,0:0:0:70:drum-hitfinish.wav
192,192,14010,128,0,14181:0:0:0:0:
448,192,14181,1,0,0:0:0:70:drum-hitfinish.wav
64,192,14181,128,0,14524:0:0:0:0:
448,192,14524,1,0,0:0:0:70:Snare 7.wav
192,192,14524,1,0,0:0:0:0:
320,192,14524,1,0,0:0:0:0:
320,192,14867,128,0,15210:0:0:0:70:drum-hitfinish.wav
192,192,14867,128,0,15210:0:0:0:0:
64,192,15381,1,0,0:0:0:70:drum-hitfinish.wav
448,192,15381,1,0,0:0:0:0:
192,192,15467,1,0,0:0:0:70:drum-hitfinish.wav
320,192,15467,1,0,0:0:0:0:
64,192,15553,1,0,0:0:0:70:drum-hitfinish.wav
448,192,15553,128,0,15724:0:0:0:0:
320,192,15724,1,0,0:0:0:70:drum-hitfinish.wav
192,192,15724,128,0,15895:0:0:0:0:
64,192,15895,1,0,0:0:0:70:drum-hitfinish.wav
320,192,15895,128,0,16067:0:0:0:0:
448,192,16067,1,0,0:0:0:70:drum-hitfinish.wav
64,192,16067,128,0,16238:0:0:0:0:
192,192,16238,128,0,16410:0:0:0:70:drum-hitfinish.wav
448,192,16238,1,2,0:0:0:0:
64,192,16410,1,0,0:0:0:70:drum-hitfinish.wav
320,192,16410,128,0,16581:0:0:0:0:
192,192,16581,128,0,16753:0:0:0:70:drum-hitfinish.wav
448,192,16581,1,2,0:0:0:0:
320,192,16753,128,0,16924:0:0:0:70:drum-hitfinish.wav
64,192,16753,1,0,0:0:0:0:
64,192,16924,128,0,17095:0:0:0:70:drum-hitfinish.wav
448,192,16924,1,2,0:0:0:0:
192,192,16924,1,0,0:0:0:0:
192,192,17095,1,0,0:0:0:0:
320,192,17095,1,0,0:0:0:70:Snare 7.wav
448,192,17095,1,0,0:0:0:0:
320,192,17267,1,0,0:0:0:70:drum-hitfinish.wav
448,192,17267,1,0,0:0:0:70:Snare 7.wav
64,192,17267,128,0,17610:0:0:0:0:
448,192,17610,128,0,17953:0:0:0:70:drum-hitfinish.wav
192,192,17610,128,0,17953:0:0:0:0:
64,192,18124,1,0,0:0:0:70:drum-hitfinish.wav
320,192,18124,1,0,0:0:0:0:
192,192,18210,1,0,0:0:0:70:drum-hitfinish.wav
448,192,18210,1,0,0:0:0:0:
64,192,18295,1,0,0:0:0:70:drum-hitfinish.wav
320,192,18295,128,0,18467:0:0:0:0:
448,192,18467,1,0,0:0:0:70:drum-hitfinish.wav
192,192,18467,128,0,18638:0:0:0:0:
320,192,18638,1,0,0:0:0:70:drum-hitfinish.wav
64,192,18638,128,0,18810:0:0:0:0:
192,192,18810,1,0,0:0:0:70:drum-hitfinish.wav
448,192,18810,128,0,18981:0:0:0:0:
320,192,18981,1,0,0:0:0:70:drum-hitfinish.wav
64,192,18981,128,0,19324:0:0:0:0:
192,192,19324,1,0,0:0:0:70:drum-hitfinish.wav
448,192,19324,128,0,19495:0:0:0:0:
64,192,19495,1,0,0:0:0:70:drum-hitfinish.wav
320,192,19495,128,0,19667:0:0:0:0:
448,192,19667,1,0,0:0:0:70:drum-hitfinish.wav
192,192,19667,128,0,20010:0:0:0:0:
448,192,20010,1,0,0:0:0:70:Snare 7.wav
320,192,20010,1,0,0:0:0:70:drum-hitfinish.wav
64,192,20010,128,0,20181:0:0:0:0:
192,192,20181,1,0,0:0:0:70:drum-hitfinish.wav
320,192,20181,128,0,20353:0:0:0:0:
448,192,20353,1,0,0:0:0:70:drum-hitfinish.wav
192,192,20353,128,0,20524:0:0:0:0:
320,192,20524,1,0,0:0:0:70:drum-hitfinish.wav
64,192,20524,128,0,20695:0:0:0:0:
448,192,20695,1,0,0:0:0:70:drum-hitfinish.wav
192,192,20695,128,0,20867:0:0:0:0:
64,192,20867,1,0,0:0:0:70:drum-hitfinish.wav
320,192,20867,128,0,21038:0:0:0:0:
448,192,21038,1,0,0:0:0:70:drum-hitfinish.wav
192,192,21038,128,0,21381:0:0:0:0:
64,192,21210,1,2,0:0:0:0:
448,192,21295,1,2,0:0:0:0:
320,192,21381,128,0,21724:0:0:0:70:drum-hitfinish.wav
64,192,21381,1,2,0:0:0:0:
448,192,21467,1,2,0:0:0:0:
192,192,21553,1,2,0:0:0:0:
64,192,21638,1,2,0:0:0:0:
448,192,21724,1,0,0:0:0:70:drum-hitfinish.wav
192,192,21724,128,0,23095:0:0:0:70:Downsweeps.wav
64,192,23095,1,0,0:0:0:70:drum-hitfinish.wav
320,192,23095,1,0,0:0:0:0:
448,192,23095,1,0,0:0:0:0:
64,192,23438,1,0,0:0:0:70:drum-hitfinish.wav
448,192,23438,1,0,0:0:0:0:
192,192,23438,1,0,0:0:0:0:
64,192,23781,1,0,0:0:0:70:drum-hitfinish.wav
448,192,23781,1,0,0:0:0:0:
320,192,23781,1,0,0:0:0:0:
448,192,24467,1,0,0:0:0:70:drum-hitfinish.wav
192,192,24467,1,0,0:0:0:0:
320,192,24467,1,0,0:0:0:0:
64,192,24810,1,0,0:0:0:70:drum-hitfinish.wav
192,192,24810,1,0,0:0:0:0:
320,192,24810,1,0,0:0:0:0:
448,192,25153,1,0,0:0:0:70:drum-hitfinish.wav
192,192,25153,1,0,0:0:0:0:
320,192,25153,1,0,0:0:0:0:
64,192,25838,1,0,0:0:0:70:drum-hitfinish.wav
320,192,25838,128,0,26181:0:0:0:0:
448,192,25838,1,0,0:0:0:0:
64,192,26181,1,0,0:0:0:70:drum-hitfinish.wav
192,192,26181,128,0,26524:0:0:0:0:
448,192,26181,1,0,0:0:0:0:
64,192,26524,128,0,27210:0:0:0:70:drum-hitfinish.wav
320,192,26524,1,0,0:0:0:0:
448,192,26524,1,0,0:0:0:0:
320,192,27210,1,0,0:0:0:0:
192,192,27210,1,0,0:0:0:0:
448,192,27210,1,0,0:0:0:70:drum-hitfinish.wav
64,192,27553,1,0,0:0:0:70:drum-hitfinish.wav
192,192,27553,1,0,0:0:0:0:
320,192,27553,1,0,0:0:0:0:
448,192,27724,1,0,0:0:0:0:
320,192,27810,1,0,0:0:0:0:
192,192,27895,1,2,0:0:0:0:
448,192,27895,1,0,0:0:0:70:drum-hitfinish.wav
64,192,27895,1,0,0:0:0:0:
320,192,27981,1,2,0:0:0:0:
64,192,28067,1,0,0:0:0:0:
192,192,28067,1,2,0:0:0:0:
320,192,28153,1,2,0:0:0:0:
192,192,28238,128,0,28581:0:0:0:70:Snare 7.wav
64,192,28238,1,0,0:0:0:0:
448,192,28238,1,0,0:0:0:0:
320,192,28581,1,0,0:0:0:0:
448,192,28581,1,0,0:0:0:70:normal-hitfinish10.wav
64,192,28581,1,2,0:0:0:0:
448,192,28753,1,0,0:0:0:0:
192,192,28753,1,0,0:0:0:0:
320,192,28924,1,0,0:0:0:0:
64,192,28924,1,2,0:0:0:0:
192,192,28924,1,0,0:0:0:0:
64,192,29095,1,0,0:0:0:0:
448,192,29095,1,0,0:0:0:0:
320,192,29181,1,0,0:0:0:0:
64,192,29267,1,0,0:0:0:70:drum-hitfinish.wav
192,192,29267,1,0,0:0:0:0:
448,192,29267,1,0,0:0:0:0:
320,192,29438,1,0,0:0:0:0:
192,192,29438,1,0,0:0:0:0:
192,192,29610,1,0,0:0:0:0:
448,192,29610,1,0,0:0:0:0:
448,192,29781,1,0,0:0:0:0:
320,192,29781,1,0,0:0:0:0:
192,192,29953,1,0,0:0:0:0:
64,192,29953,1,0,0:0:0:0:
448,192,29953,1,2,0:0:0:0:
320,192,30124,1,0,0:0:0:0:
64,192,30124,1,0,0:0:0:0:
320,192,30295,1,0,0:0:0:0:
192,192,30295,1,0,0:0:0:0:
448,192,30295,1,2,0:0:0:0:
192,192,30467,1,0,0:0:0:0:
64,192,30467,1,0,0:0:0:0:
320,192,30553,1,0,0:0:0:0:
448,192,30638,1,0,0:0:0:70:drum-hitfinish.wav
192,192,30638,1,0,0:0:0:0:
64,192,30638,1,0,0:0:0:0:
192,192,30810,1,0,0:0:0:0:
320,192,30810,1,0,0:0:0:0:
320,192,30981,1,0,0:0:0:0:
64,192,30981,1,0,0:0:0:0:
64,192,31153,1,0,0:0:0:0:
192,192,31153,1,0,0:0:0:0:
448,192,31324,1,2,0:0:0:0:
320,192,31324,1,0,0:0:0:0:
192,192,31324,1,0,0:0:0:0:
448,192,31495,1,0,0:0:0:0:
64,192,31495,1,0,0:0:0:0:
64,192,31667,1,2,0:0:0:0:
192,192,31667,1,0,0:0:0:0:
320,192,31667,1,0,0:0:0:0:
448,192,31838,1,0,0:0:0:0:
192,192,31838,1,0,0:0:0:0:
320,192,31924,1,0,0:0:0:0:
448,192,32010,1,0,0:0:0:70:drum-hitfinish.wav
192,192,32010,1,0,0:0:0:0:
64,192,32010,1,0,0:0:0:0:
320,192,32181,1,0,0:0:0:0:
64,192,32181,1,0,0:0:0:0:
448,192,32353,1,0,0:0:0:0:
320,192,32353,1,0,0:0:0:0:
448,192,32524,1,0,0:0:0:0:
64,192,32524,1,0,0:0:0:0:
64,192,32695,1,2,0:0:0:0:
320,192,32695,1,0,0:0:0:0:
192,192,32695,1,0,0:0:0:0:
192,192,32867,1,0,0:0:0:0:
448,192,32867,1,0,0:0:0:0:
64,192,33038,1,2,0:0:0:0:
320,192,33038,1,0,0:0:0:0:
192,192,33038,1,0,0:0:0:0:
448,192,33210,1,0,0:0:0:0:
64,192,33210,1,0,0:0:0:0:
192,192,33295,1,0,0:0:0:0:
64,192,33381,1,0,0:0:0:70:drum-hitfinish.wav
448,192,33381,1,0,0:0:0:0:
320,192,33381,1,0,0:0:0:0:
192,192,33553,1,0,0:0:0:0:
320,192,33553,1,0,0:0:0:0:
64,192,33724,1,0,0:0:0:0:
320,192,33724,1,0,0:0:0:0:
448,192,33724,1,0,0:0:0:70:Snare 7.wav
192,192,33895,1,0,0:0:0:0:
320,192,33895,1,0,0:0:0:0:
448,192,34067,1,0,0:0:0:70:drum-hitfinish.wav
192,192,34067,1,0,0:0:0:0:
64,192,34067,1,0,0:0:0:0:
320,192,34153,1,0,0:0:0:0:
192,192,34238,1,0,0:0:0:0:
64,192,34238,1,0,0:0:0:0:
320,192,34324,1,0,0:0:0:0:
448,192,34410,1,0,0:0:0:70:drum-hitfinish.wav
64,192,34410,1,0,0:0:0:0:
192,192,34495,1,0,0:0:0:0:
320,192,34495,1,0,0:0:0:0:
448,192,34581,1,0,0:0:0:0:
64,192,34581,1,0,0:0:0:0:
192,192,34667,1,0,0:0:0:0:
448,192,34753,1,0,0:0:0:70:drum-hitfinish.wav
320,192,34753,1,0,0:0:0:0:
192,192,34838,1,0,0:0:0:0:
64,192,34838,1,0,0:0:0:0:
320,192,34924,1,0,0:0:0:0:
448,192,34924,1,0,0:0:0:0:
192,192,35010,1,0,0:0:0:0:
448,192,35095,1,0,0:0:0:70:drum-hitfinish.wav
64,192,35095,1,0,0:0:0:0:
192,192,35181,1,0,0:0:0:0:
320,192,35181,1,0,0:0:0:0:
64,192,35267,1,0,0:0:0:0:
448,192,35267,1,0,0:0:0:0:
192,192,35353,1,0,0:0:0:0:
448,192,35438,1,0,0:0:0:70:drum-hitfinish.wav
320,192,35438,1,0,0:0:0:0:
192,192,35524,1,0,0:0:0:0:
64,192,35524,1,0,0:0:0:0:
448,192,35610,1,0,0:0:0:70:drum-hitfinish.wav
320,192,35610,1,0,0:0:0:0:
192,192,35695,1,0,0:0:0:0:
448,192,35781,1,0,0:0:0:70:drum-hitfinish.wav
64,192,35781,1,0,0:0:0:0:
320,192,35867,1,0,0:0:0:0:
192,192,35867,1,0,0:0:0:0:
448,192,35953,1,0,0:0:0:70:drum-hitfinish.wav
64,192,35953,1,0,0:0:0:0:
320,192,36038,1,0,0:0:0:0:
64,192,36124,1,0,0:0:0:70:drum-hitfinish.wav
192,192,36124,1,0,0:0:0:0:
320,192,36210,1,0,0:0:0:0:
448,192,36210,1,0,0:0:0:0:
64,192,36295,1,0,0:0:0:70:drum-hitfinish.wav
192,192,36295,1,0,0:0:0:0:
448,192,36381,1,0,0:0:0:0:
192,192,36467,1,0,0:0:0:70:drum-hitfinish.wav
320,192,36467,1,0,0:0:0:0:
64,192,36553,1,0,0:0:0:0:
448,192,36553,1,0,0:0:0:0:
192,192,36638,1,0,0:0:0:70:drum-hitfinish.wav
320,192,36638,1,0,0:0:0:0:
64,192,36724,1,0,0:0:0:0:
448,192,36810,1,0,0:0:0:25:Muted Snare.wav
320,192,36853,1,0,0:0:0:25:Muted Snare.wav
192,192,36895,1,0,0:0:0:25:Muted Snare.wav
64,192,36938,1,0,0:0:0:25:Muted Snare.wav
448,192,36981,1,0,0:0:0:25:Muted Snare.wav
320,192,37024,1,0,0:0:0:25:Muted Snare.wav
192,192,37067,1,0,0:0:0:25:Muted Snare.wav
64,192,37110,1,0,0:0:0:25:Muted Snare.wav
448,192,37153,1,0,0:0:0:40:Muted Snare.wav
320,192,37195,1,0,0:0:0:40:Muted Snare.wav
192,192,37238,1,0,0:0:0:40:Muted Snare.wav
64,192,37281,1,0,0:0:0:40:Muted Snare.wav
448,192,37324,1,0,0:0:0:40:Muted Snare.wav
320,192,37367,1,0,0:0:0:40:Muted Snare.wav
192,192,37410,1,0,0:0:0:40:Muted Snare.wav
64,192,37453,1,0,0:0:0:40:Muted Snare.wav
448,192,37495,1,0,0:0:0:55:Muted Snare.wav
320,192,37538,1,0,0:0:0:55:Muted Snare.wav
64,192,37581,1,0,0:0:0:55:Muted Snare.wav
192,192,37624,1,0,0:0:0:55:Muted Snare.wav
448,192,37667,1,0,0:0:0:55:Muted Snare.wav
320,192,37710,1,0,0:0:0:55:Muted Snare.wav
64,192,37753,1,0,0:0:0:55:Muted Snare.wav
192,192,37795,1,0,0:0:0:55:Muted Snare.wav
320,192,37838,1,0,0:0:0:70:Muted Snare.wav
448,192,37881,1,0,0:0:0:70:Muted Snare.wav
192,192,37924,1,0,0:0:0:70:Muted Snare.wav
64,192,37967,1,0,0:0:0:70:Muted Snare.wav
320,192,38010,1,0,0:0:0:70:Muted Snare.wav
448,192,38053,1,0,0:0:0:70:Muted Snare.wav
192,192,38095,1,0,0:0:0:70:Muted Snare.wav
64,192,38138,1,0,0:0:0:70:Muted Snare.wav
448,192,38181,1,0,0:0:0:50:drum-hitclap.wav
320,192,38181,1,0,0:0:0:0:
64,192,38524,1,0,0:0:0:0:
448,192,38524,1,0,0:0:0:0:
320,192,38610,1,0,0:0:0:0:
192,192,38695,1,0,0:0:0:0:
64,192,38781,1,0,0:0:0:0:
320,192,38867,1,0,0:0:0:0:
448,192,38867,1,0,0:0:0:0:
192,192,38953,1,0,0:0:0:0:
320,192,39038,1,0,0:0:0:0:
192,192,39124,1,0,0:0:0:0:
448,192,39210,1,0,0:0:0:60:clap.wav
320,192,39210,1,0,0:0:0:0:
64,192,39210,1,0,0:0:0:0:
192,192,39295,1,0,0:0:0:0:
64,192,39381,1,0,0:0:0:0:
320,192,39467,1,0,0:0:0:0:
64,192,39553,128,0,39724:0:0:0:70:drum-hitfinish.wav
448,192,39553,1,0,0:0:0:0:
192,192,39553,1,0,0:0:0:0:
64,192,39895,1,0,0:0:0:0:
448,192,39895,1,0,0:0:0:0:
192,192,39981,1,0,0:0:0:0:
320,192,39981,1,0,0:0:0:0:
64,192,40067,1,0,0:0:0:0:
448,192,40067,1,0,0:0:0:0:
192,192,40153,1,0,0:0:0:0:
320,192,40238,1,0,0:0:0:60:soft-hitnormal3.wav
448,192,40238,1,0,0:0:0:0:
192,192,40324,1,0,0:0:0:60:soft-hitnormal3.wav
64,192,40324,1,0,0:0:0:0:
320,192,40410,1,0,0:0:0:60:soft-hitnormal3.wav
448,192,40410,1,0,0:0:0:0:
192,192,40495,1,0,0:0:0:60:soft-hitnormal3.wav
320,192,40581,1,0,0:0:0:0:
448,192,40581,1,0,0:0:0:0:
64,192,40581,128,0,40753:0:0:0:0:
320,192,40753,1,0,0:0:0:0:
448,192,40753,1,0,0:0:0:0:
320,192,40838,1,0,0:0:0:0:
448,192,40838,1,0,0:0:0:0:
192,192,40924,1,0,0:0:0:0:
64,192,40924,128,0,41095:0:0:0:0:
448,192,41095,1,0,0:0:0:0:
320,192,41181,1,0,0:0:0:0:
192,192,41267,1,0,0:0:0:0:
64,192,41267,1,0,0:0:0:0:
320,192,41353,1,0,0:0:0:0:
448,192,41353,1,0,0:0:0:0:
192,192,41438,1,0,0:0:0:0:
64,192,41438,1,0,0:0:0:0:
448,192,41524,1,0,0:0:0:0:
320,192,41610,1,0,0:0:0:60:soft-hitnormal3.wav
64,192,41610,1,0,0:0:0:0:
192,192,41695,1,0,0:0:0:60:soft-hitnormal3.wav
448,192,41695,1,0,0:0:0:0:
320,192,41781,1,0,0:0:0:60:soft-hitnormal3.wav
64,192,41781,1,0,0:0:0:0:
192,192,41867,1,0,0:0:0:60:soft-hitnormal3.wav
448,192,41953,1,0,0:0:0:0:
320,192,41953,1,0,0:0:0:0:
64,192,41953,128,0,42124:0:0:0:0:
320,192,42124,1,0,0:0:0:0:
448,192,42124,1,0,0:0:0:0:
320,192,42210,1,0,0:0:0:0:
448,192,42210,1,0,0:0:0:0:
192,192,42295,1,0,0:0:0:0:
64,192,42295,128,0,42467:0:0:0:0:
320,192,42467,1,0,0:0:0:60:soft-hitnormal3.wav
448,192,42467,1,0,0:0:0:0:
192,192,42553,1,0,0:0:0:60:soft-hitnormal3.wav
64,192,42553,1,0,0:0:0:0:
448,192,42638,1,0,0:0:0:60:pew.wav
320,192,42638,1,0,0:0:0:0:
448,192,42724,1,0,0:0:0:60:pew.wav
320,192,42724,1,0,0:0:0:0:
64,192,42810,1,0,0:0:0:60:pew.wav
192,192,42810,1,0,0:0:0:0:
64,192,42895,1,0,0:0:0:60:pew.wav
192,192,42895,1,0,0:0:0:0:
320,192,42981,1,0,0:0:0:0:
448,192,42981,1,0,0:0:0:0:
64,192,43067,1,0,0:0:0:0:
320,192,43153,1,0,0:0:0:0:
448,192,43153,1,0,0:0:0:0:
192,192,43238,1,0,0:0:0:0:
64,192,43324,1,0,0:0:0:0:
448,192,43324,1,0,0:0:0:0:
192,192,43410,1,0,0:0:0:0:
448,192,43410,1,0,0:0:0:0:
64,192,43495,1,0,0:0:0:0:
320,192,43495,1,0,0:0:0:0:
320,192,43581,1,0,0:0:0:0:
448,192,43667,128,0,43838:0:0:0:0:
64,192,43667,128,0,43838:0:0:0:0:
192,192,43667,128,0,43838:0:0:0:0:
320,192,43838,1,0,0:0:0:60:soft-hitnormal3.wav
64,192,43924,1,0,0:0:0:0:
192,192,43924,1,0,0:0:0:60:soft-hitnormal3.wav
448,192,44010,1,0,0:0:0:60:pew.wav
320,192,44010,1,0,0:0:0:0:
448,192,44095,1,0,0:0:0:60:pew.wav
320,192,44095,1,0,0:0:0:0:
64,192,44181,1,0,0:0:0:60:pew.wav
192,192,44181,1,0,0:0:0:0:
64,192,44267,1,0,0:0:0:60:pew.wav
192,192,44267,1,0,0:0:0:0:
320,192,44353,1,0,0:0:0:60:soft-hitnormal3.wav
448,192,44353,1,0,0:0:0:0:
192,192,44438,1,0,0:0:0:60:soft-hitnormal3.wav
64,192,44438,1,0,0:0:0:0:
320,192,44524,1,0,0:0:0:60:soft-hitnormal3.wav
448,192,44524,1,0,0:0:0:0:
192,192,44610,1,0,0:0:0:60:soft-hitnormal3.wav
448,192,44695,1,0,0:0:0:0:
64,192,44695,1,0,0:0:0:0:
64,192,44781,1,0,0:0:0:0:
320,192,44781,1,0,0:0:0:0:
192,192,44867,1,0,0:0:0:0:
448,192,44867,1,0,0:0:0:0:
192,192,44953,1,0,0:0:0:0:
448,192,45038,128,0,45210:0:0:0:70:drum-hitfinish.wav
64,192,45038,128,0,45210:0:0:0:0:
320,192,45038,128,0,45210:0:0:0:0:
448,192,45381,1,0,0:0:0:0:
64,192,45381,1,0,0:0:0:0:
320,192,45467,1,0,0:0:0:0:
192,192,45467,1,0,0:0:0:0:
64,192,45553,1,0,0:0:0:0:
448,192,45553,1,0,0:0:0:0:
192,192,45638,1,0,0:0:0:0:
448,192,45724,1,0,0:0:0:60:soft-hitnormal3.wav
320,192,45724,1,0,0:0:0:0:
192,192,45810,1,0,0:0:0:0:
64,192,45810,1,0,0:0:0:60:soft-hitnormal3.wav
320,192,45895,1,0,0:0:0:0:
448,192,45895,1,0,0:0:0:60:soft-hitnormal3.wav
192,192,45981,1,0,0:0:0:60:soft-hitnormal3.wav
320,192,46067,1,0,0:0:0:0:
448,192,46067,1,0,0:0:0:0:
64,192,46067,128,0,46238:0:0:0:0:
320,192,46238,1,0,0:0:0:0:
448,192,46238,1,0,0:0:0:0:
320,192,46324,1,0,0:0:0:0:
448,192,46324,1,0,0:0:0:0:
192,192,46410,1,0,0:0:0:0:
64,192,46410,128,0,46581:0:0:0:0:
448,192,46581,1,0,0:0:0:0:
320,192,46667,1,0,0:0:0:0:
192,192,46753,1,0,0:0:0:0:
64,192,46753,1,0,0:0:0:0:
320,192,46838,1,0,0:0:0:0:
448,192,46838,1,0,0:0:0:0:
64,192,46924,1,0,0:0:0:0:
192,192,46924,1,0,0:0:0:0:
448,192,47010,1,0,0:0:0:0:
64,192,47095,1,0,0:0:0:60:soft-hitnormal3.wav
320,192,47095,1,0,0:0:0:0:
192,192,47181,1,0,0:0:0:0:
448,192,47181,1,0,0:0:0:60:soft-hitnormal3.wav
64,192,47267,1,0,0:0:0:60:soft-hitnormal3.wav
320,192,47267,1,0,0:0:0:0:
192,192,47353,1,0,0:0:0:60:soft-hitnormal3.wav
320,192,47438,1,0,0:0:0:0:
448,192,47438,1,0,0:0:0:0:
64,192,47438,128,0,47610:0:0:0:0:
320,192,47610,1,0,0:0:0:0:
448,192,47610,1,0,0:0:0:0:
320,192,47695,1,0,0:0:0:0:
448,192,47695,1,0,0:0:0:0:
192,192,47781,1,0,0:0:0:0:
64,192,47781,128,0,47953:0:0:0:0:
320,192,47953,1,0,0:0:0:60:soft-hitnormal3.wav
448,192,47953,1,0,0:0:0:0:
192,192,48038,1,0,0:0:0:60:soft-hitnormal3.wav
64,192,48038,1,0,0:0:0:0:
448,192,48124,1,0,0:0:0:60:pew.wav
320,192,48124,1,0,0:0:0:0:
448,192,48210,1,0,0:0:0:60:pew.wav
320,192,48210,1,0,0:0:0:0:
64,192,48295,1,0,0:0:0:60:pew.wav
192,192,48295,1,0,0:0:0:0:
64,192,48381,1,0,0:0:0:60:pew.wav
192,192,48381,1,0,0:0:0:0:
448,192,48467,1,0,0:0:0:0:
320,192,48467,1,0,0:0:0:0:
192,192,48553,1,0,0:0:0:0:
64,192,48553,1,0,0:0:0:0:
320,192,48638,1,0,0:0:0:0:
448,192,48638,1,0,0:0:0:0:
64,192,48724,1,0,0:0:0:0:
192,192,48810,1,0,0:0:0:0:
448,192,48810,1,0,0:0:0:0:
448,192,48895,1,0,0:0:0:0:
64,192,48895,1,0,0:0:0:0:
64,192,48981,1,0,0:0:0:0:
320,192,48981,1,0,0:0:0:0:
320,192,49067,1,0,0:0:0:0:
192,192,49153,128,0,49324:0:0:0:0:
64,192,49153,128,0,49324:0:0:0:0:
448,192,49324,1,0,0:0:0:60:soft-hitnormal3.wav
320,192,49410,1,0,0:0:0:60:soft-hitnormal3.wav
64,192,49495,128,0,49667:0:0:0:0:
192,192,49495,128,0,49667:0:0:0:0:
320,192,49667,1,0,0:0:0:60:soft-hitnormal3.wav
448,192,49753,1,0,0:0:0:60:soft-hitnormal3.wav
192,192,49838,128,0,50010:0:0:0:0:
64,192,49838,128,0,50010:0:0:0:0:
448,192,50010,1,0,0:0:0:60:soft-hitnormal3.wav
320,192,50095,1,0,0:0:0:60:soft-hitnormal3.wav
64,192,50181,128,0,50524:0:0:0:0:
192,192,50181,128,0,50524:0:0:0:0:
320,192,50524,1,0,0:0:0:0:
448,192,50524,1,0,0:0:0:0:
448,192,50867,1,0,0:0:0:70:drum-hitfinish.wav
192,192,50867,1,0,0:0:0:0:
64,192,50867,1,0,0:0:0:0:
448,192,50953,1,0,0:0:0:70:drum-hitfinish.wav
192,192,51038,1,0,0:0:0:0:
320,192,51038,1,0,0:0:0:70:drum-hitfinish.wav
448,192,51124,1,0,0:0:0:70:drum-hitfinish.wav
64,192,51210,1,0,0:0:0:70:drum-hitfinish.wav
320,192,51210,1,0,0:0:0:0:
64,192,51295,1,0,0:0:0:70:drum-hitfinish.wav
192,192,51381,1,0,0:0:0:70:drum-hitfinish.wav
320,192,51381,1,0,0:0:0:0:
64,192,51467,1,0,0:0:0:70:drum-hitfinish.wav
448,192,51553,128,0,51724:0:0:0:70:drum-hitfinish.wav
192,192,51553,1,0,0:0:0:0:
320,192,51724,1,0,0:0:0:70:drum-hitfinish.wav
320,192,51810,1,0,0:0:0:70:drum-hitfinish.wav
448,192,51895,128,0,52067:0:0:0:70:drum-hitfinish.wav
64,192,51895,128,0,52067:0:0:0:0:
192,192,51895,128,0,52067:0:0:0:0:
320,192,52238,1,0,0:0:0:60:soft-hitnormal3.wav
192,192,52238,1,0,0:0:0:0:
64,192,52324,1,0,0:0:0:60:soft-hitnormal3.wav
448,192,52324,1,0,0:0:0:0:
192,192,52410,1,0,0:0:0:60:soft-hitnormal3.wav
320,192,52410,1,0,0:0:0:0:
448,192,52495,1,0,0:0:0:60:soft-hitnormal3.wav
64,192,52581,1,0,0:0:0:0:
192,192,52581,1,0,0:0:0:0:
448,192,52667,1,0,0:0:0:0:
64,192,52667,1,0,0:0:0:0:
320,192,52753,1,0,0:0:0:0:
192,192,52753,1,0,0:0:0:0:
320,192,52838,1,0,0:0:0:0:
64,192,52924,1,0,0:0:0:0:
192,192,52924,1,0,0:0:0:0:
320,192,53010,1,0,0:0:0:0:
448,192,53010,1,0,0:0:0:0:
448,192,53095,1,0,0:0:0:0:
320,192,53095,1,0,0:0:0:0:
192,192,53181,1,0,0:0:0:0:
64,192,53181,1,0,0:0:0:0:
320,192,53267,1,0,0:0:0:0:
448,192,53267,128,0,53438:0:0:0:0:
192,192,53438,1,0,0:0:0:0:
320,192,53524,1,0,0:0:0:0:
64,192,53610,1,0,0:0:0:60:pew.wav
192,192,53610,1,0,0:0:0:0:
64,192,53695,1,0,0:0:0:60:pew.wav
192,192,53695,1,0,0:0:0:0:
448,192,53781,1,0,0:0:0:60:pew.wav
320,192,53781,1,0,0:0:0:0:
448,192,53867,1,0,0:0:0:60:pew.wav
320,192,53867,1,0,0:0:0:0:
192,192,53953,1,0,0:0:0:0:
64,192,53953,128,0,54124:0:0:0:0:
448,192,54124,1,0,0:0:0:0:
320,192,54124,1,0,0:0:0:0:
448,192,54210,1,0,0:0:0:0:
320,192,54210,1,0,0:0:0:0:
64,192,54295,1,0,0:0:0:60:soft-hitnormal3.wav
192,192,54295,1,0,0:0:0:0:
448,192,54381,1,0,0:0:0:60:soft-hitnormal3.wav
320,192,54381,1,0,0:0:0:0:
192,192,54467,1,0,0:0:0:0:
64,192,54467,1,0,0:0:0:60:soft-hitnormal3.wav
320,192,54553,1,0,0:0:0:60:soft-hitnormal3.wav
192,192,54638,128,0,54810:0:0:0:0:
448,192,54638,1,0,0:0:0:0:
64,192,54810,1,0,0:0:0:0:
192,192,54895,1,0,0:0:0:0:
448,192,54981,1,0,0:0:0:60:pew.wav
320,192,54981,1,0,0:0:0:0:
448,192,55067,1,0,0:0:0:60:pew.wav
320,192,55067,1,0,0:0:0:0:
64,192,55153,1,0,0:0:0:60:pew.wav
192,192,55153,1,0,0:0:0:0:
64,192,55238,1,0,0:0:0:60:pew.wav
192,192,55238,1,0,0:0:0:0:
320,192,55324,1,0,0:0:0:60:soft-hitnormal3.wav
448,192,55324,1,0,0:0:0:0:
192,192,55410,1,0,0:0:0:60:soft-hitnormal3.wav
64,192,55410,1,0,0:0:0:0:
320,192,55495,1,0,0:0:0:60:soft-hitnormal3.wav
448,192,55495,1,0,0:0:0:0:
192,192,55581,1,0,0:0:0:60:soft-hitnormal3.wav
64,192,55667,1,0,0:0:0:0:
320,192,55667,1,0,0:0:0:0:
64,192,55753,1,0,0:0:0:0:
192,192,55753,1,0,0:0:0:0:
320,192,55838,1,0,0:0:0:0:
448,192,55838,1,0,0:0:0:0:
320,192,55924,1,0,0:0:0:0:
448,192,56010,128,0,56181:0:0:0:50:Muted Snare.wav
64,192,56010,1,0,0:0:0:0:
192,192,56010,1,0,0:0:0:0:
192,192,56181,1,0,0:0:0:0:
320,192,56267,1,0,0:0:0:0:
192,192,56353,1,0,0:0:0:0:
448,192,56353,1,0,0:0:0:0:
64,192,56353,1,0,0:0:0:50:Muted Snare.wav
320,192,56438,1,0,0:0:0:0:
64,192,56524,1,0,0:0:0:0:
448,192,56524,1,0,0:0:0:0:
192,192,56610,1,0,0:0:0:0:
448,192,56695,1,0,0:0:0:50:Muted Snare.wav
64,192,56695,1,0,0:0:0:0:
320,192,56695,1,0,0:0:0:0:
192,192,56781,1,0,0:0:0:0:
64,192,56867,1,0,0:0:0:0:
448,192,56867,1,0,0:0:0:0:
320,192,56953,1,0,0:0:0:0:
64,192,57038,1,0,0:0:0:0:
192,192,57038,128,0,57124:0:0:0:0:
448,192,57124,1,0,0:0:0:0:
320,192,57124,128,0,57210:0:0:0:0:
64,192,57210,1,0,0:0:0:0:
192,192,57210,128,0,57295:0:0:0:0:
320,192,57295,128,0,57381:0:0:0:0:
448,192,57295,1,0,0:0:0:0:
64,192,57381,128,0,57553:0:0:0:50:Muted Snare.wav
192,192,57381,1,0,0:0:0:0:
320,192,57553,1,0,0:0:0:0:
192,192,57638,1,0,0:0:0:0:
448,192,57724,1,0,0:0:0:50:Muted Snare.wav
64,192,57724,1,0,0:0:0:0:
320,192,57724,1,0,0:0:0:0:
192,192,57810,1,0,0:0:0:0:
448,192,57895,1,0,0:0:0:0:
64,192,57895,1,0,0:0:0:0:
320,192,57981,1,0,0:0:0:0:
64,192,58067,1,0,0:0:0:0:
448,192,58067,1,0,0:0:0:50:Muted Snare.wav
192,192,58067,1,0,0:0:0:0:
320,192,58153,1,0,0:0:0:0:
192,192,58238,1,0,0:0:0:0:
448,192,58238,1,0,0:0:0:0:
64,192,58324,1,0,0:0:0:0:
448,192,58410,128,0,58495:0:0:0:0:
320,192,58410,1,0,0:0:0:0:
192,192,58495,1,0,0:0:0:0:
64,192,58495,128,0,58581:0:0:0:0:
320,192,58581,1,0,0:0:0:0:
448,192,58581,128,0,58667:0:0:0:0:
192,192,58667,1,0,0:0:0:0:
64,192,58667,128,0,58753:0:0:0:0:
320,192,58753,1,0,0:0:0:0:
448,192,58753,1,0,0:0:0:50:Muted Snare.wav
192,192,58838,1,0,0:0:0:50:Muted Snare.wav
64,192,58924,1,0,0:0:0:50:Muted Snare.wav
448,192,58924,1,0,0:0:0:0:
192,192,59010,1,0,0:0:0:50:Muted Snare.wav
448,192,59095,1,0,0:0:0:50:Muted Snare.wav
320,192,59095,1,0,0:0:0:60:pew.wav
448,192,59181,1,0,0:0:0:50:Muted Snare.wav
320,192,59181,1,0,0:0:0:60:pew.wav
64,192,59267,1,0,0:0:0:50:Muted Snare.wav
192,192,59267,1,0,0:0:0:60:pew.wav
64,192,59353,1,0,0:0:0:50:Muted Snare.wav
192,192,59353,1,0,0:0:0:60:pew.wav
448,192,59438,1,0,0:0:0:50:Muted Snare.wav
320,192,59438,1,0,0:0:0:0:
192,192,59524,1,0,0:0:0:50:Muted Snare.wav
448,192,59610,1,0,0:0:0:50:Muted Snare.wav
64,192,59610,1,0,0:0:0:0:
320,192,59695,1,0,0:0:0:50:Muted Snare.wav
64,192,59781,1,0,0:0:0:50:Muted Snare.wav
192,192,59781,1,0,0:0:0:0:
320,192,59867,1,0,0:0:0:50:Muted Snare.wav
448,192,59953,1,0,0:0:0:50:Muted Snare.wav
64,192,59953,1,0,0:0:0:0:
320,192,60038,1,0,0:0:0:50:Muted Snare.wav
64,192,60124,1,0,0:0:0:25:Muted Snare.wav
192,192,60167,1,0,0:0:0:25:Muted Snare.wav
320,192,60210,1,0,0:0:0:25:Muted Snare.wav
448,192,60253,1,0,0:0:0:25:Muted Snare.wav
64,192,60295,1,0,0:0:0:25:Muted Snare.wav
192,192,60381,1,0,0:0:0:25:Muted Snare.wav
448,192,60467,1,0,0:0:0:40:Muted Snare.wav
320,192,60510,1,0,0:0:0:40:Muted Snare.wav
192,192,60553,1,0,0:0:0:40:Muted Snare.wav
64,192,60595,1,0,0:0:0:40:Muted Snare.wav
448,192,60638,1,0,0:0:0:40:Muted Snare.wav
320,192,60724,1,0,0:0:0:40:Muted Snare.wav
64,192,60810,1,0,0:0:0:55:Muted Snare.wav
192,192,60853,1,0,0:0:0:55:Muted Snare.wav
320,192,60895,1,0,0:0:0:55:Muted Snare.wav
448,192,60938,1,0,0:0:0:55:Muted Snare.wav
64,192,60981,1,0,0:0:0:55:Muted Snare.wav
192,192,61067,1,0,0:0:0:55:Muted Snare.wav
448,192,61153,1,0,0:0:0:70:Muted Snare.wav
320,192,61195,1,0,0:0:0:70:Muted Snare.wav
192,192,61238,1,0,0:0:0:70:Muted Snare.wav
64,192,61281,1,0,0:0:0:70:Muted Snare.wav
320,192,61324,1,0,0:0:0:70:Muted Snare.wav
192,192,61367,1,0,0:0:0:70:Muted Snare.wav
448,192,61410,1,0,0:0:0:70:Muted Snare.wav
320,192,61453,1,0,0:0:0:70:Muted Snare.wav
192,192,61495,1,0,0:0:0:50:normal-hitclap.wav
64,192,61495,1,0,0:0:0:70:Downsweeps.wav
64,192,62010,1,0,0:0:0:0:
320,192,62181,1,0,0:0:0:30:clap.wav
64,192,62695,1,0,0:0:0:0:
320,192,62867,1,0,0:0:0:30:clap.wav
192,192,63038,1,0,0:0:0:0:
64,192,63210,1,0,0:0:0:30:clap.wav
320,192,63381,1,0,0:0:0:0:
448,192,63553,1,0,0:0:0:30:clap.wav
64,192,64067,1,0,0:0:0:0:
320,192,64238,1,0,0:0:0:30:clap.wav
64,192,64753,1,0,0:0:0:0:
320,192,64924,1,0,0:0:0:30:clap.wav
448,192,65438,1,0,0:0:0:0:
192,192,65610,1,0,0:0:0:30:clap.wav
448,192,65781,1,0,0:0:0:0:
64,192,65953,1,0,0:0:0:30:clap.wav
320,192,66124,1,0,0:0:0:0:
64,192,66295,1,0,0:0:0:30:clap.wav
448,192,66981,128,0,67324:0:0:0:0:
320,192,66981,1,0,0:0:0:30:clap.wav
64,192,67324,1,0,0:0:0:30:clap.wav
192,192,67495,128,0,67667:0:0:0:0:
448,192,67667,128,0,68010:0:0:0:0:
320,192,67667,1,0,0:0:0:30:clap.wav
192,192,68181,128,0,68353:0:0:0:0:
448,192,68353,128,0,68524:0:0:0:0:
320,192,68353,1,0,0:0:0:30:clap.wav
64,192,68524,128,0,68695:0:0:0:0:
448,192,68695,1,0,0:0:0:30:clap.wav
192,192,68695,128,0,68867:0:0:0:0:
320,192,68867,128,0,69038:0:0:0:0:
448,192,69038,128,0,69381:0:0:0:0:
192,192,69038,1,0,0:0:0:30:clap.wav
320,192,69553,128,0,69724:0:0:0:0:
64,192,69724,128,0,70067:0:0:0:0:
448,192,69724,1,0,0:0:0:30:clap.wav
320,192,70238,128,0,70410:0:0:0:0:
64,192,70410,128,0,70753:0:0:0:0:
448,192,70410,1,0,0:0:0:30:clap.wav
320,192,70924,128,0,71095:0:0:0:0:
448,192,71095,1,0,0:0:0:70:drum-hitfinish.wav
64,192,71095,128,0,71267:0:0:0:0:
192,192,71181,1,0,0:0:0:70:drum-hitfinish.wav
320,192,71267,1,0,0:0:0:70:drum-hitfinish.wav
448,192,71267,128,0,71438:0:0:0:0:
192,192,71353,1,0,0:0:0:70:drum-hitfinish.wav
320,192,71438,1,0,0:0:0:70:drum-hitfinish.wav
64,192,71438,128,0,71610:0:0:0:0:
448,192,71524,1,0,0:0:0:70:drum-hitfinish.wav
320,192,71610,1,0,0:0:0:70:drum-hitfinish.wav
192,192,71610,128,0,71781:0:0:0:0:
64,192,71695,1,0,0:0:0:70:drum-hitfinish.wav
448,192,71781,1,0,0:0:0:70:drum-hitfinish.wav
320,192,71781,128,0,72124:0:0:0:0:
192,192,71867,1,0,0:0:0:70:drum-hitfinish.wav
448,192,71953,1,0,0:0:0:70:drum-hitfinish.wav
192,192,72038,1,0,0:0:0:70:drum-hitfinish.wav
448,192,72124,128,0,72467:0:0:0:70:Snare 7.wav
64,192,72124,1,0,0:0:0:0:
192,192,72467,1,0,0:0:0:0:
64,192,72467,1,0,0:0:0:0:
320,192,72467,128,4,72810:0:0:0:0:
64,192,72810,1,0,0:0:0:0:
192,192,72981,128,0,73153:0:0:0:0:
320,192,73153,128,0,73495:0:0:0:0:
448,192,73153,1,0,0:0:0:0:
64,192,73495,1,0,0:0:0:0:
192,192,73667,128,0,73838:0:0:0:0:
64,192,73838,128,0,74010:0:0:0:0:
448,192,73838,1,0,0:0:0:0:
320,192,74010,128,0,74181:0:0:0:0:
448,192,74181,128,0,74353:0:0:0:0:
64,192,74181,1,0,0:0:0:0:
192,192,74353,128,0,74524:0:0:0:0:
448,192,74524,128,0,74867:0:0:0:0:
320,192,74524,1,0,0:0:0:0:
64,192,74867,1,0,0:0:0:0:
192,192,75038,128,0,75210:0:0:0:0:
320,192,75210,128,0,75553:0:0:0:0:
448,192,75210,1,0,0:0:0:0:
448,192,75553,1,0,0:0:0:0:
192,192,75724,128,0,75895:0:0:0:0:
320,192,75895,128,0,76238:0:0:0:0:
64,192,75895,1,0,0:0:0:0:
448,192,76238,1,0,0:0:0:0:
192,192,76410,128,0,76581:0:0:0:0:
320,192,76581,128,0,76753:0:0:0:0:
64,192,76581,1,0,0:0:0:0:
448,192,76753,128,0,76924:0:0:0:0:
320,192,76924,128,0,77095:0:0:0:0:
192,192,76924,1,0,0:0:0:0:
64,192,77095,128,0,77267:0:0:0:0:
192,192,77267,128,0,77610:0:0:0:0:
448,192,77267,1,0,0:0:0:0:
320,192,77610,1,0,0:0:0:0:
320,192,77953,128,0,78295:0:0:0:70:drum-hitfinish.wav
192,192,77953,1,0,0:0:0:0:
448,192,77953,1,0,0:0:0:0:
64,192,78295,1,0,0:0:0:70:drum-hitfinish.wav
192,192,78295,1,0,0:0:0:0:
448,192,78467,1,0,0:0:0:0:
320,192,78553,1,0,0:0:0:0:
192,192,78638,1,0,0:0:0:0:
448,192,78638,1,0,0:0:0:70:drum-hitfinish.wav
64,192,78638,1,0,0:0:0:0:
448,192,79324,128,0,79667:0:0:0:70:drum-hitfinish.wav
320,192,79324,1,0,0:0:0:0:
192,192,79324,1,0,0:0:0:0:
64,192,79667,1,0,0:0:0:70:drum-hitfinish.wav
192,192,79667,1,0,0:0:0:0:
448,192,79838,1,0,0:0:0:0:
320,192,79924,1,0,0:0:0:0:
192,192,80010,1,0,0:0:0:70:drum-hitfinish.wav
64,192,80010,1,0,0:0:0:0:
448,192,80010,1,0,0:0:0:0:
64,192,80695,1,0,0:0:0:70:drum-hitfinish.wav
320,192,80695,128,0,81038:0:0:0:0:
448,192,80695,1,0,0:0:0:0:
448,192,81038,1,0,0:0:0:70:drum-hitfinish.wav
192,192,81038,128,0,81381:0:0:0:0:
64,192,81038,1,0,0:0:0:0:
64,192,81381,1,0,0:0:0:70:drum-hitfinish.wav
448,192,81381,128,0,82067:0:0:0:0:
320,192,81381,1,0,0:0:0:0:
192,192,82067,1,0,0:0:0:70:drum-hitfinish.wav
320,192,82067,1,0,0:0:0:0:
64,192,82067,128,0,82410:0:0:0:0:
320,192,82410,1,0,0:0:0:0:
448,192,82410,1,0,0:0:0:70:drum-hitfinish.wav
192,192,82581,1,0,0:0:0:0:
320,192,82667,1,0,0:0:0:0:
192,192,82753,1,0,0:0:0:0:
448,192,82753,1,0,0:0:0:0:
64,192,82753,1,0,0:0:0:0:
320,192,82838,1,0,0:0:0:0:
192,192,82924,1,0,0:0:0:0:
64,192,82924,1,0,0:0:0:0:
320,192,83010,1,0,0:0:0:0:
192,192,83095,1,0,0:0:0:0:
448,192,83095,1,0,0:0:0:70:normal-hitwhistle5.wav
64,192,83095,1,0,0:0:0:70:Snare 7.wav
320,192,83438,1,0,0:0:0:0:
64,192,83438,1,0,0:0:0:70:normal-hitfinish10.wav
448,192,83438,1,2,0:0:0:0:
192,192,83610,1,0,0:0:0:0:
320,192,83610,1,0,0:0:0:0:
192,192,83781,1,0,0:0:0:0:
64,192,83781,1,0,0:0:0:0:
448,192,83781,1,2,0:0:0:0:
320,192,83953,1,0,0:0:0:0:
448,192,83953,1,0,0:0:0:0:
192,192,84038,1,0,0:0:0:100:normal-hitwhistle.wav
448,192,84124,1,0,0:0:0:70:drum-hitfinish.wav
320,192,84124,1,0,0:0:0:0:
64,192,84124,1,0,0:0:0:0:
64,192,84295,1,0,0:0:0:0:
192,192,84295,1,0,0:0:0:0:
192,192,84467,1,0,0:0:0:0:
320,192,84467,1,0,0:0:0:0:
320,192,84638,1,0,0:0:0:0:
448,192,84638,1,0,0:0:0:0:
192,192,84810,1,0,0:0:0:0:
448,192,84810,1,0,0:0:0:0:
64,192,84810,1,2,0:0:0:0:
192,192,84981,1,0,0:0:0:0:
320,192,84981,1,0,0:0:0:0:
320,192,85153,1,0,0:0:0:0:
448,192,85153,1,0,0:0:0:0:
64,192,85153,1,2,0:0:0:0:
192,192,85324,1,0,0:0:0:0:
64,192,85324,1,0,0:0:0:0:
320,192,85410,1,0,0:0:0:100:normal-hitwhistle.wav
64,192,85495,1,0,0:0:0:70:drum-hitfinish.wav
192,192,85495,1,0,0:0:0:0:
448,192,85495,1,0,0:0:0:0:
320,192,85667,1,0,0:0:0:0:
448,192,85667,1,0,0:0:0:0:
192,192,85838,1,0,0:0:0:0:
320,192,85838,1,0,0:0:0:0:
64,192,86010,1,0,0:0:0:0:
192,192,86010,1,0,0:0:0:0:
192,192,86181,1,0,0:0:0:0:
64,192,86181,1,0,0:0:0:0:
448,192,86181,1,2,0:0:0:0:
320,192,86353,1,0,0:0:0:0:
192,192,86353,1,0,0:0:0:0:
320,192,86524,1,0,0:0:0:0:
64,192,86524,1,0,0:0:0:0:
448,192,86524,1,2,0:0:0:0:
64,192,86695,1,0,0:0:0:0:
192,192,86695,1,0,0:0:0:0:
448,192,86781,1,0,0:0:0:100:normal-hitwhistle.wav
64,192,86867,1,0,0:0:0:70:drum-hitfinish.wav
320,192,86867,1,0,0:0:0:0:
192,192,86867,1,0,0:0:0:0:
448,192,87038,1,0,0:0:0:0:
320,192,87038,1,0,0:0:0:0:
64,192,87210,1,0,0:0:0:0:
448,192,87210,1,0,0:0:0:0:
64,192,87381,1,0,0:0:0:0:
192,192,87381,1,0,0:0:0:0:
192,192,87553,1,0,0:0:0:0:
320,192,87553,1,0,0:0:0:0:
448,192,87553,1,2,0:0:0:0:
448,192,87724,1,0,0:0:0:0:
64,192,87724,1,0,0:0:0:0:
192,192,87895,1,0,0:0:0:0:
320,192,87895,1,0,0:0:0:0:
64,192,87895,1,2,0:0:0:0:
448,192,88067,1,0,0:0:0:0:
320,192,88067,1,0,0:0:0:0:
64,192,88153,1,0,0:0:0:100:normal-hitwhistle.wav
448,192,88238,1,0,0:0:0:70:drum-hitfinish.wav
320,192,88238,1,0,0:0:0:0:
192,192,88238,1,0,0:0:0:0:
64,192,88410,1,0,0:0:0:0:
192,192,88410,1,0,0:0:0:0:
448,192,88581,1,0,0:0:0:70:Snare 7.wav
64,192,88581,1,0,0:0:0:0:
320,192,88581,1,0,0:0:0:0:
192,192,88753,1,0,0:0:0:0:
320,192,88753,1,0,0:0:0:0:
448,192,88924,1,0,0:0:0:70:drum-hitfinish.wav
192,192,88924,1,0,0:0:0:0:
64,192,88924,1,0,0:0:0:0:
320,192,89010,1,0,0:0:0:0:
192,192,89095,1,0,0:0:0:0:
64,192,89095,1,0,0:0:0:0:
448,192,89181,1,0,0:0:0:0:
320,192,89267,1,0,0:0:0:70:drum-hitfinish.wav
64,192,89267,1,0,0:0:0:0:
192,192,89353,1,0,0:0:0:0:
448,192,89353,1,0,0:0:0:0:
320,192,89438,1,0,0:0:0:0:
64,192,89438,1,0,0:0:0:0:
192,192,89524,1,0,0:0:0:0:
448,192,89610,1,0,0:0:0:70:drum-hitfinish.wav
320,192,89610,1,0,0:0:0:0:
192,192,89695,1,0,0:0:0:0:
64,192,89695,1,0,0:0:0:0:
320,192,89781,1,0,0:0:0:0:
448,192,89781,1,0,0:0:0:0:
64,192,89867,1,0,0:0:0:0:
448,192,89953,1,0,0:0:0:70:drum-hitfinish.wav
192,192,89953,1,0,0:0:0:0:
64,192,90038,1,0,0:0:0:0:
320,192,90038,1,0,0:0:0:0:
192,192,90124,1,0,0:0:0:0:
448,192,90124,1,0,0:0:0:0:
320,192,90210,1,0,0:0:0:0:
192,192,90295,1,0,0:0:0:70:drum-hitfinish.wav
64,192,90295,1,0,0:0:0:0:
448,192,90381,1,0,0:0:0:0:
320,192,90381,1,0,0:0:0:0:
192,192,90467,1,0,0:0:0:70:drum-hitfinish.wav
64,192,90467,1,0,0:0:0:0:
448,192,90553,1,0,0:0:0:0:
320,192,90638,1,0,0:0:0:70:drum-hitfinish.wav
64,192,90638,1,0,0:0:0:0:
448,192,90724,1,0,0:0:0:0:
192,192,90724,1,0,0:0:0:0:
320,192,90810,1,0,0:0:0:70:drum-hitfinish.wav
64,192,90810,1,0,0:0:0:0:
192,192,90895,1,0,0:0:0:0:
320,192,90981,1,0,0:0:0:70:drum-hitfinish.wav
448,192,90981,1,0,0:0:0:0:
64,192,91067,1,0,0:0:0:0:
192,192,91067,1,0,0:0:0:0:
320,192,91153,1,0,0:0:0:70:drum-hitfinish.wav
448,192,91153,1,0,0:0:0:0:
64,192,91238,1,0,0:0:0:0:
192,192,91324,1,0,0:0:0:70:drum-hitfinish.wav
448,192,91324,1,0,0:0:0:0:
64,192,91410,1,0,0:0:0:0:
320,192,91410,1,0,0:0:0:0:
192,192,91495,1,0,0:0:0:70:drum-hitfinish.wav
448,192,91495,1,0,0:0:0:0:
64,192,91581,1,0,0:0:0:0:
448,192,91667,1,0,0:0:0:25:Muted Snare.wav
320,192,91710,1,0,0:0:0:25:Muted Snare.wav
192,192,91753,1,0,0:0:0:25:Muted Snare.wav
64,192,91795,1,0,0:0:0:25:Muted Snare.wav
448,192,91838,1,0,0:0:0:25:Muted Snare.wav
320,192,91881,1,0,0:0:0:25:Muted Snare.wav
192,192,91924,1,0,0:0:0:25:Muted Snare.wav
64,192,91967,1,0,0:0:0:25:Muted Snare.wav
448,192,92010,1,0,0:0:0:40:Muted Snare.wav
320,192,92053,1,0,0:0:0:40:Muted Snare.wav
192,192,92095,1,0,0:0:0:40:Muted Snare.wav
64,192,92138,1,0,0:0:0:40:Muted Snare.wav
448,192,92181,1,0,0:0:0:40:Muted Snare.wav
320,192,92224,1,0,0:0:0:40:Muted Snare.wav
192,192,92267,1,0,0:0:0:40:Muted Snare.wav
64,192,92310,1,0,0:0:0:40:Muted Snare.wav
448,192,92353,1,0,0:0:0:55:Muted Snare.wav
320,192,92395,1,0,0:0:0:55:Muted Snare.wav
64,192,92438,1,0,0:0:0:55:Muted Snare.wav
192,192,92481,1,0,0:0:0:55:Muted Snare.wav
448,192,92524,1,0,0:0:0:55:Muted Snare.wav
320,192,92567,1,0,0:0:0:55:Muted Snare.wav
64,192,92610,1,0,0:0:0:55:Muted Snare.wav
192,192,92653,1,0,0:0:0:55:Muted Snare.wav
320,192,92695,1,0,0:0:0:70:Muted Snare.wav
448,192,92738,1,0,0:0:0:70:Muted Snare.wav
192,192,92781,1,0,0:0:0:70:Muted Snare.wav
64,192,92824,1,0,0:0:0:70:Muted Snare.wav
320,192,92867,1,0,0:0:0:70:Muted Snare.wav
448,192,92910,1,0,0:0:0:70:Muted Snare.wav
192,192,92953,1,0,0:0:0:70:Muted Snare.wav
64,192,92995,1,0,0:0:0:70:Muted Snare.wav
448,192,93038,1,0,0:0:0:50:drum-hitclap.wav
320,192,93038,1,0,0:0:0:0:
448,192,93381,1,0,0:0:0:20:soft-hitnormal3.wav
64,192,93381,1,0,0:0:0:0:
320,192,93467,1,0,0:0:0:20:soft-hitnormal3.wav
192,192,93553,1,0,0:0:0:20:soft-hitnormal3.wav
64,192,93638,1,0,0:0:0:20:soft-hitnormal3.wav
320,192,93724,1,0,0:0:0:40:soft-hitnormal3.wav
448,192,93724,1,0,0:0:0:0:
192,192,93810,1,0,0:0:0:40:soft-hitnormal3.wav
320,192,93895,1,0,0:0:0:40:soft-hitnormal3.wav
192,192,93981,1,0,0:0:0:40:soft-hitnormal3.wav
448,192,94067,1,0,0:0:0:80:soft-hitnormal3.wav
64,192,94067,1,0,0:0:0:0:
320,192,94153,1,0,0:0:0:80:soft-hitnormal3.wav
192,192,94238,1,0,0:0:0:80:soft-hitnormal3.wav
448,192,94324,1,0,0:0:0:80:soft-hitnormal3.wav
192,192,94410,128,0,94581:0:0:0:70:normal-hitwhistle5.wav
320,192,94410,1,0,0:0:0:70:normal-hitfinish10.wav
64,192,94410,128,0,94581:0:0:0:0:
448,192,94581,128,0,94753:0:0:0:0:
320,192,94753,128,0,94838:0:0:0:0:
64,192,94753,128,0,94924:0:0:0:0:
448,192,94924,1,0,0:0:0:0:
320,192,94967,1,0,0:0:0:0:
64,192,95010,1,0,0:0:0:0:
192,192,95053,1,0,0:0:0:0:
320,192,95095,1,0,0:0:0:60:soft-hitnormal3.wav
448,192,95095,128,0,95267:0:0:0:50:drum-hitclap.wav
192,192,95181,128,0,95353:0:0:0:0:
64,192,95267,128,0,95353:0:0:0:0:
320,192,95353,128,0,95438:0:0:0:0:
64,192,95438,1,0,0:0:0:60:soft-hitnormal3.wav
448,192,95438,128,0,95610:0:0:0:70:soft-hitwhistle.wav
320,192,95524,128,0,95695:0:0:0:0:
64,192,95610,128,0,95695:0:0:0:0:
192,192,95695,128,0,95781:0:0:0:0:
320,192,95781,128,0,96124:0:0:0:60:soft-hitnormal3.wav
448,192,95781,128,0,96124:0:0:0:0:
64,192,96124,1,0,0:0:0:70:soft-hitwhistle.wav
192,192,96124,1,0,0:0:0:0:
64,192,96295,1,0,0:0:0:0:
192,192,96338,1,0,0:0:0:0:
448,192,96381,1,0,0:0:0:0:
320,192,96424,1,0,0:0:0:0:
192,192,96467,1,0,0:0:0:60:soft-hitnormal3.wav
64,192,96467,128,0,96638:0:0:0:50:drum-hitclap.wav
320,192,96553,128,0,96724:0:0:0:0:
448,192,96638,128,0,96724:0:0:0:0:
192,192,96724,128,0,96810:0:0:0:0:
64,192,96810,128,0,96981:0:0:0:60:soft-hitnormal3.wav
192,192,96895,128,0,97067:0:0:0:0:
448,192,96981,128,0,97067:0:0:0:0:
320,192,97067,128,0,97153:0:0:0:0:
192,192,97153,128,0,97324:0:0:0:70:soft-hitwhistle.wav
64,192,97153,1,0,0:0:0:60:pew.wav
448,192,97324,1,0,0:0:0:60:pew.wav
320,192,97324,1,0,0:0:0:0:
64,192,97410,1,0,0:0:0:60:pew.wav
192,192,97410,1,0,0:0:0:0:
448,192,97495,1,0,0:0:0:60:pew.wav
320,192,97538,1,0,0:0:0:60:pew.wav
64,192,97667,1,0,0:0:0:60:pew.wav
192,192,97710,1,0,0:0:0:60:pew.wav
320,192,97838,1,0,0:0:0:50:drum-hitclap.wav
64,192,97838,1,0,0:0:0:0:
448,192,97838,128,0,98010:0:0:0:60:soft-hitnormal3.wav
192,192,97924,128,0,98095:0:0:0:0:
64,192,98010,128,0,98095:0:0:0:0:
320,192,98095,128,0,98181:0:0:0:0:
64,192,98181,1,0,0:0:0:60:soft-hitnormal3.wav
448,192,98181,128,0,98353:0:0:0:70:soft-hitwhistle.wav
320,192,98267,128,0,98438:0:0:0:0:
64,192,98353,128,0,98438:0:0:0:0:
192,192,98438,128,0,98524:0:0:0:0:
448,192,98695,1,0,0:0:0:60:pew.wav
320,192,98695,1,0,0:0:0:0:
320,192,98867,1,0,0:0:0:70:soft-hitwhistle.wav
64,192,98867,1,0,0:0:0:60:pew.wav
64,192,99038,1,0,0:0:0:60:pew.wav
448,192,99038,1,0,0:0:0:0:
320,192,99210,1,0,0:0:0:60:pew.wav
448,192,99210,1,0,0:0:0:50:drum-hitclap.wav
192,192,99210,1,0,0:0:0:0:
64,192,99381,1,0,0:0:0:60:pew.wav
192,192,99381,1,0,0:0:0:0:
320,192,99553,128,0,99895:0:0:0:60:pew.wav
448,192,99553,1,0,0:0:0:0:
192,192,99895,128,0,100067:0:0:0:70:normal-hitwhistle2.wav
448,192,99895,1,0,0:0:0:70:soft-hitwhistle.wav
64,192,99895,128,0,100067:0:0:0:0:
320,192,100067,128,0,100238:0:0:0:0:
192,192,100238,128,0,100324:0:0:0:0:
448,192,100238,128,0,100410:0:0:0:0:
64,192,100410,1,0,0:0:0:0:
192,192,100453,1,0,0:0:0:0:
320,192,100495,1,0,0:0:0:0:
448,192,100538,1,0,0:0:0:0:
192,192,100581,1,0,0:0:0:60:soft-hitnormal3.wav
64,192,100581,128,0,100753:0:0:0:50:drum-hitclap.wav
320,192,100667,128,0,100838:0:0:0:0:
448,192,100753,128,0,100838:0:0:0:0:
192,192,100838,128,0,100924:0:0:0:0:
448,192,100924,1,0,0:0:0:70:soft-hitwhistle.wav
64,192,100924,128,0,101095:0:0:0:0:
192,192,101010,128,0,101181:0:0:0:0:
448,192,101095,128,0,101181:0:0:0:0:
320,192,101181,128,0,101267:0:0:0:0:
64,192,101267,128,0,101610:0:0:0:60:soft-hitnormal3.wav
192,192,101267,128,0,101610:0:0:0:0:
448,192,101610,1,0,0:0:0:70:soft-hitwhistle.wav
320,192,101610,1,0,0:0:0:0:
448,192,101781,1,0,0:0:0:0:
320,192,101824,1,0,0:0:0:0:
192,192,101867,1,0,0:0:0:0:
64,192,101910,1,0,0:0:0:0:
320,192,101953,1,0,0:0:0:60:soft-hitnormal3.wav
448,192,101953,128,0,102124:0:0:0:50:drum-hitclap.wav
192,192,102038,128,0,102210:0:0:0:0:
64,192,102124,128,0,102210:0:0:0:0:
320,192,102210,128,0,102295:0:0:0:0:
192,192,102295,1,0,0:0:0:60:soft-hitnormal3.wav
448,192,102295,128,0,102467:0:0:0:0:
320,192,102381,128,0,102553:0:0:0:0:
64,192,102467,128,0,102553:0:0:0:0:
192,192,102553,128,0,102638:0:0:0:0:
448,192,102638,128,0,102810:0:0:0:70:soft-hitwhistle.wav
320,192,102638,1,0,0:0:0:60:pew.wav
64,192,102810,1,0,0:0:0:60:pew.wav
192,192,102810,1,0,0:0:0:0:
448,192,102895,1,0,0:0:0:60:pew.wav
320,192,102895,1,0,0:0:0:0:
64,192,102981,1,0,0:0:0:60:pew.wav
192,192,103024,1,0,0:0:0:60:pew.wav
448,192,103153,1,0,0:0:0:60:pew.wav
320,192,103195,1,0,0:0:0:60:pew.wav
192,192,103324,1,0,0:0:0:60:soft-hitnormal3.wav
448,192,103324,1,0,0:0:0:50:drum-hitclap.wav
64,192,103324,128,0,103495:0:0:0:0:
320,192,103410,128,0,103581:0:0:0:0:
448,192,103495,128,0,103581:0:0:0:0:
192,192,103581,128,0,103667:0:0:0:0:
448,192,103667,1,0,0:0:0:60:soft-hitnormal3.wav
64,192,103667,128,0,103838:0:0:0:0:
192,192,103753,128,0,103924:0:0:0:0:
448,192,103838,128,0,103924:0:0:0:0:
320,192,103924,128,0,104010:0:0:0:0:
448,192,104010,1,0,0:0:0:70:soft-hitnormal2.wav
64,192,104010,1,0,0:0:0:0:
320,192,104138,1,0,0:0:0:70:soft-hitnormal2.wav
64,192,104224,1,0,0:0:0:70:soft-hitnormal2.wav
192,192,104310,1,0,0:0:0:70:soft-hitnormal2.wav
320,192,104353,1,0,0:0:0:0:
448,192,104353,1,0,0:0:0:0:
64,192,104395,1,0,0:0:0:70:soft-hitnormal2.wav
192,192,104481,1,0,0:0:0:70:soft-hitnormal2.wav
448,192,104567,1,0,0:0:0:70:soft-hitnormal2.wav
320,192,104653,1,0,0:0:0:70:soft-hitnormal2.wav
192,192,104695,1,0,0:0:0:0:
64,192,104695,1,0,0:0:0:0:
448,192,104738,1,0,0:0:0:70:soft-hitnormal2.wav
320,192,104824,1,0,0:0:0:70:soft-hitnormal2.wav
64,192,104910,1,0,0:0:0:70:soft-hitnormal2.wav
192,192,104995,1,0,0:0:0:70:soft-hitnormal2.wav
320,192,105038,1,0,0:0:0:0:
448,192,105038,1,0,0:0:0:0:
64,192,105081,1,0,0:0:0:70:soft-hitnormal2.wav
192,192,105167,1,0,0:0:0:70:soft-hitnormal2.wav
448,192,105253,1,0,0:0:0:70:soft-hitnormal2.wav
320,192,105338,1,0,0:0:0:70:soft-hitnormal2.wav
192,192,105381,1,0,0:0:0:50:normal-hitclap.wav
448,192,105381,128,0,105724:0:0:0:0:
64,192,105381,1,0,0:0:0:0:
64,192,105724,1,0,0:0:0:0:
320,192,105724,1,0,0:0:0:0:
192,192,105810,1,0,0:0:0:0:
448,192,105895,1,0,0:0:0:0:
320,192,105938,1,0,0:0:0:0:
192,192,105981,1,0,0:0:0:0:
64,192,106024,1,0,0:0:0:0:
448,192,106067,1,0,0:0:0:50:drum-hitclap.wav
320,192,106067,128,0,106238:0:0:0:60:soft-hitnormal3.wav
64,192,106153,128,0,106324:0:0:0:60:soft-hitnormal3.wav
192,192,106238,128,0,106324:0:0:0:60:soft-hitnormal3.wav
320,192,106324,128,0,106410:0:0:0:60:soft-hitnormal3.wav
64,192,106410,1,0,0:0:0:70:soft-hitwhistle.wav
448,192,106410,128,0,106581:0:0:0:60:soft-hitnormal3.wav
192,192,106495,128,0,106667:0:0:0:60:soft-hitnormal3.wav
320,192,106581,128,0,106667:0:0:0:60:soft-hitnormal3.wav
448,192,106667,128,0,106753:0:0:0:60:soft-hitnormal3.wav
64,192,106753,128,0,107095:0:0:0:70:normal-hitwhistle2.wav
192,192,106753,1,0,0:0:0:0:
448,192,107095,1,0,0:0:0:70:soft-hitwhistle.wav
320,192,107095,1,0,0:0:0:0:
448,192,107267,1,0,0:0:0:0:
320,192,107310,1,0,0:0:0:0:
192,192,107353,1,0,0:0:0:0:
64,192,107395,1,0,0:0:0:0:
448,192,107438,1,0,0:0:0:50:drum-hitclap.wav
320,192,107438,128,0,107610:0:0:0:60:soft-hitnormal3.wav
64,192,107524,128,0,107695:0:0:0:60:soft-hitnormal3.wav
192,192,107610,128,0,107695:0:0:0:60:soft-hitnormal3.wav
320,192,107695,128,0,107781:0:0:0:60:soft-hitnormal3.wav
448,192,107781,128,0,107953:0:0:0:60:soft-hitnormal3.wav
192,192,107867,128,0,108038:0:0:0:60:soft-hitnormal3.wav
320,192,107953,128,0,108038:0:0:0:60:soft-hitnormal3.wav
448,192,108038,128,0,108124:0:0:0:60:soft-hitnormal3.wav
64,192,108124,128,0,108295:0:0:0:70:soft-hitwhistle.wav
192,192,108124,1,0,0:0:0:60:pew.wav
448,192,108295,1,0,0:0:0:60:pew.wav
320,192,108295,1,0,0:0:0:0:
64,192,108381,1,0,0:0:0:60:pew.wav
192,192,108381,1,0,0:0:0:0:
448,192,108467,1,0,0:0:0:60:pew.wav
320,192,108510,1,0,0:0:0:60:pew.wav
64,192,108638,1,0,0:0:0:60:pew.wav
192,192,108681,1,0,0:0:0:60:pew.wav
192,192,108810,1,0,0:0:0:50:drum-hitclap.wav
448,192,108810,1,0,0:0:0:0:
320,192,108810,128,0,108981:0:0:0:60:soft-hitnormal3.wav
64,192,108895,128,0,109067:0:0:0:60:soft-hitnormal3.wav
192,192,108981,128,0,109067:0:0:0:60:soft-hitnormal3.wav
320,192,109067,128,0,109153:0:0:0:60:soft-hitnormal3.wav
448,192,109153,128,0,109324:0:0:0:60:soft-hitnormal3.wav
192,192,109238,128,0,109410:0:0:0:60:soft-hitnormal3.wav
320,192,109324,128,0,109410:0:0:0:60:soft-hitnormal3.wav
448,192,109410,128,0,109495:0:0:0:60:soft-hitnormal3.wav
64,192,109495,128,0,109838:0:0:0:70:normal-hitwhistle.wav
192,192,109495,128,0,109838:0:0:0:0:
448,192,109838,128,0,110095:0:0:0:50:normal-hitclap.wav
320,192,109838,128,2,110095:0:0:0:0:
64,192,110095,1,0,0:0:0:70:normal-hitwhistle.wav
192,192,110095,1,0,0:0:0:0:
320,192,110181,128,0,110353:0:0:0:0:
448,192,110181,128,2,110353:0:0:0:0:
192,192,110353,128,0,110524:0:0:0:0:
64,192,110353,128,2,110524:0:0:0:0:
320,192,110610,128,0,110867:0:0:0:0:
192,192,110610,128,2,110867:0:0:0:0:
64,192,110867,128,0,111210:0:0:0:50:Muted Snare.wav
448,192,110867,128,0,111210:0:0:0:0:
320,192,111210,1,0,0:0:0:50:Muted Snare.wav
192,192,111210,1,0,0:0:0:0:
448,192,111295,1,0,0:0:0:0:
64,192,111381,1,0,0:0:0:0:
192,192,111424,1,0,0:0:0:0:
448,192,111467,1,0,0:0:0:0:
320,192,111510,1,0,0:0:0:0:
192,192,111553,1,0,0:0:0:50:Muted Snare.wav
64,192,111553,128,0,111724:0:0:0:60:soft-hitnormal3.wav
448,192,111638,128,0,111810:0:0:0:60:soft-hitnormal3.wav
192,192,111724,128,0,111810:0:0:0:60:soft-hitnormal3.wav
320,192,111810,128,0,111895:0:0:0:60:soft-hitnormal3.wav
448,192,111895,1,0,0:0:0:50:Muted Snare.wav
192,192,111895,128,0,112067:0:0:0:60:soft-hitnormal3.wav
64,192,111981,128,0,112153:0:0:0:60:soft-hitnormal3.wav
320,192,112067,128,0,112153:0:0:0:60:soft-hitnormal3.wav
448,192,112153,128,0,112238:0:0:0:60:soft-hitnormal3.wav
192,192,112238,128,0,112581:0:0:0:70:normal-hitwhistle2.wav
64,192,112238,1,0,0:0:0:50:Muted Snare.wav
448,192,112581,1,0,0:0:0:50:Muted Snare.wav
320,192,112581,1,0,0:0:0:0:
448,192,112753,1,0,0:0:0:0:
320,192,112795,1,0,0:0:0:0:
64,192,112838,1,0,0:0:0:0:
192,192,112881,1,0,0:0:0:0:
320,192,112924,1,0,0:0:0:50:Muted Snare.wav
448,192,112924,128,0,113095:0:0:0:60:soft-hitnormal3.wav
64,192,113010,128,0,113181:0:0:0:60:soft-hitnormal3.wav
320,192,113095,128,0,113181:0:0:0:60:soft-hitnormal3.wav
192,192,113181,128,0,113267:0:0:0:60:soft-hitnormal3.wav
64,192,113267,1,0,0:0:0:50:Muted Snare.wav
320,192,113267,128,0,113438:0:0:0:60:soft-hitnormal3.wav
448,192,113353,128,0,113524:0:0:0:60:soft-hitnormal3.wav
192,192,113438,128,0,113524:0:0:0:60:soft-hitnormal3.wav
64,192,113524,128,0,113610:0:0:0:60:soft-hitnormal3.wav
448,192,113610,1,0,0:0:0:50:Muted Snare.wav
192,192,113610,1,0,0:0:0:0:
320,192,113695,1,0,0:0:0:0:
192,192,113781,1,0,0:0:0:0:
64,192,113781,1,0,0:0:0:0:
448,192,113867,1,0,0:0:0:0:
320,192,113867,1,0,0:0:0:0:
64,192,113953,1,0,0:0:0:50:Muted Snare.wav
192,192,113953,1,0,0:0:0:0:
448,192,114038,1,0,0:0:0:0:
64,192,114124,1,0,0:0:0:0:
320,192,114124,1,0,0:0:0:0:
448,192,114210,1,0,0:0:0:0:
192,192,114295,1,0,0:0:0:50:Muted Snare.wav
64,192,114295,128,0,114467:0:0:0:60:soft-hitnormal3.wav
448,192,114381,128,0,114553:0:0:0:60:soft-hitnormal3.wav
320,192,114467,128,0,114553:0:0:0:60:soft-hitnormal3.wav
192,192,114553,128,0,114638:0:0:0:60:soft-hitnormal3.wav
64,192,114638,1,0,0:0:0:50:Muted Snare.wav
320,192,114638,128,0,114810:0:0:0:60:soft-hitnormal3.wav
448,192,114724,128,0,114895:0:0:0:60:soft-hitnormal3.wav
64,192,114810,128,0,114895:0:0:0:60:soft-hitnormal3.wav
192,192,114895,128,0,114981:0:0:0:60:soft-hitnormal3.wav
448,192,114981,1,0,0:0:0:25:Muted Snare.wav
320,192,115024,1,0,0:0:0:25:Muted Snare.wav
64,192,115067,1,0,0:0:0:25:Muted Snare.wav
192,192,115110,1,0,0:0:0:25:Muted Snare.wav
448,192,115153,1,0,0:0:0:25:Muted Snare.wav
320,192,115195,1,0,0:0:0:25:Muted Snare.wav
64,192,115238,1,0,0:0:0:25:Muted Snare.wav
192,192,115281,1,0,0:0:0:25:Muted Snare.wav
448,192,115324,1,0,0:0:0:40:Muted Snare.wav
320,192,115367,1,0,0:0:0:40:Muted Snare.wav
64,192,115410,1,0,0:0:0:40:Muted Snare.wav
192,192,115453,1,0,0:0:0:40:Muted Snare.wav
448,192,115495,1,0,0:0:0:40:Muted Snare.wav
320,192,115538,1,0,0:0:0:40:Muted Snare.wav
64,192,115581,1,0,0:0:0:40:Muted Snare.wav
192,192,115624,1,0,0:0:0:40:Muted Snare.wav
448,192,115667,1,0,0:0:0:55:Muted Snare.wav
320,192,115710,1,0,0:0:0:55:Muted Snare.wav
64,192,115753,1,0,0:0:0:55:Muted Snare.wav
192,192,115795,1,0,0:0:0:55:Muted Snare.wav
448,192,115838,1,0,0:0:0:55:Muted Snare.wav
320,192,115881,1,0,0:0:0:55:Muted Snare.wav
64,192,115924,1,0,0:0:0:55:Muted Snare.wav
192,192,115967,1,0,0:0:0:55:Muted Snare.wav
448,192,116010,1,0,0:0:0:70:Muted Snare.wav
320,192,116053,1,0,0:0:0:70:Muted Snare.wav
192,192,116095,1,0,0:0:0:70:Muted Snare.wav
64,192,116138,1,0,0:0:0:70:Muted Snare.wav
448,192,116181,1,0,0:0:0:70:Muted Snare.wav
320,192,116224,1,0,0:0:0:70:Muted Snare.wav
192,192,116267,1,0,0:0:0:70:Muted Snare.wav
64,192,116310,1,0,0:0:0:70:Muted Snare.wav
320,192,116353,128,0,119095:0:0:0:50:drum-hitclap.wav
448,192,116353,128,4,119095:0:0:0:0:
192,192,119095,1,0,0:0:0:70:soft-hitnormal2.wav
192,192,119610,1,0,0:0:0:70:soft-hitnormal2.wav
64,192,119695,1,0,0:0:0:70:soft-hitnormal2.wav
320,192,119781,1,0,0:0:0:70:soft-hitnormal2.wav
448,192,119953,1,0,0:0:0:70:soft-hitnormal2.wav
320,192,120124,1,0,0:0:0:70:soft-hitnormal2.wav
64,192,120295,1,0,0:0:0:70:soft-hitnormal2.wav
192,192,120467,1,0,0:0:0:70:soft-hitnormal2.wav
320,192,120638,1,0,0:0:0:70:soft-hitnormal2.wav
64,192,120810,1,0,0:0:0:70:soft-hitnormal2.wav
448,192,120981,1,0,0:0:0:70:soft-hitnormal2.wav
192,192,121153,1,0,0:0:0:70:soft-hitnormal2.wav
64,192,121495,1,0,0:0:0:70:soft-hitnormal2.wav
192,192,121838,1,0,0:0:0:70:soft-hitnormal2.wav
320,192,122353,1,0,0:0:0:70:soft-hitnormal2.wav
192,192,122438,1,0,0:0:0:70:soft-hitnormal2.wav
64,192,122524,1,0,0:0:0:70:soft-hitnormal2.wav
448,192,122695,1,0,0:0:0:70:soft-hitnormal2.wav
320,192,122867,1,0,0:0:0:70:soft-hitnormal2.wav
192,192,123038,1,0,0:0:0:70:soft-hitnormal2.wav
320,192,123210,1,0,0:0:0:70:soft-hitnormal2.wav
448,192,123553,1,0,0:0:0:70:soft-hitnormal2.wav
320,192,123724,1,0,0:0:0:70:soft-hitnormal2.wav
64,192,123895,1,0,0:0:0:70:soft-hitnormal2.wav
192,192,124238,1,0,0:0:0:70:soft-hitnormal2.wav
320,192,124410,1,0,0:0:0:70:soft-hitnormal2.wav
448,192,124581,1,0,0:0:0:70:soft-hitnormal2.wav
64,192,124753,1,0,0:0:0:70:soft-hitnormal2.wav
448,192,124924,1,0,0:0:0:70:soft-hitnormal2.wav
320,192,125095,1,0,0:0:0:70:soft-hitnormal2.wav
192,192,125267,1,0,0:0:0:70:soft-hitnormal2.wav
448,192,125610,1,0,0:0:0:70:soft-hitnormal2.wav
64,192,125953,1,0,0:0:0:70:soft-hitnormal2.wav
320,192,127324,1,0,0:0:0:30:clap.wav
448,192,127324,1,0,0:0:0:30:clap.wav
448,192,127667,1,0,0:0:0:30:clap.wav
64,192,127667,1,0,0:0:0:30:clap.wav
320,192,127838,1,0,0:0:0:0:
192,192,127924,1,0,0:0:0:0:
64,192,128010,1,0,0:0:0:30:clap.wav
320,192,128010,1,0,0:0:0:30:clap.wav
448,192,128181,1,0,0:0:0:0:
320,192,128353,1,0,0:0:0:30:clap.wav
64,192,128353,1,0,0:0:0:30:clap.wav
192,192,128524,1,0,0:0:0:0:
320,192,128695,1,0,0:0:0:30:clap.wav
64,192,128695,1,0,0:0:0:30:clap.wav
64,192,129038,1,0,0:0:0:30:clap.wav
448,192,129038,1,0,0:0:0:30:clap.wav
320,192,129210,1,0,0:0:0:0:
192,192,129381,1,0,0:0:0:30:clap.wav
64,192,129381,1,0,0:0:0:30:clap.wav
320,192,129724,1,0,0:0:0:30:clap.wav
448,192,129724,1,0,0:0:0:30:clap.wav
320,192,129895,1,0,0:0:0:30:clap.wav
448,192,129895,1,0,0:0:0:30:clap.wav
192,192,130067,1,0,0:0:0:30:clap.wav
64,192,130067,1,0,0:0:0:30:clap.wav
192,192,130410,1,0,0:0:0:30:clap.wav
448,192,130410,1,0,0:0:0:30:clap.wav
320,192,130581,1,0,0:0:0:0:
192,192,130667,1,0,0:0:0:0:
64,192,130753,1,0,0:0:0:30:clap.wav
448,192,130753,1,0,0:0:0:30:clap.wav
320,192,130924,1,0,0:0:0:0:
64,192,131095,1,0,0:0:0:30:clap.wav
448,192,131095,1,0,0:0:0:30:clap.wav
192,192,131267,1,0,0:0:0:0:
320,192,131438,1,0,0:0:0:30:clap.wav
448,192,131438,1,0,0:0:0:30:clap.wav
192,192,131610,1,0,0:0:0:0:
64,192,131781,1,0,0:0:0:30:clap.wav
320,192,131781,1,0,0:0:0:30:clap.wav
448,192,131953,1,0,0:0:0:0:
320,192,132124,1,0,0:0:0:30:clap.wav
64,192,132124,1,0,0:0:0:30:clap.wav
192,192,132381,1,0,0:0:0:30:clap.wav
64,192,132381,1,0,0:0:0:30:clap.wav
448,192,132467,1,0,0:0:0:30:clap.wav
320,192,132467,1,0,0:0:0:30:clap.wav
64,192,132638,1,0,0:0:0:30:clap.wav
192,192,132638,1,0,0:0:0:30:clap.wav
64,192,132810,1,0,0:0:0:30:clap.wav
192,192,132810,1,0,0:0:0:30:clap.wav
448,192,133153,1,0,0:0:0:30:clap.wav
64,192,133153,1,0,0:0:0:30:clap.wav
320,192,133324,1,0,0:0:0:0:
192,192,133410,1,0,0:0:0:0:
64,192,133495,1,0,0:0:0:30:clap.wav
448,192,133495,1,0,0:0:0:30:clap.wav
320,192,133667,1,0,0:0:0:0:
192,192,133838,1,0,0:0:0:30:clap.wav
448,192,133838,1,0,0:0:0:30:clap.wav
64,192,134010,1,0,0:0:0:0:
448,192,134181,1,0,0:0:0:30:clap.wav
192,192,134181,1,0,0:0:0:30:clap.wav
64,192,134524,1,0,0:0:0:30:clap.wav
448,192,134524,1,0,0:0:0:30:clap.wav
320,192,134695,1,0,0:0:0:0:
192,192,134867,1,0,0:0:0:30:clap.wav
64,192,134867,1,0,0:0:0:30:clap.wav
192,192,135210,1,0,0:0:0:30:clap.wav
448,192,135210,1,0,0:0:0:30:clap.wav
320,192,135381,1,0,0:0:0:30:clap.wav
64,192,135381,1,0,0:0:0:30:clap.wav
448,192,135553,1,0,0:0:0:30:clap.wav
192,192,135553,1,0,0:0:0:30:clap.wav
320,192,135724,1,0,0:0:0:0:
192,192,135895,1,0,0:0:0:30:clap.wav
448,192,135895,1,0,0:0:0:30:clap.wav
64,192,136067,1,0,0:0:0:0:
192,192,136238,128,0,136581:0:0:0:30:clap.wav
448,192,136238,1,0,0:0:0:30:clap.wav
64,192,136410,1,0,0:0:0:0:
448,192,136581,128,0,136924:0:0:0:30:clap.wav
320,192,136581,1,0,0:0:0:30:clap.wav
64,192,136753,1,0,0:0:0:0:
64,192,136924,1,0,0:0:0:0:
192,192,136924,1,2,0:0:0:0:
448,192,137010,1,0,0:0:0:0:
320,192,137010,1,2,0:0:0:0:
64,192,137095,1,0,0:0:0:0:
192,192,137095,1,2,0:0:0:0:
448,192,137181,1,0,0:0:0:0:
320,192,137181,1,2,0:0:0:0:
64,192,137267,1,0,0:0:0:0:
192,192,137267,1,2,0:0:0:0:
448,192,137353,1,0,0:0:0:0:
320,192,137353,1,2,0:0:0:0:
64,192,137438,1,0,0:0:0:0:
192,192,137438,1,2,0:0:0:0:
320,192,137524,1,2,0:0:0:0:
64,192,137610,1,0,0:0:0:70:drum-hitfinish.wav
192,192,137610,1,0,0:0:0:0:
448,192,137610,1,0,0:0:0:0:
192,192,137953,1,0,0:0:0:70:normal-hitwhistle5.wav
64,192,137953,1,0,0:0:0:70:drum-hitfinish.wav
448,192,137953,1,0,0:0:0:0:
320,192,138295,128,0,138638:0:0:0:70:drum-hitfinish.wav
448,192,138295,128,0,138638:0:0:0:0:
64,192,138295,1,0,0:0:0:70:normal-hitfinish10.wav
320,192,138810,1,0,0:0:0:70:drum-hitfinish.wav
64,192,138810,1,0,0:0:0:0:
448,192,138895,1,0,0:0:0:70:drum-hitfinish.wav
192,192,138895,1,0,0:0:0:0:
64,192,138981,1,0,0:0:0:70:drum-hitfinish.wav
320,192,138981,128,0,139153:0:0:0:0:
192,192,139153,1,0,0:0:0:70:drum-hitfinish.wav
448,192,139153,128,0,139324:0:0:0:0:
64,192,139324,1,0,0:0:0:70:drum-hitfinish.wav
320,192,139324,128,0,139495:0:0:0:0:
448,192,139495,1,0,0:0:0:70:drum-hitfinish.wav
192,192,139495,128,0,139667:0:0:0:0:
64,192,139667,128,0,140010:0:0:0:70:drum-hitfinish.wav
320,192,139667,1,0,0:0:0:0:
192,192,140010,1,0,0:0:0:70:drum-hitfinish.wav
320,192,140010,128,0,140181:0:0:0:0:
64,192,140181,1,0,0:0:0:70:drum-hitfinish.wav
448,192,140181,128,0,140353:0:0:0:0:
192,192,140353,128,0,140695:0:0:0:70:drum-hitfinish.wav
320,192,140353,1,0,0:0:0:0:
448,192,140695,1,0,0:0:0:70:Snare 7.wav
320,192,140695,1,0,0:0:0:0:
64,192,140695,1,0,0:0:0:0:
320,192,141038,128,0,141381:0:0:0:70:drum-hitfinish.wav
192,192,141038,128,0,141381:0:0:0:0:
320,192,141553,1,0,0:0:0:0:
448,192,141553,1,0,0:0:0:70:drum-hitfinish.wav
64,192,141638,1,0,0:0:0:70:drum-hitfinish.wav
192,192,141638,1,0,0:0:0:0:
320,192,141724,1,0,0:0:0:70:drum-hitfinish.wav
448,192,141724,128,0,141895:0:0:0:0:
64,192,141895,1,0,0:0:0:70:drum-hitfinish.wav
192,192,141895,128,0,142067:0:0:0:0:
448,192,142067,1,0,0:0:0:70:drum-hitfinish.wav
320,192,142067,128,0,142238:0:0:0:0:
192,192,142238,1,0,0:0:0:70:drum-hitfinish.wav
64,192,142238,128,0,142410:0:0:0:0:
448,192,142410,128,0,142581:0:0:0:70:drum-hitfinish.wav
192,192,142410,1,2,0:0:0:0:
320,192,142581,128,0,142753:0:0:0:70:drum-hitfinish.wav
64,192,142581,1,0,0:0:0:0:
192,192,142753,128,0,142924:0:0:0:70:drum-hitfinish.wav
448,192,142753,1,2,0:0:0:0:
320,192,142924,128,0,143095:0:0:0:70:drum-hitfinish.wav
64,192,142924,1,0,0:0:0:0:
192,192,143095,128,0,143267:0:0:0:70:drum-hitfinish.wav
448,192,143095,1,2,0:0:0:0:
64,192,143095,1,0,0:0:0:0:
64,192,143267,1,0,0:0:0:0:
448,192,143267,1,0,0:0:0:70:Snare 7.wav
320,192,143267,1,0,0:0:0:0:
192,192,143438,1,0,0:0:0:70:drum-hitfinish.wav
320,192,143438,1,0,0:0:0:70:Snare 7.wav
64,192,143438,128,0,143781:0:0:0:0:
448,192,143781,128,0,144124:0:0:0:70:drum-hitfinish.wav
320,192,143781,128,0,144124:0:0:0:0:
448,192,144295,1,0,0:0:0:0:
64,192,144295,1,0,0:0:0:70:drum-hitfinish.wav
192,192,144381,1,0,0:0:0:70:drum-hitfinish.wav
320,192,144381,1,0,0:0:0:0:
64,192,144467,1,0,0:0:0:70:drum-hitfinish.wav
448,192,144467,128,0,144638:0:0:0:0:
320,192,144638,1,0,0:0:0:70:drum-hitfinish.wav
192,192,144638,128,0,144810:0:0:0:0:
448,192,144810,1,0,0:0:0:70:drum-hitfinish.wav
64,192,144810,128,0,144981:0:0:0:0:
320,192,144981,128,0,145153:0:0:0:0:
192,192,144981,1,0,0:0:0:70:drum-hitfinish.wav
64,192,145153,128,0,145495:0:0:0:70:drum-hitfinish.wav
448,192,145153,1,0,0:0:0:0:
192,192,145495,1,0,0:0:0:70:drum-hitfinish.wav
448,192,145495,128,0,145667:0:0:0:0:
64,192,145667,1,0,0:0:0:70:drum-hitfinish.wav
320,192,145667,128,0,145838:0:0:0:0:
448,192,145838,1,0,0:0:0:70:drum-hitfinish.wav
192,192,145838,128,0,146181:0:0:0:0:
448,192,146181,1,0,0:0:0:70:Snare 7.wav
320,192,146181,1,0,0:0:0:0:
64,192,146181,128,0,146353:0:0:0:0:
320,192,146353,1,0,0:0:0:70:drum-hitfinish.wav
192,192,146353,128,0,146524:0:0:0:0:
64,192,146524,1,0,0:0:0:70:drum-hitfinish.wav
448,192,146524,128,0,146695:0:0:0:0:
192,192,146695,1,0,0:0:0:70:drum-hitfinish.wav
320,192,146695,128,0,146867:0:0:0:0:
64,192,146867,1,0,0:0:0:70:drum-hitfinish.wav
448,192,146867,128,0,147038:0:0:0:0:
320,192,147038,1,0,0:0:0:70:drum-hitfinish.wav
192,192,147038,128,0,147210:0:0:0:0:
64,192,147210,128,0,147553:0:0:0:70:drum-hitfinish.wav
320,192,147210,1,2,0:0:0:0:
448,192,147295,1,2,0:0:0:0:
320,192,147381,1,2,0:0:0:0:
192,192,147467,1,2,0:0:0:0:
320,192,147553,128,0,147895:0:0:0:70:drum-hitfinish.wav
448,192,147553,1,2,0:0:0:0:
192,192,147638,1,2,0:0:0:0:
64,192,147724,1,2,0:0:0:0:
448,192,147810,1,2,0:0:0:0:
192,192,147895,128,0,149267:0:0:0:70:Downsweeps.wav
64,192,147895,1,0,0:0:0:70:drum-hitfinish.wav
448,192,149267,1,0,0:0:0:70:drum-hitfinish.wav
320,192,149267,1,0,0:0:0:0:
64,192,149267,1,0,0:0:0:0:
448,192,149610,1,0,0:0:0:70:drum-hitfinish.wav
192,192,149610,1,0,0:0:0:0:
64,192,149610,1,0,0:0:0:0:
448,192,149953,1,0,0:0:0:70:drum-hitfinish.wav
320,192,149953,1,0,0:0:0:0:
64,192,149953,1,0,0:0:0:0:
320,192,150638,1,0,0:0:0:0:
192,192,150638,1,0,0:0:0:0:
448,192,150638,1,0,0:0:0:70:drum-hitfinish.wav
64,192,150981,1,0,0:0:0:70:drum-hitfinish.wav
192,192,150981,1,0,0:0:0:0:
320,192,150981,1,0,0:0:0:0:
448,192,151324,1,0,0:0:0:70:drum-hitfinish.wav
320,192,151324,1,0,0:0:0:0:
192,192,151324,1,0,0:0:0:0:
448,192,152010,1,0,0:0:0:0:
64,192,152010,1,0,0:0:0:0:
320,192,152010,128,0,152353:0:0:0:70:drum-hitfinish.wav
64,192,152353,1,0,0:0:0:0:
192,192,152353,128,0,152695:0:0:0:70:drum-hitfinish.wav
448,192,152353,1,0,0:0:0:0:
320,192,152695,128,0,153381:0:0:0:70:drum-hitfinish.wav
448,192,152695,1,0,0:0:0:0:
64,192,152695,1,0,0:0:0:0:
64,192,153381,1,0,0:0:0:70:drum-hitfinish.wav
448,192,153381,1,0,0:0:0:0:
192,192,153381,1,0,0:0:0:0:
64,192,153724,1,0,0:0:0:70:drum-hitfinish.wav
448,192,153724,1,0,0:0:0:0:
320,192,153724,1,0,0:0:0:0:
192,192,153895,1,0,0:0:0:0:
320,192,153981,1,0,0:0:0:0:
64,192,154067,1,0,0:0:0:70:drum-hitfinish.wav
448,192,154067,1,0,0:0:0:0:
192,192,154067,1,2,0:0:0:0:
320,192,154153,1,2,0:0:0:0:
192,192,154238,1,2,0:0:0:0:
64,192,154238,1,0,0:0:0:0:
320,192,154324,1,2,0:0:0:0:
448,192,154410,1,0,0:0:0:70:Snare 7.wav
64,192,154410,1,0,0:0:0:0:
192,192,154410,1,0,0:0:0:0:
64,192,154753,1,0,0:0:0:70:Snare 7.wav
448,192,154753,1,0,0:0:0:0:
320,192,154753,1,0,0:0:0:0:
192,192,154753,1,0,0:0:0:0:
320,192,154924,1,0,0:0:0:0:
192,192,154924,1,2,0:0:0:0:
192,192,155095,1,2,0:0:0:0:
64,192,155095,1,0,0:0:0:0:
192,192,155267,1,0,0:0:0:0:
320,192,155267,1,0,0:0:0:0:
64,192,155267,1,0,0:0:0:0:
448,192,155267,1,0,0:0:0:70:Snare 7.wav
320,192,155438,1,2,0:0:0:0:
192,192,155438,1,0,0:0:0:0:
448,192,155610,1,0,0:0:0:0:
320,192,155610,1,2,0:0:0:0:
448,192,155781,1,0,0:0:0:0:
192,192,155781,1,0,0:0:0:0:
320,192,155781,1,0,0:0:0:0:
64,192,155781,1,0,0:0:0:70:Snare 7.wav
192,192,155953,1,0,0:0:0:0:
448,192,155953,1,2,0:0:0:0:
448,192,156124,1,0,0:0:0:70:Snare 7.wav
320,192,156124,1,0,0:0:0:0:
64,192,156124,1,0,0:0:0:0:
192,192,156124,1,0,0:0:0:0:
320,192,156295,1,2,0:0:0:0:
448,192,156295,1,0,0:0:0:0:
320,192,156467,1,2,0:0:0:0:
192,192,156467,1,0,0:0:0:0:
64,192,156638,1,0,0:0:0:70:Snare 7.wav
320,192,156638,1,0,0:0:0:0:
192,192,156638,1,0,0:0:0:0:
448,192,156638,1,0,0:0:0:0:
192,192,156810,1,2,0:0:0:0:
64,192,156810,1,0,0:0:0:0:
192,192,156981,1,2,0:0:0:0:
320,192,156981,1,0,0:0:0:0:
64,192,157153,1,0,0:0:0:0:
192,192,157153,1,0,0:0:0:0:
320,192,157153,1,0,0:0:0:0:
448,192,157153,1,0,0:0:0:70:Snare 7.wav
448,192,157324,1,0,0:0:0:0:
320,192,157324,1,2,0:0:0:0:
192,192,157410,1,2,0:0:0:0:
64,192,157495,1,0,0:0:0:0:
448,192,157495,1,0,0:0:0:70:Snare 7.wav
320,192,157495,1,0,0:0:0:0:
192,192,157667,1,2,0:0:0:0:
320,192,157667,1,0,0:0:0:0:
192,192,157838,1,2,0:0:0:0:
64,192,157838,1,0,0:0:0:0:
448,192,158010,1,0,0:0:0:70:Snare 7.wav
320,192,158010,1,0,0:0:0:0:
192,192,158010,1,0,0:0:0:0:
64,192,158010,1,0,0:0:0:0:
192,192,158181,1,0,0:0:0:0:
320,192,158181,1,2,0:0:0:0:
320,192,158353,1,2,0:0:0:0:
448,192,158353,1,0,0:0:0:0:
320,192,158524,1,0,0:0:0:0:
192,192,158524,1,0,0:0:0:0:
448,192,158524,1,0,0:0:0:70:Snare 7.wav
64,192,158524,1,0,0:0:0:0:
448,192,158695,1,2,0:0:0:0:
192,192,158695,1,0,0:0:0:0:
192,192,158867,1,0,0:0:0:0:
320,192,158867,1,0,0:0:0:0:
448,192,158867,1,0,0:0:0:70:Snare 7.wav
64,192,158867,1,0,0:0:0:0:
192,192,159038,1,2,0:0:0:0:
64,192,159038,1,0,0:0:0:0:
192,192,159210,1,2,0:0:0:0:
320,192,159210,1,0,0:0:0:0:
448,192,159381,1,0,0:0:0:70:Snare 7.wav
320,192,159381,1,0,0:0:0:0:
64,192,159381,1,0,0:0:0:0:
192,192,159381,1,0,0:0:0:0:
320,192,159553,1,2,0:0:0:0:
448,192,159553,1,0,0:0:0:0:
320,192,159724,1,2,0:0:0:0:
192,192,159724,1,0,0:0:0:0:
448,192,159895,1,0,0:0:0:70:Snare 7.wav
192,192,159895,1,0,0:0:0:0:
320,192,159895,1,0,0:0:0:0:
64,192,159895,1,0,0:0:0:0:
448,192,160067,1,0,0:0:0:0:
320,192,160067,1,2,0:0:0:0:
64,192,160153,1,0,0:0:0:0:
192,192,160153,1,2,0:0:0:0:
448,192,160238,1,0,0:0:0:70:drum-hitfinish.wav
320,192,160238,1,0,0:0:0:0:
64,192,160324,1,0,0:0:0:0:
192,192,160410,1,0,0:0:0:0:
320,192,160495,1,0,0:0:0:0:
448,192,160581,1,0,0:0:0:70:drum-hitfinish.wav
192,192,160581,1,0,0:0:0:0:
64,192,160667,1,0,0:0:0:0:
320,192,160753,1,0,0:0:0:0:
192,192,160838,1,0,0:0:0:0:
64,192,160924,1,0,0:0:0:70:drum-hitfinish.wav
320,192,160924,1,0,0:0:0:0:
448,192,161010,1,0,0:0:0:0:
320,192,161095,1,0,0:0:0:0:
192,192,161181,1,0,0:0:0:0:
64,192,161267,1,0,0:0:0:70:drum-hitfinish.wav
448,192,161267,1,0,0:0:0:0:
192,192,161353,1,0,0:0:0:0:
448,192,161438,1,0,0:0:0:0:
320,192,161524,1,0,0:0:0:0:
64,192,161610,1,0,0:0:0:70:drum-hitfinish.wav
192,192,161610,1,0,0:0:0:0:
320,192,161695,1,0,0:0:0:0:
64,192,161781,1,0,0:0:0:70:drum-hitfinish.wav
448,192,161781,1,0,0:0:0:0:
320,192,161867,1,0,0:0:0:0:
192,192,161953,1,0,0:0:0:70:drum-hitfinish.wav
64,192,161953,1,0,0:0:0:0:
320,192,162038,1,0,0:0:0:0:
448,192,162124,1,0,0:0:0:70:drum-hitfinish.wav
64,192,162124,1,0,0:0:0:0:
192,192,162210,1,0,0:0:0:0:
448,192,162295,1,0,0:0:0:70:drum-hitfinish.wav
320,192,162295,1,0,0:0:0:0:
192,192,162381,1,0,0:0:0:0:
448,192,162467,1,0,0:0:0:70:drum-hitfinish.wav
64,192,162467,1,0,0:0:0:0:
192,192,162553,1,0,0:0:0:0:
448,192,162638,1,0,0:0:0:70:drum-hitfinish.wav
320,192,162638,1,0,0:0:0:0:
192,192,162724,1,0,0:0:0:0:
448,192,162810,1,0,0:0:0:70:drum-hitfinish.wav
64,192,162810,1,0,0:0:0:0:
320,192,162895,1,0,0:0:0:0:
64,192,162981,1,0,0:0:0:70:drum-hitfinish.wav
192,192,162981,1,0,0:0:0:0:
320,192,163067,1,0,0:0:0:0:
64,192,163153,1,0,0:0:0:70:drum-hitfinish.wav
448,192,163153,1,0,0:0:0:0:
192,192,163238,1,0,0:0:0:0:
448,192,163324,1,0,0:0:0:70:drum-hitfinish.wav
320,192,163324,1,0,0:0:0:0:
192,192,163410,1,0,0:0:0:0:
64,192,163495,1,0,0:0:0:70:drum-hitfinish.wav
448,192,163495,1,0,0:0:0:0:
320,192,163581,1,0,0:0:0:0:
192,192,163667,1,0,0:0:0:0:
64,192,163667,1,0,0:0:0:70:drum-hitfinish.wav
320,192,163753,1,0,0:0:0:0:
448,192,163753,1,0,0:0:0:70:drum-hitfinish.wav
192,192,163838,1,0,0:0:0:0:
64,192,163838,1,0,0:0:0:70:drum-hitfinish.wav
320,192,163924,1,0,0:0:0:0:
448,192,163924,1,0,0:0:0:70:drum-hitfinish.wav
192,192,164010,1,0,0:0:0:0:
64,192,164010,1,0,0:0:0:70:drum-hitfinish.wav
448,192,164095,1,0,0:0:0:70:drum-hitfinish.wav
320,192,164095,1,0,0:0:0:0:
192,192,164181,1,0,0:0:0:0:
64,192,164181,1,0,0:0:0:70:drum-hitfinish.wav
320,192,164267,1,0,0:0:0:0:
448,192,164267,1,0,0:0:0:70:drum-hitfinish.wav
192,192,164353,1,0,0:0:0:0:
64,192,164353,1,0,0:0:0:70:drum-hitfinish.wav
448,192,164695,128,0,165038:0:0:0:70:drum-hitfinish.wav
320,192,164695,128,0,165038:0:0:0:0:
64,192,165038,128,0,165381:0:0:0:70:drum-hitfinish.wav
192,192,165038,128,0,165381:0:0:0:0:
320,192,165381,1,0,0:0:0:70:Snare 7.wav
448,192,165381,1,0,0:0:0:0:
64,192,165553,1,0,0:0:0:70:drum-hitfinish.wav
192,192,165553,1,0,0:0:0:0:
64,192,165724,1,0,0:0:0:50:drum-hitclap.wav
320,192,165724,128,0,165981:0:0:0:0:
448,192,165724,128,0,165981:0:0:0:70:normal-hitfinish10.wav
192,192,165981,1,0,0:0:0:0:
64,192,165981,1,0,0:0:0:0:
320,192,166067,1,0,0:0:0:50:drum-hitclap.wav
64,192,166067,1,0,0:0:0:0:
448,192,166067,1,0,0:0:0:0:
64,192,166238,128,0,166410:0:0:0:60:pew.wav
192,192,166238,128,0,166410:0:0:0:0:
320,192,166410,1,0,0:0:0:0:
192,192,166581,128,0,166753:0:0:0:0:
64,192,166581,128,0,166753:0:0:0:60:pew.wav
320,192,166753,1,0,0:0:0:0:
448,192,166753,1,0,0:0:0:50:drum-hitclap.wav
64,192,166924,1,0,0:0:0:0:
192,192,167010,1,0,0:0:0:0:
320,192,167095,128,0,167267:0:0:0:0:
448,192,167095,128,0,167267:0:0:0:0:
64,192,167267,1,0,0:0:0:0:
192,192,167310,1,0,0:0:0:0:
448,192,167353,1,0,0:0:0:0:
320,192,167395,1,0,0:0:0:0:
64,192,167438,1,0,0:0:0:50:drum-hitclap.wav
192,192,167438,1,0,0:0:0:0:
448,192,167610,128,0,167781:0:0:0:60:pew.wav
320,192,167610,128,0,167781:0:0:0:0:
192,192,167781,1,0,0:0:0:0:
448,192,167953,128,0,168038:0:0:0:60:pew.wav
320,192,167953,128,0,168038:0:0:0:0:
448,192,168124,128,0,168210:0:0:0:60:pew.wav
192,192,168124,1,0,0:0:0:50:drum-hitclap.wav
64,192,168124,128,0,168210:0:0:0:0:
448,192,168295,128,0,168381:0:0:0:60:pew.wav
320,192,168295,128,0,168381:0:0:0:0:
320,192,168467,128,0,168638:0:0:0:0:
448,192,168467,128,0,168553:0:0:0:0:
64,192,168638,128,0,168724:0:0:0:0:
192,192,168681,128,0,168767:0:0:0:0:
320,192,168724,128,0,168810:0:0:0:0:
448,192,168810,1,0,0:0:0:0:
64,192,168810,1,0,0:0:0:50:drum-hitclap.wav
448,192,168981,128,0,169067:0:0:0:0:
320,192,169024,128,0,169110:0:0:0:0:
192,192,169067,128,0,169238:0:0:0:0:
448,192,169324,1,0,0:0:0:0:
320,192,169324,128,0,169410:0:0:0:0:
192,192,169367,128,0,169453:0:0:0:0:
64,192,169410,128,0,169581:0:0:0:0:
320,192,169495,1,0,0:0:0:50:drum-hitclap.wav
448,192,169495,128,0,169667:0:0:0:0:
192,192,169667,128,0,169838:0:0:0:0:
448,192,169838,128,0,170010:0:0:0:0:
320,192,169838,128,0,170010:0:0:0:0:
192,192,170010,128,0,170353:0:0:0:0:
64,192,170010,128,0,170181:0:0:0:0:
320,192,170181,128,0,170353:0:0:0:50:drum-hitclap.wav
448,192,170181,128,0,170524:0:0:0:0:
64,192,170353,128,0,170695:0:0:0:0:
192,192,170524,128,0,170695:0:0:0:0:
320,192,170524,128,0,170867:0:0:0:0:
448,192,170695,1,2,0:0:0:0:
64,192,170781,1,2,0:0:0:0:
448,192,170867,128,0,171210:0:0:0:70:drum-hitfinish.wav
192,192,170867,1,0,0:0:0:50:drum-hitclap.wav
64,192,171038,1,2,0:0:0:0:
192,192,171038,1,0,0:0:0:0:
192,192,171210,128,0,171467:0:0:0:0:
64,192,171210,128,0,171467:0:0:0:0:
448,192,171467,1,0,0:0:0:0:
320,192,171467,1,2,0:0:0:0:
64,192,171553,1,0,0:0:0:50:drum-hitclap.wav
192,192,171553,1,0,0:0:0:0:
448,192,171553,1,0,0:0:0:0:
448,192,171724,128,0,171895:0:0:0:60:pew.wav
320,192,171724,128,0,171895:0:0:0:0:
192,192,171895,1,0,0:0:0:0:
320,192,172067,128,0,172238:0:0:0:0:
448,192,172067,128,0,172238:0:0:0:60:pew.wav
192,192,172238,1,0,0:0:0:50:drum-hitclap.wav
64,192,172238,1,0,0:0:0:0:
448,192,172410,1,0,0:0:0:0:
320,192,172495,1,0,0:0:0:0:
64,192,172581,128,0,172753:0:0:0:0:
192,192,172581,128,0,172753:0:0:0:0:
448,192,172753,1,0,0:0:0:0:
320,192,172795,1,0,0:0:0:0:
64,192,172838,1,0,0:0:0:0:
192,192,172881,1,0,0:0:0:0:
448,192,172924,1,0,0:0:0:50:drum-hitclap.wav
320,192,172924,1,0,0:0:0:0:
64,192,173095,128,0,173267:0:0:0:60:pew.wav
192,192,173095,128,0,173267:0:0:0:0:
320,192,173267,1,0,0:0:0:0:
64,192,173438,128,0,173524:0:0:0:60:pew.wav
192,192,173438,128,0,173524:0:0:0:0:
192,192,173610,1,0,0:0:0:50:drum-hitclap.wav
64,192,173610,128,0,173695:0:0:0:60:pew.wav
448,192,173610,128,0,173695:0:0:0:0:
64,192,173781,128,0,173867:0:0:0:60:pew.wav
192,192,173781,128,0,173867:0:0:0:0:
192,192,173953,128,0,174210:0:0:0:0:
64,192,173953,128,0,174038:0:0:0:0:
320,192,174210,1,2,0:0:0:0:
448,192,174210,1,0,0:0:0:0:
64,192,174295,1,0,0:0:0:0:
448,192,174295,1,0,0:0:0:50:drum-hitclap.wav
192,192,174295,1,0,0:0:0:0:
448,192,174467,128,0,174553:0:0:0:0:
320,192,174510,128,0,174595:0:0:0:0:
192,192,174553,128,0,174724:0:0:0:0:
448,192,174810,1,0,0:0:0:0:
320,192,174810,1,2,0:0:0:0:
64,192,174895,1,0,0:0:0:0:
192,192,174895,1,2,0:0:0:0:
448,192,174981,1,0,0:0:0:50:drum-hitclap.wav
64,192,174981,1,0,0:0:0:0:
320,192,174981,1,0,0:0:0:0:
448,192,175153,1,0,0:0:0:50:drum-hitclap.wav
64,192,175153,1,0,0:0:0:0:
192,192,175153,1,0,0:0:0:0:
320,192,175324,128,0,175667:0:0:0:0:
448,192,175324,128,2,175495:0:0:0:0:
64,192,175495,128,0,175667:0:0:0:0:
192,192,175667,128,0,175838:0:0:0:0:
448,192,175667,1,2,0:0:0:0:
320,192,175838,128,0,176010:0:0:0:0:
192,192,176010,128,0,176353:0:0:0:0:
448,192,176010,1,0,0:0:0:50:drum-hitclap.wav
64,192,176010,128,0,176138:0:0:0:0:
448,192,176353,1,0,0:0:0:50:drum-hitclap.wav
320,192,176353,1,0,0:0:0:0:
64,192,176353,128,0,176695:0:0:0:0:
320,192,176695,128,0,176867:0:0:0:0:
448,192,176695,128,0,176867:0:0:0:0:
64,192,176867,1,0,0:0:0:0:
192,192,176910,1,0,0:0:0:0:
320,192,176953,1,0,0:0:0:0:
448,192,176995,1,0,0:0:0:0:
192,192,177038,1,0,0:0:0:0:
64,192,177038,1,0,0:0:0:0:
320,192,177210,128,0,177381:0:0:0:0:
448,192,177210,128,0,177381:0:0:0:60:pew.wav
192,192,177381,1,0,0:0:0:0:
64,192,177381,1,0,0:0:0:50:drum-hitclap.wav
320,192,177553,128,0,177724:0:0:0:0:
448,192,177553,128,0,177724:0:0:0:60:pew.wav
192,192,177724,1,0,0:0:0:0:
64,192,177724,1,0,0:0:0:0:
448,192,177895,1,0,0:0:0:0:
320,192,177981,1,0,0:0:0:0:
192,192,178067,128,0,178238:0:0:0:0:
64,192,178067,128,0,178238:0:0:0:0:
448,192,178238,1,0,0:0:0:0:
320,192,178281,1,0,0:0:0:0:
192,192,178324,1,0,0:0:0:0:
64,192,178367,1,0,0:0:0:0:
448,192,178410,1,0,0:0:0:0:
320,192,178410,1,0,0:0:0:0:
64,192,178581,128,0,178667:0:0:0:60:pew.wav
192,192,178581,128,0,178667:0:0:0:0:
448,192,178753,128,0,178838:0:0:0:60:pew.wav
320,192,178753,1,0,0:0:0:50:drum-hitclap.wav
64,192,178753,128,0,178838:0:0:0:0:
64,192,178924,128,0,179010:0:0:0:60:pew.wav
192,192,178924,128,0,179010:0:0:0:0:
64,192,179095,128,0,179181:0:0:0:60:pew.wav
192,192,179095,128,0,179181:0:0:0:0:
64,192,179267,128,0,179353:0:0:0:60:pew.wav
192,192,179267,128,0,179353:0:0:0:0:
448,192,179438,128,0,179610:0:0:0:0:
320,192,179438,128,0,179610:0:0:0:0:
64,192,179610,128,0,179695:0:0:0:0:
192,192,179653,128,0,179738:0:0:0:0:
320,192,179695,128,0,179781:0:0:0:0:
448,192,179781,1,0,0:0:0:0:
64,192,179781,1,0,0:0:0:0:
192,192,179953,128,0,180038:0:0:0:0:
320,192,179995,128,0,180081:0:0:0:0:
448,192,180038,128,0,180124:0:0:0:0:
192,192,180124,1,0,0:0:0:0:
64,192,180124,1,0,0:0:0:50:drum-hitclap.wav
448,192,180295,128,0,180381:0:0:0:0:
320,192,180338,128,0,180424:0:0:0:0:
192,192,180381,128,0,180467:0:0:0:0:
448,192,180467,1,0,0:0:0:0:
64,192,180467,1,0,0:0:0:0:
192,192,180638,128,0,180810:0:0:0:0:
320,192,180810,128,0,180981:0:0:0:0:
448,192,180810,128,2,180981:0:0:0:0:
192,192,180981,128,0,181324:0:0:0:0:
64,192,180981,128,0,181153:0:0:0:0:
448,192,181153,128,0,181495:0:0:0:0:
320,192,181153,128,0,181324:0:0:0:0:
64,192,181324,128,2,181495:0:0:0:0:
320,192,181495,128,0,181667:0:0:0:0:
192,192,181495,128,0,181838:0:0:0:50:drum-hitclap.wav
64,192,181667,1,0,0:0:0:0:
448,192,181667,1,2,0:0:0:0:
320,192,181838,128,0,182181:0:0:0:0:
192,192,182181,128,0,182353:0:0:0:0:
64,192,182181,128,0,182353:0:0:0:0:
448,192,182353,1,0,0:0:0:0:
320,192,182395,1,0,0:0:0:0:
64,192,182438,1,0,0:0:0:0:
192,192,182481,1,0,0:0:0:0:
448,192,182524,1,0,0:0:0:0:
320,192,182524,1,0,0:0:0:0:
192,192,182695,128,0,182867:0:0:0:0:
64,192,182695,128,0,182867:0:0:0:60:pew.wav
320,192,182867,1,0,0:0:0:0:
448,192,182867,1,0,0:0:0:50:drum-hitclap.wav
192,192,183038,128,0,183210:0:0:0:0:
64,192,183038,128,0,183210:0:0:0:60:pew.wav
320,192,183210,1,0,0:0:0:0:
448,192,183210,1,0,0:0:0:0:
64,192,183381,1,0,0:0:0:0:
192,192,183467,1,0,0:0:0:0:
320,192,183553,128,0,183724:0:0:0:0:
448,192,183553,128,0,183724:0:0:0:0:
64,192,183724,1,0,0:0:0:0:
192,192,183767,1,0,0:0:0:0:
448,192,183810,1,0,0:0:0:0:
320,192,183853,1,0,0:0:0:0:
192,192,183895,1,0,0:0:0:0:
64,192,183895,1,0,0:0:0:0:
448,192,184067,128,0,184153:0:0:0:60:pew.wav
320,192,184067,128,0,184153:0:0:0:0:
448,192,184238,128,0,184324:0:0:0:0:
64,192,184238,128,0,184324:0:0:0:60:pew.wav
192,192,184238,1,0,0:0:0:50:drum-hitclap.wav
448,192,184410,128,0,184495:0:0:0:60:pew.wav
320,192,184410,128,0,184495:0:0:0:0:
448,192,184581,128,0,184667:0:0:0:60:pew.wav
320,192,184581,128,0,184667:0:0:0:0:
448,192,184753,128,0,184838:0:0:0:60:pew.wav
320,192,184753,128,0,184838:0:0:0:0:
64,192,184924,1,0,0:0:0:25:Muted Snare.wav
192,192,184924,1,2,0:0:0:0:
320,192,185010,1,0,0:0:0:25:Muted Snare.wav
448,192,185095,1,0,0:0:0:25:Muted Snare.wav
192,192,185181,1,0,0:0:0:25:Muted Snare.wav
448,192,185267,1,0,0:0:0:25:Muted Snare.wav
64,192,185267,1,0,0:0:0:0:
320,192,185353,1,0,0:0:0:25:Muted Snare.wav
192,192,185438,1,0,0:0:0:25:Muted Snare.wav
448,192,185524,1,0,0:0:0:25:Muted Snare.wav
64,192,185610,1,0,0:0:0:50:drum-hitclap.wav
320,192,185610,1,0,0:0:0:25:Muted Snare.wav
192,192,185610,1,0,0:0:0:0:
448,192,185695,1,0,0:0:0:25:Muted Snare.wav
192,192,185781,1,0,0:0:0:25:Muted Snare.wav
320,192,185867,1,0,0:0:0:25:Muted Snare.wav
448,192,185953,1,0,0:0:0:25:Muted Snare.wav
64,192,185953,1,0,0:0:0:0:
192,192,186038,1,0,0:0:0:25:Muted Snare.wav
64,192,186124,1,0,0:0:0:25:Muted Snare.wav
192,192,186210,1,0,0:0:0:25:Muted Snare.wav
320,192,186295,1,2,0:0:0:0:
448,192,186295,128,0,186467:0:0:0:0:
192,192,186467,128,0,186638:0:0:0:0:
64,192,186638,1,0,0:0:0:50:drum-hitclap.wav
320,192,186638,128,0,186810:0:0:0:0:
192,192,186810,128,0,186981:0:0:0:0:
448,192,186981,1,0,0:0:0:50:drum-hitclap.wav
64,192,186981,128,0,187324:0:0:0:0:
448,192,187153,1,0,0:0:0:50:drum-hitclap.wav
320,192,187153,1,0,0:0:0:0:
320,192,187324,128,0,187667:0:0:0:0:
192,192,187324,1,0,0:0:0:0:
192,192,187667,128,0,198638:0:0:0:25:normal-hitclap.wav
448,192,187667,1,0,0:0:0:25:normal-hitclap.wav
64,192,187667,128,0,198638:0:0:0:70:normal-hitfinish10.wav
448,192,198638,128,0,198810:0:0:0:30:clap.wav
320,192,198638,128,0,198810:0:0:0:30:clap.wav
448,192,198981,128,0,199153:0:0:0:30:clap.wav
320,192,198981,128,0,199153:0:0:0:30:clap.wav
448,192,199324,128,0,199495:0:0:0:30:clap.wav
320,192,199324,128,0,199495:0:0:0:30:clap.wav
192,192,199667,128,0,199838:0:0:0:30:clap.wav
448,192,199667,128,0,199838:0:0:0:30:clap.wav
320,192,199838,128,0,200010:0:0:0:30:clap.wav
64,192,199838,128,0,200010:0:0:0:30:clap.wav
448,192,200010,128,0,200181:0:0:0:30:clap.wav
192,192,200010,128,0,200181:0:0:0:30:clap.wav
448,192,200353,128,0,200524:0:0:0:30:clap.wav
192,192,200353,128,0,200524:0:0:0:30:clap.wav
448,192,200695,128,0,200867:0:0:0:30:clap.wav
320,192,200695,128,0,200867:0:0:0:30:clap.wav
64,192,200867,128,0,201038:0:0:0:30:clap.wav
192,192,200867,128,0,201038:0:0:0:30:clap.wav
448,192,201038,128,0,201210:0:0:0:30:clap.wav
320,192,201038,128,0,201210:0:0:0:30:clap.wav
64,192,201381,128,0,201553:0:0:0:30:clap.wav
192,192,201381,128,0,201553:0:0:0:30:clap.wav
64,192,201724,128,0,201895:0:0:0:30:clap.wav
192,192,201724,128,0,201895:0:0:0:30:clap.wav
64,192,202067,128,0,202238:0:0:0:30:clap.wav
192,192,202067,128,0,202238:0:0:0:30:clap.wav
320,192,202410,128,0,202581:0:0:0:30:clap.wav
64,192,202410,128,0,202581:0:0:0:30:clap.wav
192,192,202581,128,0,202753:0:0:0:30:clap.wav
448,192,202581,128,0,202753:0:0:0:30:clap.wav
64,192,202753,128,0,202924:0:0:0:30:clap.wav
320,192,202753,128,0,202924:0:0:0:30:clap.wav
320,192,203095,128,0,203267:0:0:0:30:clap.wav
64,192,203095,128,0,203267:0:0:0:30:clap.wav
64,192,203438,128,0,203610:0:0:0:30:clap.wav
192,192,203438,128,0,203610:0:0:0:30:clap.wav
448,192,203610,128,0,203781:0:0:0:30:clap.wav
320,192,203610,128,0,203781:0:0:0:30:clap.wav
64,192,203781,128,0,203953:0:0:0:30:clap.wav
192,192,203781,128,0,203953:0:0:0:30:clap.wav
192,192,204124,128,0,204295:0:0:0:30:clap.wav
448,192,204124,128,0,204295:0:0:0:30:clap.wav
192,192,204467,128,0,204638:0:0:0:30:clap.wav
448,192,204467,128,0,204638:0:0:0:30:clap.wav
192,192,204810,128,0,204981:0:0:0:30:clap.wav
448,192,204810,128,0,204981:0:0:0:30:clap.wav
448,192,205153,128,0,205324:0:0:0:30:clap.wav
320,192,205153,128,0,205324:0:0:0:30:clap.wav
192,192,205324,128,0,205495:0:0:0:30:clap.wav
64,192,205324,128,0,205495:0:0:0:30:clap.wav
320,192,205495,128,0,205667:0:0:0:30:clap.wav
448,192,205495,128,0,205667:0:0:0:30:clap.wav
448,192,205838,128,0,206010:0:0:0:30:clap.wav
320,192,205838,128,0,206010:0:0:0:30:clap.wav
448,192,206181,128,0,206353:0:0:0:30:clap.wav
192,192,206181,128,0,206353:0:0:0:30:clap.wav
320,192,206353,128,0,206524:0:0:0:30:clap.wav
64,192,206353,128,0,206524:0:0:0:30:clap.wav
192,192,206524,128,0,206695:0:0:0:30:clap.wav
448,192,206524,128,0,206695:0:0:0:30:clap.wav
64,192,206867,1,0,0:0:0:30:clap.wav
320,192,206867,1,0,0:0:0:30:clap.wav
64,192,207038,1,0,0:0:0:0:
320,192,207038,1,0,0:0:0:0:
448,192,207210,1,0,0:0:0:30:clap.wav
320,192,207210,1,0,0:0:0:30:clap.wav
64,192,207381,1,0,0:0:0:0:
192,192,207381,1,0,0:0:0:0:
320,192,207553,1,0,0:0:0:30:clap.wav
64,192,207553,1,0,0:0:0:30:clap.wav
320,192,207724,1,0,0:0:0:0:
64,192,207724,1,0,0:0:0:0:
320,192,207895,1,0,0:0:0:30:clap.wav
448,192,207895,1,0,0:0:0:30:clap.wav
192,192,208067,1,0,0:0:0:0:
64,192,208067,1,0,0:0:0:0:
64,192,208238,1,0,0:0:0:30:clap.wav
448,192,208238,128,0,208410:0:0:0:30:clap.wav
192,192,208410,128,0,208581:0:0:0:0:
320,192,208410,1,0,0:0:0:0:
64,192,208581,128,0,208753:0:0:0:30:clap.wav
448,192,208581,1,0,0:0:0:30:clap.wav
192,192,208753,1,0,0:0:0:0:
320,192,208753,128,0,208924:0:0:0:0:
192,192,208924,128,0,209438:0:0:0:30:clap.wav
64,192,208924,128,0,209438:0:0:0:0:
448,192,209610,128,0,209781:0:0:0:30:clap.wav
320,192,209610,128,0,209781:0:0:0:30:clap.wav
448,192,209953,128,0,210124:0:0:0:30:clap.wav
320,192,209953,128,0,210124:0:0:0:30:clap.wav
448,192,210295,128,0,210467:0:0:0:30:clap.wav
320,192,210295,128,0,210467:0:0:0:30:clap.wav
192,192,210638,128,0,210810:0:0:0:30:clap.wav
448,192,210638,128,0,210810:0:0:0:30:clap.wav
320,192,210810,128,0,210981:0:0:0:30:clap.wav
64,192,210810,128,0,210981:0:0:0:30:clap.wav
448,192,210981,128,0,211153:0:0:0:30:clap.wav
192,192,210981,128,0,211153:0:0:0:30:clap.wav
448,192,211324,128,0,211495:0:0:0:30:clap.wav
192,192,211324,128,0,211495:0:0:0:30:clap.wav
448,192,211667,128,0,211838:0:0:0:30:clap.wav
320,192,211667,128,0,211838:0:0:0:30:clap.wav
64,192,211838,128,0,212010:0:0:0:30:clap.wav
192,192,211838,128,0,212010:0:0:0:30:clap.wav
448,192,212010,128,0,212181:0:0:0:30:clap.wav
320,192,212010,128,0,212181:0:0:0:30:clap.wav
64,192,212353,128,0,212524:0:0:0:30:clap.wav
192,192,212353,128,0,212524:0:0:0:30:clap.wav
64,192,212695,128,0,212867:0:0:0:30:clap.wav
192,192,212695,128,0,212867:0:0:0:30:clap.wav
64,192,213038,128,0,213210:0:0:0:30:clap.wav
192,192,213038,128,0,213210:0:0:0:30:clap.wav
320,192,213381,128,0,213553:0:0:0:30:clap.wav
64,192,213381,128,0,213553:0:0:0:30:clap.wav
192,192,213553,128,0,213724:0:0:0:30:clap.wav
448,192,213553,128,0,213724:0:0:0:30:clap.wav
64,192,213724,128,0,213895:0:0:0:30:clap.wav
320,192,213724,128,0,213895:0:0:0:30:clap.wav
320,192,214067,128,0,214238:0:0:0:30:clap.wav
64,192,214067,128,0,214238:0:0:0:30:clap.wav
64,192,214410,128,0,214581:0:0:0:30:clap.wav
192,192,214410,128,0,214581:0:0:0:30:clap.wav
448,192,214581,128,0,214753:0:0:0:30:clap.wav
320,192,214581,128,0,214753:0:0:0:30:clap.wav
64,192,214753,128,0,214924:0:0:0:30:clap.wav
192,192,214753,128,0,214924:0:0:0:30:clap.wav
64,192,215095,1,2,0:0:0:0:
320,192,215181,1,2,0:0:0:0:
192,192,215267,1,2,0:0:0:0:
448,192,215353,1,2,0:0:0:0:
64,192,215438,1,2,0:0:0:0:
320,192,215524,1,2,0:0:0:0:
192,192,215610,1,2,0:0:0:0:
448,192,215695,1,2,0:0:0:0:
64,192,215781,1,2,0:0:0:0:
320,192,215867,1,2,0:0:0:0:
64,192,215953,1,2,0:0:0:0:
320,192,216038,1,2,0:0:0:0:
64,192,216124,1,0,0:0:0:0:
448,192,216124,1,2,0:0:0:0:
192,192,216210,1,2,0:0:0:0:
448,192,216295,1,2,0:0:0:0:
192,192,216381,1,2,0:0:0:0:
64,192,216467,1,0,0:0:0:0:
448,192,216467,1,2,0:0:0:0:
192,192,216553,1,2,0:0:0:0:
320,192,216638,1,2,0:0:0:0:
192,192,216724,1,2,0:0:0:0:
64,192,216810,1,0,0:0:0:0:
448,192,216810,1,2,0:0:0:0:
320,192,216895,1,2,0:0:0:0:
192,192,216981,1,2,0:0:0:0:
64,192,216981,1,0,0:0:0:0:
448,192,217067,1,2,0:0:0:0:
320,192,217153,1,2,0:0:0:0:
64,192,217153,1,0,0:0:0:0:
192,192,217238,1,2,0:0:0:0:
320,192,217324,1,2,0:0:0:0:
448,192,217324,1,0,0:0:0:0:
64,192,217410,1,2,0:0:0:0:
192,192,217495,1,2,0:0:0:0:
320,192,217495,1,0,0:0:0:0:
64,192,217581,1,2,0:0:0:0:
320,192,217667,1,2,0:0:0:0:
448,192,217667,1,0,0:0:0:0:
192,192,217753,1,2,0:0:0:0:
64,192,217753,1,0,0:0:0:0:
448,192,217838,1,2,0:0:0:0:
320,192,217881,1,2,0:0:0:0:
192,192,217924,1,2,0:0:0:0:
64,192,217967,1,2,0:0:0:0:
448,192,218010,1,2,0:0:0:0:
320,192,218053,1,2,0:0:0:0:
64,192,218095,1,2,0:0:0:0:
192,192,218138,1,2,0:0:0:0:
320,192,218181,1,2,0:0:0:0:
448,192,218224,1,2,0:0:0:0:
64,192,218267,1,2,0:0:0:0:
192,192,218310,1,2,0:0:0:0:
448,192,218353,1,2,0:0:0:0:
320,192,218395,1,2,0:0:0:0:
192,192,218438,1,2,0:0:0:0:
64,192,218481,1,2,0:0:0:0:
448,192,218524,1,2,0:0:0:0:
320,192,218567,1,2,0:0:0:0:
64,192,218610,1,2,0:0:0:0:
192,192,218653,1,2,0:0:0:0:
320,192,218695,1,2,0:0:0:0:
448,192,218738,1,2,0:0:0:0:
64,192,218781,1,2,0:0:0:0:
192,192,218824,1,2,0:0:0:0:
448,192,218867,1,0,0:0:0:40:Muted Snare.wav
320,192,218910,1,0,0:0:0:40:Muted Snare.wav
64,192,218953,1,0,0:0:0:40:Muted Snare.wav
192,192,218995,1,0,0:0:0:40:Muted Snare.wav
448,192,219038,1,0,0:0:0:40:Muted Snare.wav
320,192,219081,1,0,0:0:0:40:Muted Snare.wav
64,192,219124,1,0,0:0:0:40:Muted Snare.wav
192,192,219167,1,0,0:0:0:40:Muted Snare.wav
448,192,219210,128,0,219895:0:0:0:70:Downsweeps.wav
320,192,219210,1,0,0:0:0:40:Muted Snare.wav
192,192,219895,1,0,0:0:0:0:
320,192,219895,1,0,0:0:0:0:
64,192,219895,1,0,0:0:0:70:drum-hitfinish.wav
64,192,220238,1,0,0:0:0:70:drum-hitfinish.wav
192,192,220238,1,0,0:0:0:0:
320,192,220238,1,0,0:0:0:70:normal-hitwhistle5.wav
448,192,220581,128,0,220924:0:0:0:70:drum-hitfinish.wav
320,192,220581,128,0,220924:0:0:0:0:
192,192,220581,1,0,0:0:0:0:
64,192,220581,1,0,0:0:0:70:normal-hitfinish10.wav
448,192,221095,1,0,0:0:0:70:drum-hitfinish.wav
320,192,221095,1,0,0:0:0:0:
64,192,221181,1,0,0:0:0:70:drum-hitfinish.wav
192,192,221181,1,0,0:0:0:0:
448,192,221267,1,0,0:0:0:70:drum-hitfinish.wav
320,192,221267,128,0,221438:0:0:0:0:
64,192,221438,1,0,0:0:0:70:drum-hitfinish.wav
192,192,221438,128,0,221610:0:0:0:0:
320,192,221610,1,0,0:0:0:70:drum-hitfinish.wav
448,192,221610,128,0,221781:0:0:0:0:
192,192,221781,1,0,0:0:0:70:drum-hitfinish.wav
64,192,221781,128,0,221953:0:0:0:0:
320,192,221953,128,0,222295:0:0:0:70:drum-hitfinish.wav
448,192,221953,1,0,0:0:0:0:
64,192,222295,1,0,0:0:0:70:drum-hitfinish.wav
448,192,222295,128,0,222467:0:0:0:0:
320,192,222467,1,0,0:0:0:70:drum-hitfinish.wav
192,192,222467,128,0,222638:0:0:0:0:
64,192,222638,128,0,222981:0:0:0:70:drum-hitfinish.wav
448,192,222638,1,0,0:0:0:0:
448,192,222981,1,0,0:0:0:70:Snare 7.wav
192,192,222981,1,0,0:0:0:0:
320,192,222981,1,0,0:0:0:0:
448,192,223324,128,0,223667:0:0:0:70:drum-hitfinish.wav
320,192,223324,128,0,223667:0:0:0:0:
64,192,223838,1,0,0:0:0:70:drum-hitfinish.wav
448,192,223838,1,0,0:0:0:0:
192,192,223924,1,0,0:0:0:70:drum-hitfinish.wav
320,192,223924,1,0,0:0:0:0:
64,192,224010,1,0,0:0:0:70:drum-hitfinish.wav
448,192,224010,128,0,224181:0:0:0:0:
320,192,224181,1,0,0:0:0:70:drum-hitfinish.wav
192,192,224181,128,0,224353:0:0:0:0:
448,192,224353,1,0,0:0:0:70:drum-hitfinish.wav
64,192,224353,128,0,224524:0:0:0:0:
192,192,224524,1,0,0:0:0:70:drum-hitfinish.wav
320,192,224524,128,0,224695:0:0:0:0:
448,192,224695,1,0,0:0:0:70:drum-hitfinish.wav
64,192,224695,128,0,224867:0:0:0:0:
320,192,224867,1,0,0:0:0:70:drum-hitfinish.wav
192,192,224867,128,0,225038:0:0:0:0:
64,192,225038,1,0,0:0:0:70:drum-hitfinish.wav
448,192,225038,128,0,225210:0:0:0:0:
192,192,225210,1,0,0:0:0:70:drum-hitfinish.wav
320,192,225210,128,0,225381:0:0:0:0:
448,192,225381,1,0,0:0:0:70:drum-hitfinish.wav
64,192,225381,1,2,0:0:0:0:
320,192,225553,1,0,0:0:0:0:
192,192,225553,1,0,0:0:0:0:
64,192,225553,1,0,0:0:0:70:Snare 7.wav
448,192,225724,1,0,0:0:0:70:Snare 7.wav
320,192,225724,1,0,0:0:0:70:drum-hitfinish.wav
192,192,225724,128,0,226067:0:0:0:0:
448,192,226067,128,0,226410:0:0:0:70:drum-hitfinish.wav
320,192,226067,128,0,226410:0:0:0:0:
64,192,226581,1,0,0:0:0:70:drum-hitfinish.wav
320,192,226581,1,0,0:0:0:0:
192,192,226667,1,0,0:0:0:70:drum-hitfinish.wav
448,192,226667,1,0,0:0:0:0:
64,192,226753,1,0,0:0:0:70:drum-hitfinish.wav
320,192,226753,128,0,226924:0:0:0:0:
192,192,226924,1,0,0:0:0:70:drum-hitfinish.wav
448,192,226924,128,0,227095:0:0:0:0:
320,192,227095,1,0,0:0:0:70:drum-hitfinish.wav
64,192,227095,128,0,227267:0:0:0:0:
448,192,227267,1,0,0:0:0:70:drum-hitfinish.wav
192,192,227267,128,0,227438:0:0:0:0:
320,192,227438,128,0,227781:0:0:0:70:drum-hitfinish.wav
64,192,227438,1,0,0:0:0:0:
192,192,227781,1,0,0:0:0:70:drum-hitfinish.wav
448,192,227781,128,0,227953:0:0:0:0:
64,192,227953,1,0,0:0:0:70:drum-hitfinish.wav
320,192,227953,128,0,228124:0:0:0:0:
192,192,228124,128,0,228467:0:0:0:70:drum-hitfinish.wav
448,192,228124,1,0,0:0:0:0:
448,192,228467,1,0,0:0:0:70:Snare 7.wav
320,192,228467,1,0,0:0:0:0:
64,192,228467,128,0,228638:0:0:0:0:
320,192,228638,1,0,0:0:0:70:drum-hitfinish.wav
192,192,228638,128,0,228810:0:0:0:0:
64,192,228810,1,0,0:0:0:70:drum-hitfinish.wav
448,192,228810,128,0,228981:0:0:0:0:
320,192,228981,1,0,0:0:0:70:drum-hitfinish.wav
192,192,228981,128,0,229153:0:0:0:0:
64,192,229153,1,0,0:0:0:70:drum-hitfinish.wav
448,192,229153,128,0,229324:0:0:0:0:
192,192,229324,1,0,0:0:0:70:drum-hitfinish.wav
320,192,229324,128,0,229495:0:0:0:0:
64,192,229495,128,0,229838:0:0:0:70:drum-hitfinish.wav
448,192,229495,1,0,0:0:0:0:
448,192,229838,1,0,0:0:0:70:drum-hitfinish.wav
192,192,229838,128,0,230010:0:0:0:0:
64,192,230010,1,0,0:0:0:70:drum-hitfinish.wav
320,192,230010,128,0,230181:0:0:0:0:
192,192,230181,1,0,0:0:0:70:drum-hitfinish.wav
448,192,230181,128,0,230353:0:0:0:0:
320,192,230353,1,0,0:0:0:70:drum-hitfinish.wav
64,192,230353,128,0,230524:0:0:0:0:
448,192,230524,1,0,0:0:0:70:drum-hitfinish.wav
192,192,230524,128,0,230695:0:0:0:0:
320,192,230695,1,0,0:0:0:70:drum-hitfinish.wav
64,192,230695,128,0,230867:0:0:0:0:
320,192,230867,128,0,231210:0:0:0:70:drum-hitfinish.wav
448,192,230867,1,0,0:0:0:0:
64,192,231038,1,0,0:0:0:0:
192,192,231038,1,0,0:0:0:0:
448,192,231210,1,0,0:0:0:0:
192,192,231210,128,0,231553:0:0:0:70:drum-hitfinish.wav
320,192,231295,1,0,0:0:0:0:
64,192,231381,1,0,0:0:0:0:
320,192,231467,1,0,0:0:0:0:
448,192,231553,128,0,231895:0:0:0:70:drum-hitfinish.wav
64,192,231553,128,0,231895:0:0:0:0:
192,192,231895,1,0,0:0:0:0:
320,192,231895,1,2,0:0:0:0:
448,192,232067,1,0,0:0:0:70:drum-hitfinish.wav
192,192,232067,1,0,0:0:0:0:
320,192,232153,1,0,0:0:0:70:drum-hitfinish.wav
64,192,232153,1,0,0:0:0:0:
448,192,232238,1,0,0:0:0:70:drum-hitfinish.wav
192,192,232238,128,2,232410:0:0:0:0:
64,192,232410,1,0,0:0:0:70:drum-hitfinish.wav
448,192,232410,128,0,232581:0:0:0:0:
320,192,232581,1,0,0:0:0:70:drum-hitfinish.wav
192,192,232581,128,2,232753:0:0:0:0:
448,192,232753,1,0,0:0:0:70:drum-hitfinish.wav
64,192,232753,128,0,232924:0:0:0:0:
320,192,232924,1,0,0:0:0:70:drum-hitfinish.wav
192,192,232924,128,2,233267:0:0:0:0:
448,192,233267,1,0,0:0:0:70:drum-hitfinish.wav
320,192,233267,128,2,233438:0:0:0:0:
192,192,233438,1,0,0:0:0:70:drum-hitfinish.wav
64,192,233438,128,0,233610:0:0:0:0:
448,192,233610,1,0,0:0:0:70:drum-hitfinish.wav
320,192,233610,128,2,233953:0:0:0:0:
448,192,233953,1,0,0:0:0:70:Snare 7.wav
64,192,233953,1,0,0:0:0:0:
192,192,233953,1,0,0:0:0:0:
448,192,234295,128,0,234638:0:0:0:70:drum-hitfinish.wav
192,192,234295,128,0,234638:0:0:0:0:
64,192,234638,1,0,0:0:0:0:
320,192,234638,1,2,0:0:0:0:
320,192,234810,1,0,0:0:0:70:drum-hitfinish.wav
448,192,234810,1,0,0:0:0:0:
192,192,234895,1,0,0:0:0:70:drum-hitfinish.wav
64,192,234895,1,0,0:0:0:0:
320,192,234981,1,0,0:0:0:70:drum-hitfinish.wav
448,192,234981,128,2,235153:0:0:0:0:
64,192,235153,1,0,0:0:0:70:drum-hitfinish.wav
192,192,235153,128,0,235324:0:0:0:0:
448,192,235324,1,0,0:0:0:70:drum-hitfinish.wav
320,192,235324,128,2,235495:0:0:0:0:
64,192,235495,1,0,0:0:0:70:drum-hitfinish.wav
192,192,235495,128,0,235667:0:0:0:0:
320,192,235667,1,0,0:0:0:70:drum-hitfinish.wav
64,192,235667,128,2,235838:0:0:0:0:
448,192,235838,1,0,0:0:0:70:drum-hitfinish.wav
192,192,235838,128,0,236010:0:0:0:0:
64,192,236010,1,0,0:0:0:70:drum-hitfinish.wav
320,192,236010,128,2,236181:0:0:0:0:
192,192,236181,1,0,0:0:0:70:drum-hitfinish.wav
448,192,236181,128,0,236353:0:0:0:0:
64,192,236353,128,2,236524:0:0:0:0:
320,192,236353,1,0,0:0:0:70:drum-hitfinish.wav
448,192,236524,1,0,0:0:0:70:Snare 7.wav
320,192,236524,1,0,0:0:0:0:
192,192,236524,1,0,0:0:0:0:
448,192,236695,1,0,0:0:0:70:Snare 7.wav
64,192,236695,1,0,0:0:0:70:drum-hitfinish.wav
192,192,236695,128,0,237038:0:0:0:0:
320,192,237038,128,0,237381:0:0:0:70:drum-hitfinish.wav
64,192,237038,128,0,237381:0:0:0:0:
448,192,237381,1,0,0:0:0:0:
192,192,237381,1,2,0:0:0:0:
64,192,237553,1,0,0:0:0:70:drum-hitfinish.wav
448,192,237553,1,0,0:0:0:0:
192,192,237638,1,0,0:0:0:70:drum-hitfinish.wav
320,192,237638,1,0,0:0:0:0:
64,192,237724,1,0,0:0:0:70:drum-hitfinish.wav
448,192,237724,128,2,237895:0:0:0:0:
192,192,237895,1,0,0:0:0:70:drum-hitfinish.wav
320,192,237895,128,0,238067:0:0:0:0:
448,192,238067,1,0,0:0:0:70:drum-hitfinish.wav
64,192,238067,128,2,238238:0:0:0:0:
192,192,238238,1,0,0:0:0:70:drum-hitfinish.wav
320,192,238238,128,0,238410:0:0:0:0:
64,192,238410,128,2,238753:0:0:0:0:
448,192,238410,1,0,0:0:0:70:drum-hitfinish.wav
448,192,238753,128,2,238924:0:0:0:0:
192,192,238753,1,0,0:0:0:70:drum-hitfinish.wav
64,192,238924,1,0,0:0:0:70:drum-hitfinish.wav
320,192,238924,128,0,239095:0:0:0:0:
448,192,239095,1,0,0:0:0:70:drum-hitfinish.wav
192,192,239095,128,2,239438:0:0:0:0:
64,192,239438,128,2,239610:0:0:0:0:
320,192,239438,1,0,0:0:0:70:Snare 7.wav
448,192,239438,1,0,0:0:0:70:normal-hitwhistle5.wav
192,192,239610,1,0,0:0:0:70:drum-hitfinish.wav
320,192,239610,128,0,239781:0:0:0:0:
64,192,239781,1,0,0:0:0:70:drum-hitfinish.wav
448,192,239781,128,2,239953:0:0:0:0:
320,192,239953,1,0,0:0:0:70:drum-hitfinish.wav
192,192,239953,128,0,240124:0:0:0:0:
448,192,240124,1,0,0:0:0:70:drum-hitfinish.wav
64,192,240124,128,2,240295:0:0:0:0:
192,192,240295,1,0,0:0:0:70:drum-hitfinish.wav
320,192,240295,128,0,240467:0:0:0:0:
448,192,240467,1,0,0:0:0:70:drum-hitfinish.wav
64,192,240467,128,2,240810:0:0:0:0:
320,192,240810,128,0,241153:0:0:0:70:drum-hitfinish.wav
448,192,240810,1,2,0:0:0:0:
192,192,240895,1,2,0:0:0:0:
64,192,240981,1,2,0:0:0:0:
448,192,241067,1,2,0:0:0:0:
192,192,241153,128,0,242524:0:0:0:70:Downsweeps.wav
64,192,241153,1,0,0:0:0:70:drum-hitfinish.wav
448,192,242524,1,0,0:0:0:70:drum-hitfinish.wav
64,192,242524,1,0,0:0:0:0:
320,192,242524,1,0,0:0:0:0:
192,192,242867,1,0,0:0:0:0:
448,192,242867,1,0,0:0:0:0:
64,192,242867,1,0,0:0:0:70:drum-hitfinish.wav
448,192,243210,1,0,0:0:0:70:drum-hitfinish.wav
64,192,243210,1,0,0:0:0:0:
320,192,243210,1,0,0:0:0:0:
192,192,243895,1,0,0:0:0:0:
448,192,243895,1,0,0:0:0:70:drum-hitfinish.wav
320,192,243895,1,0,0:0:0:0:
64,192,244238,1,0,0:0:0:70:drum-hitfinish.wav
320,192,244238,1,0,0:0:0:0:
192,192,244238,1,0,0:0:0:0:
448,192,244581,1,0,0:0:0:70:drum-hitfinish.wav
320,192,244581,1,0,0:0:0:0:
192,192,244581,1,0,0:0:0:0:
448,192,245267,1,0,0:0:0:70:drum-hitfinish.wav
64,192,245267,1,0,0:0:0:0:
320,192,245267,128,0,245610:0:0:0:0:
192,192,245610,128,0,245953:0:0:0:70:drum-hitfinish.wav
64,192,245610,1,0,0:0:0:0:
448,192,245610,1,0,0:0:0:0:
448,192,245953,128,0,246638:0:0:0:70:drum-hitfinish.wav
320,192,245953,1,0,0:0:0:0:
64,192,245953,1,0,0:0:0:0:
64,192,246638,1,0,0:0:0:70:drum-hitfinish.wav
320,192,246638,1,0,0:0:0:0:
192,192,246638,1,0,0:0:0:0:
320,192,246981,1,0,0:0:0:0:
448,192,246981,1,0,0:0:0:70:drum-hitfinish.wav
192,192,246981,1,0,0:0:0:0:
64,192,247153,1,0,0:0:0:0:
192,192,247238,1,0,0:0:0:0:
320,192,247324,1,2,0:0:0:0:
64,192,247324,1,0,0:0:0:0:
448,192,247324,1,0,0:0:0:70:drum-hitfinish.wav
192,192,247410,1,2,0:0:0:0:
320,192,247495,1,2,0:0:0:0:
448,192,247495,1,0,0:0:0:0:
192,192,247581,1,2,0:0:0:0:
448,192,247667,1,0,0:0:0:70:Snare 7.wav
64,192,247667,1,0,0:0:0:70:normal-hitwhistle5.wav
320,192,247667,128,0,248010:0:0:0:0:
192,192,248010,1,0,0:0:0:0:
448,192,248010,1,0,0:0:0:70:normal-hitfinish10.wav
64,192,248010,1,2,0:0:0:0:
192,192,248181,1,0,0:0:0:0:
320,192,248353,1,0,0:0:0:0:
448,192,248353,1,0,0:0:0:0:
64,192,248353,1,2,0:0:0:0:
192,192,248524,1,0,0:0:0:0:
320,192,248610,1,0,0:0:0:0:
448,192,248695,1,0,0:0:0:0:
192,192,248695,1,0,0:0:0:0:
64,192,248695,1,2,0:0:0:0:
320,192,248867,1,0,0:0:0:0:
192,192,248953,1,0,0:0:0:0:
320,192,249038,1,0,0:0:0:0:
448,192,249038,1,0,0:0:0:0:
64,192,249038,1,2,0:0:0:0:
448,192,249210,1,0,0:0:0:0:
320,192,249295,1,0,0:0:0:0:
192,192,249381,1,0,0:0:0:0:
448,192,249381,1,0,0:0:0:0:
64,192,249381,1,2,0:0:0:0:
64,192,249553,1,0,0:0:0:0:
192,192,249638,1,0,0:0:0:0:
320,192,249724,1,0,0:0:0:0:
448,192,249724,1,0,0:0:0:0:
64,192,249724,1,2,0:0:0:0:
320,192,249895,1,0,0:0:0:0:
192,192,249981,1,0,0:0:0:0:
320,192,250067,1,0,0:0:0:0:
448,192,250067,1,0,0:0:0:0:
64,192,250067,1,2,0:0:0:0:
192,192,250238,1,0,0:0:0:0:
320,192,250324,1,0,0:0:0:0:
64,192,250410,1,0,0:0:0:70:Snare 7.wav
192,192,250410,1,0,0:0:0:0:
448,192,250410,1,0,0:0:0:0:
320,192,250495,1,0,0:0:0:0:
64,192,250581,1,0,0:0:0:0:
192,192,250667,1,0,0:0:0:0:
320,192,250753,1,0,0:0:0:0:
448,192,250753,1,0,0:0:0:0:
64,192,250753,1,2,0:0:0:0:
320,192,250924,1,0,0:0:0:0:
192,192,251095,1,0,0:0:0:0:
448,192,251095,1,0,0:0:0:0:
64,192,251095,1,2,0:0:0:0:
320,192,251267,1,0,0:0:0:0:
192,192,251353,1,0,0:0:0:0:
320,192,251438,1,0,0:0:0:0:
448,192,251438,1,0,0:0:0:0:
64,192,251438,1,2,0:0:0:0:
192,192,251610,1,0,0:0:0:0:
320,192,251695,1,0,0:0:0:0:
192,192,251781,1,0,0:0:0:0:
448,192,251781,1,0,0:0:0:0:
64,192,251781,1,2,0:0:0:0:
320,192,251867,1,0,0:0:0:0:
192,192,251953,1,0,0:0:0:0:
64,192,252038,1,0,0:0:0:0:
192,192,252124,1,0,0:0:0:0:
320,192,252124,1,0,0:0:0:0:
448,192,252124,1,2,0:0:0:0:
64,192,252210,1,0,0:0:0:0:
320,192,252295,1,0,0:0:0:0:
192,192,252381,1,0,0:0:0:0:
448,192,252467,1,0,0:0:0:0:
320,192,252467,1,0,0:0:0:0:
64,192,252467,1,2,0:0:0:0:
192,192,252553,1,0,0:0:0:0:
448,192,252638,1,0,0:0:0:0:
320,192,252724,1,0,0:0:0:0:
192,192,252810,1,0,0:0:0:0:
448,192,252810,1,0,0:0:0:0:
64,192,252810,1,2,0:0:0:0:
320,192,252895,1,0,0:0:0:0:
192,192,252981,1,0,0:0:0:0:
64,192,253067,1,0,0:0:0:0:
448,192,253153,1,0,0:0:0:70:Snare 7.wav
192,192,253153,1,0,0:0:0:0:
320,192,253153,1,0,0:0:0:0:
64,192,253238,1,0,0:0:0:0:
320,192,253324,1,0,0:0:0:0:
192,192,253410,1,0,0:0:0:0:
448,192,253495,1,0,0:0:0:70:drum-hitfinish.wav
320,192,253495,1,0,0:0:0:0:
64,192,253581,1,0,0:0:0:0:
192,192,253581,1,0,0:0:0:0:
448,192,253667,1,0,0:0:0:0:
320,192,253667,1,0,0:0:0:0:
64,192,253753,1,0,0:0:0:0:
320,192,253838,1,0,0:0:0:70:drum-hitfinish.wav
192,192,253838,1,0,0:0:0:0:
448,192,253924,1,0,0:0:0:0:
64,192,253924,1,0,0:0:0:0:
192,192,254010,1,0,0:0:0:0:
320,192,254010,1,0,0:0:0:0:
448,192,254095,1,0,0:0:0:0:
64,192,254181,1,0,0:0:0:70:drum-hitfinish.wav
192,192,254181,1,0,0:0:0:0:
448,192,254267,1,0,0:0:0:0:
320,192,254267,1,0,0:0:0:0:
192,192,254353,1,0,0:0:0:0:
64,192,254353,1,0,0:0:0:0:
320,192,254438,1,0,0:0:0:0:
448,192,254524,1,0,0:0:0:70:drum-hitfinish.wav
192,192,254524,1,0,0:0:0:0:
64,192,254610,1,0,0:0:0:0:
320,192,254610,1,0,0:0:0:0:
192,192,254695,1,0,0:0:0:0:
448,192,254695,1,0,0:0:0:0:
320,192,254781,1,0,0:0:0:0:
192,192,254867,1,0,0:0:0:0:
64,192,254867,1,0,0:0:0:70:drum-hitfinish.wav
320,192,254953,1,0,0:0:0:0:
448,192,254953,1,0,0:0:0:0:
64,192,255038,1,0,0:0:0:70:drum-hitfinish.wav
192,192,255038,1,0,0:0:0:0:
448,192,255124,1,0,0:0:0:0:
64,192,255210,1,0,0:0:0:70:drum-hitfinish.wav
320,192,255210,1,0,0:0:0:0:
192,192,255295,1,0,0:0:0:0:
448,192,255295,1,0,0:0:0:0:
64,192,255381,1,0,0:0:0:70:drum-hitfinish.wav
320,192,255381,1,0,0:0:0:0:
192,192,255467,1,0,0:0:0:0:
448,192,255553,1,0,0:0:0:70:drum-hitfinish.wav
320,192,255553,1,0,0:0:0:0:
192,192,255638,1,0,0:0:0:0:
64,192,255638,1,0,0:0:0:0:
448,192,255724,1,0,0:0:0:70:drum-hitfinish.wav
320,192,255724,1,0,0:0:0:0:
64,192,255810,1,0,0:0:0:0:
320,192,255895,1,0,0:0:0:70:drum-hitfinish.wav
192,192,255895,1,0,0:0:0:0:
448,192,255981,1,0,0:0:0:0:
64,192,255981,1,0,0:0:0:0:
320,192,256067,1,0,0:0:0:70:drum-hitfinish.wav
192,192,256067,1,0,0:0:0:0:
64,192,256153,1,0,0:0:0:0:
448,192,256238,1,0,0:0:0:25:Muted Snare.wav
320,192,256281,1,0,0:0:0:25:Muted Snare.wav
192,192,256324,1,0,0:0:0:25:Muted Snare.wav
64,192,256367,1,0,0:0:0:25:Muted Snare.wav
448,192,256410,1,0,0:0:0:25:Muted Snare.wav
320,192,256453,1,0,0:0:0:25:Muted Snare.wav
192,192,256495,1,0,0:0:0:25:Muted Snare.wav
64,192,256538,1,0,0:0:0:25:Muted Snare.wav
448,192,256581,1,0,0:0:0:40:Muted Snare.wav
320,192,256624,1,0,0:0:0:40:Muted Snare.wav
192,192,256667,1,0,0:0:0:40:Muted Snare.wav
64,192,256710,1,0,0:0:0:40:Muted Snare.wav
448,192,256753,1,0,0:0:0:40:Muted Snare.wav
320,192,256795,1,0,0:0:0:40:Muted Snare.wav
192,192,256838,1,0,0:0:0:40:Muted Snare.wav
64,192,256881,1,0,0:0:0:40:Muted Snare.wav
448,192,256924,1,0,0:0:0:55:Muted Snare.wav
320,192,256967,1,0,0:0:0:55:Muted Snare.wav
64,192,257010,1,0,0:0:0:55:Muted Snare.wav
192,192,257053,1,0,0:0:0:55:Muted Snare.wav
448,192,257095,1,0,0:0:0:55:Muted Snare.wav
320,192,257138,1,0,0:0:0:55:Muted Snare.wav
64,192,257181,1,0,0:0:0:55:Muted Snare.wav
192,192,257224,1,0,0:0:0:55:Muted Snare.wav
320,192,257267,1,0,0:0:0:70:Muted Snare.wav
448,192,257310,1,0,0:0:0:70:Muted Snare.wav
192,192,257353,1,0,0:0:0:70:Muted Snare.wav
64,192,257395,1,0,0:0:0:70:Muted Snare.wav
320,192,257438,1,0,0:0:0:70:Muted Snare.wav
448,192,257481,1,0,0:0:0:70:Muted Snare.wav
192,192,257524,1,0,0:0:0:70:Muted Snare.wav
64,192,257567,1,0,0:0:0:70:Muted Snare.wav
448,192,257610,1,0,0:0:0:25:drum-hitclap.wav
320,192,257610,1,0,0:0:0:25:drum-hitclap.wav
448,192,257953,128,0,258295:0:0:0:70:drum-hitfinish.wav
64,192,257953,128,0,258295:0:0:0:0:
320,192,258295,128,0,258638:0:0:0:70:drum-hitfinish.wav
192,192,258295,128,0,258638:0:0:0:0:
64,192,258638,1,0,0:0:0:70:clap.wav
448,192,258638,1,0,0:0:0:70:Snare 7.wav
320,192,258981,128,0,259153:0:0:0:70:normal-hitfinish10.wav
448,192,258981,1,4,0:0:0:0:
64,192,258981,1,2,0:0:0:0:
192,192,259067,128,0,259153:0:0:0:0:
448,192,259153,128,0,259324:0:0:0:0:
192,192,259324,1,0,0:0:0:0:
64,192,259324,1,2,0:0:0:0:
320,192,259410,128,0,259495:0:0:0:0:
192,192,259495,128,0,259581:0:0:0:0:
448,192,259581,128,0,259753:0:0:0:0:
320,192,259667,128,0,259924:0:0:0:0:
64,192,259667,1,2,0:0:0:0:
192,192,259838,128,0,259924:0:0:0:0:
64,192,259924,128,0,260181:0:0:0:0:
320,192,260010,1,0,0:0:0:0:
448,192,260010,1,2,0:0:0:0:
320,192,260181,128,0,260267:0:0:0:0:
448,192,260267,128,0,260353:0:0:0:0:
64,192,260353,128,0,260610:0:0:0:0:
192,192,260353,1,2,0:0:0:0:
320,192,260524,128,0,260610:0:0:0:0:
448,192,260610,128,0,260867:0:0:0:0:
64,192,260695,1,2,0:0:0:0:
192,192,260695,1,0,0:0:0:0:
320,192,260867,128,0,261038:0:0:0:0:
64,192,261038,128,0,261210:0:0:0:0:
192,192,261038,1,2,0:0:0:0:
448,192,261210,128,0,261295:0:0:0:0:
320,192,261295,128,0,261381:0:0:0:0:
64,192,261381,128,0,261467:0:0:0:0:
192,192,261381,1,2,0:0:0:0:
448,192,261467,128,0,261553:0:0:0:0:
320,192,261553,128,0,261638:0:0:0:0:
192,192,261638,128,0,261724:0:0:0:0:
320,192,261724,128,0,261895:0:0:0:0:
64,192,261724,1,2,0:0:0:0:
192,192,261810,128,0,261895:0:0:0:0:
448,192,261895,128,0,262067:0:0:0:0:
192,192,262067,1,0,0:0:0:0:
64,192,262067,1,2,0:0:0:0:
320,192,262153,128,0,262238:0:0:0:0:
192,192,262238,128,0,262324:0:0:0:0:
448,192,262324,128,0,262495:0:0:0:0:
320,192,262410,128,0,262667:0:0:0:0:
64,192,262410,1,2,0:0:0:0:
192,192,262581,128,0,262667:0:0:0:0:
64,192,262667,128,0,262924:0:0:0:0:
320,192,262753,1,0,0:0:0:0:
448,192,262753,1,2,0:0:0:0:
320,192,262924,128,0,263010:0:0:0:0:
448,192,263010,128,0,263095:0:0:0:0:
64,192,263095,128,0,263267:0:0:0:0:
192,192,263095,1,2,0:0:0:0:
448,192,263181,128,0,263267:0:0:0:0:
320,192,263267,128,0,263353:0:0:0:0:
64,192,263353,128,0,263524:0:0:0:0:
448,192,263438,128,0,263524:0:0:0:0:
192,192,263438,1,2,0:0:0:0:
320,192,263524,128,0,263610:0:0:0:0:
192,192,263610,128,0,263781:0:0:0:0:
448,192,263695,128,0,263781:0:0:0:0:
320,192,263781,1,0,0:0:0:0:
64,192,263781,1,2,0:0:0:0:
448,192,263867,128,0,263953:0:0:0:0:
192,192,263953,128,0,264038:0:0:0:0:
320,192,264038,128,0,264124:0:0:0:0:
448,192,264124,128,0,264295:0:0:0:0:
64,192,264124,1,2,0:0:0:0:
320,192,264210,128,0,264295:0:0:0:0:
192,192,264295,128,0,264381:0:0:0:0:
64,192,264381,128,0,264467:0:0:0:0:
320,192,264467,128,0,264638:0:0:0:0:
448,192,264467,1,2,0:0:0:0:
192,192,264553,128,0,264638:0:0:0:0:
448,192,264638,128,0,264810:0:0:0:0:
64,192,264810,1,2,0:0:0:0:
192,192,264810,1,0,0:0:0:0:
320,192,264895,128,0,264981:0:0:0:0:
192,192,264981,128,0,265067:0:0:0:0:
448,192,265067,128,0,265238:0:0:0:0:
320,192,265153,128,0,265410:0:0:0:0:
64,192,265153,1,2,0:0:0:0:
192,192,265324,128,0,265410:0:0:0:0:
64,192,265410,128,0,265667:0:0:0:0:
320,192,265495,1,0,0:0:0:0:
448,192,265495,1,2,0:0:0:0:
320,192,265667,128,0,265753:0:0:0:0:
448,192,265753,128,0,265838:0:0:0:0:
64,192,265838,128,0,266095:0:0:0:0:
192,192,265838,1,2,0:0:0:0:
320,192,266010,128,0,266095:0:0:0:0:
448,192,266095,128,0,266353:0:0:0:0:
64,192,266181,1,2,0:0:0:0:
192,192,266181,1,0,0:0:0:0:
320,192,266353,128,0,266524:0:0:0:0:
64,192,266524,128,0,266695:0:0:0:0:
192,192,266524,1,2,0:0:0:0:
448,192,266695,128,0,266781:0:0:0:0:
320,192,266781,128,0,266867:0:0:0:0:
64,192,266867,128,0,266953:0:0:0:0:
192,192,266867,1,2,0:0:0:0:
448,192,266953,128,0,267038:0:0:0:0:
320,192,267038,128,0,267124:0:0:0:0:
192,192,267124,128,0,267210:0:0:0:0:
448,192,267210,128,0,267381:0:0:0:0:
64,192,267210,1,2,0:0:0:0:
192,192,267381,128,0,267467:0:0:0:0:
448,192,267467,128,0,267638:0:0:0:0:
320,192,267553,1,0,0:0:0:0:
64,192,267553,1,2,0:0:0:0:
192,192,267638,128,0,267724:0:0:0:0:
448,192,267724,128,0,267895:0:0:0:0:
320,192,267895,128,0,267981:0:0:0:0:
64,192,267895,1,2,0:0:0:0:
192,192,268067,128,0,268153:0:0:0:0:
448,192,268238,128,0,268410:0:0:0:0:
64,192,268238,1,2,0:0:0:0:
320,192,268324,128,0,268410:0:0:0:0:
192,192,268410,128,0,268495:0:0:0:0:
64,192,268495,128,0,268581:0:0:0:0:
448,192,268581,128,0,268753:0:0:0:0:
320,192,268581,1,2,0:0:0:0:
192,192,268753,128,0,268838:0:0:0:0:
448,192,268838,128,0,269010:0:0:0:0:
192,192,269010,128,0,269095:0:0:0:0:
448,192,269095,128,0,269267:0:0:0:0:
320,192,269267,128,0,269353:0:0:0:0:
192,192,269438,128,0,269524:0:0:0:0:
448,192,269610,128,0,269781:0:0:0:0:
320,192,269695,128,0,269781:0:0:0:0:
192,192,269781,128,0,269867:0:0:0:0:
64,192,269867,128,0,269953:0:0:0:0:
320,192,269953,128,0,270124:0:0:0:70:normal-hitfinish10.wav
448,192,269953,1,4,0:0:0:0:
192,192,270038,128,0,270124:0:0:0:0:
448,192,270124,128,0,270295:0:0:0:0:
192,192,270295,1,0,0:0:0:0:
64,192,270295,1,2,0:0:0:0:
320,192,270381,128,0,270467:0:0:0:0:
192,192,270467,128,0,270553:0:0:0:0:
448,192,270553,128,0,270724:0:0:0:0:
320,192,270638,128,0,270895:0:0:0:0:
64,192,270638,1,2,0:0:0:0:
192,192,270810,128,0,270895:0:0:0:0:
64,192,270895,128,0,271153:0:0:0:0:
320,192,270981,1,0,0:0:0:0:
448,192,270981,1,2,0:0:0:0:
320,192,271153,128,0,271238:0:0:0:0:
448,192,271238,128,0,271324:0:0:0:0:
64,192,271324,128,0,271581:0:0:0:0:
192,192,271324,1,2,0:0:0:0:
320,192,271495,128,0,271581:0:0:0:0:
448,192,271581,128,0,271838:0:0:0:0:
64,192,271667,1,2,0:0:0:0:
192,192,271667,1,0,0:0:0:0:
320,192,271838,128,0,272010:0:0:0:0:
64,192,272010,128,0,272181:0:0:0:0:
192,192,272010,1,2,0:0:0:0:
448,192,272181,128,0,272267:0:0:0:0:
320,192,272267,128,0,272353:0:0:0:0:
64,192,272353,128,0,272438:0:0:0:0:
192,192,272353,1,2,0:0:0:0:
448,192,272438,128,0,272524:0:0:0:0:
320,192,272524,128,0,272610:0:0:0:0:
192,192,272610,128,0,272695:0:0:0:0:
320,192,272695,128,0,272867:0:0:0:0:
64,192,272695,1,2,0:0:0:0:
192,192,272781,128,0,272867:0:0:0:0:
448,192,272867,128,0,273038:0:0:0:0:
192,192,273038,1,0,0:0:0:0:
64,192,273038,1,2,0:0:0:0:
320,192,273124,128,0,273210:0:0:0:0:
192,192,273210,128,0,273295:0:0:0:0:
448,192,273295,128,0,273467:0:0:0:0:
320,192,273381,128,0,273638:0:0:0:0:
64,192,273381,1,2,0:0:0:0:
192,192,273553,128,0,273638:0:0:0:0:
64,192,273638,128,0,273895:0:0:0:0:
320,192,273724,1,0,0:0:0:0:
448,192,273724,1,2,0:0:0:0:
320,192,273895,128,0,273981:0:0:0:0:
448,192,273981,128,0,274067:0:0:0:0:
64,192,274067,128,0,274238:0:0:0:0:
192,192,274067,1,2,0:0:0:0:
448,192,274153,128,0,274238:0:0:0:0:
320,192,274238,128,0,274324:0:0:0:0:
64,192,274324,128,0,274495:0:0:0:0:
448,192,274410,128,0,274495:0:0:0:0:
192,192,274410,1,2,0:0:0:0:
320,192,274495,128,0,274581:0:0:0:0:
192,192,274581,128,0,274753:0:0:0:0:
448,192,274667,128,0,274753:0:0:0:0:
320,192,274753,1,0,0:0:0:0:
64,192,274753,1,2,0:0:0:0:
448,192,274838,128,0,274924:0:0:0:0:
192,192,274924,128,0,275010:0:0:0:0:
320,192,275010,128,0,275095:0:0:0:0:
448,192,275095,128,0,275267:0:0:0:0:
64,192,275095,1,2,0:0:0:0:
320,192,275181,128,0,275267:0:0:0:0:
64,192,275267,128,0,275353:0:0:0:0:
192,192,275353,128,0,275438:0:0:0:0:
448,192,275438,5,0,0:0:0:70:drum-hitfinish.wav
64,192,275438,1,0,0:0:0:0:
320,192,275438,1,0,0:0:0:0:
192,192,275610,1,0,0:0:0:70:drum-hitfinish.wav
320,192,275610,1,0,0:0:0:0:
64,192,275781,1,0,0:0:0:70:drum-hitfinish.wav
448,192,275781,1,0,0:0:0:0:
192,192,275781,1,0,0:0:0:0:
320,192,275867,1,0,0:0:0:70:drum-hitfinish.wav
192,192,275953,1,0,0:0:0:70:drum-hitfinish.wav
64,192,275953,128,0,276124:0:0:0:60:pew.wav
320,192,276038,1,0,0:0:0:70:drum-hitfinish.wav
448,192,276124,1,0,0:0:0:70:drum-hitfinish.wav
192,192,276124,1,0,0:0:0:0:
320,192,276295,1,0,0:0:0:70:drum-hitfinish.wav
448,192,276295,128,0,276467:0:0:0:60:pew.wav
64,192,276467,1,0,0:0:0:70:drum-hitfinish.wav
192,192,276467,1,0,0:0:0:0:
320,192,276553,1,0,0:0:0:70:drum-hitfinish.wav
64,192,276638,1,0,0:0:0:70:drum-hitfinish.wav
192,192,276638,1,0,0:0:0:0:
320,192,276724,1,0,0:0:0:70:drum-hitfinish.wav
448,192,276810,1,0,0:0:0:0:
64,192,276810,1,0,0:0:0:70:drum-hitfinish.wav
192,192,276810,1,0,0:0:0:0:
192,192,276981,1,0,0:0:0:70:drum-hitfinish.wav
320,192,276981,1,0,0:0:0:0:
448,192,277153,1,0,0:0:0:70:drum-hitfinish.wav
64,192,277153,1,0,0:0:0:0:
320,192,277153,1,0,0:0:0:0:
192,192,277238,1,0,0:0:0:70:drum-hitfinish.wav
448,192,277324,128,0,277410:0:0:0:60:pew.wav
320,192,277324,1,0,0:0:0:70:drum-hitfinish.wav
192,192,277410,1,0,0:0:0:70:drum-hitfinish.wav
448,192,277495,1,0,0:0:0:70:drum-hitfinish.wav
320,192,277495,128,0,277581:0:0:0:60:pew.wav
64,192,277581,1,0,0:0:0:70:drum-hitfinish.wav
448,192,277667,128,0,277753:0:0:0:60:pew.wav
320,192,277667,1,0,0:0:0:70:drum-hitfinish.wav
192,192,277753,1,0,0:0:0:70:drum-hitfinish.wav
320,192,277838,128,0,277924:0:0:0:60:pew.wav
448,192,277838,1,0,0:0:0:70:drum-hitfinish.wav
64,192,277924,1,0,0:0:0:70:drum-hitfinish.wav
448,192,278010,128,0,278095:0:0:0:60:pew.wav
320,192,278010,1,0,0:0:0:70:drum-hitfinish.wav
192,192,278095,1,0,0:0:0:70:drum-hitfinish.wav
448,192,278181,1,0,0:0:0:70:drum-hitfinish.wav
64,192,278181,1,0,0:0:0:0:
320,192,278181,1,0,0:0:0:0:
192,192,278267,1,0,0:0:0:0:
448,192,278353,1,0,0:0:0:70:drum-hitfinish.wav
320,192,278353,1,0,0:0:0:0:
192,192,278438,1,0,0:0:0:0:
320,192,278524,1,0,0:0:0:70:drum-hitfinish.wav
64,192,278524,1,0,0:0:0:0:
448,192,278524,1,0,0:0:0:0:
192,192,278610,1,0,0:0:0:70:drum-hitfinish.wav
64,192,278695,1,0,0:0:0:70:drum-hitfinish.wav
448,192,278695,1,0,0:0:0:0:
320,192,278781,1,0,0:0:0:70:drum-hitfinish.wav
64,192,278867,1,0,0:0:0:70:drum-hitfinish.wav
192,192,278867,1,0,0:0:0:0:
448,192,278867,1,0,0:0:0:0:
320,192,278953,1,0,0:0:0:0:
192,192,279038,1,0,0:0:0:70:drum-hitfinish.wav
64,192,279038,1,0,0:0:0:0:
320,192,279124,1,0,0:0:0:0:
192,192,279210,1,0,0:0:0:0:
448,192,279210,1,0,0:0:0:0:
64,192,279210,1,0,0:0:0:70:drum-hitfinish.wav
320,192,279295,1,0,0:0:0:70:drum-hitfinish.wav
448,192,279381,1,0,0:0:0:70:drum-hitfinish.wav
64,192,279381,1,0,0:0:0:0:
320,192,279467,1,0,0:0:0:70:drum-hitfinish.wav
192,192,279553,128,0,279724:0:0:0:60:soft-hitnormal3.wav
64,192,279553,128,0,279895:0:0:0:0:
448,192,279724,128,0,280067:0:0:0:60:soft-hitnormal3.wav
192,192,279895,128,0,280238:0:0:0:60:soft-hitnormal3.wav
320,192,280067,128,0,280238:0:0:0:60:soft-hitnormal3.wav
64,192,280238,1,0,0:0:0:70:drum-hitfinish.wav
448,192,280238,128,0,280581:0:0:0:60:soft-hitnormal3.wav
192,192,280324,1,0,0:0:0:70:drum-hitfinish.wav
320,192,280410,1,0,0:0:0:70:drum-hitfinish.wav
64,192,280495,1,0,0:0:0:70:drum-hitfinish.wav
192,192,280581,1,0,0:0:0:70:drum-hitfinish.wav
320,192,280581,128,0,280924:0:0:0:0:
448,192,280924,128,0,281267:0:0:0:70:normal-hitfinish10.wav
192,192,280924,1,0,0:0:0:70:normal-hitwhistle5.wav
64,192,280924,1,4,0:0:0:0:
192,192,281095,1,0,0:0:0:0:
64,192,281095,1,0,0:0:0:0:
320,192,281267,1,0,0:0:0:0:
64,192,281267,1,0,0:0:0:0:
192,192,281353,1,0,0:0:0:0:
448,192,281353,1,0,0:0:0:0:
320,192,281438,1,0,0:0:0:0:
64,192,281438,1,0,0:0:0:0:
192,192,281524,1,0,0:0:0:0:
320,192,281610,1,0,0:0:0:0:
448,192,281610,1,0,0:0:0:0:
192,192,281695,1,0,0:0:0:0:
64,192,281695,1,0,0:0:0:0:
448,192,281781,1,0,0:0:0:0:
320,192,281781,1,0,0:0:0:0:
192,192,281867,1,0,0:0:0:0:
64,192,281953,1,0,0:0:0:0:
448,192,281953,1,0,0:0:0:0:
192,192,282038,1,0,0:0:0:0:
320,192,282038,1,0,0:0:0:0:
64,192,282124,1,0,0:0:0:0:
448,192,282124,1,0,0:0:0:0:
320,192,282210,1,0,0:0:0:0:
192,192,282295,128,0,282638:0:0:0:0:
64,192,282295,1,0,0:0:0:0:
320,192,282467,1,0,0:0:0:0:
448,192,282467,1,0,0:0:0:0:
448,192,282638,1,0,0:0:0:0:
64,192,282638,1,0,0:0:0:0:
320,192,282724,1,0,0:0:0:0:
192,192,282724,1,0,0:0:0:0:
64,192,282810,1,0,0:0:0:0:
448,192,282810,1,0,0:0:0:0:
192,192,282895,1,0,0:0:0:0:
448,192,282981,1,0,0:0:0:0:
320,192,282981,1,0,0:0:0:0:
192,192,283067,1,0,0:0:0:0:
64,192,283067,1,0,0:0:0:0:
320,192,283153,1,0,0:0:0:0:
448,192,283153,1,0,0:0:0:0:
64,192,283238,1,0,0:0:0:0:
192,192,283324,1,0,0:0:0:0:
320,192,283324,1,0,0:0:0:0:
64,192,283410,1,0,0:0:0:0:
448,192,283410,1,0,0:0:0:0:
192,192,283495,1,0,0:0:0:0:
320,192,283495,1,0,0:0:0:0:
64,192,283581,1,0,0:0:0:0:
448,192,283667,1,0,0:0:0:0:
320,192,283667,1,0,0:0:0:0:
320,192,283838,1,0,0:0:0:0:
64,192,283838,1,0,0:0:0:0:
192,192,284010,1,0,0:0:0:0:
64,192,284010,1,0,0:0:0:0:
448,192,284181,1,0,0:0:0:0:
320,192,284224,1,0,0:0:0:0:
64,192,284267,1,0,0:0:0:0:
192,192,284310,1,0,0:0:0:0:
320,192,284353,1,0,0:0:0:0:
448,192,284353,128,0,284524:0:0:0:60:soft-hitnormal3.wav
192,192,284438,128,0,284610:0:0:0:0:
64,192,284524,128,0,284610:0:0:0:0:
320,192,284610,128,0,284695:0:0:0:0:
64,192,284695,1,0,0:0:0:0:
448,192,284695,128,0,284867:0:0:0:60:soft-hitnormal3.wav
320,192,284781,128,0,284953:0:0:0:0:
64,192,284867,128,0,284953:0:0:0:0:
192,192,284953,128,0,285038:0:0:0:0:
448,192,284953,1,0,0:0:0:0:
320,192,285038,128,0,285381:0:0:0:60:soft-hitnormal3.wav
64,192,285038,1,0,0:0:0:0:
448,192,285210,1,0,0:0:0:0:
64,192,285210,1,0,0:0:0:0:
192,192,285381,1,0,0:0:0:0:
448,192,285381,1,0,0:0:0:0:
320,192,285553,1,0,0:0:0:0:
448,192,285595,1,0,0:0:0:0:
192,192,285638,1,0,0:0:0:0:
64,192,285681,1,0,0:0:0:0:
320,192,285724,1,0,0:0:0:0:
448,192,285724,128,0,285895:0:0:0:60:soft-hitnormal3.wav
192,192,285810,128,0,285981:0:0:0:0:
64,192,285895,128,0,285981:0:0:0:0:
320,192,285981,128,0,286067:0:0:0:0:
192,192,286067,1,0,0:0:0:0:
448,192,286067,128,0,286238:0:0:0:60:soft-hitnormal3.wav
320,192,286153,128,0,286324:0:0:0:0:
64,192,286238,128,0,286324:0:0:0:0:
192,192,286324,128,0,286410:0:0:0:0:
320,192,286410,128,0,286581:0:0:0:0:
448,192,286410,128,2,286581:0:0:0:0:
64,192,286581,1,0,0:0:0:0:
192,192,286624,1,0,0:0:0:0:
448,192,286667,1,0,0:0:0:0:
320,192,286710,1,0,0:0:0:0:
192,192,286753,1,0,0:0:0:0:
64,192,286753,1,0,0:0:0:0:
448,192,286924,128,0,287095:0:0:0:60:pew.wav
320,192,286924,128,0,287095:0:0:0:0:
192,192,287095,1,0,0:0:0:0:
64,192,287095,1,0,0:0:0:0:
320,192,287267,128,0,287438:0:0:0:0:
448,192,287267,128,0,287438:0:0:0:60:pew.wav
64,192,287438,1,0,0:0:0:0:
192,192,287438,1,0,0:0:0:0:
448,192,287610,1,0,0:0:0:0:
320,192,287695,1,0,0:0:0:0:
64,192,287781,128,0,287953:0:0:0:0:
192,192,287781,128,0,287953:0:0:0:0:
448,192,287953,1,0,0:0:0:0:
320,192,287995,1,0,0:0:0:0:
64,192,288038,1,0,0:0:0:0:
192,192,288081,1,0,0:0:0:0:
320,192,288124,1,0,0:0:0:0:
448,192,288124,1,0,0:0:0:0:
64,192,288295,128,0,288467:0:0:0:60:pew.wav
192,192,288295,128,0,288467:0:0:0:0:
320,192,288467,1,0,0:0:0:0:
448,192,288467,1,0,0:0:0:0:
64,192,288638,128,0,288724:0:0:0:60:pew.wav
192,192,288638,128,0,288724:0:0:0:0:
320,192,288810,128,0,288895:0:0:0:0:
64,192,288810,128,0,288895:0:0:0:60:pew.wav
192,192,288810,1,0,0:0:0:0:
64,192,288981,128,0,289067:0:0:0:60:pew.wav
192,192,288981,128,0,289067:0:0:0:0:
64,192,289153,128,0,289324:0:0:0:0:
448,192,289153,128,0,289324:0:0:0:0:
320,192,289324,1,0,0:0:0:0:
64,192,289495,128,0,289667:0:0:0:0:
320,192,289495,128,0,289667:0:0:0:0:
192,192,289667,1,0,0:0:0:0:
448,192,289838,128,0,290353:0:0:0:0:
192,192,289838,128,0,290353:0:0:0:0:
64,192,290010,1,0,0:0:0:0:
320,192,290181,1,0,0:0:0:0:
64,192,290181,1,0,0:0:0:0:
320,192,290353,1,0,0:0:0:0:
448,192,290524,1,0,0:0:0:0:
64,192,290524,128,0,290695:0:0:0:0:
320,192,290695,1,0,0:0:0:0:
192,192,290695,128,0,290867:0:0:0:0:
64,192,290867,1,0,0:0:0:0:
448,192,290867,128,0,291038:0:0:0:0:
192,192,291038,128,0,291210:0:0:0:0:
320,192,291038,1,0,0:0:0:0:
448,192,291210,128,0,291381:0:0:0:0:
64,192,291210,1,0,0:0:0:0:
320,192,291381,1,0,0:0:0:0:
192,192,291467,1,0,0:0:0:0:
64,192,291553,1,0,0:0:0:70:Snare 7.wav
320,192,291553,1,0,0:0:0:0:
448,192,291553,1,0,0:0:0:0:
64,192,291895,1,0,0:0:0:70:drum-hitfinish.wav
192,192,291895,1,0,0:0:0:0:
320,192,291895,128,4,292238:0:0:0:0:
192,192,292067,1,0,0:0:0:0:
64,192,292067,1,0,0:0:0:0:
64,192,292238,1,0,0:0:0:0:
448,192,292238,1,0,0:0:0:0:
192,192,292324,1,0,0:0:0:0:
320,192,292324,1,0,0:0:0:0:
448,192,292410,1,0,0:0:0:0:
64,192,292410,1,0,0:0:0:0:
192,192,292495,1,0,0:0:0:0:
320,192,292581,1,0,0:0:0:0:
448,192,292581,1,0,0:0:0:0:
192,192,292667,1,0,0:0:0:0:
64,192,292667,1,0,0:0:0:0:
320,192,292753,1,0,0:0:0:0:
448,192,292753,1,0,0:0:0:0:
192,192,292838,1,0,0:0:0:0:
64,192,292924,1,0,0:0:0:0:
320,192,292924,1,0,0:0:0:0:
448,192,293010,1,0,0:0:0:0:
192,192,293010,1,0,0:0:0:0:
64,192,293095,1,0,0:0:0:0:
320,192,293095,1,0,0:0:0:0:
448,192,293181,1,0,0:0:0:0:
192,192,293267,128,0,293610:0:0:0:70:drum-hitfinish.wav
64,192,293267,1,0,0:0:0:0:
320,192,293438,1,0,0:0:0:0:
448,192,293438,1,0,0:0:0:0:
448,192,293610,1,0,0:0:0:0:
64,192,293610,1,0,0:0:0:0:
320,192,293695,1,0,0:0:0:0:
192,192,293695,1,0,0:0:0:0:
448,192,293781,1,0,0:0:0:0:
64,192,293781,1,0,0:0:0:0:
192,192,293867,1,0,0:0:0:0:
320,192,293953,1,0,0:0:0:0:
448,192,293953,1,0,0:0:0:0:
192,192,294038,1,0,0:0:0:0:
64,192,294038,1,0,0:0:0:0:
320,192,294124,1,0,0:0:0:0:
448,192,294124,1,0,0:0:0:0:
64,192,294210,1,0,0:0:0:0:
320,192,294295,1,0,0:0:0:0:
192,192,294295,1,0,0:0:0:0:
64,192,294381,1,0,0:0:0:0:
448,192,294381,1,0,0:0:0:0:
192,192,294467,1,0,0:0:0:0:
320,192,294467,1,0,0:0:0:0:
448,192,294553,1,0,0:0:0:0:
192,192,294638,1,0,0:0:0:70:drum-hitfinish.wav
64,192,294638,1,0,0:0:0:0:
64,192,294810,1,0,0:0:0:0:
320,192,294810,1,0,0:0:0:0:
320,192,294981,1,0,0:0:0:0:
192,192,294981,1,0,0:0:0:0:
448,192,295153,1,0,0:0:0:0:
320,192,295195,1,0,0:0:0:0:
192,192,295238,1,0,0:0:0:0:
64,192,295281,1,0,0:0:0:0:
448,192,295324,128,0,295495:0:0:0:60:soft-hitnormal3.wav
320,192,295324,1,0,0:0:0:0:
192,192,295410,128,0,295581:0:0:0:0:
64,192,295495,128,0,295581:0:0:0:0:
320,192,295581,128,0,295667:0:0:0:0:
448,192,295667,128,0,295838:0:0:0:0:
192,192,295667,1,0,0:0:0:60:soft-hitnormal3.wav
320,192,295753,128,0,295924:0:0:0:0:
64,192,295838,128,0,295924:0:0:0:0:
192,192,295924,128,0,296010:0:0:0:0:
448,192,296010,128,0,296353:0:0:0:60:soft-hitnormal3.wav
320,192,296010,1,0,0:0:0:0:
64,192,296181,1,0,0:0:0:0:
192,192,296181,1,0,0:0:0:0:
192,192,296353,1,0,0:0:0:0:
320,192,296353,1,0,0:0:0:0:
64,192,296524,1,0,0:0:0:0:
192,192,296567,1,0,0:0:0:0:
448,192,296610,1,0,0:0:0:0:
320,192,296653,1,0,0:0:0:0:
192,192,296695,1,0,0:0:0:0:
64,192,296695,128,0,296867:0:0:0:60:soft-hitnormal3.wav
320,192,296781,128,0,296953:0:0:0:0:
448,192,296867,128,0,296953:0:0:0:0:
192,192,296953,128,0,297038:0:0:0:0:
64,192,297038,128,0,297210:0:0:0:0:
320,192,297038,1,0,0:0:0:60:soft-hitnormal3.wav
192,192,297124,128,0,297295:0:0:0:0:
448,192,297210,128,0,297295:0:0:0:0:
320,192,297295,128,0,297381:0:0:0:0:
64,192,297381,1,0,0:0:0:70:drum-hitfinish.wav
192,192,297381,1,0,0:0:0:0:
448,192,297381,1,4,0:0:0:0:
320,192,297467,1,0,0:0:0:0:
64,192,297553,1,0,0:0:0:0:
192,192,297638,1,0,0:0:0:0:
64,192,297724,1,0,0:0:0:70:drum-hitfinish.wav
320,192,297724,1,0,0:0:0:0:
448,192,297724,1,4,0:0:0:0:
192,192,297810,1,0,0:0:0:0:
448,192,297895,1,0,0:0:0:0:
320,192,297981,1,0,0:0:0:0:
64,192,298067,1,0,0:0:0:70:drum-hitfinish.wav
192,192,298067,1,0,0:0:0:0:
448,192,298067,1,4,0:0:0:0:
320,192,298153,1,0,0:0:0:0:
192,192,298238,1,0,0:0:0:0:
64,192,298324,1,0,0:0:0:0:
448,192,298410,1,0,0:0:0:70:drum-hitfinish.wav
192,192,298410,1,0,0:0:0:0:
320,192,298495,1,0,0:0:0:0:
64,192,298581,1,0,0:0:0:0:
192,192,298667,1,0,0:0:0:0:
448,192,298753,1,0,0:0:0:70:drum-hitfinish.wav
320,192,298753,1,0,0:0:0:0:
64,192,298753,1,4,0:0:0:0:
192,192,298838,1,0,0:0:0:0:
448,192,298924,1,0,0:0:0:70:drum-hitfinish.wav
64,192,298924,1,0,0:0:0:0:
320,192,299010,1,0,0:0:0:0:
448,192,299095,1,0,0:0:0:70:drum-hitfinish.wav
192,192,299095,1,0,0:0:0:0:
64,192,299095,1,4,0:0:0:0:
320,192,299181,1,0,0:0:0:0:
192,192,299267,1,0,0:0:0:70:drum-hitfinish.wav
64,192,299267,128,0,299353:0:0:0:0:
320,192,299353,1,0,0:0:0:0:
448,192,299438,1,0,0:0:0:70:drum-hitfinish.wav
64,192,299438,1,4,0:0:0:0:
192,192,299438,128,0,299524:0:0:0:0:
320,192,299524,1,0,0:0:0:0:
192,192,299610,1,0,0:0:0:70:drum-hitfinish.wav
64,192,299610,128,0,299695:0:0:0:0:
448,192,299695,1,0,0:0:0:0:
64,192,299781,1,0,0:0:0:70:drum-hitfinish.wav
192,192,299781,128,0,299867:0:0:0:0:
320,192,299867,1,0,0:0:0:0:
64,192,299953,1,0,0:0:0:70:drum-hitfinish.wav
192,192,299953,1,0,0:0:0:0:
448,192,300038,1,0,0:0:0:0:
64,192,300124,1,0,0:0:0:25:Muted Snare.wav
192,192,300167,1,0,0:0:0:25:Muted Snare.wav
320,192,300210,1,0,0:0:0:25:Muted Snare.wav
448,192,300253,1,0,0:0:0:25:Muted Snare.wav
64,192,300295,1,0,0:0:0:25:Muted Snare.wav
192,192,300338,1,0,0:0:0:25:Muted Snare.wav
320,192,300381,1,0,0:0:0:25:Muted Snare.wav
448,192,300424,1,0,0:0:0:25:Muted Snare.wav
64,192,300467,1,0,0:0:0:40:Muted Snare.wav
192,192,300510,1,0,0:0:0:40:Muted Snare.wav
320,192,300553,1,0,0:0:0:40:Muted Snare.wav
448,192,300595,1,0,0:0:0:40:Muted Snare.wav
64,192,300638,1,0,0:0:0:40:Muted Snare.wav
192,192,300681,1,0,0:0:0:40:Muted Snare.wav
320,192,300724,1,0,0:0:0:40:Muted Snare.wav
448,192,300767,1,0,0:0:0:40:Muted Snare.wav
64,192,300810,1,0,0:0:0:55:Muted Snare.wav
192,192,300853,1,0,0:0:0:55:Muted Snare.wav
448,192,300895,1,0,0:0:0:55:Muted Snare.wav
320,192,300938,1,0,0:0:0:55:Muted Snare.wav
64,192,300981,1,0,0:0:0:55:Muted Snare.wav
192,192,301024,1,0,0:0:0:55:Muted Snare.wav
448,192,301067,1,0,0:0:0:55:Muted Snare.wav
320,192,301110,1,0,0:0:0:55:Muted Snare.wav
192,192,301153,1,0,0:0:0:70:Muted Snare.wav
64,192,301195,1,0,0:0:0:70:Muted Snare.wav
320,192,301238,1,0,0:0:0:70:Muted Snare.wav
448,192,301281,1,0,0:0:0:70:Muted Snare.wav
192,192,301324,1,0,0:0:0:70:Muted Snare.wav
64,192,301367,1,0,0:0:0:70:Muted Snare.wav
320,192,301410,1,0,0:0:0:70:Muted Snare.wav
448,192,301453,1,0,0:0:0:70:Muted Snare.wav
192,192,301495,1,0,0:0:0:70:drum-hitfinish.wav
64,192,301495,1,4,0:0:0:0:
320,192,301838,128,0,302181:0:0:0:70:drum-hitfinish.wav
192,192,301838,128,0,302181:0:0:0:0:
448,192,302181,1,0,0:0:0:70:drum-hitfinish.wav
64,192,302181,1,0,0:0:0:0:
64,192,302524,128,0,302867:0:0:0:0:
448,192,302524,1,0,0:0:0:70:Snare 7.wav
320,192,302524,1,0,0:0:0:0:
192,192,302867,1,0,0:0:0:0:
320,192,302867,1,0,0:0:0:0:
448,192,302867,1,4,0:0:0:0:
64,192,303381,1,0,0:0:0:0:
320,192,303381,1,0,0:0:0:70:soft-hitnormal2.wav
192,192,303467,1,0,0:0:0:70:soft-hitnormal2.wav
448,192,303553,1,0,0:0:0:70:soft-hitnormal2.wav
64,192,303553,1,0,0:0:0:0:
320,192,303724,1,0,0:0:0:70:soft-hitnormal2.wav
192,192,303895,1,0,0:0:0:70:soft-hitnormal2.wav
64,192,304067,1,0,0:0:0:70:soft-hitnormal2.wav
192,192,304238,1,0,0:0:0:0:
448,192,304238,1,0,0:0:0:70:soft-hitnormal2.wav
192,192,304410,1,0,0:0:0:0:
320,192,304581,1,0,0:0:0:0:
448,192,304581,1,0,0:0:0:70:soft-hitnormal2.wav
192,192,304753,1,0,0:0:0:70:soft-hitnormal2.wav
320,192,304753,1,0,0:0:0:0:
64,192,304924,1,0,0:0:0:0:
192,192,304924,1,0,0:0:0:70:soft-hitnormal2.wav
320,192,305095,1,0,0:0:0:0:
448,192,305267,1,0,0:0:0:0:
192,192,305267,128,0,305438:0:0:0:0:
64,192,305438,1,0,0:0:0:0:
320,192,305438,128,0,305610:0:0:0:0:
192,192,305610,1,0,0:0:0:70:drum-hitfinish.wav
448,192,305610,128,0,305781:0:0:0:0:
64,192,305610,1,4,0:0:0:0:
320,192,305781,128,0,305953:0:0:0:0:
192,192,305781,1,0,0:0:0:0:
448,192,305953,1,0,0:0:0:0:
64,192,305953,128,0,306124:0:0:0:0:
320,192,306124,1,0,0:0:0:0:
192,192,306124,128,0,306295:0:0:0:0:
448,192,306295,1,0,0:0:0:70:drum-hitfinish.wav
320,192,306295,128,0,306638:0:0:0:0:
64,192,306295,1,4,0:0:0:0:
192,192,306638,1,0,0:0:0:70:drum-hitfinish.wav
448,192,306638,128,0,306981:0:0:0:0:
64,192,306638,1,4,0:0:0:0:
320,192,306981,1,0,0:0:0:70:soft-hitfinish.wav
192,192,306981,128,0,309724:0:0:0:70:normal-hitwhistle5.wav
64,192,306981,128,0,309724:0:0:0:70:normal-hitfinish10.wav
