osu file format v14

[General]
AudioFilename: audio.mp3
AudioLeadIn: 0
PreviewTime: 257492
Countdown: 0
SampleSet: Normal
StackLeniency: 0.7
Mode: 1
LetterboxInBreaks: 0
WidescreenStoryboard: 0

[Editor]
Bookmarks: 191663
DistanceSpacing: 2.6
BeatDivisor: 4
GridSize: 32
TimelineZoom: 2.1

[Metadata]
Title:Cycle Hit
TitleUnicode:サイクルヒット
Artist:KASAI HARCORES
ArtistUnicode:葛西ハーコーズ
Creator:Axer
Version:World Tour
Source:
Tags:dj genki genkianamei かめりあ kamelcamellia cametek camellia c-show ep2 episode of pro allstars baseball 葛西西高校 nishi high school m3-39 marathon KHCD-002 Axer
BeatmapID:1413771
BeatmapSetID:668239

[Difficulty]
HPDrainRate:4.5
CircleSize:2
OverallDifficulty:7
ApproachRate:10
SliderMultiplier:1.4
SliderTickRate:1

[Events]
//Background and Video events
0,0,"1o.jpg",0,0
//Break Periods
2,191863,198070
//Storyboard Layer 0 (Background)
//Storyboard Layer 1 (Fail)
//Storyboard Layer 2 (Pass)
//Storyboard Layer 3 (Foreground)
//Storyboard Sound Samples

[TimingPoints]
1035,342.857142857143,4,1,0,70,1,0
1035,-111.111111111111,4,1,0,70,0,0
10463,-109.89010989011,4,1,0,72,0,0
10549,-108.695652173913,4,1,0,74,0,0
10635,-107.52688172043,4,1,0,76,0,0
10720,-106.382978723404,4,1,0,78,0,0
10806,-105.263157894737,4,1,0,80,0,0
10892,-104.166666666667,4,1,0,82,0,0
10977,-103.092783505155,4,1,0,84,0,0
11063,-102.040816326531,4,1,0,86,0,0
11149,-101.010101010101,4,1,0,88,0,0
11235,-100,4,1,0,90,0,0
11320,-100,4,1,0,90,0,0
22977,-90.9090909090909,4,1,0,100,0,0
27777,-90.0900900900901,4,1,0,100,0,0
27863,-89.2857142857143,4,1,0,100,0,0
27949,-88.4955752212389,4,1,0,100,0,0
28035,-87.719298245614,4,1,0,100,0,0
28120,-86.9565217391304,4,1,0,100,0,0
36692,-86.2068965517241,4,1,0,100,0,0
36863,-85.4700854700855,4,1,0,100,0,0
37035,-84.7457627118644,4,1,0,100,0,0
37206,-84.0336134453781,4,1,0,100,0,0
37377,-83.3333333333333,4,1,0,100,0,0
37549,-82.6446280991736,4,1,0,100,0,0
37720,-81.9672131147541,4,1,0,100,0,0
37892,-81.3008130081301,4,1,0,100,0,0
38063,-80.6451612903226,4,1,0,100,0,0
39092,-85.4700854700855,4,1,0,100,0,0
39177,-84.0336134453781,4,1,0,100,0,0
39263,-82.6446280991736,4,1,0,100,0,0
39349,-81.3008130081301,4,1,0,100,0,0
39435,-80,4,1,0,100,0,1
49206,-81.9672131147541,4,1,0,100,0,1
49377,-84.0336134453781,4,1,0,100,0,1
49549,-86.2068965517241,4,1,0,100,0,1
49720,-88.4955752212389,4,1,0,100,0,1
50406,-86.9565217391304,4,1,0,100,0,0
51006,-86.2068965517241,4,1,0,100,0,0
51092,-85.4700854700855,4,1,0,100,0,0
51177,-84.7457627118644,4,1,0,100,0,0
51263,-84.0336134453781,4,1,0,100,0,0
51349,-83.3333333333333,4,1,0,100,0,0
51435,-82.6446280991736,4,1,0,100,0,0
51520,-81.9672131147541,4,1,0,100,0,0
51606,-81.3008130081301,4,1,0,100,0,0
51692,-80.6451612903226,4,1,0,100,0,0
51777,-80,4,1,0,100,0,1
61377,-80,4,1,0,100,0,0
61892,-100,4,1,0,70,0,0
71235,-99.009900990099,4,1,0,100,0,0
71320,-98.0392156862745,4,1,0,100,0,0
71403,-97.0873786407767,4,1,0,100,0,0
71492,-96.1538461538461,4,1,0,100,0,0
71577,-95.2380952380952,4,1,0,100,0,0
71663,-94.3396226415094,4,1,0,100,0,0
71749,-93.4579439252336,4,1,0,100,0,0
71835,-92.5925925925926,4,1,0,100,0,0
71920,-91.743119266055,4,1,0,100,0,0
72006,-90.9090909090909,4,1,0,100,0,0
72349,-95.2380952380952,4,1,0,100,0,0
77492,-90.9090909090909,4,1,0,100,0,0
83320,-90.0900900900901,4,1,0,100,0,0
84692,-89.2857142857143,4,1,0,100,0,0
86063,-88.4955752212389,4,1,0,100,0,0
87435,-87.719298245614,4,1,0,100,0,0
88806,-86.9565217391304,4,1,0,100,0,0
91549,-86.2068965517241,4,1,0,100,0,0
91720,-85.4700854700855,4,1,0,100,0,0
91892,-84.7457627118644,4,1,0,100,0,0
92063,-84.0336134453781,4,1,0,100,0,0
92234,-83.3333333333333,4,1,0,100,0,0
92406,-82.6446280991736,4,1,0,100,0,0
92577,-81.9672131147541,4,1,0,100,0,0
92749,-81.3008130081301,4,1,0,100,0,0
92920,-80.6451612903226,4,1,0,100,0,0
94292,-80,4,1,0,100,0,1
103892,-80,4,1,0,100,0,0
104063,-80.6451612903226,4,1,0,100,0,0
104149,-81.3008130081301,4,1,0,100,0,0
104235,-81.9672131147541,4,1,0,100,0,0
104320,-82.6446280991736,4,1,0,100,0,0
104406,-83.3333333333333,4,1,0,100,0,0
104492,-84.0336134453781,4,1,0,100,0,0
104577,-84.7457627118644,4,1,0,100,0,0
104663,-84.0336134453781,4,1,0,100,0,0
104749,-83.3333333333333,4,1,0,100,0,0
104835,-82.6446280991736,4,1,0,100,0,0
104920,-81.9672131147541,4,1,0,100,0,0
105006,-81.3008130081301,4,1,0,100,0,0
105092,-80.6451612903226,4,1,0,100,0,0
105263,-80,4,1,0,100,0,1
116235,-80,4,1,0,100,0,0
116406,-76.9230769230769,4,1,0,70,0,0
117606,-83.3333333333333,4,1,0,70,0,0
118977,-90.9090909090909,4,1,0,70,0,0
120349,-100,4,1,0,70,0,0
127206,-95.2380952380952,4,1,0,80,0,0
136463,-94.3396226415094,4,1,0,85,0,0
136806,-93.4579439252336,4,1,0,90,0,0
137149,-92.5925925925926,4,1,0,95,0,0
137492,-91.743119266055,4,1,0,100,0,0
138177,-90.9090909090909,4,1,0,100,0,0
148806,-86.9565217391304,4,1,0,100,0,0
164577,-83.3333333333333,4,1,0,100,0,0
164920,-80,4,1,0,100,0,0
165606,-80,4,1,0,100,0,1
187549,-80,4,1,0,80,0,0
187635,-66.6666666666667,4,1,0,20,0,0
198520,-95.2380952380952,4,1,0,80,0,0
209492,-90.9090909090909,4,1,0,80,0,0
214977,-86.9565217391304,4,1,0,80,0,0
219777,-91.743119266055,4,1,0,100,0,0
220120,-93.4579439252336,4,1,0,100,0,0
220463,-95.2380952380952,4,1,0,100,0,0
231092,-94.3396226415094,4,1,0,100,0,0
231177,-93.4579439252336,4,1,0,100,0,0
231263,-92.5925925925926,4,1,0,100,0,0
231349,-91.743119266055,4,1,0,100,0,0
231435,-90.9090909090909,4,1,0,100,0,0
242406,-86.9565217391304,4,1,0,100,0,0
257835,-86.9565217391304,4,1,0,100,0,0
258177,-83.3333333333333,4,1,0,100,0,0
258520,-80,4,1,0,100,0,0
258863,-80,4,1,0,100,0,1
278235,-80.6451612903226,4,1,0,100,0,1
278320,-81.3008130081301,4,1,0,100,0,1
278406,-81.9672131147541,4,1,0,100,0,1
278492,-82.6446280991736,4,1,0,100,0,1
278577,-83.3333333333333,4,1,0,100,0,1
278663,-84.0336134453781,4,1,0,100,0,1
278749,-84.7457627118644,4,1,0,100,0,1
278835,-85.4700854700855,4,1,0,100,0,1
278920,-86.2068965517241,4,1,0,100,0,1
279006,-86.9565217391304,4,1,0,100,0,1
279092,-87.719298245614,4,1,0,100,0,1
279177,-88.4955752212389,4,1,0,100,0,1
279263,-89.2857142857143,4,1,0,100,0,1
279349,-90.0900900900901,4,1,0,100,0,1
279435,-90.9090909090909,4,1,0,100,0,0
280463,-83.3333333333333,4,1,0,100,0,0
280806,-80,4,1,0,100,0,1
302749,-80,4,1,0,100,0,0
302835,-100,4,1,0,80,0,0
305149,-97.0873786407767,4,1,0,100,0,0
305320,-94.3396226415094,4,1,0,100,0,0
305492,-91.743119266055,4,1,0,100,0,0
305663,-89.2857142857143,4,1,0,100,0,0
305835,-86.9565217391304,4,1,0,100,0,0
306006,-84.7457627118644,4,1,0,100,0,0
306177,-82.6446280991736,4,1,0,100,0,0
306520,-80.6451612903226,4,1,0,100,0,0
306863,-76.9230769230769,4,1,0,100,0,0
307035,-66.6666666666667,4,1,0,100,0,0
307549,-66.6666666666667,4,1,0,90,0,0
308235,-66.6666666666667,4,1,0,80,0,0
308920,-66.6666666666667,4,1,0,70,0,0
309606,-66.6666666666667,4,1,0,60,0,0
310292,-66.6666666666667,4,1,0,50,0,0
310977,-66.6666666666667,4,1,0,40,0,0
311663,-66.6666666666667,4,1,0,30,0,0
312349,-66.6666666666667,4,1,0,20,0,0
313035,-66.6666666666667,4,1,0,10,0,0
313720,-66.6666666666667,4,1,0,5,0,0

[HitObjects]
256,192,1035,5,12,0:0:0:0:
256,192,1549,1,0,0:0:0:0:
256,192,1635,1,0,0:0:0:0:
256,192,1720,1,8,0:0:0:0:
256,192,1892,1,0,0:0:0:0:
256,192,2063,1,8,0:0:0:0:
256,192,2235,1,0,0:0:0:0:
256,192,2406,1,8,0:0:0:0:
256,192,2749,1,8,0:0:0:0:
256,192,2920,1,8,0:0:0:0:
256,192,3092,1,0,0:0:0:0:
256,192,3777,1,8,0:0:0:0:
256,192,4292,1,0,0:0:0:0:
256,192,4377,1,0,0:0:0:0:
256,192,4463,1,8,0:0:0:0:
256,192,4635,1,0,0:0:0:0:
256,192,4806,1,8,0:0:0:0:
256,192,4977,1,0,0:0:0:0:
256,192,5149,1,8,0:0:0:0:
256,192,5320,1,8,0:0:0:0:
256,192,5492,1,0,0:0:0:0:
256,192,5663,1,0,0:0:0:0:
256,192,5835,1,8,0:0:0:0:
256,192,6177,1,0,0:0:0:0:
256,192,6520,1,8,0:0:0:0:
256,192,7035,1,0,0:0:0:0:
256,192,7120,1,0,0:0:0:0:
256,192,7206,1,8,0:0:0:0:
256,192,7377,1,0,0:0:0:0:
256,192,7549,1,8,0:0:0:0:
256,192,7720,1,0,0:0:0:0:
256,192,7892,1,8,0:0:0:0:
256,192,8235,1,8,0:0:0:0:
256,192,8406,1,8,0:0:0:0:
256,192,8577,1,0,0:0:0:0:
256,192,8920,1,8,0:0:0:0:
256,192,9092,1,0,0:0:0:0:
256,192,9263,1,8,0:0:0:0:
256,192,9435,1,8,0:0:0:0:
256,192,9606,1,0,0:0:0:0:
256,192,9777,1,8,0:0:0:0:
256,192,9949,1,0,0:0:0:0:
256,192,10292,1,8,0:0:0:0:
256,192,10463,1,0,0:0:0:0:
256,192,10549,1,0,0:0:0:0:
256,192,10635,1,8,0:0:0:0:
256,192,10720,1,0,0:0:0:0:
256,192,10806,1,0,0:0:0:0:
256,192,10892,1,0,0:0:0:0:
256,192,10977,1,8,0:0:0:0:
256,192,11063,1,0,0:0:0:0:
256,192,11149,1,0,0:0:0:0:
256,192,11235,1,0,0:0:0:0:
256,192,11320,1,12,0:0:0:0:
256,192,11663,1,4,0:0:0:0:
256,192,12006,1,8,0:0:0:0:
256,192,12521,1,0,0:0:0:0:
256,192,12607,1,0,0:0:0:0:
256,192,12692,1,8,0:0:0:0:
256,192,12863,1,8,0:0:0:0:
256,192,13035,1,0,0:0:0:0:
256,192,13206,1,0,0:0:0:0:
256,192,13377,1,8,0:0:0:0:
256,192,13720,1,0,0:0:0:0:
256,192,13892,1,8,0:0:0:0:
256,192,14063,1,0,0:0:0:0:
256,192,14406,1,4,0:0:0:0:
256,192,14749,1,8,0:0:0:0:
256,192,15263,1,0,0:0:0:0:
256,192,15349,1,0,0:0:0:0:
256,192,15435,1,8,0:0:0:0:
256,192,15606,1,8,0:0:0:0:
256,192,15777,1,0,0:0:0:0:
256,192,15949,1,0,0:0:0:0:
256,192,16120,1,12,0:0:0:0:
256,192,16292,1,0,0:0:0:0:
256,192,16463,1,12,0:0:0:0:
256,192,16635,1,0,0:0:0:0:
256,192,16806,1,12,0:0:0:0:
256,192,16977,1,12,0:0:0:0:
256,192,17149,1,4,0:0:0:0:
256,192,17492,1,8,0:0:0:0:
256,192,18006,1,0,0:0:0:0:
256,192,18092,1,0,0:0:0:0:
256,192,18177,1,8,0:0:0:0:
256,192,18349,1,8,0:0:0:0:
256,192,18520,1,0,0:0:0:0:
256,192,18692,1,0,0:0:0:0:
256,192,18863,1,8,0:0:0:0:
256,192,19206,1,8,0:0:0:0:
256,192,19377,1,8,0:0:0:0:
256,192,19549,1,0,0:0:0:0:
256,192,19892,1,12,0:0:0:0:
256,192,20063,1,0,0:0:0:0:
256,192,20235,1,8,0:0:0:0:
256,192,20406,1,8,0:0:0:0:
256,192,20577,1,0,0:0:0:0:
256,192,20749,1,8,0:0:0:0:
256,192,20920,1,0,0:0:0:0:
256,192,21263,1,8,0:0:0:0:
256,192,21606,12,0,22635,0:0:0:0:
256,192,22977,5,12,0:0:0:0:
256,192,23320,1,4,0:0:0:0:
256,192,23663,1,4,0:0:0:0:
256,192,24349,1,12,0:0:0:0:
256,192,24692,1,4,0:0:0:0:
256,192,25035,1,4,0:0:0:0:
256,192,25720,1,12,0:0:0:0:
256,192,26063,1,4,0:0:0:0:
256,192,26406,1,12,0:0:0:0:
256,192,27092,1,12,0:0:0:0:
256,192,27435,1,4,0:0:0:0:
256,192,27777,1,0,0:0:0:0:
256,192,27863,1,0,0:0:0:0:
256,192,27949,1,0,0:0:0:0:
256,192,28035,1,0,0:0:0:0:
256,192,28120,1,12,0:0:0:0:
256,192,28463,1,8,0:0:0:0:
256,192,28635,1,0,0:0:0:0:
256,192,28806,1,8,0:0:0:0:
256,192,28977,1,0,0:0:0:0:
256,192,29063,1,0,0:0:0:0:
256,192,29149,1,8,0:0:0:0:
256,192,29320,1,0,0:0:0:0:
256,192,29492,1,8,0:0:0:0:
256,192,29663,1,8,0:0:0:0:
256,192,29835,1,8,0:0:0:0:
256,192,30006,1,0,0:0:0:0:
256,192,30177,1,8,0:0:0:0:
256,192,30349,1,0,0:0:0:0:
256,192,30435,1,0,0:0:0:0:
256,192,30520,1,8,0:0:0:0:
256,192,30692,1,0,0:0:0:0:
256,192,30863,1,8,0:0:0:0:
256,192,31035,1,8,0:0:0:0:
256,192,31206,1,8,0:0:0:0:
256,192,31377,1,0,0:0:0:0:
256,192,31549,1,8,0:0:0:0:
256,192,31720,1,8,0:0:0:0:
256,192,31806,1,0,0:0:0:0:
256,192,31892,1,8,0:0:0:0:
256,192,32063,1,0,0:0:0:0:
256,192,32235,1,8,0:0:0:0:
256,192,32406,1,0,0:0:0:0:
256,192,32492,1,0,0:0:0:0:
256,192,32577,1,8,0:0:0:0:
256,192,32749,1,0,0:0:0:0:
256,192,32920,1,8,0:0:0:0:
256,192,33092,1,8,0:0:0:0:
256,192,33177,1,0,0:0:0:0:
256,192,33263,1,8,0:0:0:0:
256,192,33435,1,0,0:0:0:0:
256,192,33606,1,8,0:0:0:0:
256,192,33777,1,8,0:0:0:0:
256,192,33949,1,8,0:0:0:0:
256,192,34035,1,0,0:0:0:0:
256,192,34120,1,0,0:0:0:0:
256,192,34206,1,0,0:0:0:0:
256,192,34292,1,8,0:0:0:0:
256,192,34377,1,0,0:0:0:0:
256,192,34463,1,0,0:0:0:0:
256,192,34549,1,0,0:0:0:0:
256,192,34635,1,8,0:0:0:0:
256,192,34720,1,0,0:0:0:0:
256,192,34806,1,8,0:0:0:0:
256,192,34892,1,0,0:0:0:0:
256,192,34977,1,8,0:0:0:0:
256,192,35063,1,0,0:0:0:0:
256,192,35149,1,8,0:0:0:0:
256,192,35235,1,0,0:0:0:0:
256,192,35320,1,8,0:0:0:0:
256,192,35406,1,0,0:0:0:0:
256,192,35492,1,0,0:0:0:0:
256,192,35577,1,0,0:0:0:0:
256,192,35663,1,8,0:0:0:0:
256,192,35749,1,0,0:0:0:0:
256,192,35835,1,0,0:0:0:0:
256,192,35920,1,0,0:0:0:0:
256,192,36006,1,8,0:0:0:0:
256,192,36092,1,0,0:0:0:0:
256,192,36177,1,8,0:0:0:0:
256,192,36263,1,0,0:0:0:0:
256,192,36349,1,8,0:0:0:0:
256,192,36435,1,0,0:0:0:0:
256,192,36520,1,8,0:0:0:0:
256,192,36606,1,0,0:0:0:0:
256,192,36692,1,8,0:0:0:0:
256,192,36749,1,8,0:0:0:0:
256,192,36806,1,8,0:0:0:0:
256,192,36863,1,0,0:0:0:0:
256,192,36949,1,0,0:0:0:0:
256,192,37035,1,8,0:0:0:0:
256,192,37092,1,0,0:0:0:0:
256,192,37149,1,0,0:0:0:0:
256,192,37206,1,8,0:0:0:0:
256,192,37292,1,0,0:0:0:0:
256,192,37377,1,8,0:0:0:0:
256,192,37435,1,8,0:0:0:0:
256,192,37492,1,8,0:0:0:0:
256,192,37549,1,0,0:0:0:0:
256,192,37635,1,0,0:0:0:0:
256,192,37720,1,8,0:0:0:0:
256,192,37777,1,0,0:0:0:0:
256,192,37835,1,0,0:0:0:0:
256,192,37892,1,8,0:0:0:0:
256,192,37977,1,0,0:0:0:0:
256,192,38063,1,8,0:0:0:0:
256,192,38406,1,0,0:0:0:0:
256,192,38749,1,0,0:0:0:0:
256,192,39092,1,8,0:0:0:0:
256,192,39177,1,8,0:0:0:0:
256,192,39263,1,8,0:0:0:0:
256,192,39349,1,8,0:0:0:0:
256,192,39435,1,4,0:0:0:0:
256,192,39777,1,0,0:0:0:0:
256,192,39863,1,8,0:0:0:0:
256,192,39949,1,8,0:0:0:0:
256,192,40035,1,8,0:0:0:0:
256,192,40120,1,0,0:0:0:0:
256,192,40206,1,8,0:0:0:0:
256,192,40292,1,8,0:0:0:0:
256,192,40377,1,8,0:0:0:0:
256,192,40463,1,0,0:0:0:0:
256,192,40549,1,8,0:0:0:0:
256,192,40635,1,0,0:0:0:0:
256,192,40720,1,0,0:0:0:0:
256,192,40806,1,8,0:0:0:0:
256,192,40977,1,0,0:0:0:0:
256,192,41063,1,8,0:0:0:0:
256,192,41149,1,0,0:0:0:0:
256,192,41235,1,8,0:0:0:0:
256,192,41320,1,8,0:0:0:0:
256,192,41406,1,8,0:0:0:0:
256,192,41492,1,0,0:0:0:0:
256,192,41577,1,8,0:0:0:0:
256,192,41663,1,8,0:0:0:0:
256,192,41749,1,8,0:0:0:0:
256,192,41835,1,0,0:0:0:0:
256,192,41920,1,0,0:0:0:0:
256,192,42006,1,8,0:0:0:0:
256,192,42092,1,8,0:0:0:0:
256,192,42177,1,0,0:0:0:0:
256,192,42349,1,8,0:0:0:0:
256,192,42435,1,8,0:0:0:0:
256,192,42520,1,0,0:0:0:0:
256,192,42606,1,8,0:0:0:0:
256,192,42692,1,8,0:0:0:0:
256,192,42777,1,0,0:0:0:0:
256,192,42863,1,8,0:0:0:0:
256,192,42949,1,0,0:0:0:0:
256,192,43035,1,8,0:0:0:0:
256,192,43120,1,8,0:0:0:0:
256,192,43206,1,8,0:0:0:0:
256,192,43292,1,0,0:0:0:0:
256,192,43377,1,8,0:0:0:0:
256,192,43463,1,8,0:0:0:0:
256,192,43549,1,0,0:0:0:0:
256,192,43720,1,8,0:0:0:0:
256,192,43806,1,8,0:0:0:0:
256,192,43892,1,0,0:0:0:0:
256,192,43977,1,8,0:0:0:0:
256,192,44063,1,8,0:0:0:0:
256,192,44149,1,8,0:0:0:0:
256,192,44235,1,0,0:0:0:0:
256,192,44320,1,8,0:0:0:0:
256,192,44406,1,8,0:0:0:0:
256,192,44492,1,0,0:0:0:0:
256,192,44577,1,8,0:0:0:0:
256,192,44663,1,0,0:0:0:0:
256,192,44749,1,8,0:0:0:0:
256,192,44835,1,8,0:0:0:0:
256,192,44920,1,0,0:0:0:0:
256,192,45092,1,8,0:0:0:0:
256,192,45263,1,0,0:0:0:0:
256,192,45349,1,8,0:0:0:0:
256,192,45435,1,8,0:0:0:0:
256,192,45520,1,8,0:0:0:0:
256,192,45606,1,0,0:0:0:0:
256,192,45692,1,8,0:0:0:0:
256,192,45777,1,8,0:0:0:0:
256,192,45863,1,8,0:0:0:0:
256,192,45949,1,0,0:0:0:0:
256,192,46035,1,8,0:0:0:0:
256,192,46120,1,0,0:0:0:0:
256,192,46206,1,0,0:0:0:0:
256,192,46292,1,8,0:0:0:0:
256,192,46463,1,8,0:0:0:0:
256,192,46549,1,8,0:0:0:0:
256,192,46635,1,0,0:0:0:0:
256,192,46720,1,8,0:0:0:0:
256,192,46806,1,8,0:0:0:0:
256,192,46892,1,8,0:0:0:0:
256,192,46977,1,0,0:0:0:0:
256,192,47063,1,8,0:0:0:0:
256,192,47149,1,8,0:0:0:0:
256,192,47235,1,8,0:0:0:0:
256,192,47320,1,0,0:0:0:0:
256,192,47406,1,0,0:0:0:0:
256,192,47492,1,8,0:0:0:0:
256,192,47577,1,8,0:0:0:0:
256,192,47663,1,0,0:0:0:0:
256,192,47835,1,8,0:0:0:0:
256,192,47920,1,8,0:0:0:0:
256,192,48006,1,0,0:0:0:0:
256,192,48092,1,8,0:0:0:0:
256,192,48177,1,8,0:0:0:0:
256,192,48263,1,0,0:0:0:0:
256,192,48349,1,8,0:0:0:0:
256,192,48435,1,0,0:0:0:0:
256,192,48520,1,8,0:0:0:0:
256,192,48606,1,0,0:0:0:0:
256,192,48692,1,8,0:0:0:0:
256,192,48777,1,8,0:0:0:0:
256,192,48863,1,0,0:0:0:0:
256,192,48949,1,0,0:0:0:0:
256,192,49035,1,8,0:0:0:0:
256,192,49206,1,0,0:0:0:0:
256,192,49377,1,8,0:0:0:0:
256,192,49549,1,0,0:0:0:0:
256,192,49720,1,8,0:0:0:0:
256,192,49892,1,0,0:0:0:0:
256,192,49977,1,0,0:0:0:0:
256,192,50063,1,8,0:0:0:0:
256,192,50235,1,8,0:0:0:0:
256,192,50406,1,4,0:0:0:0:
256,192,50577,1,8,0:0:0:0:
256,192,50749,1,0,0:0:0:0:
256,192,50835,1,8,0:0:0:0:
256,192,50920,1,0,0:0:0:0:
256,192,51006,1,0,0:0:0:0:
256,192,51092,1,8,0:0:0:0:
256,192,51178,1,0,0:0:0:0:
256,192,51263,1,8,0:0:0:0:
256,192,51349,1,0,0:0:0:0:
256,192,51435,1,8,0:0:0:0:
256,192,51521,1,0,0:0:0:0:
256,192,51606,1,8,0:0:0:0:
256,192,51692,1,8,0:0:0:0:
256,192,51777,1,4,0:0:0:0:
256,192,51949,1,8,0:0:0:0:
256,192,52120,1,0,0:0:0:0:
256,192,52206,1,8,0:0:0:0:
256,192,52292,1,8,0:0:0:0:
256,192,52377,1,8,0:0:0:0:
256,192,52463,1,0,0:0:0:0:
256,192,52549,1,8,0:0:0:0:
256,192,52635,1,8,0:0:0:0:
256,192,52720,1,0,0:0:0:0:
256,192,52806,1,8,0:0:0:0:
256,192,52892,1,0,0:0:0:0:
256,192,52977,1,8,0:0:0:0:
256,192,53063,1,8,0:0:0:0:
256,192,53149,1,0,0:0:0:0:
256,192,53320,1,8,0:0:0:0:
256,192,53406,1,0,0:0:0:0:
256,192,53492,1,0,0:0:0:0:
256,192,53577,1,8,0:0:0:0:
256,192,53663,1,8,0:0:0:0:
256,192,53749,1,8,0:0:0:0:
256,192,53835,1,0,0:0:0:0:
256,192,54006,1,0,0:0:0:0:
256,192,54092,1,8,0:0:0:0:
256,192,54177,1,0,0:0:0:0:
256,192,54263,1,8,0:0:0:0:
256,192,54349,1,8,0:0:0:0:
256,192,54435,1,0,0:0:0:0:
256,192,54520,1,8,0:0:0:0:
256,192,54692,1,8,0:0:0:0:
256,192,54778,1,0,0:0:0:0:
256,192,54863,1,0,0:0:0:0:
256,192,54949,1,8,0:0:0:0:
256,192,55035,1,0,0:0:0:0:
256,192,55120,1,8,0:0:0:0:
256,192,55206,1,8,0:0:0:0:
256,192,55292,1,0,0:0:0:0:
256,192,55377,1,8,0:0:0:0:
256,192,55463,1,0,0:0:0:0:
256,192,55549,1,8,0:0:0:0:
256,192,55635,1,8,0:0:0:0:
256,192,55720,1,0,0:0:0:0:
256,192,55806,1,0,0:0:0:0:
256,192,55892,1,12,0:0:0:0:
256,192,56063,1,0,0:0:0:0:
256,192,56149,1,0,0:0:0:0:
256,192,56235,1,8,0:0:0:0:
256,192,56320,1,8,0:0:0:0:
256,192,56406,1,8,0:0:0:0:
256,192,56492,1,0,0:0:0:0:
256,192,56577,1,8,0:0:0:0:
256,192,56663,1,8,0:0:0:0:
256,192,56749,1,8,0:0:0:0:
256,192,56835,1,0,0:0:0:0:
256,192,56920,1,8,0:0:0:0:
256,192,57006,1,8,0:0:0:0:
256,192,57092,1,0,0:0:0:0:
256,192,57177,1,0,0:0:0:0:
256,192,57263,1,8,0:0:0:0:
256,192,57435,1,0,0:0:0:0:
256,192,57520,1,0,0:0:0:0:
256,192,57606,1,8,0:0:0:0:
256,192,57692,1,8,0:0:0:0:
256,192,57777,1,8,0:0:0:0:
256,192,57863,1,0,0:0:0:0:
256,192,57949,1,8,0:0:0:0:
256,192,58035,1,8,0:0:0:0:
256,192,58120,1,8,0:0:0:0:
256,192,58206,1,0,0:0:0:0:
256,192,58292,1,8,0:0:0:0:
256,192,58377,1,8,0:0:0:0:
256,192,58463,1,0,0:0:0:0:
256,192,58549,1,0,0:0:0:0:
256,192,58635,1,8,0:0:0:0:
256,192,58720,1,8,0:0:0:0:
256,192,58806,1,8,0:0:0:0:
256,192,58892,1,8,0:0:0:0:
256,192,58977,1,0,0:0:0:0:
256,192,59063,1,0,0:0:0:0:
256,192,59149,1,8,0:0:0:0:
256,192,59235,1,0,0:0:0:0:
256,192,59320,1,8,0:0:0:0:
256,192,59406,1,8,0:0:0:0:
256,192,59492,1,0,0:0:0:0:
256,192,59577,1,0,0:0:0:0:
256,192,59663,1,8,0:0:0:0:
256,192,59749,1,8,0:0:0:0:
256,192,59835,1,0,0:0:0:0:
256,192,59920,1,0,0:0:0:0:
256,192,60006,1,8,0:0:0:0:
256,192,60063,1,8,0:0:0:0:
256,192,60120,1,8,0:0:0:0:
256,192,60177,1,0,0:0:0:0:
256,192,60263,1,0,0:0:0:0:
256,192,60349,1,8,0:0:0:0:
256,192,60406,1,0,0:0:0:0:
256,192,60463,1,0,0:0:0:0:
256,192,60520,1,8,0:0:0:0:
256,192,60606,1,0,0:0:0:0:
256,192,60691,1,8,0:0:0:0:
256,192,60749,1,8,0:0:0:0:
256,192,60806,1,8,0:0:0:0:
256,192,60863,1,0,0:0:0:0:
256,192,60949,1,0,0:0:0:0:
256,192,61034,1,8,0:0:0:0:
256,192,61091,1,0,0:0:0:0:
256,192,61149,1,0,0:0:0:0:
256,192,61206,1,8,0:0:0:0:
256,192,61291,1,0,0:0:0:0:
256,192,61377,1,8,0:0:0:0:
256,192,61892,1,0,0:0:0:0:
256,192,62063,1,8,0:0:0:0:
256,192,62577,1,0,0:0:0:0:
256,192,62749,1,8,0:0:0:0:
256,192,62920,1,8,0:0:0:0:
256,192,63092,1,0,0:0:0:0:
256,192,63263,1,0,0:0:0:0:
256,192,63435,1,8,0:0:0:0:
256,192,63949,1,0,0:0:0:0:
256,192,64120,1,8,0:0:0:0:
256,192,64635,1,0,0:0:0:0:
256,192,64806,1,8,0:0:0:0:
256,192,65320,1,0,0:0:0:0:
256,192,65492,1,8,0:0:0:0:
256,192,65663,1,8,0:0:0:0:
256,192,65835,1,8,0:0:0:0:
256,192,66006,1,0,0:0:0:0:
256,192,66177,1,8,0:0:0:0:
256,192,66863,1,8,0:0:0:0:
256,192,67377,1,0,0:0:0:0:
256,192,67549,1,8,0:0:0:0:
256,192,68063,1,0,0:0:0:0:
256,192,68235,1,8,0:0:0:0:
256,192,68406,1,8,0:0:0:0:
256,192,68577,1,8,0:0:0:0:
256,192,68749,1,0,0:0:0:0:
256,192,68920,1,8,0:0:0:0:
256,192,69435,1,0,0:0:0:0:
256,192,69606,1,8,0:0:0:0:
256,192,70120,1,0,0:0:0:0:
256,192,70292,1,8,0:0:0:0:
256,192,70806,1,0,0:0:0:0:
256,192,70977,1,8,0:0:0:0:
256,192,71063,1,0,0:0:0:0:
256,192,71149,1,8,0:0:0:0:
256,192,71235,1,0,0:0:0:0:
256,192,71320,1,8,0:0:0:0:
256,192,71406,1,8,0:0:0:0:
256,192,71492,1,8,0:0:0:0:
256,192,71577,1,0,0:0:0:0:
256,192,71663,1,8,0:0:0:0:
256,192,71749,1,8,0:0:0:0:
256,192,71835,1,0,0:0:0:0:
256,192,71920,1,0,0:0:0:0:
256,192,72006,1,12,0:0:0:0:
256,192,72349,1,12,0:0:0:0:
256,192,72863,1,0,0:0:0:0:
256,192,73035,1,8,0:0:0:0:
256,192,73549,1,0,0:0:0:0:
256,192,73720,1,8,0:0:0:0:
256,192,73892,1,8,0:0:0:0:
256,192,74063,1,0,0:0:0:0:
256,192,74235,1,0,0:0:0:0:
256,192,74406,1,8,0:0:0:0:
256,192,74920,1,0,0:0:0:0:
256,192,75092,1,8,0:0:0:0:
256,192,75606,1,0,0:0:0:0:
256,192,75777,1,8,0:0:0:0:
256,192,76292,1,0,0:0:0:0:
256,192,76463,1,8,0:0:0:0:
256,192,76635,1,8,0:0:0:0:
256,192,76806,1,8,0:0:0:0:
256,192,76977,1,0,0:0:0:0:
256,192,77149,1,8,0:0:0:0:
256,192,77835,1,12,0:0:0:0:
256,192,78177,1,12,0:0:0:0:
256,192,78520,1,12,0:0:0:0:
256,192,79206,1,12,0:0:0:0:
256,192,79549,1,12,0:0:0:0:
256,192,79892,1,12,0:0:0:0:
256,192,80577,1,4,0:0:0:0:
256,192,80920,1,4,0:0:0:0:
256,192,81263,1,12,0:0:0:0:
256,192,81949,1,12,0:0:0:0:
256,192,82292,1,12,0:0:0:0:
256,192,82635,1,12,0:0:0:0:
256,192,82806,1,0,0:0:0:0:
256,192,82892,1,0,0:0:0:0:
256,192,82977,1,8,0:0:0:0:
256,192,83320,1,12,0:0:0:0:
256,192,83663,1,4,0:0:0:0:
256,192,84006,1,12,0:0:0:0:
256,192,84177,1,0,0:0:0:0:
256,192,84349,1,0,0:0:0:0:
256,192,84520,1,0,0:0:0:0:
256,192,84692,1,12,0:0:0:0:
256,192,85035,1,4,0:0:0:0:
256,192,85377,1,12,0:0:0:0:
256,192,85549,1,0,0:0:0:0:
256,192,85720,1,0,0:0:0:0:
256,192,85892,1,0,0:0:0:0:
256,192,86063,1,4,0:0:0:0:
256,192,86406,1,4,0:0:0:0:
256,192,86749,1,12,0:0:0:0:
256,192,86920,1,0,0:0:0:0:
256,192,87092,1,0,0:0:0:0:
256,192,87263,1,0,0:0:0:0:
256,192,87435,1,12,0:0:0:0:
256,192,87777,1,4,0:0:0:0:
256,192,88120,1,12,0:0:0:0:
256,192,88292,1,0,0:0:0:0:
256,192,88463,1,0,0:0:0:0:
256,192,88635,1,0,0:0:0:0:
256,192,88806,1,8,0:0:0:0:
256,192,88892,1,0,0:0:0:0:
256,192,88977,1,0,0:0:0:0:
256,192,89064,1,0,0:0:0:0:
256,192,89149,1,8,0:0:0:0:
256,192,89235,1,0,0:0:0:0:
256,192,89320,1,0,0:0:0:0:
256,192,89407,1,0,0:0:0:0:
256,192,89492,1,8,0:0:0:0:
256,192,89577,1,0,0:0:0:0:
256,192,89663,1,0,0:0:0:0:
256,192,89749,1,0,0:0:0:0:
256,192,89835,1,8,0:0:0:0:
256,192,89920,1,0,0:0:0:0:
256,192,90007,1,0,0:0:0:0:
256,192,90092,1,0,0:0:0:0:
256,192,90177,1,8,0:0:0:0:
256,192,90263,1,8,0:0:0:0:
256,192,90348,1,0,0:0:0:0:
256,192,90435,1,0,0:0:0:0:
256,192,90520,1,8,0:0:0:0:
256,192,90606,1,8,0:0:0:0:
256,192,90691,1,0,0:0:0:0:
256,192,90778,1,0,0:0:0:0:
256,192,90863,1,8,0:0:0:0:
256,192,90950,1,8,0:0:0:0:
256,192,91035,1,0,0:0:0:0:
256,192,91121,1,0,0:0:0:0:
256,192,91206,1,8,0:0:0:0:
256,192,91293,1,8,0:0:0:0:
256,192,91378,1,0,0:0:0:0:
256,192,91463,1,0,0:0:0:0:
256,192,91549,1,8,0:0:0:0:
256,192,91606,1,8,0:0:0:0:
256,192,91663,1,8,0:0:0:0:
256,192,91720,1,0,0:0:0:0:
256,192,91806,1,0,0:0:0:0:
256,192,91892,1,8,0:0:0:0:
256,192,91949,1,0,0:0:0:0:
256,192,92006,1,0,0:0:0:0:
256,192,92063,1,8,0:0:0:0:
256,192,92149,1,0,0:0:0:0:
256,192,92234,1,8,0:0:0:0:
256,192,92292,1,8,0:0:0:0:
256,192,92349,1,8,0:0:0:0:
256,192,92406,1,0,0:0:0:0:
256,192,92492,1,0,0:0:0:0:
256,192,92577,1,8,0:0:0:0:
256,192,92634,1,0,0:0:0:0:
256,192,92692,1,0,0:0:0:0:
256,192,92749,1,8,0:0:0:0:
256,192,92834,1,0,0:0:0:0:
256,192,92920,1,8,0:0:0:0:
256,192,93263,1,0,0:0:0:0:
256,192,93606,1,0,0:0:0:0:
256,192,93949,1,0,0:0:0:0:
256,192,94292,1,12,0:0:0:0:
256,192,94463,1,0,0:0:0:0:
256,192,94635,1,8,0:0:0:0:
256,192,94806,1,0,0:0:0:0:
256,192,94863,1,0,0:0:0:0:
256,192,94920,1,0,0:0:0:0:
256,192,94977,1,8,0:0:0:0:
256,192,95063,1,0,0:0:0:0:
256,192,95149,1,0,0:0:0:0:
256,192,95235,1,0,0:0:0:0:
256,192,95320,1,8,0:0:0:0:
256,192,95406,1,0,0:0:0:0:
256,192,95492,1,0,0:0:0:0:
256,192,95577,1,0,0:0:0:0:
256,192,95663,1,8,0:0:0:0:
256,192,95835,1,0,0:0:0:0:
256,192,96006,1,8,0:0:0:0:
256,192,96177,1,0,0:0:0:0:
256,192,96234,1,0,0:0:0:0:
256,192,96291,1,0,0:0:0:0:
256,192,96348,1,8,0:0:0:0:
256,192,96434,1,0,0:0:0:0:
256,192,96520,1,0,0:0:0:0:
256,192,96606,1,0,0:0:0:0:
256,192,96691,1,8,0:0:0:0:
256,192,96777,1,8,0:0:0:0:
256,192,96863,1,0,0:0:0:0:
256,192,96948,1,0,0:0:0:0:
256,192,97034,1,8,0:0:0:0:
256,192,97206,1,0,0:0:0:0:
256,192,97292,1,8,0:0:0:0:
256,192,97377,1,0,0:0:0:0:
256,192,97549,1,0,0:0:0:0:
256,192,97720,1,8,0:0:0:0:
256,192,97806,1,0,0:0:0:0:
256,192,97892,1,0,0:0:0:0:
256,192,97978,1,0,0:0:0:0:
256,192,98063,1,8,0:0:0:0:
256,192,98149,1,0,0:0:0:0:
256,192,98235,1,8,0:0:0:0:
256,192,98320,1,8,0:0:0:0:
256,192,98406,1,0,0:0:0:0:
256,192,98577,1,0,0:0:0:0:
256,192,98620,1,0,0:0:0:0:
256,192,98749,1,8,0:0:0:0:
256,192,98792,1,8,0:0:0:0:
256,192,98920,1,0,0:0:0:0:
256,192,98963,1,0,0:0:0:0:
256,192,99092,1,8,0:0:0:0:
256,192,99263,1,0,0:0:0:0:
256,192,99306,1,0,0:0:0:0:
256,192,99435,1,8,0:0:0:0:
256,192,99477,1,8,0:0:0:0:
256,192,99777,1,12,0:0:0:0:
256,192,99949,1,0,0:0:0:0:
256,192,100120,1,8,0:0:0:0:
256,192,100292,1,0,0:0:0:0:
256,192,100349,1,0,0:0:0:0:
256,192,100406,1,0,0:0:0:0:
256,192,100463,1,8,0:0:0:0:
256,192,100549,1,0,0:0:0:0:
256,192,100635,1,0,0:0:0:0:
256,192,100721,1,0,0:0:0:0:
256,192,100806,1,8,0:0:0:0:
256,192,100892,1,0,0:0:0:0:
256,192,100978,1,0,0:0:0:0:
256,192,101063,1,0,0:0:0:0:
256,192,101149,1,8,0:0:0:0:
256,192,101320,1,0,0:0:0:0:
256,192,101492,1,8,0:0:0:0:
256,192,101663,1,0,0:0:0:0:
256,192,101720,1,0,0:0:0:0:
256,192,101777,1,0,0:0:0:0:
256,192,101834,1,8,0:0:0:0:
256,192,101920,1,0,0:0:0:0:
256,192,102006,1,0,0:0:0:0:
256,192,102092,1,0,0:0:0:0:
256,192,102177,1,8,0:0:0:0:
256,192,102263,1,8,0:0:0:0:
256,192,102349,1,0,0:0:0:0:
256,192,102434,1,0,0:0:0:0:
256,192,102520,1,8,0:0:0:0:
256,192,102692,1,0,0:0:0:0:
256,192,102777,1,8,0:0:0:0:
256,192,102863,1,0,0:0:0:0:
256,192,103035,1,0,0:0:0:0:
256,192,103206,1,8,0:0:0:0:
256,192,103292,1,0,0:0:0:0:
256,192,103378,1,0,0:0:0:0:
256,192,103464,1,0,0:0:0:0:
256,192,103549,1,8,0:0:0:0:
256,192,103635,1,0,0:0:0:0:
256,192,103721,1,0,0:0:0:0:
256,192,103806,1,0,0:0:0:0:
256,192,103892,1,8,0:0:0:0:
256,192,104063,1,0,0:0:0:0:
256,192,104149,1,0,0:0:0:0:
256,192,104235,1,8,0:0:0:0:
256,192,104320,1,0,0:0:0:0:
256,192,104406,1,0,0:0:0:0:
256,192,104492,1,0,0:0:0:0:
256,192,104577,1,8,0:0:0:0:
256,192,104663,1,8,0:0:0:0:
256,192,104749,1,8,0:0:0:0:
256,192,104835,1,8,0:0:0:0:
256,192,104920,1,0,0:0:0:0:
256,192,105006,1,0,0:0:0:0:
256,192,105092,1,8,0:0:0:0:
256,192,105177,1,8,0:0:0:0:
256,192,105263,1,4,0:0:0:0:
256,192,105435,1,0,0:0:0:0:
256,192,105606,1,8,0:0:0:0:
256,192,105777,1,8,0:0:0:0:
256,192,105834,1,8,0:0:0:0:
256,192,105891,1,8,0:0:0:0:
256,192,105948,1,0,0:0:0:0:
256,192,106034,1,0,0:0:0:0:
256,192,106120,1,8,0:0:0:0:
256,192,106206,1,8,0:0:0:0:
256,192,106291,1,0,0:0:0:0:
256,192,106377,1,8,0:0:0:0:
256,192,106463,1,8,0:0:0:0:
256,192,106548,1,8,0:0:0:0:
256,192,106634,1,0,0:0:0:0:
256,192,106806,1,0,0:0:0:0:
256,192,106977,1,8,0:0:0:0:
256,192,107149,1,8,0:0:0:0:
256,192,107206,1,8,0:0:0:0:
256,192,107263,1,8,0:0:0:0:
256,192,107320,1,0,0:0:0:0:
256,192,107406,1,0,0:0:0:0:
256,192,107492,1,8,0:0:0:0:
256,192,107578,1,8,0:0:0:0:
256,192,107663,1,0,0:0:0:0:
256,192,107749,1,0,0:0:0:0:
256,192,107835,1,8,0:0:0:0:
256,192,107920,1,8,0:0:0:0:
256,192,108006,1,0,0:0:0:0:
256,192,108177,1,0,0:0:0:0:
256,192,108263,1,8,0:0:0:0:
256,192,108349,1,0,0:0:0:0:
256,192,108520,1,0,0:0:0:0:
256,192,108691,1,0,0:0:0:0:
256,192,108777,1,8,0:0:0:0:
256,192,108863,1,8,0:0:0:0:
256,192,108949,1,8,0:0:0:0:
256,192,109034,1,0,0:0:0:0:
256,192,109120,1,8,0:0:0:0:
256,192,109206,1,8,0:0:0:0:
256,192,109291,1,8,0:0:0:0:
256,192,109377,1,0,0:0:0:0:
256,192,109549,1,0,0:0:0:0:
256,192,109720,1,12,0:0:0:0:
256,192,109977,1,12,0:0:0:0:
256,192,110235,1,12,0:0:0:0:
256,192,110492,1,12,0:0:0:0:
256,192,110749,1,4,0:0:0:0:
256,192,110920,1,0,0:0:0:0:
256,192,111092,1,8,0:0:0:0:
256,192,111263,1,8,0:0:0:0:
256,192,111320,1,8,0:0:0:0:
256,192,111377,1,8,0:0:0:0:
256,192,111434,1,0,0:0:0:0:
256,192,111520,1,0,0:0:0:0:
256,192,111606,1,8,0:0:0:0:
256,192,111692,1,8,0:0:0:0:
256,192,111777,1,0,0:0:0:0:
256,192,111863,1,8,0:0:0:0:
256,192,111949,1,8,0:0:0:0:
256,192,112034,1,8,0:0:0:0:
256,192,112120,1,0,0:0:0:0:
256,192,112292,1,8,0:0:0:0:
256,192,112463,1,0,0:0:0:0:
256,192,112635,1,8,0:0:0:0:
256,192,112692,1,8,0:0:0:0:
256,192,112749,1,8,0:0:0:0:
256,192,112806,1,0,0:0:0:0:
256,192,112892,1,0,0:0:0:0:
256,192,112978,1,8,0:0:0:0:
256,192,113064,1,8,0:0:0:0:
256,192,113149,1,0,0:0:0:0:
256,192,113235,1,0,0:0:0:0:
256,192,113321,1,8,0:0:0:0:
256,192,113406,1,8,0:0:0:0:
256,192,113492,1,0,0:0:0:0:
256,192,113577,1,0,0:0:0:0:
256,192,113663,1,8,0:0:0:0:
256,192,113749,1,8,0:0:0:0:
256,192,113835,1,0,0:0:0:0:
256,192,113920,1,8,0:0:0:0:
256,192,114006,1,0,0:0:0:0:
256,192,114092,1,0,0:0:0:0:
256,192,114177,1,8,0:0:0:0:
256,192,114263,1,8,0:0:0:0:
256,192,114349,1,8,0:0:0:0:
256,192,114435,1,0,0:0:0:0:
256,192,114520,1,8,0:0:0:0:
256,192,114606,1,8,0:0:0:0:
256,192,114692,1,0,0:0:0:0:
256,192,114777,1,0,0:0:0:0:
256,192,114863,1,8,0:0:0:0:
256,192,114920,1,8,0:0:0:0:
256,192,114977,1,8,0:0:0:0:
256,192,115034,1,0,0:0:0:0:
256,192,115120,1,0,0:0:0:0:
256,192,115206,1,8,0:0:0:0:
256,192,115263,1,0,0:0:0:0:
256,192,115320,1,0,0:0:0:0:
256,192,115377,1,8,0:0:0:0:
256,192,115463,1,0,0:0:0:0:
256,192,115548,1,8,0:0:0:0:
256,192,115606,1,8,0:0:0:0:
256,192,115663,1,8,0:0:0:0:
256,192,115720,1,0,0:0:0:0:
256,192,115806,1,0,0:0:0:0:
256,192,115891,1,8,0:0:0:0:
256,192,115948,1,0,0:0:0:0:
256,192,116006,1,0,0:0:0:0:
256,192,116063,1,8,0:0:0:0:
256,192,116148,1,0,0:0:0:0:
256,192,116234,1,8,0:0:0:0:
256,192,116406,12,0,121549,0:0:0:0:
256,192,121720,5,8,0:0:0:0:
256,192,122235,1,0,0:0:0:0:
256,192,122320,1,0,0:0:0:0:
256,192,122406,1,8,0:0:0:0:
256,192,122577,1,8,0:0:0:0:
256,192,122749,1,0,0:0:0:0:
256,192,122920,1,0,0:0:0:0:
256,192,123092,1,8,0:0:0:0:
256,192,123435,1,0,0:0:0:0:
256,192,123606,1,0,0:0:0:0:
256,192,123777,1,8,0:0:0:0:
256,192,124120,1,8,0:0:0:0:
256,192,124292,1,0,0:0:0:0:
256,192,124463,1,8,0:0:0:0:
256,192,124635,1,8,0:0:0:0:
256,192,124806,1,0,0:0:0:0:
256,192,124977,1,8,0:0:0:0:
256,192,125149,1,0,0:0:0:0:
256,192,125492,1,8,0:0:0:0:
256,192,125835,1,0,0:0:0:0:
256,192,127206,1,8,0:0:0:0:
256,192,127549,1,8,0:0:0:0:
256,192,127720,1,0,0:0:0:0:
256,192,127806,1,0,0:0:0:0:
256,192,127892,1,8,0:0:0:0:
256,192,128063,1,0,0:0:0:0:
256,192,128235,1,8,0:0:0:0:
256,192,128406,1,0,0:0:0:0:
256,192,128577,1,8,0:0:0:0:
256,192,128920,1,8,0:0:0:0:
256,192,129092,1,0,0:0:0:0:
256,192,129263,1,8,0:0:0:0:
256,192,129606,1,8,0:0:0:0:
256,192,129777,1,8,0:0:0:0:
256,192,129949,1,8,0:0:0:0:
256,192,130292,1,8,0:0:0:0:
256,192,130463,1,0,0:0:0:0:
256,192,130549,1,0,0:0:0:0:
256,192,130635,1,8,0:0:0:0:
256,192,130806,1,0,0:0:0:0:
256,192,130977,1,8,0:0:0:0:
256,192,131149,1,0,0:0:0:0:
256,192,131320,1,8,0:0:0:0:
256,192,131492,1,8,0:0:0:0:
256,192,131663,1,8,0:0:0:0:
256,192,131835,1,0,0:0:0:0:
256,192,132006,1,8,0:0:0:0:
256,192,132263,1,8,0:0:0:0:
256,192,132349,1,8,0:0:0:0:
256,192,132520,1,0,0:0:0:0:
256,192,132692,1,8,0:0:0:0:
256,192,133035,1,8,0:0:0:0:
256,192,133206,1,0,0:0:0:0:
256,192,133292,1,0,0:0:0:0:
256,192,133377,1,8,0:0:0:0:
256,192,133549,1,0,0:0:0:0:
256,192,133720,1,8,0:0:0:0:
256,192,133892,1,0,0:0:0:0:
256,192,134063,1,8,0:0:0:0:
256,192,134406,1,8,0:0:0:0:
256,192,134577,1,0,0:0:0:0:
256,192,134749,1,8,0:0:0:0:
256,192,135092,1,8,0:0:0:0:
256,192,135263,1,0,0:0:0:0:
256,192,135435,1,8,0:0:0:0:
256,192,135606,1,8,0:0:0:0:
256,192,135777,1,0,0:0:0:0:
256,192,135949,1,0,0:0:0:0:
256,192,136120,1,8,0:0:0:0:
256,192,136206,1,0,0:0:0:0:
256,192,136292,1,0,0:0:0:0:
256,192,136377,1,0,0:0:0:0:
256,192,136463,1,8,0:0:0:0:
256,192,136549,1,0,0:0:0:0:
256,192,136635,1,0,0:0:0:0:
256,192,136720,1,0,0:0:0:0:
256,192,136806,1,8,0:0:0:0:
256,192,136892,1,0,0:0:0:0:
256,192,136977,1,8,0:0:0:0:
256,192,137063,1,0,0:0:0:0:
256,192,137149,1,8,0:0:0:0:
256,192,137235,1,8,0:0:0:0:
256,192,137320,1,0,0:0:0:0:
256,192,137406,1,0,0:0:0:0:
256,192,137492,1,12,0:0:0:0:
256,192,137835,1,4,0:0:0:0:
256,192,138177,1,12,0:0:0:0:
256,192,138692,1,0,0:0:0:0:
256,192,138777,1,0,0:0:0:0:
256,192,138863,1,8,0:0:0:0:
256,192,139035,1,8,0:0:0:0:
256,192,139206,1,0,0:0:0:0:
256,192,139377,1,0,0:0:0:0:
256,192,139549,1,8,0:0:0:0:
256,192,139892,1,0,0:0:0:0:
256,192,140063,1,8,0:0:0:0:
256,192,140235,1,0,0:0:0:0:
256,192,140577,1,12,0:0:0:0:
256,192,140920,1,4,0:0:0:0:
256,192,141435,1,0,0:0:0:0:
256,192,141520,1,0,0:0:0:0:
256,192,141606,1,8,0:0:0:0:
256,192,141777,1,0,0:0:0:0:
256,192,141949,1,8,0:0:0:0:
256,192,142120,1,0,0:0:0:0:
256,192,142292,1,12,0:0:0:0:
256,192,142463,1,8,0:0:0:0:
256,192,142635,1,4,0:0:0:0:
256,192,142806,1,0,0:0:0:0:
256,192,142977,1,12,0:0:0:0:
256,192,143149,1,12,0:0:0:0:
256,192,143320,1,4,0:0:0:0:
256,192,143663,1,8,0:0:0:0:
256,192,144177,1,0,0:0:0:0:
256,192,144263,1,0,0:0:0:0:
256,192,144349,1,8,0:0:0:0:
256,192,144520,1,8,0:0:0:0:
256,192,144692,1,0,0:0:0:0:
256,192,144863,1,8,0:0:0:0:
256,192,145035,1,0,0:0:0:0:
256,192,145377,1,8,0:0:0:0:
256,192,145549,1,8,0:0:0:0:
256,192,145720,1,0,0:0:0:0:
256,192,146063,1,12,0:0:0:0:
256,192,146235,1,8,0:0:0:0:
256,192,146406,1,0,0:0:0:0:
256,192,146577,1,0,0:0:0:0:
256,192,146749,1,8,0:0:0:0:
256,192,146920,1,8,0:0:0:0:
256,192,147092,1,0,0:0:0:0:
256,192,147435,1,8,0:0:0:0:
256,192,147777,12,0,148806,0:0:0:0:
256,192,149149,5,12,0:0:0:0:
256,192,149492,1,4,0:0:0:0:
256,192,149835,1,4,0:0:0:0:
256,192,150520,1,12,0:0:0:0:
256,192,150863,1,4,0:0:0:0:
256,192,151206,1,4,0:0:0:0:
256,192,151892,1,12,0:0:0:0:
256,192,152235,1,4,0:0:0:0:
256,192,152577,1,12,0:0:0:0:
256,192,153263,1,12,0:0:0:0:
256,192,153606,1,4,0:0:0:0:
256,192,153949,1,0,0:0:0:0:
256,192,154035,1,0,0:0:0:0:
256,192,154120,1,0,0:0:0:0:
256,192,154206,1,0,0:0:0:0:
256,192,154292,1,12,0:0:0:0:
256,192,154635,1,8,0:0:0:0:
256,192,154806,1,0,0:0:0:0:
256,192,154977,1,0,0:0:0:0:
256,192,155149,1,8,0:0:0:0:
256,192,155320,1,0,0:0:0:0:
256,192,155492,1,0,0:0:0:0:
256,192,155663,1,8,0:0:0:0:
256,192,155835,1,0,0:0:0:0:
256,192,155920,1,0,0:0:0:0:
256,192,156006,1,8,0:0:0:0:
256,192,156177,1,0,0:0:0:0:
256,192,156349,1,0,0:0:0:0:
256,192,156520,1,8,0:0:0:0:
256,192,156692,1,0,0:0:0:0:
256,192,156863,1,0,0:0:0:0:
256,192,157035,1,8,0:0:0:0:
256,192,157206,1,0,0:0:0:0:
256,192,157292,1,0,0:0:0:0:
256,192,157377,1,8,0:0:0:0:
256,192,157549,1,0,0:0:0:0:
256,192,157720,1,0,0:0:0:0:
256,192,157892,1,8,0:0:0:0:
256,192,158063,1,0,0:0:0:0:
256,192,158235,1,0,0:0:0:0:
256,192,158406,1,8,0:0:0:0:
256,192,158577,1,0,0:0:0:0:
256,192,158663,1,0,0:0:0:0:
256,192,158749,1,8,0:0:0:0:
256,192,158920,1,0,0:0:0:0:
256,192,159092,1,0,0:0:0:0:
256,192,159263,1,8,0:0:0:0:
256,192,159435,1,0,0:0:0:0:
256,192,159606,1,0,0:0:0:0:
256,192,159777,1,8,0:0:0:0:
256,192,159949,1,0,0:0:0:0:
256,192,160035,1,0,0:0:0:0:
256,192,160120,1,8,0:0:0:0:
256,192,160206,1,8,0:0:0:0:
256,192,160292,1,0,0:0:0:0:
256,192,160377,1,0,0:0:0:0:
256,192,160463,1,8,0:0:0:0:
256,192,160549,1,0,0:0:0:0:
256,192,160635,1,0,0:0:0:0:
256,192,160720,1,0,0:0:0:0:
256,192,160806,1,8,0:0:0:0:
256,192,160892,1,0,0:0:0:0:
256,192,160977,1,8,0:0:0:0:
256,192,161062,1,0,0:0:0:0:
256,192,161148,1,8,0:0:0:0:
256,192,161235,1,0,0:0:0:0:
256,192,161320,1,0,0:0:0:0:
256,192,161405,1,0,0:0:0:0:
256,192,161492,1,8,0:0:0:0:
256,192,161577,1,8,0:0:0:0:
256,192,161663,1,0,0:0:0:0:
256,192,161748,1,0,0:0:0:0:
256,192,161834,1,8,0:0:0:0:
256,192,161920,1,0,0:0:0:0:
256,192,162006,1,0,0:0:0:0:
256,192,162091,1,0,0:0:0:0:
256,192,162177,1,8,0:0:0:0:
256,192,162263,1,0,0:0:0:0:
256,192,162349,1,8,0:0:0:0:
256,192,162434,1,0,0:0:0:0:
256,192,162520,1,8,0:0:0:0:
256,192,162606,1,0,0:0:0:0:
256,192,162692,1,0,0:0:0:0:
256,192,162777,1,0,0:0:0:0:
256,192,162863,1,8,0:0:0:0:
256,192,162949,1,0,0:0:0:0:
256,192,163035,1,8,0:0:0:0:
256,192,163120,1,0,0:0:0:0:
256,192,163206,1,8,0:0:0:0:
256,192,163292,1,0,0:0:0:0:
256,192,163377,1,8,0:0:0:0:
256,192,163463,1,0,0:0:0:0:
256,192,163549,1,8,0:0:0:0:
256,192,163635,1,8,0:0:0:0:
256,192,163720,1,8,0:0:0:0:
256,192,163806,1,8,0:0:0:0:
256,192,163892,1,8,0:0:0:0:
256,192,163977,1,8,0:0:0:0:
256,192,164063,1,8,0:0:0:0:
256,192,164149,1,8,0:0:0:0:
256,192,164235,1,4,0:0:0:0:
256,192,164577,1,4,0:0:0:0:
256,192,164920,1,4,0:0:0:0:
256,192,165263,1,8,0:0:0:0:
256,192,165435,1,0,0:0:0:0:
256,192,165606,1,12,0:0:0:0:
256,192,165863,1,0,0:0:0:0:
256,192,165949,1,8,0:0:0:0:
256,192,166120,1,8,0:0:0:0:
256,192,166292,1,0,0:0:0:0:
256,192,166463,1,8,0:0:0:0:
256,192,166635,1,0,0:0:0:0:
256,192,166806,1,0,0:0:0:0:
256,192,166892,1,0,0:0:0:0:
256,192,166977,1,8,0:0:0:0:
256,192,167063,1,8,0:0:0:0:
256,192,167149,1,0,0:0:0:0:
256,192,167320,1,0,0:0:0:0:
256,192,167406,1,0,0:0:0:0:
256,192,167492,1,8,0:0:0:0:
256,192,167663,1,0,0:0:0:0:
256,192,167835,1,8,0:0:0:0:
256,192,168006,1,8,0:0:0:0:
256,192,168177,1,8,0:0:0:0:
256,192,168263,1,0,0:0:0:0:
256,192,168349,1,8,0:0:0:0:
256,192,168435,1,8,0:0:0:0:
256,192,168520,1,0,0:0:0:0:
256,192,168692,1,8,0:0:0:0:
256,192,168863,1,8,0:0:0:0:
256,192,169035,1,0,0:0:0:0:
256,192,169206,1,8,0:0:0:0:
256,192,169377,1,8,0:0:0:0:
256,192,169549,1,8,0:0:0:0:
256,192,169720,1,0,0:0:0:0:
256,192,169892,1,0,0:0:0:0:
256,192,170063,1,8,0:0:0:0:
256,192,170235,1,8,0:0:0:0:
256,192,170406,1,0,0:0:0:0:
256,192,170577,1,0,0:0:0:0:
256,192,170663,1,0,0:0:0:0:
256,192,170749,1,8,0:0:0:0:
256,192,170920,1,8,0:0:0:0:
256,192,171092,1,8,0:0:0:0:
256,192,171177,1,8,0:0:0:0:
256,192,171263,1,0,0:0:0:0:
256,192,171349,1,0,0:0:0:0:
256,192,171435,1,8,0:0:0:0:
256,192,171520,1,0,0:0:0:0:
256,192,171606,1,8,0:0:0:0:
256,192,171777,1,0,0:0:0:0:
256,192,171949,1,8,0:0:0:0:
256,192,172120,1,0,0:0:0:0:
256,192,172292,1,0,0:0:0:0:
256,192,172377,1,0,0:0:0:0:
256,192,172463,1,8,0:0:0:0:
256,192,172549,1,8,0:0:0:0:
256,192,172635,1,0,0:0:0:0:
256,192,172806,1,0,0:0:0:0:
256,192,172892,1,0,0:0:0:0:
256,192,172977,1,8,0:0:0:0:
256,192,173149,1,0,0:0:0:0:
256,192,173320,1,8,0:0:0:0:
256,192,173492,1,8,0:0:0:0:
256,192,173663,1,8,0:0:0:0:
256,192,173749,1,0,0:0:0:0:
256,192,173835,1,8,0:0:0:0:
256,192,173920,1,8,0:0:0:0:
256,192,174006,1,0,0:0:0:0:
256,192,174092,1,0,0:0:0:0:
256,192,174177,1,8,0:0:0:0:
256,192,174349,1,0,0:0:0:0:
256,192,174520,1,8,0:0:0:0:
256,192,174692,1,0,0:0:0:0:
256,192,174777,1,0,0:0:0:0:
256,192,174863,1,8,0:0:0:0:
256,192,175035,1,8,0:0:0:0:
256,192,175206,1,0,0:0:0:0:
256,192,175378,1,8,0:0:0:0:
256,192,175549,1,8,0:0:0:0:
256,192,175721,1,0,0:0:0:0:
256,192,175892,1,12,0:0:0:0:
256,192,176235,1,4,0:0:0:0:
256,192,176577,1,12,0:0:0:0:
256,192,176749,1,0,0:0:0:0:
256,192,176920,1,0,0:0:0:0:
256,192,177006,1,0,0:0:0:0:
256,192,177092,1,8,0:0:0:0:
256,192,177263,1,0,0:0:0:0:
256,192,177435,1,8,0:0:0:0:
256,192,177606,1,8,0:0:0:0:
256,192,177777,1,8,0:0:0:0:
256,192,177949,1,4,0:0:0:0:
256,192,178120,1,0,0:0:0:0:
256,192,178292,1,0,0:0:0:0:
256,192,178377,1,0,0:0:0:0:
256,192,178463,1,8,0:0:0:0:
256,192,178635,1,8,0:0:0:0:
256,192,178806,1,8,0:0:0:0:
256,192,178977,1,8,0:0:0:0:
256,192,179149,1,8,0:0:0:0:
256,192,179235,1,8,0:0:0:0:
256,192,179320,1,4,0:0:0:0:
256,192,179491,1,0,0:0:0:0:
256,192,179663,1,8,0:0:0:0:
256,192,179834,1,0,0:0:0:0:
256,192,180006,1,8,0:0:0:0:
256,192,180177,1,0,0:0:0:0:
256,192,180349,1,8,0:0:0:0:
256,192,180520,1,8,0:0:0:0:
256,192,180692,1,0,0:0:0:0:
256,192,180864,1,0,0:0:0:0:
256,192,181035,1,8,0:0:0:0:
256,192,181206,1,8,0:0:0:0:
256,192,181378,1,0,0:0:0:0:
256,192,181549,1,0,0:0:0:0:
256,192,181720,1,8,0:0:0:0:
256,192,181806,1,8,0:0:0:0:
256,192,181892,1,0,0:0:0:0:
256,192,182063,1,12,0:0:0:0:
256,192,182235,1,0,0:0:0:0:
256,192,182406,1,0,0:0:0:0:
256,192,182492,1,0,0:0:0:0:
256,192,182577,1,8,0:0:0:0:
256,192,182749,1,0,0:0:0:0:
256,192,182920,1,8,0:0:0:0:
256,192,183092,1,0,0:0:0:0:
256,192,183263,1,8,0:0:0:0:
256,192,183435,1,4,0:0:0:0:
256,192,183606,1,0,0:0:0:0:
256,192,183777,1,0,0:0:0:0:
256,192,183863,1,0,0:0:0:0:
256,192,183949,1,8,0:0:0:0:
256,192,184120,1,8,0:0:0:0:
256,192,184292,1,8,0:0:0:0:
256,192,184463,1,0,0:0:0:0:
256,192,184635,1,8,0:0:0:0:
256,192,184806,1,8,0:0:0:0:
256,192,184892,1,8,0:0:0:0:
256,192,184977,1,0,0:0:0:0:
256,192,185063,1,0,0:0:0:0:
256,192,185149,1,8,0:0:0:0:
256,192,185235,1,8,0:0:0:0:
256,192,185320,1,0,0:0:0:0:
256,192,185406,1,0,0:0:0:0:
256,192,185492,1,8,0:0:0:0:
256,192,185577,1,8,0:0:0:0:
256,192,185663,1,0,0:0:0:0:
256,192,185749,1,0,0:0:0:0:
256,192,185835,1,8,0:0:0:0:
256,192,185920,1,8,0:0:0:0:
256,192,186006,1,0,0:0:0:0:
256,192,186092,1,0,0:0:0:0:
256,192,186177,1,8,0:0:0:0:
256,192,186349,1,0,0:0:0:0:
256,192,186435,1,0,0:0:0:0:
256,192,186520,1,8,0:0:0:0:
256,192,186691,1,8,0:0:0:0:
256,192,186777,1,8,0:0:0:0:
256,192,186863,1,0,0:0:0:0:
256,192,187035,1,0,0:0:0:0:
256,192,187206,1,8,0:0:0:0:
256,192,187292,1,0,0:0:0:0:
256,192,187377,1,0,0:0:0:0:
256,192,187463,1,0,0:0:0:0:
256,192,187549,1,12,0:0:0:0:
256,192,187720,12,6,191663,0:0:0:0:
256,192,198520,5,8,0:0:0:0:
256,192,198863,1,8,0:0:0:0:
256,192,199206,1,8,0:0:0:0:
256,192,199549,1,0,0:0:0:0:
256,192,199720,1,8,0:0:0:0:
256,192,199892,1,8,0:0:0:0:
256,192,200235,1,8,0:0:0:0:
256,192,200577,1,8,0:0:0:0:
256,192,200749,1,8,0:0:0:0:
256,192,200920,1,0,0:0:0:0:
256,192,201263,1,0,0:0:0:0:
256,192,201606,1,0,0:0:0:0:
256,192,201949,1,0,0:0:0:0:
256,192,202292,1,0,0:0:0:0:
256,192,202463,1,8,0:0:0:0:
256,192,202635,1,8,0:0:0:0:
256,192,202977,1,8,0:0:0:0:
256,192,203320,1,8,0:0:0:0:
256,192,203492,1,8,0:0:0:0:
256,192,203663,1,0,0:0:0:0:
256,192,204006,1,8,0:0:0:0:
256,192,204349,1,8,0:0:0:0:
256,192,204692,1,8,0:0:0:0:
256,192,205035,1,8,0:0:0:0:
256,192,205206,1,0,0:0:0:0:
256,192,205377,1,8,0:0:0:0:
256,192,205720,1,8,0:0:0:0:
256,192,206063,1,8,0:0:0:0:
256,192,206235,1,8,0:0:0:0:
256,192,206406,1,0,0:0:0:0:
256,192,206749,1,0,0:0:0:0:
256,192,206920,1,0,0:0:0:0:
256,192,207092,1,8,0:0:0:0:
256,192,207263,1,8,0:0:0:0:
256,192,207435,1,0,0:0:0:0:
256,192,207606,1,0,0:0:0:0:
256,192,207777,1,8,0:0:0:0:
256,192,207949,1,8,0:0:0:0:
256,192,208120,1,0,0:0:0:0:
256,192,208292,1,8,0:0:0:0:
256,192,208463,1,0,0:0:0:0:
256,192,208635,1,8,0:0:0:0:
256,192,208806,1,8,0:0:0:0:
256,192,209492,1,8,0:0:0:0:
256,192,209835,1,8,0:0:0:0:
256,192,210177,1,8,0:0:0:0:
256,192,210520,1,8,0:0:0:0:
256,192,210692,1,0,0:0:0:0:
256,192,210863,1,8,0:0:0:0:
256,192,211206,1,8,0:0:0:0:
256,192,211377,1,0,0:0:0:0:
256,192,211549,1,8,0:0:0:0:
256,192,211720,1,8,0:0:0:0:
256,192,211892,1,0,0:0:0:0:
256,192,212235,1,0,0:0:0:0:
256,192,212577,1,0,0:0:0:0:
256,192,212920,1,0,0:0:0:0:
256,192,213263,1,8,0:0:0:0:
256,192,213435,1,0,0:0:0:0:
256,192,213606,1,8,0:0:0:0:
256,192,213949,1,8,0:0:0:0:
256,192,214120,1,0,0:0:0:0:
256,192,214292,1,8,0:0:0:0:
256,192,214463,1,8,0:0:0:0:
256,192,214635,1,0,0:0:0:0:
256,192,214806,1,0,0:0:0:0:
256,192,214977,1,8,0:0:0:0:
256,192,215063,1,0,0:0:0:0:
256,192,215149,1,0,0:0:0:0:
256,192,215235,1,0,0:0:0:0:
256,192,215320,1,8,0:0:0:0:
256,192,215406,1,0,0:0:0:0:
256,192,215492,1,0,0:0:0:0:
256,192,215577,1,0,0:0:0:0:
256,192,215663,1,8,0:0:0:0:
256,192,215749,1,0,0:0:0:0:
256,192,215835,1,0,0:0:0:0:
256,192,215920,1,0,0:0:0:0:
256,192,216006,1,8,0:0:0:0:
256,192,216092,1,0,0:0:0:0:
256,192,216177,1,8,0:0:0:0:
256,192,216263,1,0,0:0:0:0:
256,192,216349,1,8,0:0:0:0:
256,192,216435,1,8,0:0:0:0:
256,192,216520,1,0,0:0:0:0:
256,192,216606,1,0,0:0:0:0:
256,192,216692,1,8,0:0:0:0:
256,192,216777,1,0,0:0:0:0:
256,192,216863,1,0,0:0:0:0:
256,192,216949,1,0,0:0:0:0:
256,192,217035,1,8,0:0:0:0:
256,192,217120,1,0,0:0:0:0:
256,192,217206,1,8,0:0:0:0:
256,192,217292,1,0,0:0:0:0:
256,192,217377,1,8,0:0:0:0:
256,192,217463,1,8,0:0:0:0:
256,192,217549,1,0,0:0:0:0:
256,192,217635,1,0,0:0:0:0:
256,192,217720,1,8,0:0:0:0:
256,192,217777,1,8,0:0:0:0:
256,192,217834,1,8,0:0:0:0:
256,192,217891,1,0,0:0:0:0:
256,192,217977,1,0,0:0:0:0:
256,192,218063,1,8,0:0:0:0:
256,192,218120,1,0,0:0:0:0:
256,192,218177,1,0,0:0:0:0:
256,192,218234,1,8,0:0:0:0:
256,192,218320,1,0,0:0:0:0:
256,192,218405,1,8,0:0:0:0:
256,192,218463,1,8,0:0:0:0:
256,192,218520,1,8,0:0:0:0:
256,192,218577,1,0,0:0:0:0:
256,192,218663,1,0,0:0:0:0:
256,192,218748,1,8,0:0:0:0:
256,192,218805,1,0,0:0:0:0:
256,192,218863,1,0,0:0:0:0:
256,192,218920,1,8,0:0:0:0:
256,192,219005,1,0,0:0:0:0:
256,192,219091,1,8,0:0:0:0:
256,192,219777,1,4,0:0:0:0:
256,192,220120,1,4,0:0:0:0:
256,192,220463,1,12,0:0:0:0:
256,192,220977,1,0,0:0:0:0:
256,192,221063,1,0,0:0:0:0:
256,192,221149,1,8,0:0:0:0:
256,192,221320,1,0,0:0:0:0:
256,192,221492,1,8,0:0:0:0:
256,192,221663,1,0,0:0:0:0:
256,192,221835,1,8,0:0:0:0:
256,192,222177,1,8,0:0:0:0:
256,192,222349,1,8,0:0:0:0:
256,192,222520,1,0,0:0:0:0:
256,192,222863,1,12,0:0:0:0:
256,192,223206,1,0,0:0:0:0:
256,192,223720,1,0,0:0:0:0:
256,192,223806,1,0,0:0:0:0:
256,192,223892,1,8,0:0:0:0:
256,192,224063,1,0,0:0:0:0:
256,192,224235,1,8,0:0:0:0:
256,192,224406,1,0,0:0:0:0:
256,192,224577,1,8,0:0:0:0:
256,192,224749,1,8,0:0:0:0:
256,192,224920,1,0,0:0:0:0:
256,192,225092,1,8,0:0:0:0:
256,192,225263,1,0,0:0:0:0:
256,192,225435,1,12,0:0:0:0:
256,192,225606,1,12,0:0:0:0:
256,192,225949,1,0,0:0:0:0:
256,192,226463,1,0,0:0:0:0:
256,192,226549,1,0,0:0:0:0:
256,192,226635,1,8,0:0:0:0:
256,192,226806,1,8,0:0:0:0:
256,192,226977,1,0,0:0:0:0:
256,192,227149,1,0,0:0:0:0:
256,192,227320,1,8,0:0:0:0:
256,192,227663,1,8,0:0:0:0:
256,192,227835,1,8,0:0:0:0:
256,192,228006,1,0,0:0:0:0:
256,192,228349,1,12,0:0:0:0:
256,192,228520,1,8,0:0:0:0:
256,192,228692,1,0,0:0:0:0:
256,192,228863,1,0,0:0:0:0:
256,192,229035,1,8,0:0:0:0:
256,192,229206,1,8,0:0:0:0:
256,192,229377,1,0,0:0:0:0:
256,192,229720,1,8,0:0:0:0:
256,192,229892,1,0,0:0:0:0:
256,192,230063,1,8,0:0:0:0:
256,192,230235,1,8,0:0:0:0:
256,192,230406,1,0,0:0:0:0:
256,192,230577,1,8,0:0:0:0:
256,192,230749,1,8,0:0:0:0:
256,192,230920,1,0,0:0:0:0:
256,192,231092,1,8,0:0:0:0:
256,192,231177,1,0,0:0:0:0:
256,192,231263,1,0,0:0:0:0:
256,192,231349,1,0,0:0:0:0:
256,192,231435,1,12,0:0:0:0:
256,192,231777,1,0,0:0:0:0:
256,192,231949,1,8,0:0:0:0:
256,192,232035,1,0,0:0:0:0:
256,192,232120,1,8,0:0:0:0:
256,192,232292,1,0,0:0:0:0:
256,192,232463,1,8,0:0:0:0:
256,192,232635,1,8,0:0:0:0:
256,192,232806,1,0,0:0:0:0:
256,192,233149,1,8,0:0:0:0:
256,192,233320,1,8,0:0:0:0:
256,192,233492,1,0,0:0:0:0:
256,192,233835,1,12,0:0:0:0:
256,192,234177,1,4,0:0:0:0:
256,192,234520,1,0,0:0:0:0:
256,192,234692,1,8,0:0:0:0:
256,192,234777,1,0,0:0:0:0:
256,192,234863,1,8,0:0:0:0:
256,192,235035,1,0,0:0:0:0:
256,192,235206,1,8,0:0:0:0:
256,192,235377,1,0,0:0:0:0:
256,192,235549,1,8,0:0:0:0:
256,192,235720,1,8,0:0:0:0:
256,192,235892,1,0,0:0:0:0:
256,192,236063,1,0,0:0:0:0:
256,192,236235,1,12,0:0:0:0:
256,192,236406,1,4,0:0:0:0:
256,192,236577,1,12,0:0:0:0:
256,192,236920,1,12,0:0:0:0:
256,192,237263,1,0,0:0:0:0:
256,192,237435,1,8,0:0:0:0:
256,192,237520,1,0,0:0:0:0:
256,192,237606,1,8,0:0:0:0:
256,192,237777,1,0,0:0:0:0:
256,192,237949,1,8,0:0:0:0:
256,192,238120,1,0,0:0:0:0:
256,192,238292,1,8,0:0:0:0:
256,192,238635,1,0,0:0:0:0:
256,192,238806,1,8,0:0:0:0:
256,192,238977,1,0,0:0:0:0:
256,192,239320,1,4,0:0:0:0:
256,192,239492,1,8,0:0:0:0:
256,192,239663,1,0,0:0:0:0:
256,192,239835,1,8,0:0:0:0:
256,192,240006,1,8,0:0:0:0:
256,192,240177,1,0,0:0:0:0:
256,192,240349,1,8,0:0:0:0:
256,192,240692,1,8,0:0:0:0:
256,192,241035,12,0,242063,0:0:0:0:
256,192,242406,5,12,0:0:0:0:
256,192,242749,1,12,0:0:0:0:
256,192,243092,1,4,0:0:0:0:
256,192,243777,1,12,0:0:0:0:
256,192,244120,1,12,0:0:0:0:
256,192,244463,1,4,0:0:0:0:
256,192,245149,1,4,0:0:0:0:
256,192,245492,1,4,0:0:0:0:
256,192,245835,1,12,0:0:0:0:
256,192,246520,1,12,0:0:0:0:
256,192,246863,1,12,0:0:0:0:
256,192,247206,1,0,0:0:0:0:
256,192,247292,1,0,0:0:0:0:
256,192,247377,1,0,0:0:0:0:
256,192,247463,1,0,0:0:0:0:
256,192,247549,1,12,0:0:0:0:
256,192,247892,1,0,0:0:0:0:
256,192,247977,1,0,0:0:0:0:
256,192,248063,1,8,0:0:0:0:
256,192,248235,1,0,0:0:0:0:
256,192,248406,1,0,0:0:0:0:
256,192,248492,1,8,0:0:0:0:
256,192,248577,1,0,0:0:0:0:
256,192,248749,1,0,0:0:0:0:
256,192,248835,1,8,0:0:0:0:
256,192,249006,1,0,0:0:0:0:
256,192,249092,1,8,0:0:0:0:
256,192,249177,1,0,0:0:0:0:
256,192,249263,1,8,0:0:0:0:
256,192,249435,1,0,0:0:0:0:
256,192,249520,1,8,0:0:0:0:
256,192,249692,1,8,0:0:0:0:
256,192,249777,1,0,0:0:0:0:
256,192,249949,1,8,0:0:0:0:
256,192,250120,1,0,0:0:0:0:
256,192,250206,1,8,0:0:0:0:
256,192,250292,1,0,0:0:0:0:
256,192,250377,1,8,0:0:0:0:
256,192,250463,1,8,0:0:0:0:
256,192,250549,1,0,0:0:0:0:
256,192,250635,1,8,0:0:0:0:
256,192,250806,1,8,0:0:0:0:
256,192,250977,1,0,0:0:0:0:
256,192,251149,1,0,0:0:0:0:
256,192,251235,1,8,0:0:0:0:
256,192,251320,1,0,0:0:0:0:
256,192,251492,1,0,0:0:0:0:
256,192,251577,1,8,0:0:0:0:
256,192,251749,1,0,0:0:0:0:
256,192,251834,1,8,0:0:0:0:
256,192,251920,1,0,0:0:0:0:
256,192,252006,1,8,0:0:0:0:
256,192,252177,1,0,0:0:0:0:
256,192,252263,1,8,0:0:0:0:
256,192,252349,1,0,0:0:0:0:
256,192,252435,1,0,0:0:0:0:
256,192,252520,1,8,0:0:0:0:
256,192,252692,1,0,0:0:0:0:
256,192,252777,1,8,0:0:0:0:
256,192,252863,1,8,0:0:0:0:
256,192,252949,1,0,0:0:0:0:
256,192,253035,1,8,0:0:0:0:
256,192,253120,1,8,0:0:0:0:
256,192,253206,1,0,0:0:0:0:
256,192,253377,1,8,0:0:0:0:
256,192,253463,1,0,0:0:0:0:
256,192,253549,1,8,0:0:0:0:
256,192,253635,1,8,0:0:0:0:
256,192,253720,1,0,0:0:0:0:
256,192,253806,1,0,0:0:0:0:
256,192,253892,1,8,0:0:0:0:
256,192,253977,1,0,0:0:0:0:
256,192,254063,1,8,0:0:0:0:
256,192,254149,1,8,0:0:0:0:
256,192,254235,1,0,0:0:0:0:
256,192,254320,1,8,0:0:0:0:
256,192,254406,1,0,0:0:0:0:
256,192,254491,1,0,0:0:0:0:
256,192,254577,1,8,0:0:0:0:
256,192,254663,1,0,0:0:0:0:
256,192,254749,1,8,0:0:0:0:
256,192,254835,1,0,0:0:0:0:
256,192,254920,1,8,0:0:0:0:
256,192,255006,1,8,0:0:0:0:
256,192,255092,1,0,0:0:0:0:
256,192,255177,1,0,0:0:0:0:
256,192,255263,1,8,0:0:0:0:
256,192,255349,1,0,0:0:0:0:
256,192,255435,1,8,0:0:0:0:
256,192,255520,1,8,0:0:0:0:
256,192,255606,1,0,0:0:0:0:
256,192,255692,1,8,0:0:0:0:
256,192,255777,1,0,0:0:0:0:
256,192,255864,1,0,0:0:0:0:
256,192,255949,1,8,0:0:0:0:
256,192,256035,1,0,0:0:0:0:
256,192,256120,1,8,0:0:0:0:
256,192,256177,1,8,0:0:0:0:
256,192,256234,1,8,0:0:0:0:
256,192,256291,1,0,0:0:0:0:
256,192,256377,1,0,0:0:0:0:
256,192,256463,1,8,0:0:0:0:
256,192,256520,1,0,0:0:0:0:
256,192,256577,1,0,0:0:0:0:
256,192,256634,1,8,0:0:0:0:
256,192,256720,1,0,0:0:0:0:
256,192,256805,1,8,0:0:0:0:
256,192,256863,1,8,0:0:0:0:
256,192,256920,1,8,0:0:0:0:
256,192,256977,1,0,0:0:0:0:
256,192,257063,1,0,0:0:0:0:
256,192,257148,1,8,0:0:0:0:
256,192,257205,1,0,0:0:0:0:
256,192,257263,1,0,0:0:0:0:
256,192,257320,1,8,0:0:0:0:
256,192,257405,1,0,0:0:0:0:
256,192,257491,1,8,0:0:0:0:
256,192,257835,1,12,0:0:0:0:
256,192,258177,1,12,0:0:0:0:
256,192,258520,1,4,0:0:0:0:
256,192,258863,1,4,0:0:0:0:
256,192,259035,1,8,0:0:0:0:
256,192,259206,1,0,0:0:0:0:
256,192,259292,1,0,0:0:0:0:
256,192,259377,1,8,0:0:0:0:
256,192,259463,1,0,0:0:0:0:
256,192,259549,1,8,0:0:0:0:
256,192,259720,1,8,0:0:0:0:
256,192,259806,1,0,0:0:0:0:
256,192,259977,1,0,0:0:0:0:
256,192,260063,1,8,0:0:0:0:
256,192,260149,1,0,0:0:0:0:
256,192,260235,1,8,0:0:0:0:
256,192,260406,1,8,0:0:0:0:
256,192,260492,1,0,0:0:0:0:
256,192,260663,1,0,0:0:0:0:
256,192,260749,1,8,0:0:0:0:
256,192,260835,1,8,0:0:0:0:
256,192,260920,1,0,0:0:0:0:
256,192,261092,1,0,0:0:0:0:
256,192,261177,1,0,0:0:0:0:
256,192,261263,1,8,0:0:0:0:
256,192,261349,1,8,0:0:0:0:
256,192,261435,1,0,0:0:0:0:
256,192,261520,1,8,0:0:0:0:
256,192,261606,1,0,0:0:0:0:
256,192,261777,1,8,0:0:0:0:
256,192,261949,1,0,0:0:0:0:
256,192,262035,1,0,0:0:0:0:
256,192,262120,1,8,0:0:0:0:
256,192,262206,1,0,0:0:0:0:
256,192,262292,1,8,0:0:0:0:
256,192,262463,1,8,0:0:0:0:
256,192,262549,1,0,0:0:0:0:
256,192,262720,1,0,0:0:0:0:
256,192,262806,1,8,0:0:0:0:
256,192,262892,1,0,0:0:0:0:
256,192,262977,1,8,0:0:0:0:
256,192,263063,1,8,0:0:0:0:
256,192,263149,1,0,0:0:0:0:
256,192,263235,1,8,0:0:0:0:
256,192,263320,1,8,0:0:0:0:
256,192,263406,1,0,0:0:0:0:
256,192,263492,1,8,0:0:0:0:
256,192,263577,1,0,0:0:0:0:
256,192,263663,1,8,0:0:0:0:
256,192,263749,1,8,0:0:0:0:
256,192,263835,1,0,0:0:0:0:
256,192,263920,1,8,0:0:0:0:
256,192,264006,1,0,0:0:0:0:
256,192,264092,1,0,0:0:0:0:
256,192,264177,1,8,0:0:0:0:
256,192,264263,1,8,0:0:0:0:
256,192,264349,1,0,0:0:0:0:
256,192,264520,1,8,0:0:0:0:
256,192,264692,1,0,0:0:0:0:
256,192,264777,1,0,0:0:0:0:
256,192,264863,1,8,0:0:0:0:
256,192,264949,1,0,0:0:0:0:
256,192,265035,1,8,0:0:0:0:
256,192,265206,1,8,0:0:0:0:
256,192,265292,1,0,0:0:0:0:
256,192,265463,1,0,0:0:0:0:
256,192,265549,1,8,0:0:0:0:
256,192,265635,1,0,0:0:0:0:
256,192,265720,1,8,0:0:0:0:
256,192,265892,1,8,0:0:0:0:
256,192,265977,1,0,0:0:0:0:
256,192,266149,1,0,0:0:0:0:
256,192,266235,1,8,0:0:0:0:
256,192,266320,1,8,0:0:0:0:
256,192,266406,1,0,0:0:0:0:
256,192,266577,1,8,0:0:0:0:
256,192,266663,1,8,0:0:0:0:
256,192,266749,1,0,0:0:0:0:
256,192,266835,1,0,0:0:0:0:
256,192,266920,1,8,0:0:0:0:
256,192,267006,1,0,0:0:0:0:
256,192,267092,1,8,0:0:0:0:
256,192,267177,1,0,0:0:0:0:
256,192,267263,1,0,0:0:0:0:
256,192,267349,1,8,0:0:0:0:
256,192,267435,1,0,0:0:0:0:
256,192,267520,1,0,0:0:0:0:
256,192,267606,1,8,0:0:0:0:
256,192,267777,1,0,0:0:0:0:
256,192,267949,1,8,0:0:0:0:
256,192,268035,1,0,0:0:0:0:
256,192,268120,1,8,0:0:0:0:
256,192,268206,1,8,0:0:0:0:
256,192,268292,1,0,0:0:0:0:
256,192,268377,1,0,0:0:0:0:
256,192,268463,1,8,0:0:0:0:
256,192,268549,1,0,0:0:0:0:
256,192,268635,1,0,0:0:0:0:
256,192,268720,1,8,0:0:0:0:
256,192,268806,1,0,0:0:0:0:
256,192,268892,1,0,0:0:0:0:
256,192,268977,1,8,0:0:0:0:
256,192,269149,1,0,0:0:0:0:
256,192,269320,1,8,0:0:0:0:
256,192,269406,1,0,0:0:0:0:
256,192,269492,1,8,0:0:0:0:
256,192,269577,1,8,0:0:0:0:
256,192,269663,1,8,0:0:0:0:
256,192,269749,1,8,0:0:0:0:
256,192,269835,1,4,0:0:0:0:
256,192,270006,1,8,0:0:0:0:
256,192,270177,1,0,0:0:0:0:
256,192,270263,1,0,0:0:0:0:
256,192,270349,1,8,0:0:0:0:
256,192,270435,1,0,0:0:0:0:
256,192,270520,1,8,0:0:0:0:
256,192,270692,1,8,0:0:0:0:
256,192,270777,1,0,0:0:0:0:
256,192,270949,1,0,0:0:0:0:
256,192,271035,1,8,0:0:0:0:
256,192,271120,1,0,0:0:0:0:
256,192,271206,1,8,0:0:0:0:
256,192,271377,1,8,0:0:0:0:
256,192,271463,1,0,0:0:0:0:
256,192,271635,1,0,0:0:0:0:
256,192,271720,1,8,0:0:0:0:
256,192,271806,1,8,0:0:0:0:
256,192,271892,1,0,0:0:0:0:
256,192,272063,1,0,0:0:0:0:
256,192,272149,1,0,0:0:0:0:
256,192,272235,1,8,0:0:0:0:
256,192,272320,1,8,0:0:0:0:
256,192,272406,1,0,0:0:0:0:
256,192,272492,1,8,0:0:0:0:
256,192,272577,1,0,0:0:0:0:
256,192,272749,1,8,0:0:0:0:
256,192,272920,1,0,0:0:0:0:
256,192,273006,1,0,0:0:0:0:
256,192,273092,1,8,0:0:0:0:
256,192,273177,1,0,0:0:0:0:
256,192,273263,1,8,0:0:0:0:
256,192,273435,1,8,0:0:0:0:
256,192,273520,1,0,0:0:0:0:
256,192,273692,1,0,0:0:0:0:
256,192,273778,1,8,0:0:0:0:
256,192,273864,1,0,0:0:0:0:
256,192,273949,1,8,0:0:0:0:
256,192,274035,1,8,0:0:0:0:
256,192,274121,1,0,0:0:0:0:
256,192,274207,1,8,0:0:0:0:
256,192,274292,1,8,0:0:0:0:
256,192,274378,1,0,0:0:0:0:
256,192,274464,1,8,0:0:0:0:
256,192,274549,1,0,0:0:0:0:
256,192,274635,1,8,0:0:0:0:
256,192,274721,1,8,0:0:0:0:
256,192,274807,1,0,0:0:0:0:
256,192,274892,1,8,0:0:0:0:
256,192,274978,1,0,0:0:0:0:
256,192,275064,1,0,0:0:0:0:
256,192,275149,1,8,0:0:0:0:
256,192,275235,1,8,0:0:0:0:
256,192,275320,1,4,0:0:0:0:
256,192,275492,1,8,0:0:0:0:
256,192,275663,1,0,0:0:0:0:
256,192,275749,1,8,0:0:0:0:
256,192,275835,1,8,0:0:0:0:
256,192,275920,1,8,0:0:0:0:
256,192,276006,1,0,0:0:0:0:
256,192,276177,1,0,0:0:0:0:
256,192,276349,1,8,0:0:0:0:
256,192,276435,1,8,0:0:0:0:
256,192,276520,1,0,0:0:0:0:
256,192,276692,1,0,0:0:0:0:
256,192,276863,1,8,0:0:0:0:
256,192,277035,1,0,0:0:0:0:
256,192,277120,1,8,0:0:0:0:
256,192,277206,1,8,0:0:0:0:
256,192,277292,1,8,0:0:0:0:
256,192,277377,1,0,0:0:0:0:
256,192,277549,1,0,0:0:0:0:
256,192,277720,1,8,0:0:0:0:
256,192,277806,1,8,0:0:0:0:
256,192,277892,1,0,0:0:0:0:
256,192,278063,1,4,0:0:0:0:
256,192,278235,1,8,0:0:0:0:
256,192,278320,1,0,0:0:0:0:
256,192,278406,1,8,0:0:0:0:
256,192,278492,1,8,0:0:0:0:
256,192,278577,1,0,0:0:0:0:
256,192,278663,1,0,0:0:0:0:
256,192,278749,1,8,0:0:0:0:
256,192,278835,1,0,0:0:0:0:
256,192,278920,1,8,0:0:0:0:
256,192,279006,1,0,0:0:0:0:
256,192,279092,1,8,0:0:0:0:
256,192,279177,1,8,0:0:0:0:
256,192,279263,1,0,0:0:0:0:
256,192,279349,1,0,0:0:0:0:
256,192,279435,1,8,0:0:0:0:
256,192,279606,1,8,0:0:0:0:
256,192,279777,1,0,0:0:0:0:
256,192,279949,1,0,0:0:0:0:
256,192,280120,1,8,0:0:0:0:
256,192,280463,1,12,0:0:0:0:
256,192,280806,1,12,0:0:0:0:
256,192,280977,1,0,0:0:0:0:
256,192,281149,1,8,0:0:0:0:
256,192,281235,1,8,0:0:0:0:
256,192,281320,1,0,0:0:0:0:
256,192,281406,1,0,0:0:0:0:
256,192,281492,1,8,0:0:0:0:
256,192,281577,1,0,0:0:0:0:
256,192,281663,1,8,0:0:0:0:
256,192,281749,1,0,0:0:0:0:
256,192,281835,1,8,0:0:0:0:
256,192,281920,1,8,0:0:0:0:
256,192,282006,1,0,0:0:0:0:
256,192,282092,1,0,0:0:0:0:
256,192,282177,1,8,0:0:0:0:
256,192,282349,1,0,0:0:0:0:
256,192,282520,1,8,0:0:0:0:
256,192,282606,1,8,0:0:0:0:
256,192,282692,1,0,0:0:0:0:
256,192,282777,1,0,0:0:0:0:
256,192,282863,1,8,0:0:0:0:
256,192,282949,1,0,0:0:0:0:
256,192,283035,1,8,0:0:0:0:
256,192,283120,1,0,0:0:0:0:
256,192,283206,1,8,0:0:0:0:
256,192,283292,1,8,0:0:0:0:
256,192,283377,1,0,0:0:0:0:
256,192,283463,1,0,0:0:0:0:
256,192,283549,1,8,0:0:0:0:
256,192,283720,1,0,0:0:0:0:
256,192,283892,1,8,0:0:0:0:
256,192,284063,1,0,0:0:0:0:
256,192,284120,1,0,0:0:0:0:
256,192,284177,1,0,0:0:0:0:
256,192,284234,1,8,0:0:0:0:
256,192,284320,1,0,0:0:0:0:
256,192,284406,1,0,0:0:0:0:
256,192,284492,1,0,0:0:0:0:
256,192,284577,1,8,0:0:0:0:
256,192,284663,1,0,0:0:0:0:
256,192,284749,1,8,0:0:0:0:
256,192,284834,1,0,0:0:0:0:
256,192,284920,1,8,0:0:0:0:
256,192,285092,1,0,0:0:0:0:
256,192,285263,1,8,0:0:0:0:
256,192,285435,1,0,0:0:0:0:
256,192,285492,1,0,0:0:0:0:
256,192,285549,1,0,0:0:0:0:
256,192,285606,1,8,0:0:0:0:
256,192,285692,1,0,0:0:0:0:
256,192,285778,1,0,0:0:0:0:
256,192,285864,1,0,0:0:0:0:
256,192,285949,1,8,0:0:0:0:
256,192,286035,1,8,0:0:0:0:
256,192,286121,1,0,0:0:0:0:
256,192,286206,1,0,0:0:0:0:
256,192,286292,1,8,0:0:0:0:
256,192,286463,1,0,0:0:0:0:
256,192,286635,1,8,0:0:0:0:
256,192,286806,1,8,0:0:0:0:
256,192,286892,1,8,0:0:0:0:
256,192,286977,1,0,0:0:0:0:
256,192,287149,1,8,0:0:0:0:
256,192,287320,1,0,0:0:0:0:
256,192,287492,1,8,0:0:0:0:
256,192,287577,1,0,0:0:0:0:
256,192,287663,1,8,0:0:0:0:
256,192,287835,1,0,0:0:0:0:
256,192,288006,1,8,0:0:0:0:
256,192,288177,1,8,0:0:0:0:
256,192,288263,1,8,0:0:0:0:
256,192,288349,1,0,0:0:0:0:
256,192,288435,1,0,0:0:0:0:
256,192,288520,1,8,0:0:0:0:
256,192,288606,1,0,0:0:0:0:
256,192,288692,1,8,0:0:0:0:
256,192,288777,1,8,0:0:0:0:
256,192,288863,1,0,0:0:0:0:
256,192,289035,1,8,0:0:0:0:
256,192,289206,1,0,0:0:0:0:
256,192,289377,1,8,0:0:0:0:
256,192,289549,1,0,0:0:0:0:
256,192,289720,1,8,0:0:0:0:
256,192,289806,1,0,0:0:0:0:
256,192,289892,1,8,0:0:0:0:
256,192,289977,1,0,0:0:0:0:
256,192,290063,1,8,0:0:0:0:
256,192,290149,1,8,0:0:0:0:
256,192,290235,1,0,0:0:0:0:
256,192,290320,1,0,0:0:0:0:
256,192,290406,1,8,0:0:0:0:
256,192,290577,1,0,0:0:0:0:
256,192,290749,1,8,0:0:0:0:
256,192,290920,1,0,0:0:0:0:
256,192,291092,1,8,0:0:0:0:
256,192,291177,1,8,0:0:0:0:
256,192,291263,1,0,0:0:0:0:
256,192,291349,1,0,0:0:0:0:
256,192,291435,1,12,0:0:0:0:
256,192,291777,1,12,0:0:0:0:
256,192,291948,1,0,0:0:0:0:
256,192,292120,1,8,0:0:0:0:
256,192,292206,1,8,0:0:0:0:
256,192,292291,1,0,0:0:0:0:
256,192,292377,1,0,0:0:0:0:
256,192,292463,1,8,0:0:0:0:
256,192,292549,1,0,0:0:0:0:
256,192,292634,1,8,0:0:0:0:
256,192,292720,1,0,0:0:0:0:
256,192,292806,1,8,0:0:0:0:
256,192,292891,1,8,0:0:0:0:
256,192,292977,1,0,0:0:0:0:
256,192,293063,1,0,0:0:0:0:
256,192,293148,1,8,0:0:0:0:
256,192,293320,1,0,0:0:0:0:
256,192,293491,1,8,0:0:0:0:
256,192,293577,1,8,0:0:0:0:
256,192,293663,1,0,0:0:0:0:
256,192,293748,1,0,0:0:0:0:
256,192,293834,1,8,0:0:0:0:
256,192,293920,1,0,0:0:0:0:
256,192,294006,1,8,0:0:0:0:
256,192,294091,1,0,0:0:0:0:
256,192,294177,1,8,0:0:0:0:
256,192,294263,1,8,0:0:0:0:
256,192,294348,1,0,0:0:0:0:
256,192,294434,1,0,0:0:0:0:
256,192,294520,1,8,0:0:0:0:
256,192,294691,1,0,0:0:0:0:
256,192,294863,1,8,0:0:0:0:
256,192,295035,1,0,0:0:0:0:
256,192,295092,1,0,0:0:0:0:
256,192,295149,1,0,0:0:0:0:
256,192,295206,1,8,0:0:0:0:
256,192,295292,1,0,0:0:0:0:
256,192,295377,1,0,0:0:0:0:
256,192,295463,1,0,0:0:0:0:
256,192,295549,1,8,0:0:0:0:
256,192,295635,1,0,0:0:0:0:
256,192,295720,1,8,0:0:0:0:
256,192,295806,1,0,0:0:0:0:
256,192,295892,1,8,0:0:0:0:
256,192,296063,1,0,0:0:0:0:
256,192,296235,1,8,0:0:0:0:
256,192,296406,1,0,0:0:0:0:
256,192,296463,1,0,0:0:0:0:
256,192,296520,1,0,0:0:0:0:
256,192,296577,1,8,0:0:0:0:
256,192,296663,1,0,0:0:0:0:
256,192,296748,1,0,0:0:0:0:
256,192,296834,1,0,0:0:0:0:
256,192,296920,1,8,0:0:0:0:
256,192,297006,1,8,0:0:0:0:
256,192,297091,1,0,0:0:0:0:
256,192,297177,1,0,0:0:0:0:
256,192,297263,1,8,0:0:0:0:
256,192,297349,1,0,0:0:0:0:
256,192,297435,1,8,0:0:0:0:
256,192,297520,1,0,0:0:0:0:
256,192,297606,1,8,0:0:0:0:
256,192,297692,1,8,0:0:0:0:
256,192,297777,1,0,0:0:0:0:
256,192,297863,1,0,0:0:0:0:
256,192,297949,1,8,0:0:0:0:
256,192,298035,1,0,0:0:0:0:
256,192,298120,1,8,0:0:0:0:
256,192,298206,1,0,0:0:0:0:
256,192,298292,1,8,0:0:0:0:
256,192,298377,1,8,0:0:0:0:
256,192,298463,1,8,0:0:0:0:
256,192,298549,1,0,0:0:0:0:
256,192,298635,1,8,0:0:0:0:
256,192,298721,1,0,0:0:0:0:
256,192,298807,1,8,0:0:0:0:
256,192,298892,1,0,0:0:0:0:
256,192,298978,1,8,0:0:0:0:
256,192,299064,1,8,0:0:0:0:
256,192,299150,1,0,0:0:0:0:
256,192,299235,1,0,0:0:0:0:
256,192,299321,1,8,0:0:0:0:
256,192,299407,1,0,0:0:0:0:
256,192,299492,1,8,0:0:0:0:
256,192,299578,1,0,0:0:0:0:
256,192,299663,1,8,0:0:0:0:
256,192,299749,1,8,0:0:0:0:
256,192,299835,1,8,0:0:0:0:
256,192,299921,1,0,0:0:0:0:
256,192,300006,1,8,0:0:0:0:
256,192,300063,1,8,0:0:0:0:
256,192,300120,1,8,0:0:0:0:
256,192,300177,1,0,0:0:0:0:
256,192,300263,1,0,0:0:0:0:
256,192,300349,1,8,0:0:0:0:
256,192,300406,1,0,0:0:0:0:
256,192,300463,1,0,0:0:0:0:
256,192,300520,1,8,0:0:0:0:
256,192,300606,1,0,0:0:0:0:
256,192,300691,1,8,0:0:0:0:
256,192,300749,1,8,0:0:0:0:
256,192,300806,1,8,0:0:0:0:
256,192,300863,1,0,0:0:0:0:
256,192,300949,1,0,0:0:0:0:
256,192,301034,1,8,0:0:0:0:
256,192,301091,1,0,0:0:0:0:
256,192,301149,1,0,0:0:0:0:
256,192,301206,1,8,0:0:0:0:
256,192,301291,1,0,0:0:0:0:
256,192,301377,1,8,0:0:0:0:
256,192,301720,1,8,0:0:0:0:
256,192,302063,1,8,0:0:0:0:
256,192,302406,1,4,0:0:0:0:
256,192,302749,1,12,0:0:0:0:
256,192,303263,1,8,0:0:0:0:
256,192,303349,1,0,0:0:0:0:
256,192,303435,1,8,0:0:0:0:
256,192,303606,1,0,0:0:0:0:
256,192,303777,1,8,0:0:0:0:
256,192,303949,1,8,0:0:0:0:
256,192,304120,1,0,0:0:0:0:
256,192,304463,1,8,0:0:0:0:
256,192,304635,1,8,0:0:0:0:
256,192,304806,1,0,0:0:0:0:
256,192,305149,1,0,0:0:0:0:
256,192,305320,1,0,0:0:0:0:
256,192,305492,1,12,0:0:0:0:
256,192,305663,1,8,0:0:0:0:
256,192,305835,1,0,0:0:0:0:
256,192,306006,1,0,0:0:0:0:
256,192,306177,1,12,0:0:0:0:
256,192,306520,1,4,0:0:0:0:
256,192,306863,1,12,0:0:0:0:
256,192,307035,12,0,313720,0:0:0:0:
