osu file format v14

[General]
AudioFilename: audio.mp3
AudioLeadIn: 0
PreviewTime: -1
Countdown: 1
SampleSet: None
StackLeniency: 1
Mode: 1
LetterboxInBreaks: 0
WidescreenStoryboard: 1

[Editor]
DistanceSpacing: 1
BeatDivisor: 4
GridSize: 32
TimelineZoom: 1.6

[Metadata]
Title:Cycle Hit
TitleUnicode:サイクルヒット
Artist:KASAI HARCORES
ArtistUnicode:葛西ハーコーズ
Creator:[Force]
Version:Practica 2
Source:
Tags:
BeatmapID:1479616
BeatmapSetID:694924

[Difficulty]
HPDrainRate:5
CircleSize:2
OverallDifficulty:6
ApproachRate:8
SliderMultiplier:1.46
SliderTickRate:2

[Events]
//Background and Video events
//Break Periods
//Storyboard Layer 0 (Background)
//Storyboard Layer 1 (Fail)
//Storyboard Layer 2 (Pass)
//Storyboard Layer 3 (Foreground)
//Storyboard Sound Samples

[TimingPoints]
1035,342.857142857143,4,2,1,65,1,0
1035,-133.333333333333,4,2,1,65,0,0
1549,-100,4,2,1,65,0,0
3092,-50,4,2,1,65,0,0
3777,-133.333333333333,4,2,1,65,0,0
4292,-100,4,2,1,65,0,0
5835,-50,4,2,1,65,0,0
6520,-133.333333333333,4,2,1,70,0,0
7035,-100,4,2,1,70,0,0
8577,-50,4,2,1,70,0,0
8920,-100,4,2,1,70,0,0
9949,-50,4,2,1,70,0,0
10635,-100,4,2,1,70,0,0
11320,-50,4,2,1,70,0,0
12006,171.428571428571,4,2,1,65,1,0
12006,-133.333333333333,4,2,1,70,0,0
14405,-50,4,2,1,70,0,0
14748,-133.333333333333,4,2,1,70,0,0
16977,-50,4,2,1,70,0,0
17491,-133.333333333333,4,2,1,70,0,0
19891,-50,4,2,1,70,0,0
20063,-133.333333333333,4,2,1,70,0,0
21605,85.7142857142857,4,2,1,65,1,0
21605,-50,4,1,1,70,0,0
22976,342.857142857143,4,2,1,65,1,0
27092,-100,4,1,1,70,0,0
27435,-125,4,1,1,73,0,0
27777,-125,4,1,1,75,0,0
33949,-100,4,1,1,70,0,0
39435,-86.9565217391304,4,1,2,80,0,1
39520,-86.9565217391304,4,1,1,65,0,1
41835,-76.9230769230769,4,1,1,65,0,1
42177,-86.9565217391304,4,1,1,65,0,1
61377,-100,4,2,1,65,0,0
70977,-100,4,2,1,55,0,0
71663,-100,4,2,1,60,0,0
72349,-100,4,1,1,60,0,0
81263,-100,4,1,1,65,0,0
83320,-100,4,1,1,70,0,0
94292,-76.9230769230769,4,1,2,80,0,1
94377,-76.9230769230769,4,1,1,70,0,1
105263,-76.9230769230769,4,1,1,75,0,1
116235,-100,4,2,1,65,0,0
121720,-100,4,1,1,25,0,0
127206,-100,4,1,1,40,0,0
135435,-100,4,1,1,30,0,0
135777,-100,4,1,1,35,0,0
136120,-100,4,1,1,40,0,0
136806,-100,4,1,1,45,0,0
138177,-100,4,1,1,70,0,0
165263,-66.6666666666667,4,1,1,65,0,0
165606,-86.9565217391304,4,1,2,85,0,1
165692,-86.9565217391304,4,1,1,75,0,1
170749,-50,4,1,1,80,0,1
171092,-86.9565217391304,4,1,1,75,0,1
175206,-50,4,1,1,75,0,1
175377,-40,4,1,1,75,0,1
175549,-33.3333333333333,4,1,1,75,0,1
175720,-28.5714285714286,4,1,1,75,0,1
175892,-25,4,1,1,75,0,1
176235,-50,4,1,1,75,0,1
176577,-83.3333333333333,4,1,1,75,0,1
187549,-100,4,2,1,65,0,0
198518,-111.111111111111,4,1,1,65,0,0
218749,-111.111111111111,4,1,1,70,0,0
219777,-100,4,1,1,75,0,0
220463,-95.2380952380952,4,1,1,75,0,0
230063,-95.2380952380952,4,1,1,78,0,0
241720,-95.2380952380952,4,1,1,75,0,0
253377,-90.9090909090909,4,1,1,80,0,0
258863,-76.9230769230769,4,1,2,95,0,1
258949,-76.9230769230769,4,1,1,85,0,1
279435,-76.9230769230769,4,1,1,85,0,0
280806,-74.0740740740741,4,2,2,95,0,1
280892,-74.0740740740741,4,1,1,95,0,1
302749,-100,4,1,1,85,0,0
307035,-100,4,2,1,35,0,0

[Colours]
Combo1 : 198,198,198
Combo2 : 255,68,68

[HitObjects]
192,192,198518,5,2,0:0:0:0:
192,192,198604,1,0,0:0:0:0:
192,192,198690,1,2,0:0:0:0:
192,192,198861,5,2,0:0:0:0:
192,192,198947,1,0,0:0:0:0:
192,192,199033,1,2,0:0:0:0:
192,192,199204,5,2,0:0:0:0:
192,192,199290,1,0,0:0:0:0:
192,192,199376,1,2,0:0:0:0:
192,192,199547,5,2,0:0:0:0:
192,192,199633,1,0,0:0:0:0:
192,192,199719,1,2,0:0:0:0:
192,192,199804,1,0,0:0:0:0:
192,192,199890,5,2,0:0:0:0:
192,192,199976,1,0,0:0:0:0:
192,192,200062,1,2,0:0:0:0:
192,192,200233,5,2,0:0:0:0:
192,192,200319,1,0,0:0:0:0:
192,192,200405,1,2,0:0:0:0:
192,192,200576,5,2,0:0:0:0:
192,192,200662,1,0,0:0:0:0:
192,192,200748,1,2,0:0:0:0:
192,192,200833,1,0,0:0:0:0:
192,192,200919,5,2,0:0:0:0:
192,192,201005,1,0,0:0:0:0:
192,192,201091,1,2,0:0:0:0:
192,192,201261,5,2,0:0:0:0:
192,192,201347,1,0,0:0:0:0:
192,192,201433,1,2,0:0:0:0:
192,192,201604,5,2,0:0:0:0:
192,192,201690,1,0,0:0:0:0:
192,192,201776,1,2,0:0:0:0:
192,192,201947,5,2,0:0:0:0:
192,192,202033,1,0,0:0:0:0:
192,192,202119,1,2,0:0:0:0:
192,192,202290,5,2,0:0:0:0:
192,192,202376,1,0,0:0:0:0:
192,192,202462,1,2,0:0:0:0:
192,192,202547,1,0,0:0:0:0:
192,192,202633,5,2,0:0:0:0:
192,192,202719,1,0,0:0:0:0:
192,192,202805,1,2,0:0:0:0:
192,192,202976,5,2,0:0:0:0:
192,192,203062,1,0,0:0:0:0:
192,192,203148,1,2,0:0:0:0:
192,192,203318,5,2,0:0:0:0:
192,192,203404,1,0,0:0:0:0:
192,192,203491,1,2,0:0:0:0:
192,192,203575,1,0,0:0:0:0:
192,192,203661,5,2,0:0:0:0:
192,192,203747,1,0,0:0:0:0:
192,192,203833,1,2,0:0:0:0:
192,192,204004,5,2,0:0:0:0:
192,192,204090,1,0,0:0:0:0:
192,192,204176,1,2,0:0:0:0:
192,192,204347,5,2,0:0:0:0:
192,192,204433,1,0,0:0:0:0:
192,192,204519,1,2,0:0:0:0:
192,192,204690,5,2,0:0:0:0:
192,192,204776,1,0,0:0:0:0:
192,192,204862,1,2,0:0:0:0:
192,192,205033,5,2,0:0:0:0:
192,192,205119,1,0,0:0:0:0:
192,192,205205,1,2,0:0:0:0:
192,192,205290,1,0,0:0:0:0:
192,192,205376,5,2,0:0:0:0:
192,192,205462,1,0,0:0:0:0:
192,192,205548,1,2,0:0:0:0:
192,192,205718,5,2,0:0:0:0:
192,192,205804,1,0,0:0:0:0:
192,192,205890,1,2,0:0:0:0:
192,192,206061,5,2,0:0:0:0:
192,192,206147,1,0,0:0:0:0:
192,192,206233,1,2,0:0:0:0:
192,192,206318,1,0,0:0:0:0:
192,192,206404,5,2,0:0:0:0:
192,192,206490,1,0,0:0:0:0:
192,192,206576,1,2,0:0:0:0:
192,192,206747,5,2,0:0:0:0:
192,192,206833,1,0,0:0:0:0:
192,192,206919,1,2,0:0:0:0:
192,192,207004,1,0,0:0:0:0:
192,192,207090,5,2,0:0:0:0:
192,192,207176,1,0,0:0:0:0:
192,192,207261,5,2,0:0:0:0:
192,192,207347,1,0,0:0:0:0:
192,192,207433,1,2,0:0:0:0:
192,192,207518,1,0,0:0:0:0:
192,192,207604,5,2,0:0:0:0:
192,192,207690,1,0,0:0:0:0:
192,192,207776,1,2,0:0:0:0:
192,192,207861,1,0,0:0:0:0:
192,192,207947,1,2,0:0:0:0:
192,192,208032,1,0,0:0:0:0:
192,192,208118,5,2,0:0:0:0:
192,192,208204,1,0,0:0:0:0:
192,192,208290,1,2,0:0:0:0:
192,192,208376,1,0,0:0:0:0:
192,192,208462,1,2,0:0:0:0:
192,192,208547,1,0,0:0:0:0:
192,192,208633,5,2,0:0:0:0:
192,192,208719,1,0,0:0:0:0:
192,192,208805,1,2,0:0:0:0:
192,192,208890,1,0,0:0:0:0:
192,192,208975,5,2,0:0:0:0:
