osu file format v14

[General]
AudioFilename: audio.ogg
AudioLeadIn: 0
PreviewTime: 58734
Countdown: 0
SampleSet: Normal
StackLeniency: 0.7
Mode: 1
LetterboxInBreaks: 0
WidescreenStoryboard: 1

[Editor]
Bookmarks: 12916,24552,36189,47825,71098,94370,106007
DistanceSpacing: 1.1
BeatDivisor: 4
GridSize: 32
TimelineZoom: 2.099999

[Metadata]
Title:Kitsunebi
TitleUnicode:Kitsunebi
Artist:KARUT
ArtistUnicode:KARUT
Creator:-Kazuha
Version:Kantan
Source:ブルーアーカイブ -Blue Archive-
Tags:electronic blue archive taiko mapping contest btmc 蔚藍檔案 ba buruaka buru aka ブルアカ videogame video game instrumental yostar nat games nexon Theme 164 Sound Team
BeatmapID:4482160
BeatmapSetID:2117807

[Difficulty]
HPDrainRate:8
CircleSize:5
OverallDifficulty:3
ApproachRate:5
SliderMultiplier:1.4
SliderTickRate:1

[Events]
//Background and Video events
0,0,"ba_ost_164.jpeg",0,70
//Break Periods
//Storyboard Layer 0 (Background)
//Storyboard Layer 1 (Fail)
//Storyboard Layer 2 (Pass)
//Storyboard Layer 3 (Foreground)
//Storyboard Layer 4 (Overlay)
//Storyboard Sound Samples

[TimingPoints]
1280,363.636363636364,4,1,0,80,1,0
1280,-100,4,1,0,80,0,0
1552,-100,4,1,0,80,0,0
4189,-100,4,1,0,80,0,0
4461,-100,4,1,0,80,0,0
7098,-100,4,1,0,80,0,0
7370,-100,4,1,0,80,0,0
10007,-100,4,1,0,80,0,0
10279,-100,4,1,0,80,0,0
10365,-100,4,1,0,80,0,0
10547,-100,4,1,0,80,0,0
10638,-100,4,1,0,80,0,0
10729,-100,4,1,0,80,0,0
10820,-100,4,1,0,80,0,0
10911,-100,4,1,0,80,0,0
11002,-100,4,1,0,80,0,0
11092,-100,4,1,0,80,0,0
11183,-100,4,1,0,80,0,0
11275,-100,4,1,0,80,0,0
11370,-100,4,1,0,80,0,0
11502,-100,4,1,0,80,0,0
11643,-100,4,1,0,80,0,0
11820,-100,4,1,0,80,0,0
11911,-100,4,1,0,80,0,0
12002,-100,4,1,0,80,0,0
12093,-100,4,1,0,80,0,0
12184,-100,4,1,0,80,0,0
12825,-100,4,1,0,80,0,0
12911,-100,4,1,0,90,0,0
12916,-100,4,1,0,90,0,0
13007,-100,4,1,0,90,0,0
15456,-100,4,1,0,90,0,0
15502,-100,4,1,0,90,0,0
15638,-100,4,1,0,90,0,0
15684,-100,4,1,0,90,0,0
15820,-100,4,1,0,90,0,0
15916,-100,4,1,0,90,0,0
18002,-100,4,1,0,90,0,0
18093,-100,4,1,0,90,0,0
18184,-100,4,1,0,90,0,0
18275,-100,4,1,0,90,0,0
18365,-100,4,1,0,90,0,0
18456,-100,4,1,0,90,0,0
18547,-100,4,1,0,90,0,0
18643,-100,4,1,0,90,0,0
18825,-100,4,1,0,90,0,0
21274,-100,4,1,0,90,0,0
21320,-100,4,1,0,90,0,0
21456,-100,4,1,0,90,0,0
21502,-100,4,1,0,90,0,0
21638,-100,4,1,0,90,0,0
21734,-100,4,1,0,90,0,0
23092,-100,4,1,0,90,0,0
23183,-100,4,1,0,90,0,0
23274,-100,4,1,0,90,0,0
23456,-100,4,1,0,90,0,0
23638,-100,4,1,0,90,0,0
23820,-100,4,1,0,90,0,0
23911,-100,4,1,0,90,0,0
24002,-100,4,1,0,90,0,0
24093,-100,4,1,0,90,0,0
24183,-100,4,1,0,90,0,0
24274,-100,4,1,0,90,0,0
24365,-100,4,1,0,90,0,0
24456,-100,4,1,0,90,0,0
24547,-100,4,1,0,90,0,0
24643,-100,4,1,0,90,0,0
27092,-100,4,1,0,90,0,0
27138,-100,4,1,0,90,0,0
27274,-100,4,1,0,90,0,0
27320,-100,4,1,0,90,0,0
27456,-100,4,1,0,90,0,0
27552,-100,4,1,0,90,0,0
29638,-100,4,1,0,90,0,0
29729,-100,4,1,0,90,0,0
29820,-100,4,1,0,90,0,0
29911,-100,4,1,0,90,0,0
30001,-100,4,1,0,90,0,0
30092,-100,4,1,0,90,0,0
30183,-100,4,1,0,90,0,0
30280,-100,4,1,0,90,0,0
30461,-100,4,1,0,90,0,0
32910,-100,4,1,0,90,0,0
32956,-100,4,1,0,90,0,0
33092,-100,4,1,0,90,0,0
33138,-100,4,1,0,90,0,0
33274,-100,4,1,0,90,0,0
33370,-100,4,1,0,90,0,0
34729,-100,4,1,0,90,0,0
34911,-100,4,1,0,90,0,0
35002,-100,4,1,0,90,0,0
35092,-100,4,1,0,90,0,0
35184,-100,4,1,0,90,0,0
35274,-100,4,1,0,90,0,0
35456,-100,4,1,0,90,0,0
35638,-100,4,1,0,90,0,0
35819,-100,4,1,0,90,0,0
35910,-100,4,1,0,90,0,0
36184,-100,4,1,0,90,0,0
36643,-100,4,1,0,90,0,0
36825,-100,4,1,0,90,0,0
37552,-100,4,1,0,90,0,0
37638,-100,4,1,0,90,0,0
37820,-100,4,1,0,90,0,0
38002,-100,4,1,0,90,0,0
38093,-100,4,1,0,90,0,0
38184,-100,4,1,0,90,0,0
38365,-100,4,1,0,90,0,0
38547,-100,4,1,0,90,0,0
38729,-100,4,1,0,90,0,0
38820,-100,4,1,0,90,0,0
38911,-100,4,1,0,90,0,0
39007,-100,4,1,0,90,0,0
40098,-100,4,1,0,90,0,0
40280,-100,4,1,0,90,0,0
40461,-100,4,1,0,90,0,0
40638,-100,4,1,0,90,0,0
40729,-100,4,1,0,90,0,0
40911,-100,4,1,0,90,0,0
41093,-100,4,1,0,90,0,0
41275,-100,4,1,0,90,0,0
41365,-100,4,1,0,90,0,0
41456,-100,4,1,0,90,0,0
41638,-100,4,1,0,90,0,0
41916,-100,4,1,0,90,0,0
42461,-100,4,1,0,90,0,0
42643,-100,4,1,0,90,0,0
43370,-100,4,1,0,90,0,0
43638,-100,4,1,0,90,0,0
43820,-100,4,1,0,90,0,0
44002,-100,4,1,0,90,0,0
44093,-100,4,1,0,90,0,0
44184,-100,4,1,0,90,0,0
44365,-100,4,1,0,90,0,0
44547,-100,4,1,0,90,0,0
44638,-100,4,1,0,90,0,0
44729,-100,4,1,0,90,0,0
44820,-100,4,1,0,90,0,0
44911,-100,4,1,0,90,0,0
45093,-100,4,1,0,90,0,0
45275,-100,4,1,0,90,0,0
45456,-100,4,1,0,90,0,0
45638,-100,4,1,0,90,0,0
45820,-100,4,1,0,90,0,0
46002,-100,4,1,0,90,0,0
46184,-100,4,1,0,90,0,0
46365,-100,4,1,0,90,0,0
46547,-100,4,1,0,90,0,0
46608,-100,4,1,0,90,0,0
46668,-100,4,1,0,90,0,0
46729,-100,4,1,0,90,0,0
46820,-100,4,1,0,90,0,0
46911,-100,4,1,0,90,0,0
47002,-100,4,1,0,90,0,0
47093,-100,4,1,0,90,0,0
47275,-100,4,1,0,90,0,0
47456,-100,4,1,0,90,0,0
47638,-100,4,1,0,90,0,0
47820,-100,4,1,0,90,0,0
48184,-100,4,1,0,90,0,0
48547,-100,4,1,0,90,0,0
48729,-100,4,1,0,90,0,0
49093,-100,4,1,0,90,0,0
49275,-100,4,1,0,90,0,0
49638,-100,4,1,0,90,0,0
50002,-100,4,1,0,90,0,0
50184,-100,4,1,0,90,0,0
50365,-100,4,1,0,90,0,0
50547,-100,4,1,0,90,0,0
50729,-100,4,1,0,90,0,0
53552,-100,4,1,0,90,0,0
56547,-100,4,1,0,90,0,0
56638,-100,4,1,0,90,0,0
56729,-100,4,1,0,90,0,0
56820,-100,4,1,0,90,0,0
56911,-100,4,1,0,90,0,0
57002,-100,4,1,0,90,0,0
57093,-100,4,1,0,90,0,0
57184,-100,4,1,0,90,0,0
57275,-100,4,1,0,90,0,0
57365,-100,4,1,0,90,0,0
57456,-100,4,1,0,90,0,0
57547,-100,4,1,0,90,0,0
57638,-100,4,1,0,90,0,0
57699,-100,4,1,0,90,0,0
57759,-100,4,1,0,90,0,0
57820,-100,4,1,0,90,0,0
57881,-100,4,1,0,90,0,0
57941,-100,4,1,0,90,0,0
58002,-100,4,1,0,90,0,0
58365,-100,4,1,0,90,0,0
58734,-100,4,1,0,90,0,0
59461,-100,4,1,0,100,0,1
59820,-100,4,1,0,100,0,1
59865,-100,4,1,0,100,0,1
59911,-100,4,1,0,100,0,1
60002,-100,4,1,0,100,0,1
60184,-100,4,1,0,100,0,1
60275,-100,4,1,0,100,0,1
60365,-100,4,1,0,100,0,1
60456,-100,4,1,0,100,0,1
60547,-100,4,1,0,100,0,1
60638,-100,4,1,0,100,0,1
60729,-100,4,1,0,100,0,1
60820,-100,4,1,0,100,0,1
60911,-100,4,1,0,100,0,1
61002,-100,4,1,0,100,0,1
61092,-100,4,1,0,100,0,1
61183,-100,4,1,0,100,0,1
61275,-100,4,1,0,100,0,1
61365,-100,4,1,0,100,0,1
61456,-100,4,1,0,100,0,1
61547,-100,4,1,0,100,0,1
61638,-100,4,1,0,100,0,1
61684,-100,4,1,0,100,0,1
61729,-100,4,1,0,100,0,1
61820,-100,4,1,0,100,0,1
62002,-100,4,1,0,100,0,1
62047,-100,4,1,0,100,0,1
62184,-100,4,1,0,100,0,1
62229,-100,4,1,0,100,0,1
62365,-100,4,1,0,100,0,1
62461,-100,4,1,0,100,0,1
62729,-100,4,1,0,100,0,1
62775,-100,4,1,0,100,0,1
62790,-100,4,1,0,100,0,1
62820,-100,4,1,0,100,0,1
62850,-100,4,1,0,100,0,1
62911,-100,4,1,0,100,0,1
63002,-100,4,1,0,100,0,1
63093,-100,4,1,0,100,0,1
63184,-100,4,1,0,100,0,1
63275,-100,4,1,0,100,0,1
63365,-100,4,1,0,100,0,1
63456,-100,4,1,0,100,0,1
63547,-100,4,1,0,100,0,1
63638,-100,4,1,0,100,0,1
63729,-100,4,1,0,100,0,1
63820,-100,4,1,0,100,0,1
64002,-100,4,1,0,100,0,1
64184,-100,4,1,0,100,0,1
64365,-100,4,1,0,100,0,1
64547,-100,4,1,0,100,0,1
64552,-100,4,1,0,100,0,0
64578,-100,4,1,0,100,0,0
64643,-100,4,1,0,100,0,0
64729,-100,4,1,0,100,0,0
64911,-100,4,1,0,100,0,0
65002,-100,4,1,0,100,0,0
65093,-100,4,1,0,100,0,0
65184,-100,4,1,0,100,0,0
65275,-100,4,1,0,100,0,0
65280,-100,4,1,0,100,0,1
65638,-100,4,1,0,100,0,1
65684,-100,4,1,0,100,0,1
65729,-100,4,1,0,100,0,1
65820,-100,4,1,0,100,0,1
66002,-100,4,1,0,100,0,1
66062,-100,4,1,0,100,0,1
66123,-100,4,1,0,100,0,1
66184,-100,4,1,0,100,0,1
66275,-100,4,1,0,100,0,1
66365,-100,4,1,0,100,0,1
66456,-100,4,1,0,100,0,1
66547,-100,4,1,0,100,0,1
66638,-100,4,1,0,100,0,1
66729,-100,4,1,0,100,0,1
67093,-100,4,1,0,100,0,1
67138,-100,4,1,0,100,0,1
67184,-100,4,1,0,100,0,1
67275,-100,4,1,0,100,0,1
67456,-100,4,1,0,100,0,1
67517,-100,4,1,0,100,0,1
67578,-100,4,1,0,100,0,1
67638,-100,4,1,0,100,0,1
67699,-100,4,1,0,100,0,1
67820,-100,4,1,0,100,0,1
68002,-100,4,1,0,100,0,1
68184,-100,4,1,0,100,0,1
68547,-100,4,1,0,100,0,1
68578,-100,4,1,0,100,0,1
68668,-100,4,1,0,100,0,1
68699,-100,4,1,0,100,0,1
68790,-100,4,1,0,100,0,1
68820,-100,4,1,0,100,0,1
68911,-100,4,1,0,100,0,1
69007,-100,4,1,0,100,0,1
69275,-100,4,1,0,100,0,1
69306,-100,4,1,0,100,0,1
69396,-100,4,1,0,100,0,1
69427,-100,4,1,0,100,0,1
69518,-100,4,1,0,100,0,1
69548,-100,4,1,0,100,0,1
69639,-100,4,1,0,100,0,1
69820,-100,4,1,0,100,0,1
70002,-100,4,1,0,100,0,1
70093,-100,4,1,0,100,0,1
70184,-100,4,1,0,100,0,1
70275,-100,4,1,0,100,0,1
70365,-100,4,1,0,100,0,1
70547,-100,4,1,0,100,0,1
70729,-100,4,1,0,100,0,1
70820,-100,4,1,0,100,0,1
70911,-100,4,1,0,100,0,1
71002,-100,4,1,0,100,0,1
71093,-100,4,1,0,100,0,1
71098,-100,4,1,0,100,0,0
71734,-100,4,1,0,100,0,0
72461,-100,4,1,0,100,0,0
73219,-100,4,1,0,100,0,0
73638,-100,4,1,0,100,0,0
73759,-100,4,1,0,100,0,0
73881,-100,4,1,0,100,0,0
74002,-100,4,1,0,100,0,0
74007,-100,4,1,0,100,0,1
74365,-100,4,1,0,100,0,1
74411,-100,4,1,0,100,0,1
74456,-100,4,1,0,100,0,1
74547,-100,4,1,0,100,0,1
74729,-100,4,1,0,100,0,1
74820,-100,4,1,0,100,0,1
74911,-100,4,1,0,100,0,1
75002,-100,4,1,0,100,0,1
75093,-100,4,1,0,100,0,1
75184,-100,4,1,0,100,0,1
75275,-100,4,1,0,100,0,1
75365,-100,4,1,0,100,0,1
75456,-100,4,1,0,100,0,1
75638,-100,4,1,0,100,0,1
75820,-100,4,1,0,100,0,1
76002,-100,4,1,0,100,0,1
76184,-100,4,1,0,100,0,1
76189,-100,4,1,0,100,0,0
76365,-100,4,1,0,100,0,0
76547,-100,4,1,0,100,0,0
76638,-100,4,1,0,100,0,0
76729,-100,4,1,0,100,0,0
76820,-100,4,1,0,100,0,0
76911,-100,4,1,0,100,0,0
76916,-100,4,1,0,100,0,1
77279,-100,4,1,0,100,0,1
77325,-100,4,1,0,100,0,1
77370,-100,4,1,0,100,0,1
77461,-100,4,1,0,100,0,1
77643,-100,4,1,0,100,0,1
77703,-100,4,1,0,100,0,1
77764,-100,4,1,0,100,0,1
77825,-100,4,1,0,100,0,1
77916,-100,4,1,0,100,0,1
78006,-100,4,1,0,100,0,1
78097,-100,4,1,0,100,0,1
78188,-100,4,1,0,100,0,1
78279,-100,4,1,0,100,0,1
78370,-100,4,1,0,100,0,1
78734,-100,4,1,0,100,0,1
78779,-100,4,1,0,100,0,1
78825,-100,4,1,0,100,0,1
78916,-100,4,1,0,100,0,1
79097,-100,4,1,0,100,0,1
79158,-100,4,1,0,100,0,1
79219,-100,4,1,0,100,0,1
79279,-100,4,1,0,100,0,1
79340,-100,4,1,0,100,0,1
79461,-100,4,1,0,100,0,1
79643,-100,4,1,0,100,0,1
79820,-100,4,1,0,100,0,1
80002,-100,4,1,0,100,0,1
80184,-100,4,1,0,100,0,1
80275,-100,4,1,0,100,0,1
80365,-100,4,1,0,100,0,1
80547,-100,4,1,0,100,0,1
80729,-100,4,1,0,100,0,1
80911,-100,4,1,0,100,0,1
81093,-100,4,1,0,100,0,1
81275,-100,4,1,0,100,0,1
81456,-100,4,1,0,100,0,1
81638,-100,4,1,0,100,0,1
81729,-100,4,1,0,100,0,1
81820,-100,4,1,0,100,0,1
81911,-100,4,1,0,100,0,1
82002,-100,4,1,0,100,0,1
82032,-100,4,1,0,100,0,1
82184,-100,4,1,0,100,0,1
82365,-100,4,1,0,100,0,1
82370,-100,4,1,0,100,0,0
82395,-100,4,1,0,100,0,0
82729,-100,4,1,0,90,0,0
82734,-100,4,1,0,90,0,1
93643,-100,4,1,0,90,0,0
93820,-100,4,1,0,90,0,0
94002,-100,4,1,0,90,0,0
94093,-100,4,1,0,90,0,0
94184,-100,4,1,0,90,0,0
94275,-100,4,1,0,90,0,0
94370,-100,4,1,0,90,0,1
105275,-100,4,1,0,90,0,1
105456,-100,4,1,0,90,0,1
105643,-100,4,1,0,90,0,1
106007,-100,4,1,0,90,0,0
106466,-100,4,1,0,90,0,0
106648,-100,4,1,0,90,0,0
107375,-100,4,1,0,90,0,0
107461,-100,4,1,0,90,0,0
107643,-100,4,1,0,90,0,0
107825,-100,4,1,0,90,0,0
107916,-100,4,1,0,90,0,0
108007,-100,4,1,0,90,0,0
108188,-100,4,1,0,90,0,0
108370,-100,4,1,0,90,0,0
108552,-100,4,1,0,90,0,0
108643,-100,4,1,0,90,0,0
108734,-100,4,1,0,90,0,0
108830,-100,4,1,0,90,0,0
109921,-100,4,1,0,90,0,0
110103,-100,4,1,0,90,0,0
110284,-100,4,1,0,90,0,0
110461,-100,4,1,0,90,0,0
110552,-100,4,1,0,90,0,0
110734,-100,4,1,0,90,0,0
110916,-100,4,1,0,90,0,0
111098,-100,4,1,0,90,0,0
111188,-100,4,1,0,90,0,0
111279,-100,4,1,0,90,0,0
111461,-100,4,1,0,90,0,0
111739,-100,4,1,0,90,0,0
112284,-100,4,1,0,90,0,0
112466,-100,4,1,0,90,0,0
113193,-100,4,1,0,90,0,0
113461,-100,4,1,0,90,0,0
113643,-100,4,1,0,90,0,0
113825,-100,4,1,0,90,0,0
113916,-100,4,1,0,90,0,0
114007,-100,4,1,0,90,0,0
114188,-100,4,1,0,90,0,0
114370,-100,4,1,0,90,0,0
114461,-100,4,1,0,90,0,0
114552,-100,4,1,0,90,0,0
114643,-100,4,1,0,90,0,0
114734,-100,4,1,0,90,0,0
114916,-100,4,1,0,90,0,0
115098,-100,4,1,0,90,0,0
115279,-100,4,1,0,90,0,0
115461,-100,4,1,0,90,0,0
115643,-100,4,1,0,90,0,0
115825,-100,4,1,0,90,0,0
116007,-100,4,1,0,90,0,0
116188,-100,4,1,0,90,0,0
116370,-100,4,1,0,90,0,0
116431,-100,4,1,0,90,0,0
116491,-100,4,1,0,90,0,0
116552,-100,4,1,0,90,0,0
116643,-100,4,1,0,90,0,0
116734,-100,4,1,0,90,0,0
116825,-100,4,1,0,90,0,0
116916,-100,4,1,0,90,0,0
117098,-100,4,1,0,90,0,0
117279,-100,4,1,0,90,0,0
117461,-100,4,1,0,90,0,0

[HitObjects]
196,269,1280,5,4,0:0:0:0:
224,92,1643,1,8,0:0:0:0:
229,113,2189,1,8,0:0:0:0:
229,113,2734,1,0,0:0:0:0:
226,67,3098,1,8,0:0:0:0:
196,269,4189,1,4,0:0:0:0:
224,92,4552,1,8,0:0:0:0:
229,113,5098,1,8,0:0:0:0:
229,113,5643,1,8,0:0:0:0:
226,67,6007,1,0,0:0:0:0:
196,269,7098,5,4,0:0:0:0:
224,92,7461,1,8,0:0:0:0:
229,113,8007,1,8,0:0:0:0:
229,113,8552,1,0,0:0:0:0:
226,67,8916,1,8,0:0:0:0:
196,269,10007,1,4,0:0:0:0:
224,92,10370,1,8,0:0:0:0:
242,152,10734,1,0,0:0:0:0:
229,113,11097,1,8,0:0:0:0:
229,113,11461,1,0,0:0:0:0:
136,185,12916,1,4,0:0:0:0:
235,172,13643,1,8,0:0:0:0:
326,131,14370,1,8,0:0:0:0:
256,54,14734,1,0,0:0:0:0:
256,54,15098,1,8,0:0:0:0:
214,70,15825,1,4,0:0:0:0:
235,172,16552,1,8,0:0:0:0:
326,131,17279,1,0,0:0:0:0:
136,184,18734,1,4,0:0:0:0:
235,171,19461,1,8,0:0:0:0:
326,130,20188,1,8,0:0:0:0:
256,53,20552,1,0,0:0:0:0:
256,53,20916,1,8,0:0:0:0:
214,69,21643,1,4,0:0:0:0:
235,171,22370,1,8,0:0:0:0:
153,13,22734,1,8,0:0:0:0:
326,130,23097,1,0,0:0:0:0:
125,248,24552,1,4,0:0:0:0:
235,172,25279,1,8,0:0:0:0:
326,131,26006,1,0,0:0:0:0:
256,54,26370,1,8,0:0:0:0:
256,54,26734,1,8,0:0:0:0:
214,70,27461,1,4,0:0:0:0:
235,172,28188,1,8,0:0:0:0:
326,131,28915,1,0,0:0:0:0:
136,184,30370,1,4,0:0:0:0:
235,171,31097,1,8,0:0:0:0:
326,130,31824,1,8,0:0:0:0:
256,53,32188,1,0,0:0:0:0:
256,53,32552,1,8,0:0:0:0:
214,69,33279,1,4,0:0:0:0:
235,171,34007,1,8,0:0:0:0:
326,130,34733,1,0,0:0:0:0:
256,53,35097,1,8,0:0:0:0:
256,52,35461,5,8,0:0:0:0:
148,41,36188,1,4,0:0:0:0:
273,118,36916,1,4,0:0:0:0:
192,43,37280,1,4,0:0:0:0:
284,183,39098,1,4,0:0:0:0:
284,183,39825,1,4,0:0:0:0:
179,55,40370,1,4,0:0:0:0:
284,183,42007,1,4,0:0:0:0:
147,40,42734,1,4,0:0:0:0:
227,154,43098,1,4,0:0:0:0:
144,39,44916,1,4,0:0:0:0:
144,39,45280,1,4,0:0:0:0:
144,39,45643,1,4,0:0:0:0:
144,39,46007,1,4,0:0:0:0:
144,39,46370,1,12,0:0:0:0:
243,120,47825,1,4,0:0:0:0:
240,97,48189,1,8,0:0:0:0:
240,97,48734,1,8,0:0:0:0:
240,97,49280,1,0,0:0:0:0:
146,29,49643,1,8,0:0:0:0:
146,29,50734,1,0,0:0:0:0:
146,29,51098,1,8,0:0:0:0:
146,29,51643,1,8,0:0:0:0:
146,29,52189,1,0,0:0:0:0:
146,29,52552,1,8,0:0:0:0:
146,29,53643,1,4,0:0:0:0:
146,29,54007,1,8,0:0:0:0:
146,29,54552,1,8,0:0:0:0:
146,29,55098,1,0,0:0:0:0:
146,29,55461,1,8,0:0:0:0:
146,29,55825,1,0,0:0:0:0:
194,66,56552,1,8,0:0:0:0:
264,153,56916,1,8,0:0:0:0:
264,153,57280,1,8,0:0:0:0:
304,188,57643,1,0,0:0:0:0:
304,188,58007,1,8,0:0:0:0:
236,80,59461,5,4,0:0:0:0:
314,73,60189,1,8,0:0:0:0:
389,148,60552,1,0,0:0:0:0:
314,73,60916,1,8,0:0:0:0:
389,148,61280,1,8,0:0:0:0:
389,148,61643,1,0,0:0:0:0:
191,81,62370,1,4,0:0:0:0:
286,164,63098,1,0,0:0:0:0:
281,162,63461,1,8,0:0:0:0:
280,162,63825,1,0,0:0:0:0:
281,162,64189,1,0,0:0:0:0:
192,59,64552,1,8,0:0:0:0:
432,75,65280,1,4,0:0:0:0:
381,169,66007,1,0,0:0:0:0:
304,82,66370,1,8,0:0:0:0:
304,82,66734,1,4,0:0:0:0:
347,160,67461,1,8,0:0:0:0:
347,160,67825,1,0,0:0:0:0:
388,69,68189,1,12,0:0:0:0:
271,138,68916,1,12,0:0:0:0:
271,138,69644,1,12,0:0:0:0:
258,69,70007,1,0,0:0:0:0:
258,69,70370,1,8,0:0:0:0:
202,40,71098,1,0,0:0:0:0:
193,45,72552,1,0,0:0:0:0:
218,81,73280,5,0,0:0:0:0:
218,81,74007,1,4,0:0:0:0:
298,77,74734,1,8,0:0:0:0:
298,77,75098,1,8,0:0:0:0:
298,77,75461,1,0,0:0:0:0:
149,112,75825,1,0,0:0:0:0:
217,93,76189,1,8,0:0:0:0:
285,65,76916,1,4,0:0:0:0:
373,249,77643,1,0,0:0:0:0:
373,249,78007,1,8,0:0:0:0:
339,203,78370,1,4,0:0:0:0:
447,249,79098,1,8,0:0:0:0:
369,205,79461,1,0,0:0:0:0:
369,205,79825,1,12,0:0:0:0:
220,101,80552,1,0,0:0:0:0:
220,101,80916,1,0,0:0:0:0:
220,101,81280,1,8,0:0:0:0:
220,101,81643,1,0,0:0:0:0:
438,82,82007,1,8,0:0:0:0:
312,115,82734,1,4,0:0:0:0:
244,113,84189,1,0,0:0:0:0:
244,113,84552,1,8,0:0:0:0:
244,113,84916,1,8,0:0:0:0:
243,113,85643,1,8,0:0:0:0:
200,108,86007,1,8,0:0:0:0:
200,108,86370,1,0,0:0:0:0:
200,108,87098,1,8,0:0:0:0:
200,108,87461,1,8,0:0:0:0:
200,108,87825,1,8,0:0:0:0:
257,279,88552,1,0,0:0:0:0:
206,191,89280,1,8,0:0:0:0:
197,184,90007,1,8,0:0:0:0:
198,184,90370,1,8,0:0:0:0:
198,184,90734,1,0,0:0:0:0:
198,184,91461,1,8,0:0:0:0:
198,184,91825,1,0,0:0:0:0:
196,183,92189,1,0,0:0:0:0:
196,183,92916,1,0,0:0:0:0:
195,182,93280,1,8,0:0:0:0:
195,182,93643,1,8,0:0:0:0:
312,115,94370,1,4,0:0:0:0:
244,113,95825,1,8,0:0:0:0:
244,113,96188,1,0,0:0:0:0:
244,113,96552,1,8,0:0:0:0:
243,113,97279,1,8,0:0:0:0:
200,108,97643,1,8,0:0:0:0:
200,108,98006,1,0,0:0:0:0:
200,108,98734,1,8,0:0:0:0:
200,108,99097,1,8,0:0:0:0:
200,108,99461,1,8,0:0:0:0:
200,108,100188,1,0,0:0:0:0:
206,191,100916,1,8,0:0:0:0:
197,184,101643,1,0,0:0:0:0:
198,184,102006,1,0,0:0:0:0:
198,184,102370,1,8,0:0:0:0:
198,184,103097,1,8,0:0:0:0:
198,184,103461,1,0,0:0:0:0:
196,183,103825,1,8,0:0:0:0:
196,183,104552,1,8,0:0:0:0:
195,182,104916,1,8,0:0:0:0:
195,182,105279,1,8,0:0:0:0:
148,41,106007,1,4,0:0:0:0:
273,118,106735,1,4,0:0:0:0:
319,189,107098,1,4,0:0:0:0:
284,183,108917,1,4,0:0:0:0:
284,183,109644,1,4,0:0:0:0:
288,170,110189,1,4,0:0:0:0:
284,183,111826,1,4,0:0:0:0:
147,40,112553,1,4,0:0:0:0:
227,154,112916,1,4,0:0:0:0:
144,39,114735,1,4,0:0:0:0:
144,39,115099,1,4,0:0:0:0:
144,39,115462,1,4,0:0:0:0:
144,39,115826,1,4,0:0:0:0:
144,39,116189,1,12,0:0:0:0:
243,120,116917,1,8,0:0:0:0:
243,120,117280,1,8,0:0:0:0:
