osu file format v14

[General]
AudioFilename: Theme 13390.mp3
AudioLeadIn: 0
PreviewTime: -1
Countdown: 0
SampleSet: None
StackLeniency: 0.7
Mode: 3
LetterboxInBreaks: 0
SpecialStyle: 0
WidescreenStoryboard: 0

[Editor]
DistanceSpacing: 0.8
BeatDivisor: 2
GridSize: 32
TimelineZoom: 1

[Metadata]
Title:Goal Wo Nerae!
TitleUnicode:Goal Wo Nerae!
Artist:KARUT
ArtistUnicode:KARUT
Creator:MowseChow
Version:Beginner (dance-single) [0.9x Rate]
Source:
Tags:
BeatmapID:4556676
BeatmapSetID:2160805

[Difficulty]
HPDrainRate:8
CircleSize:4
OverallDifficulty:8
ApproachRate:5
SliderMultiplier:1.4
SliderTickRate:1

[Events]
//Background and Video events
0,0,"bg.png",0,0
//Break Periods
//Storyboard Layer 0 (Background)
//Storyboard Layer 1 (Fail)
//Storyboard Layer 2 (Pass)
//Storyboard Layer 3 (Foreground)
//Storyboard Layer 4 (Overlay)
//Storyboard Sound Samples

[TimingPoints]
371,387.596898888889,4,2,0,100,1,0

[HitObjects]
64,192,371,5,0,0:0:0:0:
320,192,371,1,0,0:0:0:0:
448,192,371,1,0,0:0:0:0:
192,192,468,1,0,0:0:0:0:
64,192,564,1,0,0:0:0:0:
320,192,564,1,0,0:0:0:0:
448,192,662,1,0,0:0:0:0:
64,192,759,1,0,0:0:0:0:
192,192,759,1,0,0:0:0:0:
320,192,759,1,0,0:0:0:0:
64,192,952,1,0,0:0:0:0:
192,192,952,1,0,0:0:0:0:
320,192,952,1,0,0:0:0:0:
64,192,1147,1,0,0:0:0:0:
192,192,1147,1,0,0:0:0:0:
320,192,1147,1,0,0:0:0:0:
448,192,1147,1,0,0:0:0:0:
64,192,1340,1,0,0:0:0:0:
192,192,1340,1,0,0:0:0:0:
320,192,1340,1,0,0:0:0:0:
448,192,1340,1,0,0:0:0:0:
64,192,1534,1,0,0:0:0:0:
192,192,1534,1,0,0:0:0:0:
320,192,1534,1,0,0:0:0:0:
192,192,1728,1,0,0:0:0:0:
320,192,1728,1,0,0:0:0:0:
448,192,1728,1,0,0:0:0:0:
64,192,1921,1,0,0:0:0:0:
192,192,1921,1,0,0:0:0:0:
448,192,1921,1,0,0:0:0:0:
64,192,2116,1,0,0:0:0:0:
320,192,2116,1,0,0:0:0:0:
192,192,2309,1,0,0:0:0:0:
320,192,2309,1,0,0:0:0:0:
448,192,2309,1,0,0:0:0:0:
64,192,2503,1,0,0:0:0:0:
192,192,2503,1,0,0:0:0:0:
64,192,2697,1,0,0:0:0:0:
192,192,2697,1,0,0:0:0:0:
448,192,2697,1,0,0:0:0:0:
192,192,2890,1,0,0:0:0:0:
320,192,2890,1,0,0:0:0:0:
64,192,3084,1,0,0:0:0:0:
448,192,3084,1,0,0:0:0:0:
64,192,3278,1,0,0:0:0:0:
320,192,3278,1,0,0:0:0:0:
320,192,3472,1,0,0:0:0:0:
448,192,3472,1,0,0:0:0:0:
192,192,3569,1,0,0:0:0:0:
64,192,3666,1,0,0:0:0:0:
448,192,3666,1,0,0:0:0:0:
320,192,3762,1,0,0:0:0:0:
64,192,3860,1,0,0:0:0:0:
192,192,3860,1,0,0:0:0:0:
448,192,3860,1,0,0:0:0:0:
64,192,4053,1,0,0:0:0:0:
192,192,4053,1,0,0:0:0:0:
448,192,4053,1,0,0:0:0:0:
192,192,4247,1,0,0:0:0:0:
320,192,4247,1,0,0:0:0:0:
448,192,4247,1,0,0:0:0:0:
64,192,4441,1,0,0:0:0:0:
448,192,4441,1,0,0:0:0:0:
64,192,4634,1,0,0:0:0:0:
192,192,4634,1,0,0:0:0:0:
320,192,4634,1,0,0:0:0:0:
192,192,4829,1,0,0:0:0:0:
320,192,4829,1,0,0:0:0:0:
448,192,4829,1,0,0:0:0:0:
64,192,5022,1,0,0:0:0:0:
192,192,5022,1,0,0:0:0:0:
448,192,5022,1,0,0:0:0:0:
320,192,5119,1,0,0:0:0:0:
64,192,5216,1,0,0:0:0:0:
192,192,5216,1,0,0:0:0:0:
448,192,5313,1,0,0:0:0:0:
64,192,5410,1,0,0:0:0:0:
192,192,5410,1,0,0:0:0:0:
320,192,5410,1,0,0:0:0:0:
448,192,5507,1,0,0:0:0:0:
192,192,5603,1,0,0:0:0:0:
320,192,5603,1,0,0:0:0:0:
64,192,5701,1,0,0:0:0:0:
192,192,5798,1,0,0:0:0:0:
320,192,5798,1,0,0:0:0:0:
448,192,5798,1,0,0:0:0:0:
192,192,5991,1,0,0:0:0:0:
320,192,5991,1,0,0:0:0:0:
448,192,5991,1,0,0:0:0:0:
192,192,6186,1,0,0:0:0:0:
320,192,6186,1,0,0:0:0:0:
448,192,6186,1,0,0:0:0:0:
192,192,6379,1,0,0:0:0:0:
320,192,6379,1,0,0:0:0:0:
448,192,6379,1,0,0:0:0:0:
64,192,6572,1,0,0:0:0:0:
192,192,6572,1,0,0:0:0:0:
64,192,6767,1,0,0:0:0:0:
320,192,6767,1,0,0:0:0:0:
448,192,6767,1,0,0:0:0:0:
192,192,6863,1,0,0:0:0:0:
64,192,6960,1,0,0:0:0:0:
320,192,6960,1,0,0:0:0:0:
448,192,7057,1,0,0:0:0:0:
192,192,7154,1,0,0:0:0:0:
320,192,7154,1,0,0:0:0:0:
64,192,7251,1,0,0:0:0:0:
192,192,7348,1,0,0:0:0:0:
448,192,7348,1,0,0:0:0:0:
320,192,7444,1,0,0:0:0:0:
64,192,7541,1,0,0:0:0:0:
192,192,7541,1,0,0:0:0:0:
448,192,7639,1,0,0:0:0:0:
192,192,7736,1,0,0:0:0:0:
320,192,7736,1,0,0:0:0:0:
64,192,7832,1,0,0:0:0:0:
320,192,7929,1,0,0:0:0:0:
448,192,7929,1,0,0:0:0:0:
192,192,8027,1,0,0:0:0:0:
64,192,8123,1,0,0:0:0:0:
320,192,8123,1,0,0:0:0:0:
448,192,8220,1,0,0:0:0:0:
192,192,8317,1,0,0:0:0:0:
320,192,8317,1,0,0:0:0:0:
64,192,8413,1,0,0:0:0:0:
192,192,8511,1,0,0:0:0:0:
448,192,8511,1,0,0:0:0:0:
320,192,8608,1,0,0:0:0:0:
64,192,8704,1,0,0:0:0:0:
192,192,8704,1,0,0:0:0:0:
448,192,8801,1,0,0:0:0:0:
192,192,8898,1,0,0:0:0:0:
320,192,8898,1,0,0:0:0:0:
64,192,8996,1,0,0:0:0:0:
192,192,9092,1,0,0:0:0:0:
448,192,9092,1,0,0:0:0:0:
320,192,9189,1,0,0:0:0:0:
64,192,9286,1,0,0:0:0:0:
192,192,9286,1,0,0:0:0:0:
448,192,9382,1,0,0:0:0:0:
192,192,9480,1,0,0:0:0:0:
320,192,9480,1,0,0:0:0:0:
64,192,9577,1,0,0:0:0:0:
320,192,9673,1,0,0:0:0:0:
448,192,9673,1,0,0:0:0:0:
64,192,9770,1,0,0:0:0:0:
192,192,9868,1,0,0:0:0:0:
448,192,9868,1,0,0:0:0:0:
320,192,9964,1,0,0:0:0:0:
64,192,10061,1,0,0:0:0:0:
192,192,10061,1,0,0:0:0:0:
448,192,10158,1,0,0:0:0:0:
192,192,10254,1,0,0:0:0:0:
320,192,10254,1,0,0:0:0:0:
64,192,10352,1,0,0:0:0:0:
192,192,10449,1,0,0:0:0:0:
448,192,10449,1,0,0:0:0:0:
320,192,10546,1,0,0:0:0:0:
64,192,10642,1,0,0:0:0:0:
192,192,10642,1,0,0:0:0:0:
320,192,10739,1,0,0:0:0:0:
192,192,10837,1,0,0:0:0:0:
448,192,10837,1,0,0:0:0:0:
64,192,10933,1,0,0:0:0:0:
320,192,11030,1,0,0:0:0:0:
448,192,11030,1,0,0:0:0:0:
192,192,11127,1,0,0:0:0:0:
64,192,11223,1,0,0:0:0:0:
448,192,11223,1,0,0:0:0:0:
192,192,11321,1,0,0:0:0:0:
320,192,11418,1,0,0:0:0:0:
448,192,11418,1,0,0:0:0:0:
64,192,11514,1,0,0:0:0:0:
192,192,11611,1,0,0:0:0:0:
320,192,11611,1,0,0:0:0:0:
448,192,11708,1,0,0:0:0:0:
64,192,11806,1,0,0:0:0:0:
192,192,11806,1,0,0:0:0:0:
320,192,11902,1,0,0:0:0:0:
64,192,11999,1,0,0:0:0:0:
448,192,11999,1,0,0:0:0:0:
320,192,12096,1,0,0:0:0:0:
64,192,12193,1,0,0:0:0:0:
192,192,12193,1,0,0:0:0:0:
448,192,12290,1,0,0:0:0:0:
192,192,12387,1,0,0:0:0:0:
320,192,12387,1,0,0:0:0:0:
64,192,12483,1,0,0:0:0:0:
192,192,12580,1,0,0:0:0:0:
320,192,12580,1,0,0:0:0:0:
64,192,12774,1,0,0:0:0:0:
192,192,12774,1,0,0:0:0:0:
320,192,12774,1,0,0:0:0:0:
448,192,12774,1,0,0:0:0:0:
192,192,12968,1,0,0:0:0:0:
448,192,12968,1,0,0:0:0:0:
64,192,13162,1,0,0:0:0:0:
192,192,13162,1,0,0:0:0:0:
320,192,13162,1,0,0:0:0:0:
64,192,13356,1,0,0:0:0:0:
320,192,13356,1,0,0:0:0:0:
192,192,13549,1,0,0:0:0:0:
320,192,13549,1,0,0:0:0:0:
448,192,13549,1,0,0:0:0:0:
64,192,13743,1,0,0:0:0:0:
192,192,13743,1,0,0:0:0:0:
64,192,13937,1,0,0:0:0:0:
320,192,13937,1,0,0:0:0:0:
448,192,13937,1,0,0:0:0:0:
192,192,14131,1,0,0:0:0:0:
448,192,14131,1,0,0:0:0:0:
64,192,14324,1,0,0:0:0:0:
192,192,14324,1,0,0:0:0:0:
320,192,14324,1,0,0:0:0:0:
320,192,14519,1,0,0:0:0:0:
448,192,14519,1,0,0:0:0:0:
64,192,14712,1,0,0:0:0:0:
192,192,14712,1,0,0:0:0:0:
448,192,14712,1,0,0:0:0:0:
64,192,14906,1,0,0:0:0:0:
320,192,14906,1,0,0:0:0:0:
64,192,15100,1,0,0:0:0:0:
192,192,15100,1,0,0:0:0:0:
320,192,15100,1,0,0:0:0:0:
448,192,15100,1,0,0:0:0:0:
192,192,15293,1,0,0:0:0:0:
448,192,15293,1,0,0:0:0:0:
64,192,15488,1,0,0:0:0:0:
192,192,15488,1,0,0:0:0:0:
320,192,15488,1,0,0:0:0:0:
448,192,15488,1,0,0:0:0:0:
64,192,15681,1,0,0:0:0:0:
192,192,15681,1,0,0:0:0:0:
320,192,15681,1,0,0:0:0:0:
64,192,15874,1,0,0:0:0:0:
192,192,15874,1,0,0:0:0:0:
320,192,15874,1,0,0:0:0:0:
448,192,15874,1,0,0:0:0:0:
192,192,16069,1,0,0:0:0:0:
320,192,16069,1,0,0:0:0:0:
448,192,16069,1,0,0:0:0:0:
64,192,16262,1,0,0:0:0:0:
192,192,16262,1,0,0:0:0:0:
320,192,16262,1,0,0:0:0:0:
448,192,16262,1,0,0:0:0:0:
64,192,16457,1,0,0:0:0:0:
192,192,16457,1,0,0:0:0:0:
448,192,16457,1,0,0:0:0:0:
64,192,16650,1,0,0:0:0:0:
192,192,16650,1,0,0:0:0:0:
320,192,16650,1,0,0:0:0:0:
448,192,16650,1,0,0:0:0:0:
64,192,16844,1,0,0:0:0:0:
192,192,16844,1,0,0:0:0:0:
320,192,16844,1,0,0:0:0:0:
64,192,17038,1,0,0:0:0:0:
192,192,17038,1,0,0:0:0:0:
320,192,17038,1,0,0:0:0:0:
448,192,17038,1,0,0:0:0:0:
64,192,17231,1,0,0:0:0:0:
320,192,17231,1,0,0:0:0:0:
448,192,17231,1,0,0:0:0:0:
64,192,17426,1,0,0:0:0:0:
192,192,17426,1,0,0:0:0:0:
320,192,17426,1,0,0:0:0:0:
448,192,17426,1,0,0:0:0:0:
192,192,17619,1,0,0:0:0:0:
320,192,17619,1,0,0:0:0:0:
448,192,17619,1,0,0:0:0:0:
64,192,17813,1,0,0:0:0:0:
192,192,17813,1,0,0:0:0:0:
320,192,17813,1,0,0:0:0:0:
448,192,17813,1,0,0:0:0:0:
64,192,18007,1,0,0:0:0:0:
192,192,18007,1,0,0:0:0:0:
320,192,18007,1,0,0:0:0:0:
64,192,18201,1,0,0:0:0:0:
192,192,18201,1,0,0:0:0:0:
320,192,18201,1,0,0:0:0:0:
448,192,18201,1,0,0:0:0:0:
192,192,18394,1,0,0:0:0:0:
320,192,18394,1,0,0:0:0:0:
448,192,18394,1,0,0:0:0:0:
64,192,18588,1,0,0:0:0:0:
192,192,18588,1,0,0:0:0:0:
320,192,18588,1,0,0:0:0:0:
448,192,18588,1,0,0:0:0:0:
64,192,18782,1,0,0:0:0:0:
192,192,18782,1,0,0:0:0:0:
320,192,18782,1,0,0:0:0:0:
64,192,18976,1,0,0:0:0:0:
192,192,18976,1,0,0:0:0:0:
320,192,18976,1,0,0:0:0:0:
448,192,18976,1,0,0:0:0:0:
192,192,19170,1,0,0:0:0:0:
320,192,19170,1,0,0:0:0:0:
448,192,19170,1,0,0:0:0:0:
64,192,19363,1,0,0:0:0:0:
192,192,19363,1,0,0:0:0:0:
320,192,19363,1,0,0:0:0:0:
448,192,19363,1,0,0:0:0:0:
64,192,19557,1,0,0:0:0:0:
192,192,19557,1,0,0:0:0:0:
320,192,19557,1,0,0:0:0:0:
64,192,19751,1,0,0:0:0:0:
192,192,19751,1,0,0:0:0:0:
320,192,19751,1,0,0:0:0:0:
448,192,19751,1,0,0:0:0:0:
64,192,19944,1,0,0:0:0:0:
192,192,19944,1,0,0:0:0:0:
448,192,19944,1,0,0:0:0:0:
64,192,20139,1,0,0:0:0:0:
192,192,20139,1,0,0:0:0:0:
320,192,20139,1,0,0:0:0:0:
448,192,20139,1,0,0:0:0:0:
64,192,20332,1,0,0:0:0:0:
320,192,20332,1,0,0:0:0:0:
448,192,20332,1,0,0:0:0:0:
64,192,20527,1,0,0:0:0:0:
192,192,20527,1,0,0:0:0:0:
320,192,20527,1,0,0:0:0:0:
448,192,20527,1,0,0:0:0:0:
64,192,20720,1,0,0:0:0:0:
192,192,20720,1,0,0:0:0:0:
64,192,20913,1,0,0:0:0:0:
192,192,20913,1,0,0:0:0:0:
320,192,20913,1,0,0:0:0:0:
448,192,20913,1,0,0:0:0:0:
320,192,21108,1,0,0:0:0:0:
448,192,21108,1,0,0:0:0:0:
64,192,21301,1,0,0:0:0:0:
192,192,21301,1,0,0:0:0:0:
320,192,21301,1,0,0:0:0:0:
448,192,21301,1,0,0:0:0:0:
64,192,21496,1,0,0:0:0:0:
192,192,21496,1,0,0:0:0:0:
320,192,21496,1,0,0:0:0:0:
64,192,21689,1,0,0:0:0:0:
192,192,21689,1,0,0:0:0:0:
320,192,21689,1,0,0:0:0:0:
448,192,21689,1,0,0:0:0:0:
192,192,21882,1,0,0:0:0:0:
320,192,21882,1,0,0:0:0:0:
448,192,21882,1,0,0:0:0:0:
192,192,22077,1,0,0:0:0:0:
320,192,22077,1,0,0:0:0:0:
448,192,22077,1,0,0:0:0:0:
64,192,22173,1,0,0:0:0:0:
192,192,22173,1,0,0:0:0:0:
320,192,22173,1,0,0:0:0:0:
448,192,22173,1,0,0:0:0:0:
64,192,22270,1,0,0:0:0:0:
320,192,22270,1,0,0:0:0:0:
448,192,22270,1,0,0:0:0:0:
64,192,22368,1,0,0:0:0:0:
192,192,22368,1,0,0:0:0:0:
320,192,22368,1,0,0:0:0:0:
448,192,22368,1,0,0:0:0:0:
64,192,22464,1,0,0:0:0:0:
192,192,22464,1,0,0:0:0:0:
320,192,22464,1,0,0:0:0:0:
64,192,22561,1,0,0:0:0:0:
192,192,22561,1,0,0:0:0:0:
320,192,22561,1,0,0:0:0:0:
448,192,22561,1,0,0:0:0:0:
192,192,22658,1,0,0:0:0:0:
320,192,22658,1,0,0:0:0:0:
448,192,22658,1,0,0:0:0:0:
64,192,22754,1,0,0:0:0:0:
192,192,22754,1,0,0:0:0:0:
320,192,22754,1,0,0:0:0:0:
448,192,22754,1,0,0:0:0:0:
64,192,22852,1,0,0:0:0:0:
192,192,22852,1,0,0:0:0:0:
448,192,22852,1,0,0:0:0:0:
64,192,22949,1,0,0:0:0:0:
192,192,22949,1,0,0:0:0:0:
320,192,22949,1,0,0:0:0:0:
448,192,22949,1,0,0:0:0:0:
64,192,23046,1,0,0:0:0:0:
192,192,23046,1,0,0:0:0:0:
320,192,23046,1,0,0:0:0:0:
64,192,23142,1,0,0:0:0:0:
192,192,23142,1,0,0:0:0:0:
320,192,23142,1,0,0:0:0:0:
448,192,23142,1,0,0:0:0:0:
192,192,23239,1,0,0:0:0:0:
320,192,23239,1,0,0:0:0:0:
448,192,23239,1,0,0:0:0:0:
64,192,23337,1,0,0:0:0:0:
192,192,23337,1,0,0:0:0:0:
320,192,23337,1,0,0:0:0:0:
64,192,23433,1,0,0:0:0:0:
448,192,23433,1,0,0:0:0:0:
64,192,23627,1,0,0:0:0:0:
448,192,23627,1,0,0:0:0:0:
64,192,23821,1,0,0:0:0:0:
448,192,23821,1,0,0:0:0:0:
192,192,23886,1,0,0:0:0:0:
64,192,24014,1,0,0:0:0:0:
448,192,24014,1,0,0:0:0:0:
64,192,24208,1,0,0:0:0:0:
448,192,24208,1,0,0:0:0:0:
320,192,24273,1,0,0:0:0:0:
64,192,24402,1,0,0:0:0:0:
448,192,24402,1,0,0:0:0:0:
64,192,24596,1,0,0:0:0:0:
448,192,24596,1,0,0:0:0:0:
192,192,24660,1,0,0:0:0:0:
64,192,24790,1,0,0:0:0:0:
448,192,24790,1,0,0:0:0:0:
64,192,24983,1,0,0:0:0:0:
448,192,24983,1,0,0:0:0:0:
320,192,25048,1,0,0:0:0:0:
64,192,25178,1,0,0:0:0:0:
192,192,25178,1,0,0:0:0:0:
320,192,25178,1,0,0:0:0:0:
448,192,25178,1,0,0:0:0:0:
64,192,25564,1,0,0:0:0:0:
192,192,25564,1,0,0:0:0:0:
320,192,25564,1,0,0:0:0:0:
192,192,25952,1,0,0:0:0:0:
320,192,25952,1,0,0:0:0:0:
448,192,25952,1,0,0:0:0:0:
192,192,26082,1,0,0:0:0:0:
64,192,26147,1,0,0:0:0:0:
320,192,26147,1,0,0:0:0:0:
448,192,26147,1,0,0:0:0:0:
192,192,26211,1,0,0:0:0:0:
64,192,26340,1,0,0:0:0:0:
192,192,26340,1,0,0:0:0:0:
320,192,26340,1,0,0:0:0:0:
192,192,26534,1,0,0:0:0:0:
320,192,26534,1,0,0:0:0:0:
448,192,26534,1,0,0:0:0:0:
64,192,26728,1,0,0:0:0:0:
192,192,26728,1,0,0:0:0:0:
64,192,26921,1,0,0:0:0:0:
448,192,26921,1,0,0:0:0:0:
192,192,27116,1,0,0:0:0:0:
320,192,27116,1,0,0:0:0:0:
448,192,27116,1,0,0:0:0:0:
64,192,27309,1,0,0:0:0:0:
192,192,27309,1,0,0:0:0:0:
320,192,27309,1,0,0:0:0:0:
64,192,27503,1,0,0:0:0:0:
192,192,27503,1,0,0:0:0:0:
448,192,27503,1,0,0:0:0:0:
320,192,27632,1,0,0:0:0:0:
64,192,27697,1,0,0:0:0:0:
192,192,27697,1,0,0:0:0:0:
320,192,27761,1,0,0:0:0:0:
64,192,27890,1,0,0:0:0:0:
192,192,27890,1,0,0:0:0:0:
320,192,27890,1,0,0:0:0:0:
448,192,27890,1,0,0:0:0:0:
64,192,28084,1,0,0:0:0:0:
192,192,28084,1,0,0:0:0:0:
320,192,28084,1,0,0:0:0:0:
64,192,28278,1,0,0:0:0:0:
192,192,28278,1,0,0:0:0:0:
320,192,28278,1,0,0:0:0:0:
448,192,28278,1,0,0:0:0:0:
192,192,28472,1,0,0:0:0:0:
320,192,28472,1,0,0:0:0:0:
448,192,28472,1,0,0:0:0:0:
64,192,28666,1,0,0:0:0:0:
192,192,28666,1,0,0:0:0:0:
320,192,28666,1,0,0:0:0:0:
448,192,28666,1,0,0:0:0:0:
64,192,28860,1,0,0:0:0:0:
192,192,28860,1,0,0:0:0:0:
448,192,28860,1,0,0:0:0:0:
64,192,29053,1,0,0:0:0:0:
192,192,29053,1,0,0:0:0:0:
320,192,29053,1,0,0:0:0:0:
448,192,29053,1,0,0:0:0:0:
448,192,29182,1,0,0:0:0:0:
64,192,29247,1,0,0:0:0:0:
192,192,29247,1,0,0:0:0:0:
320,192,29312,1,0,0:0:0:0:
64,192,29441,1,0,0:0:0:0:
192,192,29441,1,0,0:0:0:0:
320,192,29441,1,0,0:0:0:0:
448,192,29441,1,0,0:0:0:0:
64,192,29634,1,0,0:0:0:0:
192,192,29634,1,0,0:0:0:0:
448,192,29634,1,0,0:0:0:0:
64,192,29829,1,0,0:0:0:0:
192,192,29829,1,0,0:0:0:0:
320,192,29829,1,0,0:0:0:0:
448,192,29829,1,0,0:0:0:0:
192,192,30022,1,0,0:0:0:0:
320,192,30022,1,0,0:0:0:0:
448,192,30022,1,0,0:0:0:0:
64,192,30216,1,0,0:0:0:0:
192,192,30216,1,0,0:0:0:0:
320,192,30216,1,0,0:0:0:0:
448,192,30216,1,0,0:0:0:0:
64,192,30410,1,0,0:0:0:0:
192,192,30410,1,0,0:0:0:0:
320,192,30410,1,0,0:0:0:0:
64,192,30603,1,0,0:0:0:0:
192,192,30603,1,0,0:0:0:0:
320,192,30603,1,0,0:0:0:0:
448,192,30603,1,0,0:0:0:0:
64,192,30798,1,0,0:0:0:0:
320,192,30798,1,0,0:0:0:0:
448,192,30798,1,0,0:0:0:0:
64,192,30991,1,0,0:0:0:0:
192,192,30991,1,0,0:0:0:0:
320,192,30991,1,0,0:0:0:0:
448,192,30991,1,0,0:0:0:0:
64,192,31186,1,0,0:0:0:0:
192,192,31186,1,0,0:0:0:0:
320,192,31186,1,0,0:0:0:0:
64,192,31379,1,0,0:0:0:0:
192,192,31379,1,0,0:0:0:0:
320,192,31379,1,0,0:0:0:0:
448,192,31379,1,0,0:0:0:0:
64,192,31572,1,0,0:0:0:0:
448,192,31572,1,0,0:0:0:0:
64,192,31767,1,0,0:0:0:0:
192,192,31767,1,0,0:0:0:0:
320,192,31767,1,0,0:0:0:0:
448,192,31767,1,0,0:0:0:0:
320,192,31896,1,0,0:0:0:0:
64,192,31960,1,0,0:0:0:0:
192,192,31960,1,0,0:0:0:0:
320,192,32024,1,0,0:0:0:0:
64,192,32154,1,0,0:0:0:0:
192,192,32154,1,0,0:0:0:0:
448,192,32154,1,0,0:0:0:0:
64,192,32348,1,0,0:0:0:0:
192,192,32348,1,0,0:0:0:0:
64,192,32541,1,0,0:0:0:0:
192,192,32541,1,0,0:0:0:0:
320,192,32541,1,0,0:0:0:0:
448,192,32541,1,0,0:0:0:0:
64,192,32736,1,0,0:0:0:0:
192,192,32736,1,0,0:0:0:0:
320,192,32736,1,0,0:0:0:0:
64,192,32929,1,0,0:0:0:0:
192,192,32929,1,0,0:0:0:0:
320,192,32929,1,0,0:0:0:0:
448,192,32929,1,0,0:0:0:0:
192,192,33123,1,0,0:0:0:0:
320,192,33123,1,0,0:0:0:0:
448,192,33123,1,0,0:0:0:0:
64,192,33317,1,0,0:0:0:0:
192,192,33317,1,0,0:0:0:0:
320,192,33317,1,0,0:0:0:0:
448,192,33317,1,0,0:0:0:0:
64,192,33511,1,0,0:0:0:0:
192,192,33511,1,0,0:0:0:0:
448,192,33511,1,0,0:0:0:0:
64,192,33704,1,0,0:0:0:0:
192,192,33704,1,0,0:0:0:0:
320,192,33704,1,0,0:0:0:0:
448,192,33704,1,0,0:0:0:0:
320,192,33833,1,0,0:0:0:0:
64,192,33898,1,0,0:0:0:0:
448,192,33898,1,0,0:0:0:0:
192,192,33963,1,0,0:0:0:0:
320,192,33963,1,0,0:0:0:0:
64,192,34092,1,0,0:0:0:0:
192,192,34092,1,0,0:0:0:0:
320,192,34092,1,0,0:0:0:0:
448,192,34092,1,0,0:0:0:0:
64,192,34286,1,0,0:0:0:0:
192,192,34286,1,0,0:0:0:0:
448,192,34286,1,0,0:0:0:0:
64,192,34480,1,0,0:0:0:0:
192,192,34480,1,0,0:0:0:0:
320,192,34480,1,0,0:0:0:0:
448,192,34480,1,0,0:0:0:0:
192,192,34673,1,0,0:0:0:0:
320,192,34673,1,0,0:0:0:0:
448,192,34673,1,0,0:0:0:0:
64,192,35061,1,0,0:0:0:0:
192,192,35061,1,0,0:0:0:0:
320,192,35061,1,0,0:0:0:0:
64,192,35254,1,0,0:0:0:0:
192,192,35254,1,0,0:0:0:0:
320,192,35254,1,0,0:0:0:0:
448,192,35254,1,0,0:0:0:0:
192,192,35449,1,0,0:0:0:0:
320,192,35449,1,0,0:0:0:0:
64,192,35837,1,0,0:0:0:0:
192,192,35837,1,0,0:0:0:0:
320,192,35837,1,0,0:0:0:0:
192,192,36030,1,0,0:0:0:0:
320,192,36030,1,0,0:0:0:0:
448,192,36030,1,0,0:0:0:0:
64,192,36418,1,0,0:0:0:0:
192,192,36418,1,0,0:0:0:0:
320,192,36418,1,0,0:0:0:0:
448,192,36418,1,0,0:0:0:0:
64,192,36806,1,0,0:0:0:0:
192,192,36806,1,0,0:0:0:0:
320,192,36806,1,0,0:0:0:0:
64,192,36999,1,0,0:0:0:0:
192,192,36999,1,0,0:0:0:0:
320,192,36999,1,0,0:0:0:0:
192,192,37193,1,0,0:0:0:0:
320,192,37193,1,0,0:0:0:0:
448,192,37193,1,0,0:0:0:0:
192,192,37387,1,0,0:0:0:0:
448,192,37387,1,0,0:0:0:0:
64,192,37580,1,0,0:0:0:0:
192,192,37580,1,0,0:0:0:0:
320,192,37580,1,0,0:0:0:0:
448,192,37580,1,0,0:0:0:0:
192,192,37774,1,0,0:0:0:0:
448,192,37774,1,0,0:0:0:0:
64,192,37968,1,0,0:0:0:0:
192,192,37968,1,0,0:0:0:0:
448,192,37968,1,0,0:0:0:0:
64,192,38356,1,0,0:0:0:0:
192,192,38356,1,0,0:0:0:0:
320,192,38356,1,0,0:0:0:0:
192,192,38484,1,0,0:0:0:0:
320,192,38484,1,0,0:0:0:0:
64,192,38549,1,0,0:0:0:0:
448,192,38549,1,0,0:0:0:0:
192,192,38614,1,0,0:0:0:0:
320,192,38614,1,0,0:0:0:0:
64,192,38743,1,0,0:0:0:0:
192,192,38743,1,0,0:0:0:0:
320,192,38743,1,0,0:0:0:0:
192,192,39131,1,0,0:0:0:0:
320,192,39131,1,0,0:0:0:0:
448,192,39131,1,0,0:0:0:0:
64,192,39260,1,0,0:0:0:0:
192,192,39324,1,0,0:0:0:0:
320,192,39324,1,0,0:0:0:0:
64,192,39389,1,0,0:0:0:0:
448,192,39389,1,0,0:0:0:0:
192,192,39519,1,0,0:0:0:0:
320,192,39519,1,0,0:0:0:0:
448,192,39519,1,0,0:0:0:0:
192,192,39712,1,0,0:0:0:0:
320,192,39712,1,0,0:0:0:0:
64,192,39906,1,0,0:0:0:0:
448,192,39938,1,0,0:0:0:0:
192,192,39971,1,0,0:0:0:0:
64,192,40003,1,0,0:0:0:0:
448,192,40036,1,0,0:0:0:0:
192,192,40068,1,0,0:0:0:0:
320,192,40100,1,0,0:0:0:0:
448,192,40293,1,0,0:0:0:0:
64,192,40326,1,0,0:0:0:0:
320,192,40358,1,0,0:0:0:0:
448,192,40390,1,0,0:0:0:0:
64,192,40423,1,0,0:0:0:0:
320,192,40456,1,0,0:0:0:0:
192,192,40488,1,0,0:0:0:0:
64,192,40681,1,0,0:0:0:0:
192,192,40681,1,0,0:0:0:0:
320,192,40681,1,0,0:0:0:0:
64,192,40874,1,0,0:0:0:0:
448,192,40874,1,0,0:0:0:0:
192,192,41069,1,0,0:0:0:0:
320,192,41069,1,0,0:0:0:0:
448,192,41069,1,0,0:0:0:0:
64,192,41262,1,0,0:0:0:0:
448,192,41262,1,0,0:0:0:0:
64,192,41457,1,0,0:0:0:0:
192,192,41457,1,0,0:0:0:0:
320,192,41457,1,0,0:0:0:0:
192,192,41553,1,0,0:0:0:0:
64,192,41650,1,0,0:0:0:0:
320,192,41650,1,0,0:0:0:0:
448,192,41650,1,0,0:0:0:0:
320,192,41747,1,0,0:0:0:0:
64,192,41844,1,0,0:0:0:0:
192,192,41844,1,0,0:0:0:0:
448,192,41844,1,0,0:0:0:0:
192,192,42038,1,0,0:0:0:0:
320,192,42038,1,0,0:0:0:0:
64,192,42231,1,0,0:0:0:0:
192,192,42231,1,0,0:0:0:0:
320,192,42231,1,0,0:0:0:0:
192,192,42329,1,0,0:0:0:0:
64,192,42426,1,0,0:0:0:0:
320,192,42426,1,0,0:0:0:0:
64,192,42522,1,0,0:0:0:0:
192,192,42619,1,0,0:0:0:0:
320,192,42619,1,0,0:0:0:0:
448,192,42619,1,0,0:0:0:0:
320,192,42716,1,0,0:0:0:0:
192,192,42813,1,0,0:0:0:0:
448,192,42813,1,0,0:0:0:0:
192,192,42910,1,0,0:0:0:0:
448,192,43007,1,0,0:0:0:0:
64,192,43039,1,0,0:0:0:0:
320,192,43071,1,0,0:0:0:0:
448,192,43103,1,0,0:0:0:0:
64,192,43136,1,0,0:0:0:0:
320,192,43168,1,0,0:0:0:0:
192,192,43201,1,0,0:0:0:0:
64,192,43298,1,0,0:0:0:0:
448,192,43298,1,0,0:0:0:0:
448,192,43394,1,0,0:0:0:0:
64,192,43427,1,0,0:0:0:0:
192,192,43459,1,0,0:0:0:0:
448,192,43491,1,0,0:0:0:0:
64,192,43523,1,0,0:0:0:0:
192,192,43556,1,0,0:0:0:0:
320,192,43588,1,0,0:0:0:0:
64,192,43686,1,0,0:0:0:0:
448,192,43686,1,0,0:0:0:0:
64,192,43782,1,0,0:0:0:0:
320,192,43782,1,0,0:0:0:0:
448,192,43782,1,0,0:0:0:0:
64,192,43879,1,0,0:0:0:0:
192,192,43879,1,0,0:0:0:0:
320,192,43879,1,0,0:0:0:0:
448,192,43879,1,0,0:0:0:0:
192,192,43976,1,0,0:0:0:0:
320,192,43976,1,0,0:0:0:0:
448,192,43976,1,0,0:0:0:0:
64,192,44072,1,0,0:0:0:0:
192,192,44072,1,0,0:0:0:0:
320,192,44072,1,0,0:0:0:0:
448,192,44072,1,0,0:0:0:0:
64,192,44170,1,0,0:0:0:0:
192,192,44170,1,0,0:0:0:0:
320,192,44170,1,0,0:0:0:0:
64,192,44267,1,0,0:0:0:0:
192,192,44267,1,0,0:0:0:0:
320,192,44267,1,0,0:0:0:0:
448,192,44267,1,0,0:0:0:0:
64,192,44363,1,0,0:0:0:0:
320,192,44363,1,0,0:0:0:0:
448,192,44363,1,0,0:0:0:0:
64,192,44460,1,0,0:0:0:0:
192,192,44460,1,0,0:0:0:0:
320,192,44460,1,0,0:0:0:0:
448,192,44460,1,0,0:0:0:0:
64,192,44557,1,0,0:0:0:0:
192,192,44557,1,0,0:0:0:0:
320,192,44557,1,0,0:0:0:0:
64,192,44654,1,0,0:0:0:0:
192,192,44654,1,0,0:0:0:0:
320,192,44654,1,0,0:0:0:0:
448,192,44654,1,0,0:0:0:0:
192,192,44751,1,0,0:0:0:0:
320,192,44751,1,0,0:0:0:0:
448,192,44751,1,0,0:0:0:0:
64,192,44848,1,0,0:0:0:0:
192,192,44848,1,0,0:0:0:0:
320,192,44848,1,0,0:0:0:0:
448,192,44848,1,0,0:0:0:0:
64,192,44944,1,0,0:0:0:0:
192,192,44944,1,0,0:0:0:0:
448,192,44944,1,0,0:0:0:0:
64,192,45041,1,0,0:0:0:0:
192,192,45041,1,0,0:0:0:0:
320,192,45041,1,0,0:0:0:0:
448,192,45041,1,0,0:0:0:0:
192,192,45139,1,0,0:0:0:0:
320,192,45139,1,0,0:0:0:0:
448,192,45139,1,0,0:0:0:0:
64,192,45236,1,0,0:0:0:0:
192,192,45236,1,0,0:0:0:0:
320,192,45236,1,0,0:0:0:0:
448,192,45236,1,0,0:0:0:0:
64,192,45332,1,0,0:0:0:0:
320,192,45332,1,0,0:0:0:0:
448,192,45332,1,0,0:0:0:0:
64,192,45429,1,0,0:0:0:0:
192,192,45429,1,0,0:0:0:0:
320,192,45429,1,0,0:0:0:0:
448,192,45429,1,0,0:0:0:0:
64,192,45527,1,0,0:0:0:0:
192,192,45527,1,0,0:0:0:0:
448,192,45527,1,0,0:0:0:0:
64,192,45623,1,0,0:0:0:0:
192,192,45623,1,0,0:0:0:0:
320,192,45623,1,0,0:0:0:0:
448,192,45623,1,0,0:0:0:0:
64,192,45720,1,0,0:0:0:0:
192,192,45720,1,0,0:0:0:0:
320,192,45720,1,0,0:0:0:0:
64,192,45817,1,0,0:0:0:0:
192,192,45817,1,0,0:0:0:0:
320,192,45817,1,0,0:0:0:0:
448,192,45817,1,0,0:0:0:0:
192,192,45913,1,0,0:0:0:0:
320,192,45913,1,0,0:0:0:0:
448,192,45913,1,0,0:0:0:0:
64,192,46011,1,0,0:0:0:0:
192,192,46011,1,0,0:0:0:0:
320,192,46011,1,0,0:0:0:0:
448,192,46011,1,0,0:0:0:0:
64,192,46108,1,0,0:0:0:0:
448,192,46140,1,0,0:0:0:0:
192,192,46172,1,0,0:0:0:0:
64,192,46204,1,0,0:0:0:0:
448,192,46237,1,0,0:0:0:0:
192,192,46269,1,0,0:0:0:0:
320,192,46301,1,0,0:0:0:0:
64,192,46398,1,0,0:0:0:0:
448,192,46398,1,0,0:0:0:0:
64,192,46496,1,0,0:0:0:0:
448,192,46528,1,0,0:0:0:0:
192,192,46560,1,0,0:0:0:0:
64,192,46592,1,0,0:0:0:0:
448,192,46624,1,0,0:0:0:0:
192,192,46657,1,0,0:0:0:0:
320,192,46689,1,0,0:0:0:0:
64,192,46786,1,0,0:0:0:0:
448,192,46786,1,0,0:0:0:0:
64,192,46882,1,0,0:0:0:0:
320,192,46882,1,0,0:0:0:0:
448,192,46882,1,0,0:0:0:0:
64,192,46980,1,0,0:0:0:0:
192,192,46980,1,0,0:0:0:0:
320,192,46980,1,0,0:0:0:0:
448,192,46980,1,0,0:0:0:0:
192,192,47077,1,0,0:0:0:0:
320,192,47077,1,0,0:0:0:0:
448,192,47077,1,0,0:0:0:0:
64,192,47173,1,0,0:0:0:0:
192,192,47173,1,0,0:0:0:0:
320,192,47173,1,0,0:0:0:0:
448,192,47173,1,0,0:0:0:0:
64,192,47270,1,0,0:0:0:0:
192,192,47270,1,0,0:0:0:0:
320,192,47270,1,0,0:0:0:0:
64,192,47368,1,0,0:0:0:0:
192,192,47368,1,0,0:0:0:0:
320,192,47368,1,0,0:0:0:0:
448,192,47368,1,0,0:0:0:0:
64,192,47464,1,0,0:0:0:0:
320,192,47464,1,0,0:0:0:0:
448,192,47464,1,0,0:0:0:0:
64,192,47561,1,0,0:0:0:0:
192,192,47561,1,0,0:0:0:0:
320,192,47561,1,0,0:0:0:0:
448,192,47561,1,0,0:0:0:0:
64,192,47658,1,0,0:0:0:0:
192,192,47658,1,0,0:0:0:0:
320,192,47658,1,0,0:0:0:0:
64,192,47754,1,0,0:0:0:0:
192,192,47754,1,0,0:0:0:0:
320,192,47754,1,0,0:0:0:0:
448,192,47754,1,0,0:0:0:0:
192,192,47852,1,0,0:0:0:0:
320,192,47852,1,0,0:0:0:0:
448,192,47852,1,0,0:0:0:0:
64,192,47949,1,0,0:0:0:0:
192,192,47949,1,0,0:0:0:0:
320,192,47949,1,0,0:0:0:0:
448,192,47949,1,0,0:0:0:0:
64,192,48046,1,0,0:0:0:0:
192,192,48046,1,0,0:0:0:0:
448,192,48046,1,0,0:0:0:0:
64,192,48142,1,0,0:0:0:0:
192,192,48142,1,0,0:0:0:0:
320,192,48142,1,0,0:0:0:0:
448,192,48142,1,0,0:0:0:0:
192,192,48239,1,0,0:0:0:0:
320,192,48239,1,0,0:0:0:0:
448,192,48239,1,0,0:0:0:0:
64,192,48337,1,0,0:0:0:0:
192,192,48337,1,0,0:0:0:0:
320,192,48337,1,0,0:0:0:0:
448,192,48337,1,0,0:0:0:0:
64,192,48433,1,0,0:0:0:0:
448,192,48466,1,0,0:0:0:0:
192,192,48498,1,0,0:0:0:0:
64,192,48530,1,0,0:0:0:0:
448,192,48562,1,0,0:0:0:0:
192,192,48594,1,0,0:0:0:0:
320,192,48627,1,0,0:0:0:0:
64,192,48723,1,0,0:0:0:0:
448,192,48723,1,0,0:0:0:0:
448,192,48821,1,0,0:0:0:0:
64,192,48853,1,0,0:0:0:0:
320,192,48886,1,0,0:0:0:0:
448,192,48918,1,0,0:0:0:0:
64,192,48950,1,0,0:0:0:0:
320,192,48982,1,0,0:0:0:0:
192,192,49014,1,0,0:0:0:0:
64,192,49111,1,0,0:0:0:0:
192,192,49111,1,0,0:0:0:0:
320,192,49111,1,0,0:0:0:0:
448,192,49111,1,0,0:0:0:0:
64,192,49208,1,0,0:0:0:0:
192,192,49208,1,0,0:0:0:0:
320,192,49208,1,0,0:0:0:0:
192,192,49273,1,0,0:0:0:0:
64,192,49338,1,0,0:0:0:0:
320,192,49338,1,0,0:0:0:0:
448,192,49338,1,0,0:0:0:0:
448,192,49402,1,0,0:0:0:0:
64,192,49467,1,0,0:0:0:0:
192,192,49467,1,0,0:0:0:0:
320,192,49467,1,0,0:0:0:0:
192,192,49531,1,0,0:0:0:0:
64,192,49596,1,0,0:0:0:0:
320,192,49596,1,0,0:0:0:0:
448,192,49596,1,0,0:0:0:0:
320,192,49660,1,0,0:0:0:0:
64,192,49726,1,0,0:0:0:0:
192,192,49726,1,0,0:0:0:0:
448,192,49726,1,0,0:0:0:0:
192,192,49790,1,0,0:0:0:0:
64,192,49854,1,0,0:0:0:0:
320,192,49854,1,0,0:0:0:0:
448,192,49854,1,0,0:0:0:0:
64,192,49919,1,0,0:0:0:0:
192,192,49983,1,0,0:0:0:0:
320,192,49983,1,0,0:0:0:0:
448,192,49983,1,0,0:0:0:0:
64,192,50080,1,0,0:0:0:0:
192,192,50080,1,0,0:0:0:0:
320,192,50080,1,0,0:0:0:0:
448,192,50080,1,0,0:0:0:0:
64,192,50178,1,0,0:0:0:0:
320,192,50178,1,0,0:0:0:0:
448,192,50178,1,0,0:0:0:0:
64,192,50274,1,0,0:0:0:0:
192,192,50274,1,0,0:0:0:0:
320,192,50274,1,0,0:0:0:0:
448,192,50274,1,0,0:0:0:0:
64,192,50371,1,0,0:0:0:0:
192,192,50371,1,0,0:0:0:0:
320,192,50371,1,0,0:0:0:0:
64,192,50468,1,0,0:0:0:0:
192,192,50468,1,0,0:0:0:0:
320,192,50468,1,0,0:0:0:0:
448,192,50468,1,0,0:0:0:0:
192,192,50564,1,0,0:0:0:0:
320,192,50564,1,0,0:0:0:0:
448,192,50564,1,0,0:0:0:0:
64,192,50662,1,0,0:0:0:0:
192,192,50662,1,0,0:0:0:0:
320,192,50662,1,0,0:0:0:0:
448,192,50662,1,0,0:0:0:0:
64,192,50759,1,0,0:0:0:0:
192,192,50759,1,0,0:0:0:0:
320,192,50759,1,0,0:0:0:0:
64,192,50856,1,0,0:0:0:0:
192,192,50856,1,0,0:0:0:0:
320,192,50856,1,0,0:0:0:0:
448,192,50856,1,0,0:0:0:0:
64,192,50952,1,0,0:0:0:0:
320,192,50952,1,0,0:0:0:0:
448,192,50952,1,0,0:0:0:0:
64,192,51049,1,0,0:0:0:0:
192,192,51049,1,0,0:0:0:0:
320,192,51049,1,0,0:0:0:0:
448,192,51049,1,0,0:0:0:0:
64,192,51147,1,0,0:0:0:0:
320,192,51147,1,0,0:0:0:0:
448,192,51147,1,0,0:0:0:0:
64,192,51243,1,0,0:0:0:0:
192,192,51243,1,0,0:0:0:0:
320,192,51243,1,0,0:0:0:0:
448,192,51243,1,0,0:0:0:0:
192,192,51340,1,0,0:0:0:0:
320,192,51340,1,0,0:0:0:0:
448,192,51340,1,0,0:0:0:0:
64,192,51437,1,0,0:0:0:0:
192,192,51437,1,0,0:0:0:0:
320,192,51437,1,0,0:0:0:0:
448,192,51437,1,0,0:0:0:0:
64,192,51534,1,0,0:0:0:0:
192,192,51534,1,0,0:0:0:0:
320,192,51534,1,0,0:0:0:0:
64,192,51631,1,0,0:0:0:0:
192,192,51631,1,0,0:0:0:0:
320,192,51631,1,0,0:0:0:0:
448,192,51631,1,0,0:0:0:0:
64,192,51728,1,0,0:0:0:0:
320,192,51728,1,0,0:0:0:0:
448,192,51728,1,0,0:0:0:0:
64,192,51824,1,0,0:0:0:0:
192,192,51824,1,0,0:0:0:0:
320,192,51824,1,0,0:0:0:0:
448,192,51824,1,0,0:0:0:0:
64,192,51921,1,0,0:0:0:0:
192,192,51921,1,0,0:0:0:0:
320,192,51921,1,0,0:0:0:0:
64,192,52019,1,0,0:0:0:0:
192,192,52019,1,0,0:0:0:0:
320,192,52019,1,0,0:0:0:0:
448,192,52019,1,0,0:0:0:0:
192,192,52116,1,0,0:0:0:0:
320,192,52116,1,0,0:0:0:0:
448,192,52116,1,0,0:0:0:0:
64,192,52212,1,0,0:0:0:0:
192,192,52212,1,0,0:0:0:0:
320,192,52212,1,0,0:0:0:0:
448,192,52212,1,0,0:0:0:0:
64,192,52309,1,0,0:0:0:0:
192,192,52309,1,0,0:0:0:0:
448,192,52309,1,0,0:0:0:0:
64,192,52406,1,0,0:0:0:0:
192,192,52406,1,0,0:0:0:0:
320,192,52406,1,0,0:0:0:0:
448,192,52406,1,0,0:0:0:0:
192,192,52503,1,0,0:0:0:0:
320,192,52503,1,0,0:0:0:0:
448,192,52503,1,0,0:0:0:0:
64,192,52600,1,0,0:0:0:0:
192,192,52600,1,0,0:0:0:0:
320,192,52600,1,0,0:0:0:0:
448,192,52600,1,0,0:0:0:0:
64,192,52697,1,0,0:0:0:0:
320,192,52697,1,0,0:0:0:0:
448,192,52697,1,0,0:0:0:0:
64,192,52793,1,0,0:0:0:0:
192,192,52793,1,0,0:0:0:0:
320,192,52793,1,0,0:0:0:0:
448,192,52793,1,0,0:0:0:0:
64,192,52890,1,0,0:0:0:0:
192,192,52890,1,0,0:0:0:0:
448,192,52890,1,0,0:0:0:0:
64,192,52988,1,0,0:0:0:0:
192,192,52988,1,0,0:0:0:0:
320,192,52988,1,0,0:0:0:0:
448,192,52988,1,0,0:0:0:0:
64,192,53084,1,0,0:0:0:0:
192,192,53084,1,0,0:0:0:0:
320,192,53084,1,0,0:0:0:0:
64,192,53181,1,0,0:0:0:0:
192,192,53181,1,0,0:0:0:0:
320,192,53181,1,0,0:0:0:0:
448,192,53181,1,0,0:0:0:0:
192,192,53278,1,0,0:0:0:0:
320,192,53278,1,0,0:0:0:0:
448,192,53278,1,0,0:0:0:0:
64,192,53374,1,0,0:0:0:0:
192,192,53374,1,0,0:0:0:0:
320,192,53374,1,0,0:0:0:0:
448,192,53374,1,0,0:0:0:0:
64,192,53472,1,0,0:0:0:0:
192,192,53472,1,0,0:0:0:0:
448,192,53472,1,0,0:0:0:0:
64,192,53569,1,0,0:0:0:0:
192,192,53569,1,0,0:0:0:0:
320,192,53569,1,0,0:0:0:0:
448,192,53569,1,0,0:0:0:0:
64,192,53666,1,0,0:0:0:0:
192,192,53666,1,0,0:0:0:0:
320,192,53666,1,0,0:0:0:0:
64,192,53762,1,0,0:0:0:0:
192,192,53762,1,0,0:0:0:0:
320,192,53762,1,0,0:0:0:0:
448,192,53762,1,0,0:0:0:0:
192,192,53860,1,0,0:0:0:0:
320,192,53860,1,0,0:0:0:0:
448,192,53860,1,0,0:0:0:0:
64,192,53957,1,0,0:0:0:0:
192,192,53957,1,0,0:0:0:0:
320,192,53957,1,0,0:0:0:0:
448,192,53957,1,0,0:0:0:0:
64,192,54053,1,0,0:0:0:0:
192,192,54053,1,0,0:0:0:0:
448,192,54053,1,0,0:0:0:0:
64,192,54150,1,0,0:0:0:0:
192,192,54150,1,0,0:0:0:0:
320,192,54150,1,0,0:0:0:0:
448,192,54150,1,0,0:0:0:0:
192,192,54247,1,0,0:0:0:0:
320,192,54247,1,0,0:0:0:0:
448,192,54247,1,0,0:0:0:0:
64,192,54344,1,0,0:0:0:0:
192,192,54344,1,0,0:0:0:0:
320,192,54344,1,0,0:0:0:0:
448,192,54344,1,0,0:0:0:0:
64,192,54441,1,0,0:0:0:0:
192,192,54441,1,0,0:0:0:0:
320,192,54441,1,0,0:0:0:0:
64,192,54538,1,0,0:0:0:0:
192,192,54538,1,0,0:0:0:0:
320,192,54538,1,0,0:0:0:0:
448,192,54538,1,0,0:0:0:0:
64,192,54634,1,0,0:0:0:0:
320,192,54634,1,0,0:0:0:0:
448,192,54634,1,0,0:0:0:0:
64,192,54731,1,0,0:0:0:0:
192,192,54731,1,0,0:0:0:0:
320,192,54731,1,0,0:0:0:0:
448,192,54731,1,0,0:0:0:0:
64,192,54829,1,0,0:0:0:0:
192,192,54829,1,0,0:0:0:0:
320,192,54829,1,0,0:0:0:0:
64,192,54926,1,0,0:0:0:0:
192,192,54926,1,0,0:0:0:0:
320,192,54926,1,0,0:0:0:0:
448,192,54926,1,0,0:0:0:0:
64,192,55022,1,0,0:0:0:0:
192,192,55022,1,0,0:0:0:0:
448,192,55022,1,0,0:0:0:0:
64,192,55119,1,0,0:0:0:0:
192,192,55119,1,0,0:0:0:0:
320,192,55119,1,0,0:0:0:0:
448,192,55119,1,0,0:0:0:0:
64,192,55216,1,0,0:0:0:0:
320,192,55216,1,0,0:0:0:0:
448,192,55216,1,0,0:0:0:0:
64,192,55313,1,0,0:0:0:0:
192,192,55313,1,0,0:0:0:0:
320,192,55313,1,0,0:0:0:0:
448,192,55313,1,0,0:0:0:0:
192,192,55410,1,0,0:0:0:0:
320,192,55410,1,0,0:0:0:0:
448,192,55410,1,0,0:0:0:0:
64,192,55507,1,0,0:0:0:0:
192,192,55507,1,0,0:0:0:0:
320,192,55507,1,0,0:0:0:0:
448,192,55507,1,0,0:0:0:0:
64,192,55603,1,0,0:0:0:0:
192,192,55603,1,0,0:0:0:0:
320,192,55603,1,0,0:0:0:0:
64,192,55701,1,0,0:0:0:0:
192,192,55701,1,0,0:0:0:0:
320,192,55701,1,0,0:0:0:0:
448,192,55701,1,0,0:0:0:0:
64,192,55798,1,0,0:0:0:0:
192,192,55798,1,0,0:0:0:0:
448,192,55798,1,0,0:0:0:0:
64,192,55894,1,0,0:0:0:0:
192,192,55894,1,0,0:0:0:0:
320,192,55894,1,0,0:0:0:0:
448,192,55894,1,0,0:0:0:0:
192,192,55991,1,0,0:0:0:0:
320,192,55991,1,0,0:0:0:0:
448,192,55991,1,0,0:0:0:0:
64,192,56088,1,0,0:0:0:0:
192,192,56088,1,0,0:0:0:0:
320,192,56088,1,0,0:0:0:0:
448,192,56088,1,0,0:0:0:0:
64,192,56186,1,0,0:0:0:0:
192,192,56186,1,0,0:0:0:0:
320,192,56186,1,0,0:0:0:0:
64,192,56282,1,0,0:0:0:0:
192,192,56282,1,0,0:0:0:0:
320,192,56282,1,0,0:0:0:0:
448,192,56282,1,0,0:0:0:0:
64,192,56379,1,0,0:0:0:0:
192,192,56379,1,0,0:0:0:0:
448,192,56379,1,0,0:0:0:0:
64,192,56476,1,0,0:0:0:0:
192,192,56476,1,0,0:0:0:0:
320,192,56476,1,0,0:0:0:0:
448,192,56476,1,0,0:0:0:0:
64,192,56572,1,0,0:0:0:0:
192,192,56572,1,0,0:0:0:0:
320,192,56572,1,0,0:0:0:0:
64,192,56670,1,0,0:0:0:0:
192,192,56670,1,0,0:0:0:0:
320,192,56670,1,0,0:0:0:0:
448,192,56670,1,0,0:0:0:0:
192,192,56767,1,0,0:0:0:0:
320,192,56767,1,0,0:0:0:0:
448,192,56767,1,0,0:0:0:0:
64,192,56863,1,0,0:0:0:0:
192,192,56863,1,0,0:0:0:0:
320,192,56863,1,0,0:0:0:0:
448,192,56863,1,0,0:0:0:0:
64,192,56960,1,0,0:0:0:0:
320,192,56960,1,0,0:0:0:0:
448,192,56960,1,0,0:0:0:0:
64,192,57057,1,0,0:0:0:0:
192,192,57057,1,0,0:0:0:0:
320,192,57057,1,0,0:0:0:0:
448,192,57057,1,0,0:0:0:0:
192,192,57154,1,0,0:0:0:0:
320,192,57154,1,0,0:0:0:0:
448,192,57154,1,0,0:0:0:0:
64,192,57251,1,0,0:0:0:0:
192,192,57251,1,0,0:0:0:0:
320,192,57251,1,0,0:0:0:0:
448,192,57251,1,0,0:0:0:0:
64,192,57348,1,0,0:0:0:0:
192,192,57348,1,0,0:0:0:0:
448,192,57348,1,0,0:0:0:0:
64,192,57444,1,0,0:0:0:0:
192,192,57444,1,0,0:0:0:0:
320,192,57444,1,0,0:0:0:0:
448,192,57444,1,0,0:0:0:0:
64,192,57541,1,0,0:0:0:0:
320,192,57541,1,0,0:0:0:0:
448,192,57541,1,0,0:0:0:0:
64,192,57639,1,0,0:0:0:0:
192,192,57639,1,0,0:0:0:0:
320,192,57639,1,0,0:0:0:0:
448,192,57639,1,0,0:0:0:0:
64,192,57736,1,0,0:0:0:0:
192,192,57736,1,0,0:0:0:0:
320,192,57736,1,0,0:0:0:0:
64,192,57832,1,0,0:0:0:0:
192,192,57832,1,0,0:0:0:0:
320,192,57832,1,0,0:0:0:0:
448,192,57832,1,0,0:0:0:0:
192,192,57929,1,0,0:0:0:0:
320,192,57929,1,0,0:0:0:0:
448,192,57929,1,0,0:0:0:0:
64,192,58027,1,0,0:0:0:0:
192,192,58027,1,0,0:0:0:0:
320,192,58027,1,0,0:0:0:0:
448,192,58027,1,0,0:0:0:0:
64,192,58123,1,0,0:0:0:0:
320,192,58123,1,0,0:0:0:0:
448,192,58123,1,0,0:0:0:0:
64,192,58220,1,0,0:0:0:0:
192,192,58220,1,0,0:0:0:0:
320,192,58220,1,0,0:0:0:0:
448,192,58220,1,0,0:0:0:0:
192,192,58317,1,0,0:0:0:0:
320,192,58317,1,0,0:0:0:0:
448,192,58317,1,0,0:0:0:0:
64,192,58413,1,0,0:0:0:0:
192,192,58413,1,0,0:0:0:0:
320,192,58413,1,0,0:0:0:0:
448,192,58413,1,0,0:0:0:0:
64,192,58511,1,0,0:0:0:0:
192,192,58511,1,0,0:0:0:0:
320,192,58511,1,0,0:0:0:0:
64,192,58608,1,0,0:0:0:0:
192,192,58608,1,0,0:0:0:0:
320,192,58608,1,0,0:0:0:0:
448,192,58608,1,0,0:0:0:0:
64,192,58704,1,0,0:0:0:0:
320,192,58704,1,0,0:0:0:0:
448,192,58704,1,0,0:0:0:0:
64,192,58801,1,0,0:0:0:0:
192,192,58801,1,0,0:0:0:0:
320,192,58801,1,0,0:0:0:0:
448,192,58801,1,0,0:0:0:0:
64,192,58898,1,0,0:0:0:0:
192,192,58898,1,0,0:0:0:0:
320,192,58898,1,0,0:0:0:0:
64,192,58996,1,0,0:0:0:0:
192,192,58996,1,0,0:0:0:0:
320,192,58996,1,0,0:0:0:0:
448,192,58996,1,0,0:0:0:0:
192,192,59092,1,0,0:0:0:0:
320,192,59092,1,0,0:0:0:0:
448,192,59092,1,0,0:0:0:0:
64,192,59189,1,0,0:0:0:0:
192,192,59189,1,0,0:0:0:0:
320,192,59189,1,0,0:0:0:0:
448,192,59189,1,0,0:0:0:0:
64,192,59286,1,0,0:0:0:0:
192,192,59286,1,0,0:0:0:0:
448,192,59286,1,0,0:0:0:0:
64,192,59350,1,0,0:0:0:0:
192,192,59416,1,0,0:0:0:0:
320,192,59416,1,0,0:0:0:0:
448,192,59416,1,0,0:0:0:0:
320,192,59480,1,0,0:0:0:0:
64,192,59544,1,0,0:0:0:0:
192,192,59544,1,0,0:0:0:0:
448,192,59544,1,0,0:0:0:0:
192,192,59609,1,0,0:0:0:0:
64,192,59673,1,0,0:0:0:0:
320,192,59673,1,0,0:0:0:0:
448,192,59673,1,0,0:0:0:0:
320,192,59738,1,0,0:0:0:0:
64,192,59802,1,0,0:0:0:0:
192,192,59802,1,0,0:0:0:0:
448,192,59802,1,0,0:0:0:0:
64,192,59868,1,0,0:0:0:0:
192,192,59868,1,0,0:0:0:0:
448,192,59868,1,0,0:0:0:0:
64,192,59964,1,0,0:0:0:0:
192,192,59964,1,0,0:0:0:0:
320,192,59964,1,0,0:0:0:0:
448,192,59964,1,0,0:0:0:0:
64,192,60061,1,0,0:0:0:0:
192,192,60061,1,0,0:0:0:0:
320,192,60061,1,0,0:0:0:0:
64,192,60158,1,0,0:0:0:0:
192,192,60158,1,0,0:0:0:0:
320,192,60158,1,0,0:0:0:0:
448,192,60158,1,0,0:0:0:0:
192,192,60254,1,0,0:0:0:0:
320,192,60254,1,0,0:0:0:0:
448,192,60254,1,0,0:0:0:0:
64,192,60352,1,0,0:0:0:0:
192,192,60352,1,0,0:0:0:0:
320,192,60352,1,0,0:0:0:0:
448,192,60352,1,0,0:0:0:0:
64,192,60449,1,0,0:0:0:0:
192,192,60449,1,0,0:0:0:0:
448,192,60449,1,0,0:0:0:0:
192,192,60546,1,0,0:0:0:0:
320,192,60546,1,0,0:0:0:0:
64,192,60642,1,0,0:0:0:0:
192,192,60642,1,0,0:0:0:0:
320,192,60707,1,0,0:0:0:0:
448,192,60707,1,0,0:0:0:0:
192,192,60771,1,0,0:0:0:0:
320,192,60837,1,0,0:0:0:0:
448,192,60837,1,0,0:0:0:0:
64,192,60901,1,0,0:0:0:0:
192,192,60901,1,0,0:0:0:0:
320,192,60966,1,0,0:0:0:0:
64,192,61030,1,0,0:0:0:0:
192,192,61030,1,0,0:0:0:0:
320,192,61094,1,0,0:0:0:0:
192,192,61159,1,0,0:0:0:0:
64,192,61223,1,0,0:0:0:0:
320,192,61223,1,0,0:0:0:0:
64,192,61321,1,0,0:0:0:0:
192,192,61321,1,0,0:0:0:0:
320,192,61321,1,0,0:0:0:0:
448,192,61321,1,0,0:0:0:0:
192,192,61418,1,0,0:0:0:0:
320,192,61418,1,0,0:0:0:0:
448,192,61418,1,0,0:0:0:0:
64,192,61611,1,0,0:0:0:0:
192,192,61611,1,0,0:0:0:0:
320,192,61611,1,0,0:0:0:0:
448,192,61611,1,0,0:0:0:0:
64,192,61708,1,0,0:0:0:0:
192,192,61708,1,0,0:0:0:0:
448,192,61708,1,0,0:0:0:0:
64,192,61806,1,0,0:0:0:0:
192,192,61806,1,0,0:0:0:0:
320,192,61806,1,0,0:0:0:0:
448,192,61806,1,0,0:0:0:0:
64,192,61902,1,0,0:0:0:0:
320,192,61902,1,0,0:0:0:0:
448,192,61902,1,0,0:0:0:0:
64,192,61999,1,0,0:0:0:0:
192,192,61999,1,0,0:0:0:0:
320,192,61999,1,0,0:0:0:0:
448,192,61999,1,0,0:0:0:0:
64,192,62096,1,0,0:0:0:0:
192,192,62096,1,0,0:0:0:0:
64,192,62193,1,0,0:0:0:0:
192,192,62193,1,0,0:0:0:0:
320,192,62193,1,0,0:0:0:0:
448,192,62193,1,0,0:0:0:0:
64,192,62387,1,0,0:0:0:0:
320,192,62387,1,0,0:0:0:0:
448,192,62387,1,0,0:0:0:0:
64,192,62483,1,0,0:0:0:0:
192,192,62483,1,0,0:0:0:0:
320,192,62483,1,0,0:0:0:0:
448,192,62483,1,0,0:0:0:0:
192,192,62580,1,0,0:0:0:0:
320,192,62580,1,0,0:0:0:0:
448,192,62580,1,0,0:0:0:0:
64,192,62678,1,0,0:0:0:0:
192,192,62678,1,0,0:0:0:0:
320,192,62678,1,0,0:0:0:0:
448,192,62678,1,0,0:0:0:0:
64,192,62774,1,0,0:0:0:0:
192,192,62774,1,0,0:0:0:0:
320,192,62774,1,0,0:0:0:0:
64,192,62871,1,0,0:0:0:0:
192,192,62871,1,0,0:0:0:0:
320,192,62871,1,0,0:0:0:0:
448,192,62871,1,0,0:0:0:0:
64,192,62968,1,0,0:0:0:0:
320,192,62968,1,0,0:0:0:0:
448,192,62968,1,0,0:0:0:0:
64,192,63064,1,0,0:0:0:0:
192,192,63064,1,0,0:0:0:0:
320,192,63064,1,0,0:0:0:0:
448,192,63064,1,0,0:0:0:0:
64,192,63162,1,0,0:0:0:0:
192,192,63162,1,0,0:0:0:0:
320,192,63162,1,0,0:0:0:0:
64,192,63259,1,0,0:0:0:0:
192,192,63259,1,0,0:0:0:0:
320,192,63259,1,0,0:0:0:0:
448,192,63259,1,0,0:0:0:0:
192,192,63356,1,0,0:0:0:0:
320,192,63356,1,0,0:0:0:0:
448,192,63356,1,0,0:0:0:0:
64,192,63452,1,0,0:0:0:0:
192,192,63452,1,0,0:0:0:0:
320,192,63452,1,0,0:0:0:0:
448,192,63452,1,0,0:0:0:0:
64,192,63549,1,0,0:0:0:0:
192,192,63549,1,0,0:0:0:0:
448,192,63549,1,0,0:0:0:0:
64,192,63647,1,0,0:0:0:0:
192,192,63647,1,0,0:0:0:0:
320,192,63647,1,0,0:0:0:0:
448,192,63647,1,0,0:0:0:0:
192,192,63743,1,0,0:0:0:0:
320,192,63743,1,0,0:0:0:0:
448,192,63743,1,0,0:0:0:0:
64,192,63840,1,0,0:0:0:0:
192,192,63840,1,0,0:0:0:0:
320,192,63840,1,0,0:0:0:0:
448,192,63840,1,0,0:0:0:0:
64,192,63937,1,0,0:0:0:0:
320,192,63937,1,0,0:0:0:0:
448,192,63937,1,0,0:0:0:0:
64,192,64034,1,0,0:0:0:0:
192,192,64034,1,0,0:0:0:0:
320,192,64034,1,0,0:0:0:0:
448,192,64034,1,0,0:0:0:0:
64,192,64131,1,0,0:0:0:0:
192,192,64131,1,0,0:0:0:0:
448,192,64131,1,0,0:0:0:0:
64,192,64228,1,0,0:0:0:0:
192,192,64228,1,0,0:0:0:0:
320,192,64228,1,0,0:0:0:0:
448,192,64228,1,0,0:0:0:0:
64,192,64324,1,0,0:0:0:0:
192,192,64324,1,0,0:0:0:0:
320,192,64324,1,0,0:0:0:0:
64,192,64421,1,0,0:0:0:0:
192,192,64421,1,0,0:0:0:0:
320,192,64421,1,0,0:0:0:0:
448,192,64421,1,0,0:0:0:0:
192,192,64519,1,0,0:0:0:0:
320,192,64519,1,0,0:0:0:0:
448,192,64519,1,0,0:0:0:0:
64,192,64616,1,0,0:0:0:0:
192,192,64616,1,0,0:0:0:0:
320,192,64616,1,0,0:0:0:0:
448,192,64616,1,0,0:0:0:0:
64,192,64712,1,0,0:0:0:0:
192,192,64712,1,0,0:0:0:0:
448,192,64712,1,0,0:0:0:0:
64,192,64809,1,0,0:0:0:0:
192,192,64809,1,0,0:0:0:0:
320,192,64809,1,0,0:0:0:0:
448,192,64809,1,0,0:0:0:0:
192,192,64906,1,0,0:0:0:0:
320,192,64906,1,0,0:0:0:0:
448,192,64906,1,0,0:0:0:0:
64,192,65003,1,0,0:0:0:0:
192,192,65003,1,0,0:0:0:0:
320,192,65003,1,0,0:0:0:0:
448,192,65003,1,0,0:0:0:0:
64,192,65100,1,0,0:0:0:0:
192,192,65100,1,0,0:0:0:0:
320,192,65100,1,0,0:0:0:0:
64,192,65197,1,0,0:0:0:0:
192,192,65197,1,0,0:0:0:0:
320,192,65197,1,0,0:0:0:0:
448,192,65197,1,0,0:0:0:0:
64,192,65293,1,0,0:0:0:0:
192,192,65293,1,0,0:0:0:0:
448,192,65293,1,0,0:0:0:0:
64,192,65390,1,0,0:0:0:0:
192,192,65390,1,0,0:0:0:0:
320,192,65390,1,0,0:0:0:0:
448,192,65390,1,0,0:0:0:0:
64,192,65488,1,0,0:0:0:0:
192,192,65488,1,0,0:0:0:0:
320,192,65488,1,0,0:0:0:0:
64,192,65584,1,0,0:0:0:0:
192,192,65584,1,0,0:0:0:0:
320,192,65584,1,0,0:0:0:0:
448,192,65584,1,0,0:0:0:0:
192,192,65681,1,0,0:0:0:0:
320,192,65681,1,0,0:0:0:0:
448,192,65681,1,0,0:0:0:0:
64,192,65778,1,0,0:0:0:0:
192,192,65778,1,0,0:0:0:0:
320,192,65778,1,0,0:0:0:0:
448,192,65778,1,0,0:0:0:0:
64,192,65874,1,0,0:0:0:0:
320,192,65874,1,0,0:0:0:0:
448,192,65874,1,0,0:0:0:0:
64,192,65972,1,0,0:0:0:0:
192,192,65972,1,0,0:0:0:0:
320,192,65972,1,0,0:0:0:0:
448,192,65972,1,0,0:0:0:0:
192,192,66069,1,0,0:0:0:0:
320,192,66069,1,0,0:0:0:0:
448,192,66069,1,0,0:0:0:0:
64,192,66166,1,0,0:0:0:0:
192,192,66166,1,0,0:0:0:0:
320,192,66166,1,0,0:0:0:0:
448,192,66166,1,0,0:0:0:0:
64,192,66262,1,0,0:0:0:0:
192,192,66262,1,0,0:0:0:0:
448,192,66262,1,0,0:0:0:0:
64,192,66360,1,0,0:0:0:0:
192,192,66360,1,0,0:0:0:0:
320,192,66360,1,0,0:0:0:0:
448,192,66360,1,0,0:0:0:0:
64,192,66457,1,0,0:0:0:0:
320,192,66457,1,0,0:0:0:0:
448,192,66457,1,0,0:0:0:0:
64,192,66553,1,0,0:0:0:0:
192,192,66553,1,0,0:0:0:0:
320,192,66553,1,0,0:0:0:0:
448,192,66553,1,0,0:0:0:0:
64,192,66650,1,0,0:0:0:0:
192,192,66650,1,0,0:0:0:0:
320,192,66650,1,0,0:0:0:0:
64,192,66747,1,0,0:0:0:0:
192,192,66747,1,0,0:0:0:0:
320,192,66747,1,0,0:0:0:0:
448,192,66747,1,0,0:0:0:0:
192,192,66844,1,0,0:0:0:0:
320,192,66844,1,0,0:0:0:0:
448,192,66844,1,0,0:0:0:0:
64,192,66941,1,0,0:0:0:0:
192,192,66941,1,0,0:0:0:0:
320,192,66941,1,0,0:0:0:0:
448,192,66941,1,0,0:0:0:0:
64,192,67038,1,0,0:0:0:0:
320,192,67038,1,0,0:0:0:0:
448,192,67038,1,0,0:0:0:0:
64,192,67134,1,0,0:0:0:0:
192,192,67134,1,0,0:0:0:0:
320,192,67134,1,0,0:0:0:0:
448,192,67134,1,0,0:0:0:0:
192,192,67231,1,0,0:0:0:0:
320,192,67231,1,0,0:0:0:0:
448,192,67231,1,0,0:0:0:0:
64,192,67329,1,0,0:0:0:0:
192,192,67329,1,0,0:0:0:0:
320,192,67329,1,0,0:0:0:0:
448,192,67329,1,0,0:0:0:0:
64,192,67426,1,0,0:0:0:0:
192,192,67426,1,0,0:0:0:0:
320,192,67426,1,0,0:0:0:0:
64,192,67522,1,0,0:0:0:0:
192,192,67522,1,0,0:0:0:0:
320,192,67522,1,0,0:0:0:0:
448,192,67522,1,0,0:0:0:0:
64,192,67619,1,0,0:0:0:0:
320,192,67619,1,0,0:0:0:0:
448,192,67619,1,0,0:0:0:0:
64,192,67716,1,0,0:0:0:0:
192,192,67716,1,0,0:0:0:0:
320,192,67716,1,0,0:0:0:0:
448,192,67716,1,0,0:0:0:0:
64,192,67813,1,0,0:0:0:0:
192,192,67813,1,0,0:0:0:0:
320,192,67813,1,0,0:0:0:0:
64,192,67910,1,0,0:0:0:0:
192,192,67910,1,0,0:0:0:0:
320,192,67910,1,0,0:0:0:0:
448,192,67910,1,0,0:0:0:0:
192,192,68007,1,0,0:0:0:0:
320,192,68007,1,0,0:0:0:0:
448,192,68007,1,0,0:0:0:0:
64,192,68103,1,0,0:0:0:0:
192,192,68103,1,0,0:0:0:0:
320,192,68103,1,0,0:0:0:0:
448,192,68103,1,0,0:0:0:0:
64,192,68201,1,0,0:0:0:0:
192,192,68201,1,0,0:0:0:0:
448,192,68201,1,0,0:0:0:0:
64,192,68298,1,0,0:0:0:0:
192,192,68298,1,0,0:0:0:0:
320,192,68298,1,0,0:0:0:0:
448,192,68298,1,0,0:0:0:0:
192,192,68394,1,0,0:0:0:0:
320,192,68394,1,0,0:0:0:0:
448,192,68394,1,0,0:0:0:0:
64,192,68491,1,0,0:0:0:0:
192,192,68491,1,0,0:0:0:0:
320,192,68491,1,0,0:0:0:0:
448,192,68491,1,0,0:0:0:0:
64,192,68588,1,0,0:0:0:0:
320,192,68588,1,0,0:0:0:0:
448,192,68588,1,0,0:0:0:0:
64,192,68686,1,0,0:0:0:0:
192,192,68686,1,0,0:0:0:0:
320,192,68686,1,0,0:0:0:0:
448,192,68686,1,0,0:0:0:0:
64,192,68782,1,0,0:0:0:0:
192,192,68782,1,0,0:0:0:0:
448,192,68782,1,0,0:0:0:0:
64,192,68879,1,0,0:0:0:0:
192,192,68879,1,0,0:0:0:0:
320,192,68879,1,0,0:0:0:0:
448,192,68879,1,0,0:0:0:0:
64,192,68976,1,0,0:0:0:0:
192,192,68976,1,0,0:0:0:0:
320,192,68976,1,0,0:0:0:0:
64,192,69072,1,0,0:0:0:0:
192,192,69072,1,0,0:0:0:0:
320,192,69072,1,0,0:0:0:0:
448,192,69072,1,0,0:0:0:0:
192,192,69170,1,0,0:0:0:0:
320,192,69170,1,0,0:0:0:0:
448,192,69170,1,0,0:0:0:0:
64,192,69267,1,0,0:0:0:0:
192,192,69267,1,0,0:0:0:0:
320,192,69267,1,0,0:0:0:0:
448,192,69267,1,0,0:0:0:0:
64,192,69363,1,0,0:0:0:0:
192,192,69363,1,0,0:0:0:0:
448,192,69363,1,0,0:0:0:0:
64,192,69460,1,0,0:0:0:0:
192,192,69460,1,0,0:0:0:0:
320,192,69460,1,0,0:0:0:0:
448,192,69460,1,0,0:0:0:0:
64,192,69557,1,0,0:0:0:0:
192,192,69557,1,0,0:0:0:0:
320,192,69557,1,0,0:0:0:0:
64,192,69654,1,0,0:0:0:0:
192,192,69654,1,0,0:0:0:0:
320,192,69654,1,0,0:0:0:0:
448,192,69654,1,0,0:0:0:0:
192,192,69751,1,0,0:0:0:0:
320,192,69751,1,0,0:0:0:0:
448,192,69751,1,0,0:0:0:0:
64,192,69848,1,0,0:0:0:0:
192,192,69848,1,0,0:0:0:0:
320,192,69848,1,0,0:0:0:0:
448,192,69848,1,0,0:0:0:0:
64,192,69944,1,0,0:0:0:0:
192,192,69944,1,0,0:0:0:0:
448,192,69944,1,0,0:0:0:0:
64,192,70041,1,0,0:0:0:0:
192,192,70041,1,0,0:0:0:0:
320,192,70041,1,0,0:0:0:0:
448,192,70041,1,0,0:0:0:0:
192,192,70139,1,0,0:0:0:0:
320,192,70139,1,0,0:0:0:0:
448,192,70139,1,0,0:0:0:0:
64,192,70236,1,0,0:0:0:0:
192,192,70236,1,0,0:0:0:0:
320,192,70236,1,0,0:0:0:0:
448,192,70236,1,0,0:0:0:0:
64,192,70332,1,0,0:0:0:0:
192,192,70332,1,0,0:0:0:0:
320,192,70332,1,0,0:0:0:0:
64,192,70429,1,0,0:0:0:0:
192,192,70429,1,0,0:0:0:0:
320,192,70429,1,0,0:0:0:0:
448,192,70429,1,0,0:0:0:0:
64,192,70527,1,0,0:0:0:0:
320,192,70527,1,0,0:0:0:0:
448,192,70527,1,0,0:0:0:0:
64,192,70623,1,0,0:0:0:0:
192,192,70623,1,0,0:0:0:0:
320,192,70623,1,0,0:0:0:0:
448,192,70623,1,0,0:0:0:0:
64,192,70720,1,0,0:0:0:0:
192,192,70720,1,0,0:0:0:0:
320,192,70720,1,0,0:0:0:0:
64,192,70817,1,0,0:0:0:0:
192,192,70817,1,0,0:0:0:0:
320,192,70817,1,0,0:0:0:0:
448,192,70817,1,0,0:0:0:0:
64,192,70913,1,0,0:0:0:0:
192,192,70913,1,0,0:0:0:0:
448,192,70913,1,0,0:0:0:0:
64,192,71011,1,0,0:0:0:0:
192,192,71011,1,0,0:0:0:0:
320,192,71011,1,0,0:0:0:0:
448,192,71011,1,0,0:0:0:0:
64,192,71108,1,0,0:0:0:0:
320,192,71108,1,0,0:0:0:0:
448,192,71108,1,0,0:0:0:0:
64,192,71204,1,0,0:0:0:0:
192,192,71204,1,0,0:0:0:0:
320,192,71204,1,0,0:0:0:0:
448,192,71204,1,0,0:0:0:0:
192,192,71301,1,0,0:0:0:0:
320,192,71301,1,0,0:0:0:0:
448,192,71301,1,0,0:0:0:0:
64,192,71398,1,0,0:0:0:0:
192,192,71398,1,0,0:0:0:0:
320,192,71398,1,0,0:0:0:0:
448,192,71398,1,0,0:0:0:0:
64,192,71496,1,0,0:0:0:0:
192,192,71496,1,0,0:0:0:0:
448,192,71496,1,0,0:0:0:0:
64,192,71689,1,0,0:0:0:0:
320,192,71689,1,0,0:0:0:0:
448,192,71689,1,0,0:0:0:0:
64,192,71786,1,0,0:0:0:0:
192,192,71786,1,0,0:0:0:0:
320,192,71786,1,0,0:0:0:0:
448,192,71786,1,0,0:0:0:0:
192,192,71882,1,0,0:0:0:0:
320,192,71882,1,0,0:0:0:0:
448,192,71882,1,0,0:0:0:0:
64,192,71980,1,0,0:0:0:0:
192,192,71980,1,0,0:0:0:0:
320,192,71980,1,0,0:0:0:0:
448,192,71980,1,0,0:0:0:0:
64,192,72077,1,0,0:0:0:0:
192,192,72077,1,0,0:0:0:0:
320,192,72077,1,0,0:0:0:0:
448,192,72077,1,0,0:0:0:0:
64,192,72270,1,0,0:0:0:0:
320,192,72270,1,0,0:0:0:0:
448,192,72270,1,0,0:0:0:0:
64,192,72368,1,0,0:0:0:0:
192,192,72368,1,0,0:0:0:0:
320,192,72368,1,0,0:0:0:0:
448,192,72368,1,0,0:0:0:0:
64,192,72464,1,0,0:0:0:0:
192,192,72464,1,0,0:0:0:0:
320,192,72464,1,0,0:0:0:0:
64,192,72561,1,0,0:0:0:0:
192,192,72561,1,0,0:0:0:0:
320,192,72561,1,0,0:0:0:0:
448,192,72561,1,0,0:0:0:0:
192,192,72658,1,0,0:0:0:0:
320,192,72658,1,0,0:0:0:0:
448,192,72658,1,0,0:0:0:0:
64,192,72754,1,0,0:0:0:0:
192,192,72754,1,0,0:0:0:0:
320,192,72754,1,0,0:0:0:0:
448,192,72754,1,0,0:0:0:0:
64,192,72852,1,0,0:0:0:0:
192,192,72852,1,0,0:0:0:0:
448,192,72852,1,0,0:0:0:0:
64,192,72949,1,0,0:0:0:0:
192,192,72949,1,0,0:0:0:0:
320,192,72949,1,0,0:0:0:0:
448,192,72949,1,0,0:0:0:0:
64,192,73142,1,0,0:0:0:0:
192,192,73142,1,0,0:0:0:0:
320,192,73142,1,0,0:0:0:0:
448,192,73142,1,0,0:0:0:0:
64,192,73239,1,0,0:0:0:0:
320,192,73239,1,0,0:0:0:0:
448,192,73239,1,0,0:0:0:0:
64,192,73337,1,0,0:0:0:0:
192,192,73337,1,0,0:0:0:0:
320,192,73337,1,0,0:0:0:0:
448,192,73337,1,0,0:0:0:0:
64,192,73433,1,0,0:0:0:0:
192,192,73433,1,0,0:0:0:0:
448,192,73433,1,0,0:0:0:0:
64,192,73530,1,0,0:0:0:0:
192,192,73530,1,0,0:0:0:0:
320,192,73530,1,0,0:0:0:0:
448,192,73530,1,0,0:0:0:0:
64,192,73627,1,0,0:0:0:0:
192,192,73627,1,0,0:0:0:0:
320,192,73627,1,0,0:0:0:0:
192,192,73821,1,0,0:0:0:0:
320,192,73821,1,0,0:0:0:0:
448,192,73821,1,0,0:0:0:0:
64,192,74014,1,0,0:0:0:0:
192,192,74014,1,0,0:0:0:0:
320,192,74014,1,0,0:0:0:0:
448,192,74014,1,0,0:0:0:0:
64,192,74143,1,0,0:0:0:0:
192,192,74143,1,0,0:0:0:0:
64,192,74273,1,0,0:0:0:0:
192,192,74273,1,0,0:0:0:0:
64,192,74402,1,0,0:0:0:0:
192,192,74402,1,0,0:0:0:0:
320,192,74402,1,0,0:0:0:0:
448,192,74402,1,0,0:0:0:0:
320,192,74531,1,0,0:0:0:0:
448,192,74531,1,0,0:0:0:0:
320,192,74660,1,0,0:0:0:0:
448,192,74660,1,0,0:0:0:0:
64,192,74790,1,0,0:0:0:0:
192,192,74790,1,0,0:0:0:0:
320,192,74790,1,0,0:0:0:0:
448,192,74790,1,0,0:0:0:0:
64,192,74983,1,0,0:0:0:0:
448,192,74983,1,0,0:0:0:0:
64,192,75178,1,0,0:0:0:0:
192,192,75178,1,0,0:0:0:0:
320,192,75178,1,0,0:0:0:0:
192,192,75371,1,0,0:0:0:0:
448,192,75371,1,0,0:0:0:0:
64,192,75564,1,0,0:0:0:0:
320,192,75564,1,0,0:0:0:0:
448,192,75564,1,0,0:0:0:0:
64,192,75759,1,0,0:0:0:0:
192,192,75759,1,0,0:0:0:0:
64,192,75952,1,0,0:0:0:0:
192,192,75952,1,0,0:0:0:0:
320,192,75952,1,0,0:0:0:0:
448,192,75952,1,0,0:0:0:0:
192,192,76147,1,0,0:0:0:0:
320,192,76147,1,0,0:0:0:0:
448,192,76147,1,0,0:0:0:0:
64,192,76340,1,0,0:0:0:0:
192,192,76340,1,0,0:0:0:0:
320,192,76340,1,0,0:0:0:0:
448,192,76340,1,0,0:0:0:0:
64,192,76534,1,0,0:0:0:0:
192,192,76534,1,0,0:0:0:0:
64,192,76728,1,0,0:0:0:0:
192,192,76728,1,0,0:0:0:0:
320,192,76728,1,0,0:0:0:0:
448,192,76728,1,0,0:0:0:0:
192,192,76921,1,0,0:0:0:0:
320,192,76921,1,0,0:0:0:0:
448,192,76921,1,0,0:0:0:0:
64,192,77116,1,0,0:0:0:0:
192,192,77116,1,0,0:0:0:0:
320,192,77116,1,0,0:0:0:0:
448,192,77116,1,0,0:0:0:0:
64,192,77309,1,0,0:0:0:0:
192,192,77309,1,0,0:0:0:0:
320,192,77309,1,0,0:0:0:0:
64,192,77503,1,0,0:0:0:0:
192,192,77503,1,0,0:0:0:0:
320,192,77503,1,0,0:0:0:0:
448,192,77503,1,0,0:0:0:0:
64,192,77697,1,0,0:0:0:0:
320,192,77697,1,0,0:0:0:0:
448,192,77697,1,0,0:0:0:0:
64,192,77890,1,0,0:0:0:0:
192,192,77890,1,0,0:0:0:0:
320,192,77988,1,0,0:0:0:0:
448,192,77988,1,0,0:0:0:0:
64,192,78084,1,0,0:0:0:0:
192,192,78084,1,0,0:0:0:0:
320,192,78181,1,0,0:0:0:0:
448,192,78181,1,0,0:0:0:0:
64,192,78278,1,0,0:0:0:0:
192,192,78278,1,0,0:0:0:0:
64,192,78472,1,0,0:0:0:0:
192,192,78472,1,0,0:0:0:0:
320,192,78472,1,0,0:0:0:0:
192,192,78666,1,0,0:0:0:0:
320,192,78666,1,0,0:0:0:0:
448,192,78666,1,0,0:0:0:0:
64,192,78860,1,0,0:0:0:0:
192,192,78860,1,0,0:0:0:0:
320,192,78860,1,0,0:0:0:0:
64,192,79053,1,0,0:0:0:0:
192,192,79053,1,0,0:0:0:0:
448,192,79053,1,0,0:0:0:0:
64,192,79247,1,0,0:0:0:0:
192,192,79247,1,0,0:0:0:0:
320,192,79247,1,0,0:0:0:0:
64,192,79441,1,0,0:0:0:0:
192,192,79441,1,0,0:0:0:0:
320,192,79441,1,0,0:0:0:0:
448,192,79441,1,0,0:0:0:0:
192,192,79634,1,0,0:0:0:0:
320,192,79634,1,0,0:0:0:0:
448,192,79634,1,0,0:0:0:0:
64,192,79829,1,0,0:0:0:0:
320,192,79829,1,0,0:0:0:0:
448,192,79829,1,0,0:0:0:0:
192,192,79926,1,0,0:0:0:0:
64,192,80022,1,0,0:0:0:0:
448,192,80022,1,0,0:0:0:0:
320,192,80119,1,0,0:0:0:0:
64,192,80216,1,0,0:0:0:0:
192,192,80216,1,0,0:0:0:0:
320,192,80313,1,0,0:0:0:0:
64,192,80410,1,0,0:0:0:0:
448,192,80410,1,0,0:0:0:0:
192,192,80507,1,0,0:0:0:0:
320,192,80603,1,0,0:0:0:0:
448,192,80603,1,0,0:0:0:0:
64,192,80701,1,0,0:0:0:0:
192,192,80798,1,0,0:0:0:0:
320,192,80798,1,0,0:0:0:0:
448,192,80894,1,0,0:0:0:0:
64,192,80991,1,0,0:0:0:0:
192,192,80991,1,0,0:0:0:0:
320,192,81088,1,0,0:0:0:0:
64,192,81186,1,0,0:0:0:0:
192,192,81186,1,0,0:0:0:0:
64,192,81379,1,0,0:0:0:0:
192,192,81379,1,0,0:0:0:0:
320,192,81379,1,0,0:0:0:0:
64,192,81572,1,0,0:0:0:0:
192,192,81572,1,0,0:0:0:0:
64,192,81767,1,0,0:0:0:0:
448,192,81767,1,0,0:0:0:0:
192,192,81960,1,0,0:0:0:0:
320,192,81960,1,0,0:0:0:0:
448,192,81960,1,0,0:0:0:0:
64,192,82154,1,0,0:0:0:0:
192,192,82154,1,0,0:0:0:0:
320,192,82154,1,0,0:0:0:0:
64,192,82348,1,0,0:0:0:0:
192,192,82348,1,0,0:0:0:0:
448,192,82348,1,0,0:0:0:0:
64,192,82541,1,0,0:0:0:0:
192,192,82541,1,0,0:0:0:0:
64,192,82736,1,0,0:0:0:0:
192,192,82736,1,0,0:0:0:0:
320,192,82736,1,0,0:0:0:0:
448,192,82736,1,0,0:0:0:0:
64,192,82929,1,0,0:0:0:0:
192,192,82929,1,0,0:0:0:0:
320,192,82929,1,0,0:0:0:0:
64,192,83123,1,0,0:0:0:0:
192,192,83123,1,0,0:0:0:0:
320,192,83123,1,0,0:0:0:0:
448,192,83123,1,0,0:0:0:0:
192,192,83317,1,0,0:0:0:0:
320,192,83317,1,0,0:0:0:0:
448,192,83317,1,0,0:0:0:0:
64,192,83511,1,0,0:0:0:0:
192,192,83511,1,0,0:0:0:0:
448,192,83511,1,0,0:0:0:0:
64,192,83704,1,0,0:0:0:0:
192,192,83704,1,0,0:0:0:0:
320,192,83704,1,0,0:0:0:0:
448,192,83704,1,0,0:0:0:0:
64,192,83898,1,0,0:0:0:0:
448,192,83898,1,0,0:0:0:0:
64,192,84092,1,0,0:0:0:0:
192,192,84092,1,0,0:0:0:0:
448,192,84092,1,0,0:0:0:0:
320,192,84286,1,0,0:0:0:0:
448,192,84286,1,0,0:0:0:0:
64,192,84480,1,0,0:0:0:0:
192,192,84480,1,0,0:0:0:0:
448,192,84480,1,0,0:0:0:0:
192,192,84673,1,0,0:0:0:0:
448,192,84673,1,0,0:0:0:0:
64,192,84868,1,0,0:0:0:0:
192,192,84868,1,0,0:0:0:0:
320,192,84868,1,0,0:0:0:0:
448,192,84868,1,0,0:0:0:0:
320,192,85061,1,0,0:0:0:0:
448,192,85061,1,0,0:0:0:0:
64,192,85254,1,0,0:0:0:0:
192,192,85254,1,0,0:0:0:0:
320,192,85254,1,0,0:0:0:0:
64,192,85449,1,0,0:0:0:0:
192,192,85449,1,0,0:0:0:0:
64,192,85642,1,0,0:0:0:0:
320,192,85642,1,0,0:0:0:0:
448,192,85642,1,0,0:0:0:0:
192,192,85837,1,0,0:0:0:0:
320,192,85837,1,0,0:0:0:0:
64,192,86030,1,0,0:0:0:0:
192,192,86030,1,0,0:0:0:0:
320,192,86030,1,0,0:0:0:0:
448,192,86030,1,0,0:0:0:0:
64,192,86223,1,0,0:0:0:0:
192,192,86223,1,0,0:0:0:0:
320,192,86223,1,0,0:0:0:0:
448,192,86223,1,0,0:0:0:0:
64,192,86418,1,0,0:0:0:0:
192,192,86418,1,0,0:0:0:0:
320,192,86418,1,0,0:0:0:0:
448,192,86418,1,0,0:0:0:0:
64,192,86611,1,0,0:0:0:0:
192,192,86611,1,0,0:0:0:0:
320,192,86611,1,0,0:0:0:0:
448,192,86611,1,0,0:0:0:0:
64,192,86806,1,0,0:0:0:0:
192,192,86806,1,0,0:0:0:0:
320,192,86806,1,0,0:0:0:0:
448,192,86806,1,0,0:0:0:0:
64,192,86999,1,0,0:0:0:0:
192,192,86999,1,0,0:0:0:0:
64,192,87193,1,0,0:0:0:0:
320,192,87193,1,0,0:0:0:0:
448,192,87193,1,0,0:0:0:0:
192,192,87290,1,0,0:0:0:0:
320,192,87387,1,0,0:0:0:0:
448,192,87387,1,0,0:0:0:0:
64,192,87483,1,0,0:0:0:0:
192,192,87580,1,0,0:0:0:0:
320,192,87580,1,0,0:0:0:0:
448,192,87580,1,0,0:0:0:0:
64,192,87678,1,0,0:0:0:0:
192,192,87774,1,0,0:0:0:0:
448,192,87774,1,0,0:0:0:0:
320,192,87871,1,0,0:0:0:0:
64,192,87968,1,0,0:0:0:0:
192,192,87968,1,0,0:0:0:0:
448,192,88064,1,0,0:0:0:0:
64,192,88162,1,0,0:0:0:0:
192,192,88162,1,0,0:0:0:0:
320,192,88259,1,0,0:0:0:0:
64,192,88356,1,0,0:0:0:0:
192,192,88356,1,0,0:0:0:0:
448,192,88356,1,0,0:0:0:0:
320,192,88452,1,0,0:0:0:0:
64,192,88549,1,0,0:0:0:0:
192,192,88549,1,0,0:0:0:0:
448,192,88647,1,0,0:0:0:0:
64,192,88743,1,0,0:0:0:0:
320,192,88743,1,0,0:0:0:0:
192,192,88840,1,0,0:0:0:0:
64,192,88937,1,0,0:0:0:0:
320,192,88937,1,0,0:0:0:0:
448,192,88937,1,0,0:0:0:0:
192,192,89034,1,0,0:0:0:0:
64,192,89131,1,0,0:0:0:0:
320,192,89131,1,0,0:0:0:0:
448,192,89131,1,0,0:0:0:0:
192,192,89228,1,0,0:0:0:0:
320,192,89324,1,0,0:0:0:0:
448,192,89324,1,0,0:0:0:0:
64,192,89421,1,0,0:0:0:0:
192,192,89519,1,0,0:0:0:0:
320,192,89519,1,0,0:0:0:0:
448,192,89616,1,0,0:0:0:0:
192,192,89712,1,0,0:0:0:0:
320,192,89712,1,0,0:0:0:0:
64,192,89809,1,0,0:0:0:0:
192,192,89906,1,0,0:0:0:0:
448,192,89906,1,0,0:0:0:0:
320,192,90003,1,0,0:0:0:0:
64,192,90100,1,0,0:0:0:0:
192,192,90100,1,0,0:0:0:0:
320,192,90197,1,0,0:0:0:0:
64,192,90293,1,0,0:0:0:0:
192,192,90293,1,0,0:0:0:0:
448,192,90293,1,0,0:0:0:0:
320,192,90390,1,0,0:0:0:0:
192,192,90488,1,0,0:0:0:0:
448,192,90488,1,0,0:0:0:0:
64,192,90584,1,0,0:0:0:0:
320,192,90681,1,0,0:0:0:0:
448,192,90681,1,0,0:0:0:0:
192,192,90778,1,0,0:0:0:0:
64,192,90874,1,0,0:0:0:0:
448,192,90874,1,0,0:0:0:0:
320,192,90972,1,0,0:0:0:0:
64,192,91069,1,0,0:0:0:0:
192,192,91069,1,0,0:0:0:0:
448,192,91166,1,0,0:0:0:0:
64,192,91262,1,0,0:0:0:0:
320,192,91262,1,0,0:0:0:0:
192,192,91360,1,0,0:0:0:0:
64,192,91457,1,0,0:0:0:0:
320,192,91457,1,0,0:0:0:0:
448,192,91553,1,0,0:0:0:0:
192,192,91650,1,0,0:0:0:0:
320,192,91650,1,0,0:0:0:0:
64,192,91747,1,0,0:0:0:0:
192,192,91844,1,0,0:0:0:0:
320,192,91844,1,0,0:0:0:0:
448,192,91844,1,0,0:0:0:0:
64,192,91941,1,0,0:0:0:0:
192,192,92038,1,0,0:0:0:0:
448,192,92038,1,0,0:0:0:0:
320,192,92134,1,0,0:0:0:0:
64,192,92231,1,0,0:0:0:0:
192,192,92231,1,0,0:0:0:0:
448,192,92329,1,0,0:0:0:0:
64,192,92426,1,0,0:0:0:0:
320,192,92426,1,0,0:0:0:0:
192,192,92522,1,0,0:0:0:0:
64,192,92619,1,0,0:0:0:0:
320,192,92619,1,0,0:0:0:0:
448,192,92619,1,0,0:0:0:0:
192,192,92716,1,0,0:0:0:0:
64,192,92813,1,0,0:0:0:0:
448,192,92813,1,0,0:0:0:0:
320,192,92910,1,0,0:0:0:0:
64,192,93007,1,0,0:0:0:0:
192,192,93007,1,0,0:0:0:0:
448,192,93007,1,0,0:0:0:0:
320,192,93103,1,0,0:0:0:0:
64,192,93201,1,0,0:0:0:0:
448,192,93201,1,0,0:0:0:0:
320,192,93298,1,0,0:0:0:0:
192,192,93394,1,0,0:0:0:0:
448,192,93394,1,0,0:0:0:0:
320,192,93491,1,0,0:0:0:0:
64,192,93588,1,0,0:0:0:0:
192,192,93588,1,0,0:0:0:0:
448,192,93588,1,0,0:0:0:0:
320,192,93686,1,0,0:0:0:0:
64,192,93782,1,0,0:0:0:0:
192,192,93782,1,0,0:0:0:0:
448,192,93879,1,0,0:0:0:0:
64,192,93976,1,0,0:0:0:0:
192,192,93976,1,0,0:0:0:0:
320,192,93976,1,0,0:0:0:0:
448,192,94072,1,0,0:0:0:0:
192,192,94170,1,0,0:0:0:0:
320,192,94170,1,0,0:0:0:0:
64,192,94267,1,0,0:0:0:0:
192,192,94363,1,0,0:0:0:0:
320,192,94363,1,0,0:0:0:0:
448,192,94363,1,0,0:0:0:0:
64,192,94460,1,0,0:0:0:0:
192,192,94557,1,0,0:0:0:0:
448,192,94557,1,0,0:0:0:0:
320,192,94654,1,0,0:0:0:0:
64,192,94751,1,0,0:0:0:0:
192,192,94751,1,0,0:0:0:0:
448,192,94751,1,0,0:0:0:0:
320,192,94848,1,0,0:0:0:0:
64,192,94944,1,0,0:0:0:0:
448,192,94944,1,0,0:0:0:0:
192,192,95041,1,0,0:0:0:0:
64,192,95139,1,0,0:0:0:0:
320,192,95139,1,0,0:0:0:0:
448,192,95236,1,0,0:0:0:0:
64,192,95332,1,0,0:0:0:0:
192,192,95332,1,0,0:0:0:0:
320,192,95429,1,0,0:0:0:0:
64,192,95527,1,0,0:0:0:0:
448,192,95527,1,0,0:0:0:0:
192,192,95623,1,0,0:0:0:0:
320,192,95720,1,0,0:0:0:0:
448,192,95720,1,0,0:0:0:0:
64,192,95817,1,0,0:0:0:0:
192,192,95913,1,0,0:0:0:0:
448,192,95913,1,0,0:0:0:0:
320,192,96011,1,0,0:0:0:0:
64,192,96108,1,0,0:0:0:0:
192,192,96108,1,0,0:0:0:0:
448,192,96108,1,0,0:0:0:0:
320,192,96204,1,0,0:0:0:0:
64,192,96301,1,0,0:0:0:0:
192,192,96301,1,0,0:0:0:0:
320,192,96398,1,0,0:0:0:0:
64,192,96496,1,0,0:0:0:0:
192,192,96496,1,0,0:0:0:0:
448,192,96592,1,0,0:0:0:0:
64,192,96689,1,0,0:0:0:0:
192,192,96689,1,0,0:0:0:0:
320,192,96689,1,0,0:0:0:0:
448,192,96786,1,0,0:0:0:0:
192,192,96882,1,0,0:0:0:0:
320,192,96882,1,0,0:0:0:0:
64,192,96980,1,0,0:0:0:0:
192,192,97077,1,0,0:0:0:0:
320,192,97077,1,0,0:0:0:0:
448,192,97077,1,0,0:0:0:0:
64,192,97173,1,0,0:0:0:0:
192,192,97270,1,0,0:0:0:0:
448,192,97270,1,0,0:0:0:0:
320,192,97368,1,0,0:0:0:0:
64,192,97464,1,0,0:0:0:0:
448,192,97464,1,0,0:0:0:0:
192,192,97561,1,0,0:0:0:0:
64,192,97658,1,0,0:0:0:0:
448,192,97658,1,0,0:0:0:0:
320,192,97754,1,0,0:0:0:0:
64,192,97852,1,0,0:0:0:0:
192,192,97852,1,0,0:0:0:0:
320,192,97949,1,0,0:0:0:0:
64,192,98046,1,0,0:0:0:0:
192,192,98046,1,0,0:0:0:0:
448,192,98046,1,0,0:0:0:0:
320,192,98142,1,0,0:0:0:0:
64,192,98239,1,0,0:0:0:0:
448,192,98239,1,0,0:0:0:0:
192,192,98337,1,0,0:0:0:0:
64,192,98433,1,0,0:0:0:0:
320,192,98433,1,0,0:0:0:0:
448,192,98433,1,0,0:0:0:0:
192,192,98530,1,0,0:0:0:0:
64,192,98627,1,0,0:0:0:0:
448,192,98627,1,0,0:0:0:0:
320,192,98723,1,0,0:0:0:0:
64,192,98821,1,0,0:0:0:0:
192,192,98821,1,0,0:0:0:0:
448,192,98821,1,0,0:0:0:0:
320,192,98918,1,0,0:0:0:0:
64,192,99014,1,0,0:0:0:0:
192,192,99014,1,0,0:0:0:0:
320,192,99111,1,0,0:0:0:0:
448,192,99111,1,0,0:0:0:0:
64,192,99208,1,0,0:0:0:0:
192,192,99208,1,0,0:0:0:0:
448,192,99306,1,0,0:0:0:0:
64,192,99402,1,0,0:0:0:0:
192,192,99402,1,0,0:0:0:0:
320,192,99402,1,0,0:0:0:0:
64,192,99596,1,0,0:0:0:0:
192,192,99596,1,0,0:0:0:0:
320,192,99660,1,0,0:0:0:0:
448,192,99660,1,0,0:0:0:0:
64,192,99726,1,0,0:0:0:0:
192,192,99726,1,0,0:0:0:0:
320,192,99790,1,0,0:0:0:0:
448,192,99790,1,0,0:0:0:0:
64,192,99854,1,0,0:0:0:0:
192,192,99854,1,0,0:0:0:0:
320,192,99919,1,0,0:0:0:0:
448,192,99919,1,0,0:0:0:0:
64,192,99983,1,0,0:0:0:0:
192,192,99983,1,0,0:0:0:0:
320,192,100048,1,0,0:0:0:0:
448,192,100048,1,0,0:0:0:0:
64,192,100112,1,0,0:0:0:0:
192,192,100112,1,0,0:0:0:0:
320,192,100178,1,0,0:0:0:0:
448,192,100178,1,0,0:0:0:0:
64,192,100242,1,0,0:0:0:0:
192,192,100242,1,0,0:0:0:0:
320,192,100307,1,0,0:0:0:0:
448,192,100307,1,0,0:0:0:0:
64,192,100371,1,0,0:0:0:0:
192,192,100371,1,0,0:0:0:0:
320,192,100436,1,0,0:0:0:0:
448,192,100436,1,0,0:0:0:0:
64,192,100500,1,0,0:0:0:0:
192,192,100500,1,0,0:0:0:0:
320,192,100564,1,0,0:0:0:0:
448,192,100564,1,0,0:0:0:0:
64,192,100630,1,0,0:0:0:0:
192,192,100630,1,0,0:0:0:0:
320,192,100694,1,0,0:0:0:0:
448,192,100694,1,0,0:0:0:0:
64,192,100759,1,0,0:0:0:0:
192,192,100759,1,0,0:0:0:0:
320,192,100823,1,0,0:0:0:0:
448,192,100823,1,0,0:0:0:0:
64,192,100888,1,0,0:0:0:0:
192,192,100888,1,0,0:0:0:0:
320,192,100952,1,0,0:0:0:0:
448,192,100952,1,0,0:0:0:0:
64,192,101017,1,0,0:0:0:0:
192,192,101017,1,0,0:0:0:0:
320,192,101082,1,0,0:0:0:0:
448,192,101082,1,0,0:0:0:0:
64,192,101147,1,0,0:0:0:0:
192,192,101147,1,0,0:0:0:0:
64,192,101340,1,0,0:0:0:0:
192,192,101340,1,0,0:0:0:0:
320,192,101340,1,0,0:0:0:0:
448,192,101340,1,0,0:0:0:0:
64,192,101534,128,0,101631:0:0:0:0:
192,192,101534,128,0,101631:0:0:0:0:
320,192,101534,128,0,101631:0:0:0:0:
448,192,101534,128,0,101631:0:0:0:0:
64,192,101728,128,0,101824:0:0:0:0:
192,192,101728,128,0,101824:0:0:0:0:
320,192,101728,128,0,101824:0:0:0:0:
448,192,101728,128,0,101824:0:0:0:0:
64,192,101921,128,0,102019:0:0:0:0:
192,192,101921,128,0,102019:0:0:0:0:
320,192,101921,128,0,102019:0:0:0:0:
448,192,101921,128,0,102019:0:0:0:0:
64,192,102116,128,0,102212:0:0:0:0:
192,192,102116,128,0,102212:0:0:0:0:
320,192,102116,128,0,102212:0:0:0:0:
448,192,102116,128,0,102212:0:0:0:0:
64,192,102309,128,0,102600:0:0:0:0:
192,192,102309,128,0,102600:0:0:0:0:
320,192,102309,128,0,102600:0:0:0:0:
448,192,102309,128,0,102600:0:0:0:0:
64,192,102697,128,0,102988:0:0:0:0:
192,192,102697,128,0,102988:0:0:0:0:
320,192,102697,128,0,102988:0:0:0:0:
448,192,102697,128,0,102988:0:0:0:0:
64,192,103084,1,0,0:0:0:0:
320,192,103084,1,0,0:0:0:0:
448,192,103084,1,0,0:0:0:0:
64,192,103181,1,0,0:0:0:0:
192,192,103181,1,0,0:0:0:0:
320,192,103181,1,0,0:0:0:0:
448,192,103181,1,0,0:0:0:0:
192,192,103278,1,0,0:0:0:0:
320,192,103278,1,0,0:0:0:0:
448,192,103278,1,0,0:0:0:0:
64,192,103374,1,0,0:0:0:0:
192,192,103374,1,0,0:0:0:0:
320,192,103374,1,0,0:0:0:0:
448,192,103374,1,0,0:0:0:0:
64,192,103472,1,0,0:0:0:0:
192,192,103472,1,0,0:0:0:0:
320,192,103472,1,0,0:0:0:0:
64,192,103569,1,0,0:0:0:0:
192,192,103569,1,0,0:0:0:0:
320,192,103569,1,0,0:0:0:0:
448,192,103569,1,0,0:0:0:0:
64,192,103666,1,0,0:0:0:0:
320,192,103666,1,0,0:0:0:0:
448,192,103666,1,0,0:0:0:0:
64,192,103762,1,0,0:0:0:0:
192,192,103762,1,0,0:0:0:0:
320,192,103762,1,0,0:0:0:0:
448,192,103762,1,0,0:0:0:0:
64,192,103860,1,0,0:0:0:0:
192,192,103860,1,0,0:0:0:0:
320,192,103860,1,0,0:0:0:0:
64,192,103957,1,0,0:0:0:0:
192,192,103957,1,0,0:0:0:0:
320,192,103957,1,0,0:0:0:0:
448,192,103957,1,0,0:0:0:0:
192,192,104053,1,0,0:0:0:0:
320,192,104053,1,0,0:0:0:0:
448,192,104053,1,0,0:0:0:0:
64,192,104150,1,0,0:0:0:0:
192,192,104150,1,0,0:0:0:0:
320,192,104150,1,0,0:0:0:0:
448,192,104150,1,0,0:0:0:0:
64,192,104247,1,0,0:0:0:0:
192,192,104247,1,0,0:0:0:0:
448,192,104247,1,0,0:0:0:0:
64,192,104344,1,0,0:0:0:0:
192,192,104344,1,0,0:0:0:0:
320,192,104344,1,0,0:0:0:0:
448,192,104344,1,0,0:0:0:0:
192,192,104441,1,0,0:0:0:0:
320,192,104441,1,0,0:0:0:0:
448,192,104441,1,0,0:0:0:0:
64,192,104538,1,0,0:0:0:0:
192,192,104538,1,0,0:0:0:0:
320,192,104538,1,0,0:0:0:0:
448,192,104538,1,0,0:0:0:0:
64,192,104634,1,0,0:0:0:0:
320,192,104634,1,0,0:0:0:0:
448,192,104634,1,0,0:0:0:0:
64,192,104731,1,0,0:0:0:0:
192,192,104731,1,0,0:0:0:0:
320,192,104731,1,0,0:0:0:0:
448,192,104731,1,0,0:0:0:0:
64,192,104829,1,0,0:0:0:0:
192,192,104829,1,0,0:0:0:0:
448,192,104829,1,0,0:0:0:0:
64,192,104926,1,0,0:0:0:0:
192,192,104926,1,0,0:0:0:0:
320,192,104926,1,0,0:0:0:0:
448,192,104926,1,0,0:0:0:0:
64,192,105022,1,0,0:0:0:0:
192,192,105022,1,0,0:0:0:0:
320,192,105022,1,0,0:0:0:0:
64,192,105119,1,0,0:0:0:0:
192,192,105119,1,0,0:0:0:0:
320,192,105119,1,0,0:0:0:0:
448,192,105119,1,0,0:0:0:0:
192,192,105216,1,0,0:0:0:0:
320,192,105216,1,0,0:0:0:0:
448,192,105216,1,0,0:0:0:0:
64,192,105313,1,0,0:0:0:0:
192,192,105313,1,0,0:0:0:0:
320,192,105313,1,0,0:0:0:0:
448,192,105313,1,0,0:0:0:0:
64,192,105410,1,0,0:0:0:0:
192,192,105410,1,0,0:0:0:0:
448,192,105410,1,0,0:0:0:0:
64,192,105507,1,0,0:0:0:0:
192,192,105507,1,0,0:0:0:0:
320,192,105507,1,0,0:0:0:0:
448,192,105507,1,0,0:0:0:0:
64,192,105603,1,0,0:0:0:0:
192,192,105603,1,0,0:0:0:0:
320,192,105603,1,0,0:0:0:0:
64,192,105701,1,0,0:0:0:0:
192,192,105701,1,0,0:0:0:0:
320,192,105701,1,0,0:0:0:0:
448,192,105701,1,0,0:0:0:0:
192,192,105798,1,0,0:0:0:0:
320,192,105798,1,0,0:0:0:0:
448,192,105798,1,0,0:0:0:0:
64,192,105894,1,0,0:0:0:0:
192,192,105894,1,0,0:0:0:0:
320,192,105894,1,0,0:0:0:0:
448,192,105894,1,0,0:0:0:0:
64,192,105991,1,0,0:0:0:0:
192,192,105991,1,0,0:0:0:0:
448,192,105991,1,0,0:0:0:0:
64,192,106088,1,0,0:0:0:0:
192,192,106088,1,0,0:0:0:0:
320,192,106088,1,0,0:0:0:0:
448,192,106088,1,0,0:0:0:0:
192,192,106186,1,0,0:0:0:0:
320,192,106186,1,0,0:0:0:0:
448,192,106186,1,0,0:0:0:0:
64,192,106282,1,0,0:0:0:0:
192,192,106282,1,0,0:0:0:0:
320,192,106282,1,0,0:0:0:0:
448,192,106282,1,0,0:0:0:0:
64,192,106379,1,0,0:0:0:0:
192,192,106379,1,0,0:0:0:0:
320,192,106379,1,0,0:0:0:0:
64,192,106476,1,0,0:0:0:0:
192,192,106476,1,0,0:0:0:0:
320,192,106476,1,0,0:0:0:0:
448,192,106476,1,0,0:0:0:0:
64,192,106572,1,0,0:0:0:0:
320,192,106572,1,0,0:0:0:0:
448,192,106572,1,0,0:0:0:0:
64,192,106670,1,0,0:0:0:0:
192,192,106670,1,0,0:0:0:0:
320,192,106670,1,0,0:0:0:0:
448,192,106670,1,0,0:0:0:0:
64,192,106767,1,0,0:0:0:0:
192,192,106767,1,0,0:0:0:0:
320,192,106767,1,0,0:0:0:0:
64,192,106863,1,0,0:0:0:0:
192,192,106863,1,0,0:0:0:0:
320,192,106863,1,0,0:0:0:0:
448,192,106863,1,0,0:0:0:0:
64,192,106960,1,0,0:0:0:0:
192,192,106960,1,0,0:0:0:0:
448,192,106960,1,0,0:0:0:0:
64,192,107057,1,0,0:0:0:0:
192,192,107057,1,0,0:0:0:0:
320,192,107057,1,0,0:0:0:0:
448,192,107057,1,0,0:0:0:0:
64,192,107154,1,0,0:0:0:0:
320,192,107154,1,0,0:0:0:0:
448,192,107154,1,0,0:0:0:0:
64,192,107251,1,0,0:0:0:0:
192,192,107251,1,0,0:0:0:0:
320,192,107251,1,0,0:0:0:0:
448,192,107251,1,0,0:0:0:0:
192,192,107348,1,0,0:0:0:0:
320,192,107348,1,0,0:0:0:0:
448,192,107348,1,0,0:0:0:0:
64,192,107444,1,0,0:0:0:0:
192,192,107444,1,0,0:0:0:0:
320,192,107444,1,0,0:0:0:0:
448,192,107444,1,0,0:0:0:0:
64,192,107541,1,0,0:0:0:0:
192,192,107541,1,0,0:0:0:0:
320,192,107541,1,0,0:0:0:0:
64,192,107639,1,0,0:0:0:0:
192,192,107639,1,0,0:0:0:0:
320,192,107639,1,0,0:0:0:0:
448,192,107639,1,0,0:0:0:0:
64,192,107736,1,0,0:0:0:0:
320,192,107736,1,0,0:0:0:0:
448,192,107736,1,0,0:0:0:0:
64,192,107832,1,0,0:0:0:0:
192,192,107832,1,0,0:0:0:0:
320,192,107832,1,0,0:0:0:0:
448,192,107832,1,0,0:0:0:0:
192,192,107929,1,0,0:0:0:0:
320,192,107929,1,0,0:0:0:0:
448,192,107929,1,0,0:0:0:0:
64,192,108027,1,0,0:0:0:0:
192,192,108027,1,0,0:0:0:0:
320,192,108027,1,0,0:0:0:0:
448,192,108027,1,0,0:0:0:0:
64,192,108123,1,0,0:0:0:0:
192,192,108123,1,0,0:0:0:0:
320,192,108123,1,0,0:0:0:0:
64,192,108220,1,0,0:0:0:0:
192,192,108220,1,0,0:0:0:0:
320,192,108220,1,0,0:0:0:0:
448,192,108220,1,0,0:0:0:0:
64,192,108317,1,0,0:0:0:0:
320,192,108317,1,0,0:0:0:0:
448,192,108317,1,0,0:0:0:0:
64,192,108413,1,0,0:0:0:0:
192,192,108413,1,0,0:0:0:0:
320,192,108413,1,0,0:0:0:0:
448,192,108413,1,0,0:0:0:0:
64,192,108511,1,0,0:0:0:0:
192,192,108511,1,0,0:0:0:0:
320,192,108511,1,0,0:0:0:0:
64,192,108608,1,0,0:0:0:0:
192,192,108608,1,0,0:0:0:0:
320,192,108608,1,0,0:0:0:0:
448,192,108608,1,0,0:0:0:0:
192,192,108704,1,0,0:0:0:0:
320,192,108704,1,0,0:0:0:0:
448,192,108704,1,0,0:0:0:0:
64,192,108801,1,0,0:0:0:0:
192,192,108801,1,0,0:0:0:0:
320,192,108801,1,0,0:0:0:0:
448,192,108801,1,0,0:0:0:0:
64,192,108898,1,0,0:0:0:0:
192,192,108898,1,0,0:0:0:0:
448,192,108898,1,0,0:0:0:0:
64,192,108996,1,0,0:0:0:0:
192,192,108996,1,0,0:0:0:0:
320,192,108996,1,0,0:0:0:0:
448,192,108996,1,0,0:0:0:0:
192,192,109092,1,0,0:0:0:0:
320,192,109092,1,0,0:0:0:0:
448,192,109092,1,0,0:0:0:0:
64,192,109189,1,0,0:0:0:0:
192,192,109189,1,0,0:0:0:0:
320,192,109189,1,0,0:0:0:0:
448,192,109189,1,0,0:0:0:0:
64,192,109286,1,0,0:0:0:0:
320,192,109286,1,0,0:0:0:0:
448,192,109286,1,0,0:0:0:0:
64,192,109382,1,0,0:0:0:0:
192,192,109382,1,0,0:0:0:0:
320,192,109382,1,0,0:0:0:0:
448,192,109382,1,0,0:0:0:0:
64,192,109480,1,0,0:0:0:0:
192,192,109480,1,0,0:0:0:0:
448,192,109480,1,0,0:0:0:0:
64,192,109577,1,0,0:0:0:0:
192,192,109577,1,0,0:0:0:0:
320,192,109577,1,0,0:0:0:0:
448,192,109577,1,0,0:0:0:0:
64,192,109673,1,0,0:0:0:0:
192,192,109673,1,0,0:0:0:0:
320,192,109673,1,0,0:0:0:0:
64,192,109770,1,0,0:0:0:0:
192,192,109770,1,0,0:0:0:0:
320,192,109770,1,0,0:0:0:0:
448,192,109770,1,0,0:0:0:0:
192,192,109868,1,0,0:0:0:0:
320,192,109868,1,0,0:0:0:0:
448,192,109868,1,0,0:0:0:0:
64,192,109964,1,0,0:0:0:0:
192,192,109964,1,0,0:0:0:0:
320,192,109964,1,0,0:0:0:0:
448,192,109964,1,0,0:0:0:0:
64,192,110061,1,0,0:0:0:0:
192,192,110061,1,0,0:0:0:0:
448,192,110061,1,0,0:0:0:0:
64,192,110158,1,0,0:0:0:0:
192,192,110158,1,0,0:0:0:0:
320,192,110158,1,0,0:0:0:0:
448,192,110158,1,0,0:0:0:0:
64,192,110254,1,0,0:0:0:0:
192,192,110254,1,0,0:0:0:0:
320,192,110254,1,0,0:0:0:0:
64,192,110352,1,0,0:0:0:0:
192,192,110352,1,0,0:0:0:0:
320,192,110352,1,0,0:0:0:0:
448,192,110352,1,0,0:0:0:0:
192,192,110449,1,0,0:0:0:0:
320,192,110449,1,0,0:0:0:0:
448,192,110449,1,0,0:0:0:0:
64,192,110546,1,0,0:0:0:0:
192,192,110546,1,0,0:0:0:0:
320,192,110546,1,0,0:0:0:0:
448,192,110546,1,0,0:0:0:0:
64,192,110642,1,0,0:0:0:0:
192,192,110642,1,0,0:0:0:0:
448,192,110642,1,0,0:0:0:0:
64,192,110739,1,0,0:0:0:0:
192,192,110739,1,0,0:0:0:0:
320,192,110739,1,0,0:0:0:0:
448,192,110739,1,0,0:0:0:0:
192,192,110837,1,0,0:0:0:0:
320,192,110837,1,0,0:0:0:0:
448,192,110837,1,0,0:0:0:0:
64,192,110933,1,0,0:0:0:0:
192,192,110933,1,0,0:0:0:0:
320,192,110933,1,0,0:0:0:0:
448,192,110933,1,0,0:0:0:0:
64,192,111030,1,0,0:0:0:0:
192,192,111030,1,0,0:0:0:0:
320,192,111030,1,0,0:0:0:0:
64,192,111127,1,0,0:0:0:0:
192,192,111127,1,0,0:0:0:0:
320,192,111127,1,0,0:0:0:0:
448,192,111127,1,0,0:0:0:0:
64,192,111223,1,0,0:0:0:0:
320,192,111223,1,0,0:0:0:0:
448,192,111223,1,0,0:0:0:0:
64,192,111321,1,0,0:0:0:0:
192,192,111321,1,0,0:0:0:0:
320,192,111321,1,0,0:0:0:0:
448,192,111321,1,0,0:0:0:0:
64,192,111418,1,0,0:0:0:0:
192,192,111418,1,0,0:0:0:0:
320,192,111418,1,0,0:0:0:0:
64,192,111514,1,0,0:0:0:0:
192,192,111514,1,0,0:0:0:0:
320,192,111514,1,0,0:0:0:0:
448,192,111514,1,0,0:0:0:0:
64,192,111611,1,0,0:0:0:0:
192,192,111611,1,0,0:0:0:0:
448,192,111611,1,0,0:0:0:0:
64,192,111708,1,0,0:0:0:0:
192,192,111708,1,0,0:0:0:0:
320,192,111708,1,0,0:0:0:0:
448,192,111708,1,0,0:0:0:0:
64,192,111806,1,0,0:0:0:0:
320,192,111806,1,0,0:0:0:0:
448,192,111806,1,0,0:0:0:0:
192,192,111999,1,0,0:0:0:0:
320,192,111999,1,0,0:0:0:0:
448,192,111999,1,0,0:0:0:0:
64,192,112096,1,0,0:0:0:0:
192,192,112096,1,0,0:0:0:0:
320,192,112096,1,0,0:0:0:0:
448,192,112096,1,0,0:0:0:0:
64,192,112193,1,0,0:0:0:0:
192,192,112193,1,0,0:0:0:0:
320,192,112193,1,0,0:0:0:0:
64,192,112290,1,0,0:0:0:0:
192,192,112290,1,0,0:0:0:0:
320,192,112290,1,0,0:0:0:0:
448,192,112290,1,0,0:0:0:0:
64,192,112387,1,0,0:0:0:0:
320,192,112387,1,0,0:0:0:0:
448,192,112387,1,0,0:0:0:0:
192,192,112580,1,0,0:0:0:0:
320,192,112580,1,0,0:0:0:0:
448,192,112580,1,0,0:0:0:0:
64,192,112678,1,0,0:0:0:0:
192,192,112678,1,0,0:0:0:0:
320,192,112678,1,0,0:0:0:0:
448,192,112678,1,0,0:0:0:0:
64,192,112774,1,0,0:0:0:0:
192,192,112774,1,0,0:0:0:0:
320,192,112774,1,0,0:0:0:0:
64,192,112871,1,0,0:0:0:0:
192,192,112871,1,0,0:0:0:0:
320,192,112871,1,0,0:0:0:0:
448,192,112871,1,0,0:0:0:0:
64,192,112968,1,0,0:0:0:0:
320,192,112968,1,0,0:0:0:0:
448,192,112968,1,0,0:0:0:0:
64,192,113162,1,0,0:0:0:0:
192,192,113162,1,0,0:0:0:0:
320,192,113162,1,0,0:0:0:0:
192,192,113356,1,0,0:0:0:0:
320,192,113356,1,0,0:0:0:0:
448,192,113356,1,0,0:0:0:0:
64,192,113549,1,0,0:0:0:0:
192,192,113549,1,0,0:0:0:0:
448,192,113549,1,0,0:0:0:0:
64,192,113647,1,0,0:0:0:0:
192,192,113647,1,0,0:0:0:0:
320,192,113647,1,0,0:0:0:0:
448,192,113647,1,0,0:0:0:0:
192,192,113743,1,0,0:0:0:0:
320,192,113743,1,0,0:0:0:0:
448,192,113743,1,0,0:0:0:0:
64,192,113840,1,0,0:0:0:0:
192,192,113840,1,0,0:0:0:0:
320,192,113840,1,0,0:0:0:0:
448,192,113840,1,0,0:0:0:0:
64,192,113937,1,0,0:0:0:0:
320,192,113937,1,0,0:0:0:0:
448,192,113937,1,0,0:0:0:0:
64,192,114131,1,0,0:0:0:0:
192,192,114131,1,0,0:0:0:0:
448,192,114131,1,0,0:0:0:0:
64,192,114228,1,0,0:0:0:0:
192,192,114228,1,0,0:0:0:0:
320,192,114228,1,0,0:0:0:0:
448,192,114228,1,0,0:0:0:0:
64,192,114324,1,0,0:0:0:0:
192,192,114324,1,0,0:0:0:0:
320,192,114324,1,0,0:0:0:0:
192,192,114519,1,0,0:0:0:0:
320,192,114519,1,0,0:0:0:0:
448,192,114519,1,0,0:0:0:0:
64,192,114712,1,0,0:0:0:0:
192,192,114712,1,0,0:0:0:0:
448,192,114712,1,0,0:0:0:0:
64,192,114906,1,0,0:0:0:0:
192,192,114906,1,0,0:0:0:0:
320,192,114906,1,0,0:0:0:0:
64,192,115100,1,0,0:0:0:0:
192,192,115100,1,0,0:0:0:0:
320,192,115100,1,0,0:0:0:0:
448,192,115100,1,0,0:0:0:0:
64,192,115293,1,0,0:0:0:0:
192,192,115293,1,0,0:0:0:0:
448,192,115293,1,0,0:0:0:0:
64,192,115390,1,0,0:0:0:0:
192,192,115390,1,0,0:0:0:0:
320,192,115390,1,0,0:0:0:0:
448,192,115390,1,0,0:0:0:0:
192,192,115488,1,0,0:0:0:0:
320,192,115488,1,0,0:0:0:0:
448,192,115488,1,0,0:0:0:0:
64,192,115584,1,0,0:0:0:0:
192,192,115584,1,0,0:0:0:0:
320,192,115584,1,0,0:0:0:0:
448,192,115584,1,0,0:0:0:0:
64,192,115681,1,0,0:0:0:0:
192,192,115681,1,0,0:0:0:0:
448,192,115681,1,0,0:0:0:0:
64,192,115778,1,0,0:0:0:0:
192,192,115778,1,0,0:0:0:0:
320,192,115778,1,0,0:0:0:0:
448,192,115778,1,0,0:0:0:0:
64,192,115874,1,0,0:0:0:0:
192,192,115874,1,0,0:0:0:0:
320,192,115874,1,0,0:0:0:0:
64,192,115972,1,0,0:0:0:0:
192,192,115972,1,0,0:0:0:0:
320,192,115972,1,0,0:0:0:0:
448,192,115972,1,0,0:0:0:0:
64,192,116069,1,0,0:0:0:0:
320,192,116069,1,0,0:0:0:0:
448,192,116069,1,0,0:0:0:0:
64,192,116166,1,0,0:0:0:0:
192,192,116166,1,0,0:0:0:0:
320,192,116166,1,0,0:0:0:0:
448,192,116166,1,0,0:0:0:0:
192,192,116262,1,0,0:0:0:0:
320,192,116262,1,0,0:0:0:0:
448,192,116262,1,0,0:0:0:0:
64,192,116360,1,0,0:0:0:0:
192,192,116360,1,0,0:0:0:0:
320,192,116360,1,0,0:0:0:0:
448,192,116360,1,0,0:0:0:0:
64,192,116457,1,0,0:0:0:0:
192,192,116457,1,0,0:0:0:0:
448,192,116457,1,0,0:0:0:0:
64,192,116553,1,0,0:0:0:0:
192,192,116553,1,0,0:0:0:0:
320,192,116553,1,0,0:0:0:0:
448,192,116553,1,0,0:0:0:0:
64,192,116650,1,0,0:0:0:0:
192,192,116650,1,0,0:0:0:0:
320,192,116650,1,0,0:0:0:0:
64,192,116747,1,0,0:0:0:0:
192,192,116747,1,0,0:0:0:0:
320,192,116747,1,0,0:0:0:0:
448,192,116747,1,0,0:0:0:0:
192,192,116844,1,0,0:0:0:0:
320,192,116844,1,0,0:0:0:0:
448,192,116844,1,0,0:0:0:0:
64,192,116941,1,0,0:0:0:0:
192,192,116941,1,0,0:0:0:0:
320,192,116941,1,0,0:0:0:0:
448,192,116941,1,0,0:0:0:0:
64,192,117038,1,0,0:0:0:0:
192,192,117038,1,0,0:0:0:0:
320,192,117038,1,0,0:0:0:0:
64,192,117134,1,0,0:0:0:0:
192,192,117134,1,0,0:0:0:0:
320,192,117134,1,0,0:0:0:0:
448,192,117134,1,0,0:0:0:0:
64,192,117231,1,0,0:0:0:0:
320,192,117231,1,0,0:0:0:0:
448,192,117231,1,0,0:0:0:0:
64,192,117329,1,0,0:0:0:0:
192,192,117329,1,0,0:0:0:0:
320,192,117329,1,0,0:0:0:0:
448,192,117329,1,0,0:0:0:0:
64,192,117426,1,0,0:0:0:0:
192,192,117426,1,0,0:0:0:0:
320,192,117426,1,0,0:0:0:0:
64,192,117522,1,0,0:0:0:0:
192,192,117522,1,0,0:0:0:0:
320,192,117522,1,0,0:0:0:0:
448,192,117522,1,0,0:0:0:0:
192,192,117619,1,0,0:0:0:0:
320,192,117619,1,0,0:0:0:0:
448,192,117619,1,0,0:0:0:0:
64,192,117716,1,0,0:0:0:0:
192,192,117716,1,0,0:0:0:0:
320,192,117716,1,0,0:0:0:0:
448,192,117716,1,0,0:0:0:0:
64,192,117813,1,0,0:0:0:0:
192,192,117813,1,0,0:0:0:0:
448,192,117813,1,0,0:0:0:0:
64,192,117910,1,0,0:0:0:0:
192,192,117910,1,0,0:0:0:0:
320,192,117910,1,0,0:0:0:0:
448,192,117910,1,0,0:0:0:0:
192,192,118007,1,0,0:0:0:0:
320,192,118007,1,0,0:0:0:0:
448,192,118007,1,0,0:0:0:0:
64,192,118103,1,0,0:0:0:0:
192,192,118103,1,0,0:0:0:0:
320,192,118103,1,0,0:0:0:0:
448,192,118103,1,0,0:0:0:0:
64,192,118201,1,0,0:0:0:0:
192,192,118201,1,0,0:0:0:0:
320,192,118201,1,0,0:0:0:0:
64,192,118298,1,0,0:0:0:0:
192,192,118298,1,0,0:0:0:0:
320,192,118298,1,0,0:0:0:0:
448,192,118298,1,0,0:0:0:0:
64,192,118394,1,0,0:0:0:0:
320,192,118394,1,0,0:0:0:0:
448,192,118394,1,0,0:0:0:0:
64,192,118491,1,0,0:0:0:0:
192,192,118491,1,0,0:0:0:0:
320,192,118491,1,0,0:0:0:0:
448,192,118491,1,0,0:0:0:0:
64,192,118588,1,0,0:0:0:0:
192,192,118588,1,0,0:0:0:0:
320,192,118588,1,0,0:0:0:0:
64,192,118686,1,0,0:0:0:0:
192,192,118686,1,0,0:0:0:0:
320,192,118686,1,0,0:0:0:0:
448,192,118686,1,0,0:0:0:0:
192,192,118782,1,0,0:0:0:0:
320,192,118782,1,0,0:0:0:0:
448,192,118782,1,0,0:0:0:0:
64,192,118879,1,0,0:0:0:0:
192,192,118879,1,0,0:0:0:0:
320,192,118879,1,0,0:0:0:0:
448,192,118879,1,0,0:0:0:0:
64,192,118976,1,0,0:0:0:0:
192,192,118976,1,0,0:0:0:0:
448,192,118976,1,0,0:0:0:0:
64,192,119072,1,0,0:0:0:0:
192,192,119072,1,0,0:0:0:0:
320,192,119072,1,0,0:0:0:0:
448,192,119072,1,0,0:0:0:0:
64,192,119170,1,0,0:0:0:0:
192,192,119170,1,0,0:0:0:0:
320,192,119170,1,0,0:0:0:0:
64,192,119267,1,0,0:0:0:0:
192,192,119267,1,0,0:0:0:0:
320,192,119267,1,0,0:0:0:0:
448,192,119267,1,0,0:0:0:0:
192,192,119363,1,0,0:0:0:0:
320,192,119363,1,0,0:0:0:0:
448,192,119363,1,0,0:0:0:0:
64,192,119460,1,0,0:0:0:0:
192,192,119460,1,0,0:0:0:0:
320,192,119460,1,0,0:0:0:0:
448,192,119460,1,0,0:0:0:0:
64,192,119557,1,0,0:0:0:0:
192,192,119557,1,0,0:0:0:0:
320,192,119557,1,0,0:0:0:0:
64,192,119654,1,0,0:0:0:0:
192,192,119654,1,0,0:0:0:0:
320,192,119654,1,0,0:0:0:0:
448,192,119654,1,0,0:0:0:0:
64,192,119751,1,0,0:0:0:0:
192,192,119751,1,0,0:0:0:0:
320,192,119751,1,0,0:0:0:0:
64,192,119848,1,0,0:0:0:0:
192,192,119848,1,0,0:0:0:0:
320,192,119848,1,0,0:0:0:0:
448,192,119848,1,0,0:0:0:0:
192,192,119944,1,0,0:0:0:0:
320,192,119944,1,0,0:0:0:0:
448,192,119944,1,0,0:0:0:0:
64,192,120041,1,0,0:0:0:0:
192,192,120041,1,0,0:0:0:0:
320,192,120041,1,0,0:0:0:0:
448,192,120041,1,0,0:0:0:0:
192,192,120139,1,0,0:0:0:0:
320,192,120139,1,0,0:0:0:0:
448,192,120139,1,0,0:0:0:0:
64,192,120236,1,0,0:0:0:0:
192,192,120236,1,0,0:0:0:0:
320,192,120236,1,0,0:0:0:0:
448,192,120236,1,0,0:0:0:0:
64,192,120332,1,0,0:0:0:0:
192,192,120332,1,0,0:0:0:0:
448,192,120332,1,0,0:0:0:0:
64,192,120429,1,0,0:0:0:0:
192,192,120429,1,0,0:0:0:0:
320,192,120429,1,0,0:0:0:0:
448,192,120429,1,0,0:0:0:0:
64,192,120527,1,0,0:0:0:0:
192,192,120527,1,0,0:0:0:0:
448,192,120527,1,0,0:0:0:0:
64,192,120623,1,0,0:0:0:0:
192,192,120623,1,0,0:0:0:0:
320,192,120623,1,0,0:0:0:0:
448,192,120623,1,0,0:0:0:0:
64,192,120720,1,0,0:0:0:0:
320,192,120720,1,0,0:0:0:0:
448,192,120720,1,0,0:0:0:0:
64,192,120817,1,0,0:0:0:0:
192,192,120817,1,0,0:0:0:0:
320,192,120817,1,0,0:0:0:0:
448,192,120817,1,0,0:0:0:0:
64,192,120913,1,0,0:0:0:0:
320,192,120913,1,0,0:0:0:0:
448,192,120913,1,0,0:0:0:0:
64,192,121011,1,0,0:0:0:0:
192,192,121011,1,0,0:0:0:0:
320,192,121011,1,0,0:0:0:0:
448,192,121011,1,0,0:0:0:0:
64,192,121108,1,0,0:0:0:0:
192,192,121108,1,0,0:0:0:0:
320,192,121108,1,0,0:0:0:0:
64,192,121204,1,0,0:0:0:0:
192,192,121204,1,0,0:0:0:0:
320,192,121204,1,0,0:0:0:0:
448,192,121204,1,0,0:0:0:0:
192,192,121301,1,0,0:0:0:0:
320,192,121301,1,0,0:0:0:0:
448,192,121301,1,0,0:0:0:0:
64,192,121398,1,0,0:0:0:0:
192,192,121398,1,0,0:0:0:0:
320,192,121398,1,0,0:0:0:0:
448,192,121398,1,0,0:0:0:0:
64,192,121496,1,0,0:0:0:0:
192,192,121496,1,0,0:0:0:0:
448,192,121496,1,0,0:0:0:0:
64,192,121592,1,0,0:0:0:0:
192,192,121592,1,0,0:0:0:0:
320,192,121592,1,0,0:0:0:0:
448,192,121592,1,0,0:0:0:0:
64,192,121689,1,0,0:0:0:0:
192,192,121689,1,0,0:0:0:0:
320,192,121689,1,0,0:0:0:0:
64,192,121786,1,0,0:0:0:0:
192,192,121786,1,0,0:0:0:0:
320,192,121786,1,0,0:0:0:0:
448,192,121786,1,0,0:0:0:0:
192,192,121882,1,0,0:0:0:0:
320,192,121882,1,0,0:0:0:0:
448,192,121882,1,0,0:0:0:0:
64,192,121980,1,0,0:0:0:0:
192,192,121980,1,0,0:0:0:0:
320,192,121980,1,0,0:0:0:0:
448,192,121980,1,0,0:0:0:0:
64,192,122077,1,0,0:0:0:0:
320,192,122077,1,0,0:0:0:0:
448,192,122077,1,0,0:0:0:0:
64,192,122173,1,0,0:0:0:0:
192,192,122173,1,0,0:0:0:0:
320,192,122173,1,0,0:0:0:0:
448,192,122173,1,0,0:0:0:0:
192,192,122270,1,0,0:0:0:0:
320,192,122270,1,0,0:0:0:0:
448,192,122270,1,0,0:0:0:0:
64,192,122368,1,0,0:0:0:0:
192,192,122368,1,0,0:0:0:0:
320,192,122368,1,0,0:0:0:0:
448,192,122368,1,0,0:0:0:0:
64,192,122464,1,0,0:0:0:0:
192,192,122464,1,0,0:0:0:0:
448,192,122464,1,0,0:0:0:0:
64,192,122561,1,0,0:0:0:0:
192,192,122561,1,0,0:0:0:0:
320,192,122561,1,0,0:0:0:0:
448,192,122561,1,0,0:0:0:0:
192,192,122658,1,0,0:0:0:0:
320,192,122658,1,0,0:0:0:0:
448,192,122658,1,0,0:0:0:0:
64,192,122754,1,0,0:0:0:0:
192,192,122754,1,0,0:0:0:0:
320,192,122754,1,0,0:0:0:0:
448,192,122754,1,0,0:0:0:0:
64,192,122852,1,0,0:0:0:0:
320,192,122852,1,0,0:0:0:0:
448,192,122852,1,0,0:0:0:0:
64,192,122949,1,0,0:0:0:0:
192,192,122949,1,0,0:0:0:0:
320,192,122949,1,0,0:0:0:0:
448,192,122949,1,0,0:0:0:0:
64,192,123046,1,0,0:0:0:0:
192,192,123046,1,0,0:0:0:0:
320,192,123046,1,0,0:0:0:0:
64,192,123142,1,0,0:0:0:0:
192,192,123142,1,0,0:0:0:0:
320,192,123142,1,0,0:0:0:0:
448,192,123142,1,0,0:0:0:0:
64,192,123239,1,0,0:0:0:0:
192,192,123239,1,0,0:0:0:0:
448,192,123239,1,0,0:0:0:0:
64,192,123337,1,0,0:0:0:0:
192,192,123337,1,0,0:0:0:0:
320,192,123337,1,0,0:0:0:0:
448,192,123337,1,0,0:0:0:0:
192,192,123433,1,0,0:0:0:0:
320,192,123433,1,0,0:0:0:0:
448,192,123433,1,0,0:0:0:0:
64,192,123530,1,0,0:0:0:0:
192,192,123530,1,0,0:0:0:0:
320,192,123530,1,0,0:0:0:0:
448,192,123530,1,0,0:0:0:0:
64,192,123627,1,0,0:0:0:0:
192,192,123627,1,0,0:0:0:0:
320,192,123627,1,0,0:0:0:0:
64,192,123723,1,0,0:0:0:0:
192,192,123723,1,0,0:0:0:0:
320,192,123723,1,0,0:0:0:0:
448,192,123723,1,0,0:0:0:0:
64,192,123821,1,0,0:0:0:0:
320,192,123821,1,0,0:0:0:0:
448,192,123821,1,0,0:0:0:0:
64,192,123918,1,0,0:0:0:0:
192,192,123918,1,0,0:0:0:0:
320,192,123918,1,0,0:0:0:0:
448,192,123918,1,0,0:0:0:0:
64,192,124014,1,0,0:0:0:0:
192,192,124014,1,0,0:0:0:0:
448,192,124014,1,0,0:0:0:0:
64,192,124111,1,0,0:0:0:0:
192,192,124111,1,0,0:0:0:0:
320,192,124111,1,0,0:0:0:0:
448,192,124111,1,0,0:0:0:0:
64,192,124208,1,0,0:0:0:0:
192,192,124208,1,0,0:0:0:0:
320,192,124208,1,0,0:0:0:0:
64,192,124306,1,0,0:0:0:0:
192,192,124306,1,0,0:0:0:0:
320,192,124306,1,0,0:0:0:0:
448,192,124306,1,0,0:0:0:0:
192,192,124402,1,0,0:0:0:0:
320,192,124402,1,0,0:0:0:0:
448,192,124402,1,0,0:0:0:0:
64,192,124499,1,0,0:0:0:0:
192,192,124499,1,0,0:0:0:0:
320,192,124499,1,0,0:0:0:0:
448,192,124499,1,0,0:0:0:0:
64,192,124596,1,0,0:0:0:0:
192,192,124596,1,0,0:0:0:0:
448,192,124596,1,0,0:0:0:0:
64,192,124693,1,0,0:0:0:0:
192,192,124693,1,0,0:0:0:0:
320,192,124693,1,0,0:0:0:0:
448,192,124693,1,0,0:0:0:0:
64,192,124790,1,0,0:0:0:0:
320,192,124790,1,0,0:0:0:0:
448,192,124790,1,0,0:0:0:0:
64,192,124887,1,0,0:0:0:0:
192,192,124887,1,0,0:0:0:0:
320,192,124887,1,0,0:0:0:0:
448,192,124887,1,0,0:0:0:0:
64,192,124983,1,0,0:0:0:0:
320,192,124983,1,0,0:0:0:0:
448,192,124983,1,0,0:0:0:0:
64,192,125080,1,0,0:0:0:0:
192,192,125080,1,0,0:0:0:0:
320,192,125080,1,0,0:0:0:0:
448,192,125080,1,0,0:0:0:0:
64,192,125178,1,0,0:0:0:0:
192,192,125178,1,0,0:0:0:0:
448,192,125178,1,0,0:0:0:0:
64,192,125274,1,0,0:0:0:0:
192,192,125274,1,0,0:0:0:0:
320,192,125274,1,0,0:0:0:0:
448,192,125274,1,0,0:0:0:0:
64,192,125371,1,0,0:0:0:0:
192,192,125371,1,0,0:0:0:0:
448,192,125371,1,0,0:0:0:0:
64,192,125468,1,0,0:0:0:0:
192,192,125468,1,0,0:0:0:0:
320,192,125468,1,0,0:0:0:0:
448,192,125468,1,0,0:0:0:0:
64,192,125564,1,0,0:0:0:0:
192,192,125564,1,0,0:0:0:0:
320,192,125564,1,0,0:0:0:0:
64,192,125662,1,0,0:0:0:0:
192,192,125662,1,0,0:0:0:0:
320,192,125662,1,0,0:0:0:0:
448,192,125662,1,0,0:0:0:0:
192,192,125759,1,0,0:0:0:0:
320,192,125759,1,0,0:0:0:0:
448,192,125759,1,0,0:0:0:0:
64,192,125856,1,0,0:0:0:0:
192,192,125856,1,0,0:0:0:0:
320,192,125856,1,0,0:0:0:0:
448,192,125856,1,0,0:0:0:0:
64,192,125952,1,0,0:0:0:0:
192,192,125952,1,0,0:0:0:0:
448,192,125952,1,0,0:0:0:0:
64,192,126147,1,0,0:0:0:0:
448,192,126147,1,0,0:0:0:0:
64,192,126340,1,0,0:0:0:0:
320,192,126340,1,0,0:0:0:0:
192,192,126534,1,0,0:0:0:0:
320,192,126534,1,0,0:0:0:0:
448,192,126534,1,0,0:0:0:0:
64,192,126728,1,0,0:0:0:0:
192,192,126728,1,0,0:0:0:0:
448,192,126728,1,0,0:0:0:0:
192,192,126921,1,0,0:0:0:0:
320,192,126921,1,0,0:0:0:0:
64,192,127116,1,0,0:0:0:0:
192,192,127116,1,0,0:0:0:0:
320,192,127116,1,0,0:0:0:0:
448,192,127116,1,0,0:0:0:0:
64,192,127309,1,0,0:0:0:0:
448,192,127309,1,0,0:0:0:0:
64,192,127503,1,0,0:0:0:0:
192,192,127503,1,0,0:0:0:0:
320,192,127503,1,0,0:0:0:0:
192,192,127890,1,0,0:0:0:0:
320,192,127890,1,0,0:0:0:0:
448,192,127890,1,0,0:0:0:0:
64,192,128278,1,0,0:0:0:0:
192,192,128278,1,0,0:0:0:0:
448,192,128278,1,0,0:0:0:0:
64,192,128472,1,0,0:0:0:0:
320,192,128472,1,0,0:0:0:0:
64,192,128666,1,0,0:0:0:0:
192,192,128666,1,0,0:0:0:0:
320,192,128666,1,0,0:0:0:0:
192,192,129053,1,0,0:0:0:0:
320,192,129053,1,0,0:0:0:0:
448,192,129053,1,0,0:0:0:0:
192,192,129247,1,0,0:0:0:0:
320,192,129247,1,0,0:0:0:0:
64,192,129441,1,0,0:0:0:0:
192,192,129441,1,0,0:0:0:0:
320,192,129441,1,0,0:0:0:0:
64,192,129634,1,0,0:0:0:0:
192,192,129634,1,0,0:0:0:0:
320,192,129634,1,0,0:0:0:0:
64,192,129829,1,0,0:0:0:0:
448,192,129829,1,0,0:0:0:0:
192,192,130022,1,0,0:0:0:0:
320,192,130022,1,0,0:0:0:0:
448,192,130022,1,0,0:0:0:0:
64,192,130216,1,0,0:0:0:0:
320,192,130216,1,0,0:0:0:0:
192,192,130603,1,0,0:0:0:0:
320,192,130603,1,0,0:0:0:0:
448,192,130603,1,0,0:0:0:0:
64,192,130798,1,0,0:0:0:0:
320,192,130798,1,0,0:0:0:0:
448,192,130798,1,0,0:0:0:0:
64,192,130991,1,0,0:0:0:0:
192,192,130991,1,0,0:0:0:0:
320,192,130991,1,0,0:0:0:0:
192,192,131186,1,0,0:0:0:0:
320,192,131186,1,0,0:0:0:0:
64,192,131379,1,0,0:0:0:0:
320,192,131379,1,0,0:0:0:0:
448,192,131379,1,0,0:0:0:0:
64,192,131572,1,0,0:0:0:0:
192,192,131572,1,0,0:0:0:0:
320,192,131572,1,0,0:0:0:0:
64,192,131767,1,0,0:0:0:0:
192,192,131767,1,0,0:0:0:0:
320,192,131767,1,0,0:0:0:0:
64,192,131960,1,0,0:0:0:0:
320,192,131960,1,0,0:0:0:0:
448,192,131960,1,0,0:0:0:0:
192,192,132154,1,0,0:0:0:0:
320,192,132154,1,0,0:0:0:0:
448,192,132154,1,0,0:0:0:0:
64,192,132348,1,0,0:0:0:0:
320,192,132348,1,0,0:0:0:0:
448,192,132348,1,0,0:0:0:0:
64,192,132541,1,0,0:0:0:0:
192,192,132541,1,0,0:0:0:0:
320,192,132541,1,0,0:0:0:0:
64,192,132736,1,0,0:0:0:0:
320,192,132736,1,0,0:0:0:0:
448,192,132736,1,0,0:0:0:0:
64,192,132929,1,0,0:0:0:0:
192,192,132929,1,0,0:0:0:0:
320,192,132929,1,0,0:0:0:0:
448,192,132929,1,0,0:0:0:0:
64,192,133123,1,0,0:0:0:0:
320,192,133123,1,0,0:0:0:0:
448,192,133123,1,0,0:0:0:0:
192,192,133317,1,0,0:0:0:0:
320,192,133317,1,0,0:0:0:0:
448,192,133317,1,0,0:0:0:0:
64,192,133511,1,0,0:0:0:0:
448,192,133511,1,0,0:0:0:0:
192,192,133704,1,0,0:0:0:0:
320,192,133704,1,0,0:0:0:0:
448,192,133704,1,0,0:0:0:0:
64,192,133801,1,0,0:0:0:0:
192,192,133801,1,0,0:0:0:0:
320,192,133801,1,0,0:0:0:0:
448,192,133801,1,0,0:0:0:0:
64,192,133898,1,0,0:0:0:0:
192,192,133898,1,0,0:0:0:0:
320,192,133898,1,0,0:0:0:0:
64,192,133996,1,0,0:0:0:0:
192,192,133996,1,0,0:0:0:0:
320,192,133996,1,0,0:0:0:0:
448,192,133996,1,0,0:0:0:0:
64,192,134092,1,0,0:0:0:0:
320,192,134092,1,0,0:0:0:0:
448,192,134092,1,0,0:0:0:0:
64,192,134189,1,0,0:0:0:0:
192,192,134189,1,0,0:0:0:0:
320,192,134189,1,0,0:0:0:0:
448,192,134189,1,0,0:0:0:0:
64,192,134286,1,0,0:0:0:0:
192,192,134286,1,0,0:0:0:0:
448,192,134286,1,0,0:0:0:0:
64,192,134382,1,0,0:0:0:0:
192,192,134382,1,0,0:0:0:0:
320,192,134382,1,0,0:0:0:0:
448,192,134382,1,0,0:0:0:0:
64,192,134480,1,0,0:0:0:0:
320,192,134480,1,0,0:0:0:0:
448,192,134480,1,0,0:0:0:0:
64,192,134577,1,0,0:0:0:0:
192,192,134577,1,0,0:0:0:0:
320,192,134577,1,0,0:0:0:0:
448,192,134577,1,0,0:0:0:0:
64,192,134673,1,0,0:0:0:0:
192,192,134673,1,0,0:0:0:0:
320,192,134673,1,0,0:0:0:0:
64,192,134770,1,0,0:0:0:0:
192,192,134770,1,0,0:0:0:0:
320,192,134770,1,0,0:0:0:0:
448,192,134770,1,0,0:0:0:0:
64,192,134868,1,0,0:0:0:0:
192,192,134868,1,0,0:0:0:0:
320,192,134868,1,0,0:0:0:0:
64,192,134964,1,0,0:0:0:0:
192,192,134964,1,0,0:0:0:0:
320,192,134964,1,0,0:0:0:0:
448,192,134964,1,0,0:0:0:0:
192,192,135061,1,0,0:0:0:0:
320,192,135061,1,0,0:0:0:0:
448,192,135061,1,0,0:0:0:0:
64,192,135158,1,0,0:0:0:0:
192,192,135158,1,0,0:0:0:0:
320,192,135158,1,0,0:0:0:0:
448,192,135158,1,0,0:0:0:0:
64,192,135254,1,0,0:0:0:0:
192,192,135254,1,0,0:0:0:0:
320,192,135254,1,0,0:0:0:0:
64,192,135352,1,0,0:0:0:0:
192,192,135352,1,0,0:0:0:0:
320,192,135352,1,0,0:0:0:0:
448,192,135352,1,0,0:0:0:0:
192,192,135449,1,0,0:0:0:0:
320,192,135449,1,0,0:0:0:0:
448,192,135449,1,0,0:0:0:0:
64,192,135546,1,0,0:0:0:0:
192,192,135546,1,0,0:0:0:0:
320,192,135546,1,0,0:0:0:0:
448,192,135546,1,0,0:0:0:0:
64,192,135642,1,0,0:0:0:0:
192,192,135642,1,0,0:0:0:0:
448,192,135642,1,0,0:0:0:0:
64,192,135739,1,0,0:0:0:0:
192,192,135739,1,0,0:0:0:0:
320,192,135739,1,0,0:0:0:0:
448,192,135739,1,0,0:0:0:0:
64,192,135837,1,0,0:0:0:0:
320,192,135837,1,0,0:0:0:0:
448,192,135837,1,0,0:0:0:0:
64,192,135933,1,0,0:0:0:0:
192,192,135933,1,0,0:0:0:0:
320,192,135933,1,0,0:0:0:0:
448,192,135933,1,0,0:0:0:0:
192,192,136030,1,0,0:0:0:0:
320,192,136030,1,0,0:0:0:0:
448,192,136030,1,0,0:0:0:0:
64,192,136127,1,0,0:0:0:0:
192,192,136127,1,0,0:0:0:0:
320,192,136127,1,0,0:0:0:0:
448,192,136127,1,0,0:0:0:0:
64,192,136223,1,0,0:0:0:0:
192,192,136223,1,0,0:0:0:0:
320,192,136223,1,0,0:0:0:0:
64,192,136321,1,0,0:0:0:0:
192,192,136321,1,0,0:0:0:0:
320,192,136321,1,0,0:0:0:0:
448,192,136321,1,0,0:0:0:0:
64,192,136418,1,0,0:0:0:0:
192,192,136418,1,0,0:0:0:0:
448,192,136418,1,0,0:0:0:0:
64,192,136514,1,0,0:0:0:0:
192,192,136514,1,0,0:0:0:0:
320,192,136514,1,0,0:0:0:0:
448,192,136514,1,0,0:0:0:0:
192,192,136611,1,0,0:0:0:0:
320,192,136611,1,0,0:0:0:0:
448,192,136611,1,0,0:0:0:0:
64,192,136708,1,0,0:0:0:0:
192,192,136708,1,0,0:0:0:0:
320,192,136708,1,0,0:0:0:0:
448,192,136708,1,0,0:0:0:0:
64,192,136806,1,0,0:0:0:0:
192,192,136806,1,0,0:0:0:0:
320,192,136806,1,0,0:0:0:0:
448,192,136806,1,0,0:0:0:0:
64,192,136902,1,0,0:0:0:0:
192,192,136902,1,0,0:0:0:0:
320,192,136902,1,0,0:0:0:0:
448,192,136902,1,0,0:0:0:0:
64,192,136999,1,0,0:0:0:0:
192,192,136999,1,0,0:0:0:0:
64,192,137096,1,0,0:0:0:0:
192,192,137096,1,0,0:0:0:0:
320,192,137096,1,0,0:0:0:0:
448,192,137096,1,0,0:0:0:0:
64,192,137193,1,0,0:0:0:0:
192,192,137193,1,0,0:0:0:0:
320,192,137193,1,0,0:0:0:0:
448,192,137193,1,0,0:0:0:0:
64,192,137290,1,0,0:0:0:0:
192,192,137290,1,0,0:0:0:0:
320,192,137290,1,0,0:0:0:0:
448,192,137290,1,0,0:0:0:0:
320,192,137387,1,0,0:0:0:0:
448,192,137387,1,0,0:0:0:0:
64,192,137483,1,0,0:0:0:0:
192,192,137483,1,0,0:0:0:0:
320,192,137483,1,0,0:0:0:0:
448,192,137483,1,0,0:0:0:0:
64,192,137580,1,0,0:0:0:0:
192,192,137580,1,0,0:0:0:0:
320,192,137580,1,0,0:0:0:0:
448,192,137580,1,0,0:0:0:0:
64,192,137678,1,0,0:0:0:0:
192,192,137678,1,0,0:0:0:0:
320,192,137678,1,0,0:0:0:0:
448,192,137678,1,0,0:0:0:0:
64,192,137774,1,0,0:0:0:0:
192,192,137774,1,0,0:0:0:0:
320,192,137774,1,0,0:0:0:0:
64,192,137871,1,0,0:0:0:0:
192,192,137871,1,0,0:0:0:0:
320,192,137871,1,0,0:0:0:0:
448,192,137871,1,0,0:0:0:0:
64,192,137968,1,0,0:0:0:0:
192,192,137968,1,0,0:0:0:0:
320,192,137968,1,0,0:0:0:0:
448,192,137968,1,0,0:0:0:0:
64,192,138064,1,0,0:0:0:0:
192,192,138064,1,0,0:0:0:0:
320,192,138064,1,0,0:0:0:0:
448,192,138064,1,0,0:0:0:0:
192,192,138162,1,0,0:0:0:0:
320,192,138162,1,0,0:0:0:0:
448,192,138162,1,0,0:0:0:0:
64,192,138259,1,0,0:0:0:0:
192,192,138259,1,0,0:0:0:0:
320,192,138259,1,0,0:0:0:0:
448,192,138259,1,0,0:0:0:0:
64,192,138356,1,0,0:0:0:0:
192,192,138356,1,0,0:0:0:0:
320,192,138356,1,0,0:0:0:0:
448,192,138356,1,0,0:0:0:0:
64,192,138484,1,0,0:0:0:0:
192,192,138484,1,0,0:0:0:0:
320,192,138484,1,0,0:0:0:0:
448,192,138484,1,0,0:0:0:0:
192,192,138549,1,0,0:0:0:0:
448,192,138549,1,0,0:0:0:0:
64,192,138614,1,0,0:0:0:0:
192,192,138614,1,0,0:0:0:0:
320,192,138614,1,0,0:0:0:0:
448,192,138614,1,0,0:0:0:0:
64,192,138743,1,0,0:0:0:0:
192,192,138743,1,0,0:0:0:0:
320,192,138743,1,0,0:0:0:0:
448,192,138743,1,0,0:0:0:0:
64,192,138872,1,0,0:0:0:0:
192,192,138872,1,0,0:0:0:0:
448,192,138872,1,0,0:0:0:0:
64,192,138937,1,0,0:0:0:0:
192,192,138937,1,0,0:0:0:0:
320,192,138937,1,0,0:0:0:0:
448,192,138937,1,0,0:0:0:0:
64,192,139001,1,0,0:0:0:0:
192,192,139001,1,0,0:0:0:0:
448,192,139001,1,0,0:0:0:0:
64,192,139131,1,0,0:0:0:0:
192,192,139131,1,0,0:0:0:0:
320,192,139131,1,0,0:0:0:0:
448,192,139131,1,0,0:0:0:0:
64,192,139260,1,0,0:0:0:0:
192,192,139260,1,0,0:0:0:0:
64,192,139324,1,0,0:0:0:0:
192,192,139324,1,0,0:0:0:0:
320,192,139324,1,0,0:0:0:0:
448,192,139324,1,0,0:0:0:0:
64,192,139389,1,0,0:0:0:0:
192,192,139389,1,0,0:0:0:0:
320,192,139389,1,0,0:0:0:0:
448,192,139389,1,0,0:0:0:0:
64,192,139519,1,0,0:0:0:0:
192,192,139519,1,0,0:0:0:0:
320,192,139519,1,0,0:0:0:0:
448,192,139519,1,0,0:0:0:0:
64,192,139567,1,0,0:0:0:0:
192,192,139567,1,0,0:0:0:0:
320,192,139616,1,0,0:0:0:0:
448,192,139616,1,0,0:0:0:0:
320,192,139663,1,0,0:0:0:0:
448,192,139663,1,0,0:0:0:0:
64,192,139712,1,0,0:0:0:0:
192,192,139712,1,0,0:0:0:0:
64,192,139761,1,0,0:0:0:0:
192,192,139761,1,0,0:0:0:0:
320,192,139809,1,0,0:0:0:0:
448,192,139809,1,0,0:0:0:0:
320,192,139858,1,0,0:0:0:0:
448,192,139858,1,0,0:0:0:0:
64,192,139906,128,0,140293:0:0:0:0:
192,192,139906,128,0,140293:0:0:0:0:
320,192,139906,128,0,140293:0:0:0:0:
448,192,139906,128,0,140293:0:0:0:0:
