osu file format v14

[General]
AudioFilename: audio.mp3
AudioLeadIn: 0
PreviewTime: 71929
Countdown: 0
SampleSet: Soft
StackLeniency: 0.4
Mode: 0
LetterboxInBreaks: 0
WidescreenStoryboard: 0

[Editor]
DistanceSpacing: 1.2
BeatDivisor: 4
GridSize: 32
TimelineZoom: 4.799997

[Metadata]
Title:Glitch Street
TitleUnicode:Glitch Street
Artist:KARUT
ArtistUnicode:KARUT
Creator:Shurelia
Version:Gehenna
Source:ブルーアーカイブ -Blue Archive-
Tags:Blue Archive TriplebulletS ost 42 k_arut video game gacha instrumental electronic yostar delusional zekk anxient kowari pnky scubdomino natsume shiki anime girl natsume_shiki anime_girl scub domino scub_domino jungkyuyoung [keqing] 8972308 tycani fuiba fuyu
BeatmapID:3729126
BeatmapSetID:1817644

[Difficulty]
HPDrainRate:5.5
CircleSize:4.2
OverallDifficulty:9
ApproachRate:9.5
SliderMultiplier:2.4
SliderTickRate:1

[Events]
//Background and Video events
0,0,"hinacg.jpg",0,0
//Break Periods
//Storyboard Layer 0 (Background)
//Storyboard Layer 1 (Fail)
//Storyboard Layer 2 (Pass)
//Storyboard Layer 3 (Foreground)
//Storyboard Layer 4 (Overlay)
//Storyboard Sound Samples

[TimingPoints]
117,375,4,2,1,30,1,0
12116,-166.666666666667,4,2,1,30,0,0
22617,-100,4,2,1,40,0,0
23742,-166.666666666667,4,2,1,40,0,0
24116,-45.4545454545455,4,2,1,80,0,0
24866,-40,4,2,1,80,0,0
25429,-125,4,2,1,80,0,0
26366,-66.6666666666667,4,2,1,80,0,0
27116,-45.4545454545455,4,2,1,80,0,0
27866,-40,4,2,1,80,0,0
28429,-125,4,2,1,80,0,0
29366,-66.6666666666667,4,2,1,80,0,0
30117,-45.4545454545455,4,2,1,80,0,0
30867,-40,4,2,1,80,0,0
31429,-125,4,2,1,80,0,0
32179,-66.6666666666667,4,2,1,80,0,0
33117,-45.4545454545455,4,2,1,80,0,0
33492,-66.6666666666667,4,2,1,80,0,0
33867,-40,4,2,1,80,0,0
34429,-125,4,2,1,80,0,0
35179,-66.6666666666667,4,2,1,80,0,0
36117,-66.6666666666667,4,2,1,50,0,0
42117,-62.5,4,2,1,50,0,0
42304,-125,4,2,1,50,0,0
42679,-62.5,4,2,1,50,0,0
42867,-125,4,2,1,50,0,0
43242,-62.5,4,2,1,50,0,0
43804,-125,4,2,1,50,0,0
44179,-62.5,4,2,1,50,0,0
44367,-125,4,2,1,50,0,0
44742,-62.5,4,2,1,50,0,0
45304,-71.4285714285714,4,2,1,50,0,0
45679,-83.3333333333333,4,2,1,50,0,0
46054,-100,4,2,1,50,0,0
46617,-500,4,2,1,20,0,0
48117,-50,4,2,1,60,0,0
48492,-83.3333333333333,4,2,1,60,0,0
49429,-250,4,2,1,60,0,0
49617,-83.3333333333333,4,2,1,60,0,0
50179,-250,4,2,1,60,0,0
50367,-83.3333333333333,4,2,1,60,0,0
50929,-100,4,2,1,60,0,0
51117,-50,4,2,1,60,0,0
51398,-83.3333333333333,4,2,1,60,0,0
51867,-55.5555555555556,4,2,1,60,0,0
52242,-166.666666666667,4,2,1,60,0,0
52617,-125,4,2,1,60,0,0
52992,-83.3333333333333,4,2,1,60,0,0
53367,-50,4,2,1,60,0,0
53742,-45.4545454545455,4,2,1,60,0,0
54117,-50,4,2,1,60,0,0
54492,-1000,4,2,1,60,0,0
54867,-66.6666666666667,4,2,1,60,0,0
56367,-83.3333333333333,4,2,1,60,0,0
56742,-250,4,2,1,60,0,0
57117,-50,4,2,1,60,0,0
57398,-125,4,2,1,60,0,0
57867,-50,4,2,1,60,0,0
58242,-500,4,2,1,60,0,0
58617,-125,4,2,1,60,0,0
58992,-333.333333333333,4,2,1,60,0,0
59085,-125,4,2,1,60,0,0
59367,-55.5555555555556,4,2,1,60,0,0
60117,-50,4,2,1,60,0,0
61242,-83.3333333333333,4,2,1,60,0,0
61429,-500,4,2,1,60,0,0
61617,-66.6666666666667,4,2,1,60,0,0
62367,-250,4,2,1,60,0,0
62742,-40,4,2,1,60,0,0
63117,-50,4,2,1,60,0,0
64242,-250,4,2,1,60,0,0
64617,-55.5555555555556,4,2,1,60,0,0
65367,-45.4545454545455,4,2,1,60,0,0
65742,-55.5555555555556,4,2,1,60,0,0
66117,-50,4,2,1,60,0,0
66492,-250,4,2,1,60,0,0
66867,-66.6666666666667,4,2,1,60,0,0
68742,-250,4,2,1,60,0,0
69117,-50,4,2,1,60,0,0
69492,-100,4,2,1,60,0,0
69867,-50,4,2,1,60,0,0
70617,-100,4,2,1,60,0,0
71742,-1000,4,2,1,60,0,0
72117,-100,4,2,1,30,0,0
82617,-100,4,2,1,50,0,0
84117,-83.3333333333333,4,2,1,50,0,0
84867,-76.9230769230769,4,2,1,50,0,0
85242,-71.4285714285714,4,2,1,50,0,0
85617,-66.6666666666667,4,2,1,50,0,0
85992,-62.5,4,2,1,50,0,0
86367,-58.8235294117647,4,2,1,50,0,0
86929,-83.3333333333333,4,2,1,50,0,0
90117,-66.6666666666667,4,2,1,50,0,0
90304,-250,4,2,1,50,0,0
90492,-66.6666666666667,4,2,1,50,0,0
90679,-250,4,2,1,50,0,0
90867,-66.6666666666667,4,2,1,50,0,0
91054,-250,4,2,1,50,0,0
91242,-66.6666666666667,4,2,1,50,0,0
91429,-250,4,2,1,50,0,0
91617,-66.6666666666667,4,2,1,50,0,0
91804,-250,4,2,1,50,0,0
91992,-66.6666666666667,4,2,1,50,0,0
92179,-250,4,2,1,50,0,0
92367,-66.6666666666667,4,2,1,50,0,0
92554,-250,4,2,1,50,0,0
92742,-66.6666666666667,4,2,1,50,0,0
92929,-250,4,2,1,50,0,0
93117,-66.6666666666667,4,2,1,50,0,0
95741,-166.666666666667,4,2,1,50,0,0
95742,-166.666666666667,4,2,1,50,0,0
96117,-66.6666666666667,4,2,1,70,0,1
108023,-66.6666666666667,4,2,1,70,0,0
108117,-55.5555555555556,4,2,1,70,0,1
120117,-55.5555555555556,4,2,1,70,0,0

[Colours]
Combo1 : 240,140,140
Combo2 : 200,180,220
Combo3 : 240,200,155
Combo4 : 150,185,220

[HitObjects]
256,192,6117,5,6,3:2:0:0:
256,192,6210,12,0,10992,0:0:0:0:
418,83,11555,5,2,0:3:0:0:
418,83,11742,1,2,0:3:0:0:
418,83,11930,1,2,0:3:0:0:
486,183,12117,6,0,L|342:171,1,143.999995605469,6|0,3:1|0:0,0:0:0:0:
342,171,12867,2,0,P|352:205|356:240,1,71.9999978027344,2|0,1:0|0:0,0:0:0:0:
297,329,13148,2,0,P|286:295|282:260,1,71.9999978027344,2|0,0:1|0:0,0:0:0:0:
267,184,13430,1,2,0:1:0:0:
222,349,13617,2,0,L|190:208,1,143.999995605469,0|0,3:0|0:0,0:0:0:0:
147,368,14367,2,0,L|115:227,1,143.999995605469,0|0,1:0|0:0,0:0:0:0:
99,157,14930,1,0,0:0:0:0:
85,15,15117,6,0,L|224:50,1,143.999995605469,2|0,3:1|0:0,0:0:0:0:
224,50,15867,2,0,B|226:87|226:87|239:120,1,71.9999978027344,2|0,1:0|0:0,0:0:0:0:
337,144,16148,2,0,B|337:110|337:110|322:74,1,71.9999978027344,2|0,0:1|0:0,0:0:0:0:
284,0,16430,1,2,0:1:0:0:
480,154,16617,2,0,L|336:143,1,143.999995605469,0|0,3:0|0:0,0:0:0:0:
512,281,17367,2,0,L|368:270,1,143.999995605469,0|0,1:0|0:0,0:0:0:0:
284,266,17930,1,0,0:0:0:0:
166,353,18117,6,0,L|23:343,1,143.999995605469,2|0,3:1|0:0,0:0:0:0:
22,342,18867,2,0,P|21:307|32:272,1,71.9999978027344,2|0,1:0|0:0,0:0:0:0:
180,190,19148,2,0,P|183:225|171:259,1,71.9999978027344,2|0,0:1|0:0,0:0:0:0:
91,188,19430,1,2,0:1:0:0:
215,99,19617,2,0,L|71:88,1,143.999995605469,0|0,3:0|0:0,0:0:0:0:
318,34,20367,2,0,L|461:44,1,143.999995605469,0|0,1:0|0:0,0:0:0:0:
454,120,20930,1,0,0:0:0:0:
512,236,21117,6,0,L|498:379,1,143.999995605469,2|0,3:1|0:0,0:0:0:0:
497,379,21867,2,0,B|461:367|461:367|427:369,1,71.9999978027344,2|0,1:0|0:0,0:0:0:0:
232,377,22148,2,0,B|267:389|267:389|301:385,1,71.9999978027344,2|0,0:1|0:0,0:0:0:0:
398,281,22430,1,2,0:1:0:0:
333,195,22617,5,10,3:2:0:0:
339,159,22711,1,0,3:0:0:0:
345,123,22804,1,0,3:0:0:0:
351,87,22898,1,0,3:0:0:0:
356,51,22992,2,0,L|296:44,1,60,8|0,0:2|0:0,0:0:0:0:
166,109,23180,1,2,3:2:0:0:
166,109,23273,1,0,3:0:0:0:
166,109,23367,2,0,L|106:102,1,60,8|8,0:2|0:2,0:0:0:0:
7,194,23555,1,0,3:0:0:0:
7,194,23648,1,0,3:0:0:0:
7,194,23742,6,0,B|28:238|28:238|3:291,1,107.999996704102
3,291,24117,6,0,B|102:263|102:263|236:381|236:381|333:320,1,396.000012084961,6|0,3:1|0:0,0:0:0:0:
447,204,24492,1,2,0:3:0:0:
435,206,24586,1,0,0:0:0:0:
422,208,24680,1,0,0:0:0:0:
412,213,24773,1,0,0:0:0:0:
397,218,24867,6,0,B|379:107|379:107|303:88|303:88|240:177,1,300,2|0,1:0|0:0,0:0:0:0:
95,11,25148,2,0,B|138:70|138:70|210:51|210:51|256:-13|256:-13|329:0,1,300,2|0,3:1|0:0,0:0:0:0:
482,2,25430,6,0,B|500:64|500:64|466:142|466:142|490:278,1,288,6|0,3:1|0:0,0:0:0:0:
490,278,26367,5,2,0:3:0:0:
436,287,26461,1,0,0:0:0:0:
382,294,26555,1,0,0:0:0:0:
329,301,26648,1,0,0:0:0:0:
274,303,26742,2,0,P|230:298|185:296,1,90.0000034332277,0|0,1:0|0:0,0:0:0:0:
13,243,26930,1,0,0:0:0:0:
19,207,27023,1,0,0:0:0:0:
26,176,27117,6,0,B|104:195|162:156|162:156|239:227|239:227|315:209|315:209|385:219,1,396.000012084961,6|0,3:1|0:0,0:0:0:0:
512,133,27492,1,2,0:3:0:0:
509,120,27586,1,0,0:0:0:0:
507,106,27680,1,0,0:0:0:0:
504,93,27773,1,0,0:0:0:0:
502,80,27867,6,0,B|354:50|354:50|307:103|307:103|284:100|284:100|228:112,1,300,2|0,1:0|0:0,0:0:0:0:
0,327,28148,2,0,B|148:357|148:357|195:304|195:304|218:307|218:307|274:295,1,300,2|0,3:1|0:0,0:0:0:0:
458,267,28429,6,0,B|361:333|361:333|368:282|349:242|349:242|365:172|365:172|430:92,1,384,6|0,3:1|0:0,0:0:0:0:
346,2,29367,5,2,3:2:0:0:
309,27,29460,1,2,0:0:0:0:
264,34,29554,1,2,0:0:0:0:
219,25,29648,1,2,0:0:0:0:
165,79,29742,5,0,3:2:0:0:
126,55,29836,1,2,0:2:0:0:
80,58,29930,1,2,0:2:0:0:
40,78,30023,1,2,0:2:0:0:
27,114,30117,6,0,B|87:316|87:316|144:352|176:291|176:291|154:216,1,396.000012084961,6|0,3:1|0:0,0:0:0:0:
366,14,30492,1,2,0:3:0:0:
378,17,30585,1,0,0:0:0:0:
391,22,30679,1,0,0:0:0:0:
404,26,30773,1,0,0:0:0:0:
422,34,30867,6,0,B|494:62|494:62|542:237|542:237|501:236,1,300,2|0,1:0|0:0,0:0:0:0:
281,65,31148,2,0,B|232:126|232:126|278:301|278:301|313:280,1,300,2|0,3:1|0:0,0:0:0:0:
365,107,31429,6,0,L|444:387,1,288,6|0,3:1|0:0,0:0:0:0:
297,276,32179,6,0,L|241:204,1,90.0000034332277,2|0,0:3|0:0,0:0:0:0:
147,28,32367,1,0,3:0:0:0:
111,28,32460,1,0,3:0:0:0:
74,28,32554,2,0,L|47:114,1,90.0000034332277,2|0,3:3|3:0,0:0:0:0:
71,297,32742,2,0,L|158:277,1,90.0000034332277,2|0,3:3|3:0,0:0:0:0:
366,81,32930,1,0,3:0:0:0:
438,43,33023,1,0,3:0:0:0:
507,96,33117,6,0,B|384:62|384:62|235:114|235:114|129:81,1,396.000012084961,6|0,3:1|0:0,0:0:0:0:
80,229,33492,2,0,P|77:251|69:272,1,45.0000017166138,2|0,0:3|0:0,0:0:0:0:
91,223,33585,2,0,P|94:245|91:267,1,45.0000017166138
104,218,33679,2,0,P|113:238|116:260,1,45.0000017166138
121,213,33773,2,0,P|135:230|143:251,1,45.0000017166138
142,205,33867,6,0,B|231:324|231:324|376:281,1,300,2|0,1:0|0:0,0:0:0:0:
431,105,34148,2,0,B|342:-14|342:-14|196:28,1,300,2|0,3:1|0:0,0:0:0:0:
1,59,34429,6,0,L|270:161,1,288,6|0,3:1|0:0,0:0:0:0:
270,161,35179,6,0,L|277:250,1,90.0000034332277,2|0,0:3|0:0,0:0:0:0:
433,366,35367,1,0,3:0:0:0:
464,349,35460,1,0,3:0:0:0:
496,332,35554,2,0,L|489:242,1,90.0000034332277,2|0,3:3|3:0,0:0:0:0:
353,48,35742,2,0,L|359:137,1,90.0000034332277,2|0,3:3|3:0,0:0:0:0:
234,347,35930,1,0,3:0:0:0:
204,346,36023,1,0,3:0:0:0:
174,342,36117,6,0,L|168:252,1,90.0000034332277,12|0,3:1|0:0,0:0:0:0:
161,110,36304,1,2,3:2:0:0:
161,110,36492,1,0,3:0:0:0:
15,186,36679,2,0,L|104:177,1,90.0000034332277,8|0,3:1|0:0,0:0:0:0:
301,167,36867,1,0,3:0:0:0:
301,167,37054,1,2,3:2:0:0:
243,7,37242,2,0,L|245:96,1,90.0000034332277,8|0,3:1|0:0,0:0:0:0:
247,316,37429,1,0,3:0:0:0:
422,255,37617,6,0,L|332:247,1,90.0000034332277,8|0,3:1|0:0,0:0:0:0:
121,222,37804,1,2,3:2:0:0:
121,222,37992,1,0,3:0:0:0:
142,384,38179,2,0,L|161:295,1,90.0000034332277,8|0,3:1|0:0,0:0:0:0:
218,76,38367,1,0,3:0:0:0:
218,76,38554,1,2,3:2:0:0:
13,100,38742,2,0,L|104:132,1,90.0000034332277,8|0,3:1|0:0,0:0:0:0:
313,126,38929,2,0,L|331:113,4,22.5000008583069
425,48,39117,6,0,L|407:137,1,90.0000034332277,8|0,3:1|0:0,0:0:0:0:
426,309,39304,1,2,3:2:0:0:
426,309,39492,1,0,3:0:0:0:
512,193,39679,2,0,L|425:219,1,90.0000034332277,8|0,3:1|0:0,0:0:0:0:
238,265,39867,1,0,3:0:0:0:
238,265,40054,1,2,3:2:0:0:
346,384,40242,2,0,L|331:295,1,90.0000034332277,8|0,3:1|0:0,0:0:0:0:
335,149,40429,1,0,3:0:0:0:
346,384,40617,6,0,L|331:295,1,90.0000034332277,8|0,3:1|0:0,0:0:0:0:
301,86,40804,1,2,3:2:0:0:
301,86,40992,1,0,3:0:0:0:
100,1,41179,2,0,L|96:90,1,90.0000034332277,8|0,3:1|0:0,0:0:0:0:
79,343,41367,1,0,3:0:0:0:
79,343,41554,1,0,3:2:0:0:
0,185,41742,2,0,L|83:219,1,90.0000034332277,8|0,3:1|0:0,0:0:0:0:
238,273,41929,2,0,L|240:295,4,22.5000008583069,0|0|0|0|0,3:0|0:0|0:0|0:0|0:0,0:0:0:0:
286,384,42117,6,0,L|324:295,1,96,8|0,3:1|0:0,0:0:0:0:
503,183,42304,2,0,P|501:159|492:136,1,48,10|0,3:2|0:0,0:0:0:0:
411,103,42492,2,0,P|412:126|421:149,1,48,8|0,3:2|0:0,0:0:0:0:
451,257,42679,2,0,L|370:205,1,96,8|0,3:1|0:0,0:0:0:0:
207,42,42867,2,0,P|197:20|182:3,1,48,8|0,3:2|0:0,0:0:0:0:
88,12,43054,2,0,P|98:34|114:52,1,48,10|0,3:2|0:0,0:0:0:0:
119,147,43242,2,0,L|32:109,1,96,8|0,3:1|0:0,0:0:0:0:
36,238,43429,1,10,3:2:0:0:
36,238,43523,1,8,3:2:0:0:
35,237,43617,6,0,L|97:310,1,96,8|0,3:1|0:0,0:0:0:0:
359,373,43804,2,0,L|404:357,1,48,10|0,3:2|0:0,0:0:0:0:
357,272,43992,2,0,L|404:281,1,48,8|0,3:2|0:0,3:0:0:0:
489,229,44179,2,0,L|401:193,1,96,8|0,3:1|0:0,0:0:0:0:
210,119,44367,2,0,L|185:77,1,48,8|0,3:2|0:0,0:0:0:0:
162,188,44554,2,0,L|120:163,1,48,10|0,3:2|0:0,0:0:0:0:
163,296,44742,2,0,L|248:252,1,96,8|0,3:1|0:0,0:0:0:0:
324,162,44929,2,0,L|351:69,1,96
12,2,45117,6,0,L|33:95,1,96,0|8,1:0|0:2,0:0:0:0:
117,309,45304,5,8,0:2:0:0:
117,309,45398,1,8,0:2:0:0:
117,309,45492,2,0,L|135:227,1,83.9999974365235,0|8,1:0|0:2,0:0:0:0:
217,63,45679,5,8,0:2:0:0:
217,63,45773,1,8,0:2:0:0:
217,63,45867,2,0,L|238:153,1,71.9999978027344,0|8,1:0|0:2,0:0:0:0:
333,249,46054,5,8,0:2:0:0:
333,249,46148,1,8,0:2:0:0:
333,249,46242,2,0,L|345:190,1,60,0|8,1:0|0:2,0:0:0:0:
432,57,46429,5,8,0:2:0:0:
432,57,46523,1,8,0:2:0:0:
432,57,46617,2,0,L|444:56,8,12,6|0|0|0|0|0|0|0|0,3:1|0:0|0:0|0:0|0:0|0:0|0:0|0:0|0:0,0:0:0:0:
492,111,48117,6,0,P|328:44|153:73,1,360,6|0,3:2|0:0,0:0:0:0:
80,241,48492,2,0,P|81:276|97:308,1,71.9999978027344
167,289,48679,2,0,P|165:253|149:221,1,71.9999978027344
232,129,48867,5,0,1:2:0:0:
260,209,48960,1,2,0:3:0:0:
297,287,49054,1,2,0:3:0:0:
378,256,49148,1,2,0:3:0:0:
403,178,49242,1,2,0:3:0:0:
403,178,49335,1,2,0:3:0:0:
403,178,49429,2,0,L|427:175,1,24,2|0,0:0|0:0,0:0:0:0:
325,367,49617,5,0,3:2:0:0:
297,287,49710,1,2,0:3:0:0:
260,209,49804,1,2,0:3:0:0:
179,240,49898,1,2,0:3:0:0:
154,318,49992,1,2,0:3:0:0:
154,318,50085,1,2,0:3:0:0:
154,318,50179,2,0,L|130:321,1,24,2|0,0:0|0:0,0:0:0:0:
426,371,50367,5,0,1:0:0:0:
469,314,50460,1,8,0:3:0:0:
501,249,50554,1,4,0:3:0:0:
503,176,50648,1,4,0:3:0:0:
489,105,50742,1,0,3:0:0:0:
456,41,50835,1,0,3:0:0:0:
394,0,50929,2,0,B|365:-4|365:-4|334:0,1,60,4|4,0:3|0:3,0:0:0:0:
39,43,51117,6,0,P|18:218|103:374,1,360,6|0,3:2|0:0,0:0:0:0:
89,268,51492,5,2,0:3:0:0:
109,184,51585,1,2,0:3:0:0:
172,124,51679,1,2,0:3:0:0:
258,120,51773,1,2,0:3:0:0:
294,129,51867,6,0,P|314:178|298:228,1,107.999996704102,2|0,1:2|0:0,0:0:0:0:
262,336,52054,2,0,P|248:284|268:236,1,107.999996704102,2|0,0:2|0:0,0:0:0:0:
426,201,52242,6,0,B|394:197|376:242|328:240,1,107.999996704102,2|0,0:3|0:0,0:0:0:0:
328,240,52617,6,0,P|332:263|346:282,1,48,0|0,3:0|0:0,0:0:0:0:
455,92,52804,2,0,P|450:68|438:48,1,48,2|0,0:3|0:0,0:0:0:0:
171,85,52992,2,0,P|160:119|165:154,1,71.9999978027344,2|0,0:3|0:0,0:0:0:0:
296,383,53179,1,0,0:0:0:0:
334,371,53273,1,0,0:0:0:0:
373,354,53367,6,0,P|421:247|397:131,1,240,2|0,1:2|0:0,0:0:0:0:
282,311,53742,2,0,P|234:124|74:15,1,396.000012084961,2|0,0:2|0:0,0:0:0:0:
23,195,54117,6,0,P|158:216|37:280,1,360,6|0,3:2|0:0,0:0:0:0:
84,229,54492,2,0,L|90:229,2,6,2|0|2,0:3|0:0|0:0,0:0:0:0:
9,384,54867,5,2,1:2:0:0:
104,379,54992,5,2,0:2:0:0:
199,375,55117,5,2,0:2:0:0:
294,369,55242,5,2,0:2:0:0:
389,362,55367,5,2,0:2:0:0:
484,352,55492,5,2,0:2:0:0:
498,256,55617,6,0,P|513:200|492:145,1,120.000004577637,2|2,3:2|0:2,0:0:0:0:
436,46,55867,1,2,0:2:0:0:
366,140,55992,2,0,P|320:65|235:43,1,180.000006866455,2|2,0:2|0:0,0:0:0:0:
90,63,56273,5,0,0:0:0:0:
90,63,56367,2,0,P|102:96|121:127,1,71.9999978027344,0|0,1:0|0:0,0:0:0:0:
211,244,56554,2,0,P|238:267|270:284,1,71.9999978027344
420,335,56742,6,0,P|454:343|490:345,1,72,2|0,0:3|0:0,0:0:0:0:
490,345,57117,6,0,P|310:360|130:359,1,360,6|0,3:2|0:0,0:0:0:0:
4,232,57492,2,0,P|5:208|9:184,1,48,2|0,0:3|0:0,0:0:0:0:
38,185,57679,2,0,P|37:208|33:232,1,48
96,33,57867,2,0,P|275:48|455:47,1,360,6|0,1:2|0:0,0:0:0:0:
455,47,58242,6,0,L|465:81,1,36,2|0,0:3|0:0,0:0:0:0:
466,100,58617,5,2,3:2:0:0:
372,117,58710,1,2,0:3:0:0:
292,171,58804,1,2,0:3:0:0:
252,258,58898,1,2,0:3:0:0:
219,352,58992,6,0,L|237:352,1,17.9999994506836,0|0,3:0|3:0,0:0:0:0:
126,353,59179,1,0,3:0:0:0:
106,353,59273,1,0,3:0:0:0:
90,353,59367,6,0,B|45:324|45:324|28:272,1,107.999996704102,2|0,3:2|3:0,0:0:0:0:
20,103,59554,1,0,3:0:0:0:
17,81,59648,1,0,3:0:0:0:
14,61,59742,2,0,B|81:103|166:61|239:-4|324:13,1,323.999990112305,2|0,1:2|0:0,0:0:0:0:
511,52,60117,6,0,P|348:103|320:272,1,360,6|0,3:2|0:0,0:0:0:0:
488,283,60492,1,8,0:2:0:0:
460,244,60585,1,8,0:0:0:0:
412,250,60679,1,8,0:2:0:0:
396,295,60772,1,8,0:0:0:0:
395,334,60867,6,0,B|448:338|448:338|381:345,1,120,2|0,1:1|0:0,0:0:0:0:
236,372,61054,1,0,0:0:0:0:
236,372,61148,1,0,0:0:0:0:
236,372,61242,2,0,L|223:302,1,71.9999978027344,2|0,0:2|0:0,0:0:0:0:
185,113,61429,2,0,L|182:101,1,12,2|0,0:2|0:0,0:0:0:0:
104,47,61617,5,2,3:2:0:0:
96,118,61710,1,2,0:0:0:0:
131,180,61804,1,2,0:0:0:0:
199,201,61898,1,2,0:0:0:0:
266,175,61992,2,0,P|298:206|320:245,1,90.0000034332277,8|0,0:2|0:0,0:0:0:0:
435,350,62179,1,2,0:0:0:0:
464,351,62273,1,0,0:0:0:0:
499,350,62367,6,0,L|498:318,1,24,2|0,1:2|0:0,0:0:0:0:
500,168,62554,2,0,L|499:144,1,24,2|0,0:3|0:0,0:0:0:0:
448,17,62742,6,0,B|380:80|360:177|360:177|271:141|242:12|242:12|189:7,1,450,10|8,0:2|0:2,0:0:0:0:
35,29,63117,6,0,B|132:29|175:140|175:140|75:174|61:252,1,360,6|0,3:2|0:0,0:0:0:0:
61,278,63492,5,8,0:2:0:0:
95,380,63586,1,0,0:0:0:0:
198,349,63680,1,2,0:0:0:0:
166,246,63773,1,0,0:0:0:0:
52,193,63867,6,0,B|-2:176|-2:176|61:184,1,120,2|0,1:1|0:0,0:0:0:0:
261,175,64054,2,0,B|315:157|315:157|252:165,1,120,2|0,0:1|0:0,0:0:0:0:
107,123,64242,6,0,L|109:99,1,24,8|0,0:2|0:0,0:0:0:0:
203,75,64429,2,0,L|201:104,1,24
173,352,64617,5,2,3:2:0:0:
190,312,64710,1,0,0:0:0:0:
220,281,64804,1,0,0:0:0:0:
261,267,64898,1,0,0:0:0:0:
304,268,64992,1,8,0:2:0:0:
340,290,65085,1,0,0:0:0:0:
371,320,65179,1,0,3:0:0:0:
382,361,65273,1,0,0:0:0:0:
293,378,65367,6,0,B|289:280|339:185|339:185|422:251|468:330,1,396.000012084961,2|0,1:2|0:0,0:0:0:0:
512,10,65742,2,0,B|518:106|446:155|446:155|358:106|346:41,1,323.999990112305,2|0,0:2|0:0,0:0:0:0:
249,181,66117,6,0,B|245:100|143:44|143:44|32:84|19:160,1,360,6|0,3:2|0:0,0:0:0:0:
26,239,66492,6,0,L|35:262,1,24,8|0,0:2|0:0,0:0:0:0:
61,330,66679,1,8,0:2:0:0:
67,348,66773,1,0,0:0:0:0:
76,366,66867,5,2,1:2:0:0:
170,346,66992,5,2,0:0:0:0:
245,286,67117,5,2,0:0:0:0:
242,190,67242,5,8,0:2:0:0:
283,103,67367,5,2,0:0:0:0:
368,58,67492,5,2,0:0:0:0:
460,85,67617,5,2,3:2:0:0:
465,120,67710,1,2,0:0:0:0:
470,155,67804,1,2,0:0:0:0:
474,190,67898,1,0,0:0:0:0:
479,225,67992,6,0,B|497:267|497:267|469:301,1,90.0000034332277,8|0,0:2|0:0,0:0:0:0:
377,298,68179,2,0,L|390:209,1,90.0000034332277,8|0,0:2|0:0,0:0:0:0:
402,1,68367,5,2,1:2:0:0:
331,11,68460,1,8,0:0:0:0:
259,19,68554,1,8,0:2:0:0:
187,26,68648,1,8,0:0:0:0:
116,36,68742,2,0,P|78:39|44:34,1,72,8|0,0:2|0:0,0:0:0:0:
0,227,69117,6,0,P|180:234|359:257,1,360,6|8,3:2|0:0,0:0:0:0:
229,369,69492,6,0,P|199:374|169:370,1,60,8|8,0:2|0:0,0:0:0:0:
171,334,69679,2,0,P|201:329|230:332,1,60,8|8,0:0|0:0,0:0:0:0:
0,227,69867,6,0,B|183:219|183:219|356:256,1,360,6|8,1:2|0:0,0:0:0:0:
512,330,70242,5,8,0:2:0:0:
506,306,70335,1,8,0:0:0:0:
499,282,70429,1,8,0:0:0:0:
486,261,70523,1,8,0:0:0:0:
454,224,70617,1,14,3:2:0:0:
466,20,70804,5,0,3:0:0:0:
467,68,70898,1,0,3:0:0:0:
470,116,70992,1,8,0:2:0:0:
267,18,71179,5,2,3:2:0:0:
261,69,71273,1,0,3:0:0:0:
256,112,71367,1,8,0:2:0:0:
226,105,71460,1,8,0:2:0:0:
197,96,71554,1,0,3:0:0:0:
167,88,71648,1,0,3:0:0:0:
127,79,71742,2,0,L|127:97,1,18,2|0,0:2|0:0,0:0:0:0:
126,384,72117,5,6,3:1:0:0:
126,384,72867,1,2,0:1:0:0:
210,353,73148,1,2,0:1:0:0:
298,366,73429,1,2,0:1:0:0:
464,13,75117,5,2,0:1:0:0:
464,13,75867,1,2,0:1:0:0:
384,55,76148,1,2,0:1:0:0:
294,60,76429,1,2,0:1:0:0:
207,24,77367,5,2,0:2:0:0:
195,51,77460,1,0,0:0:0:0:
182,78,77554,1,0,0:0:0:0:
169,105,77648,1,0,0:0:0:0:
100,129,77742,5,0,0:0:0:0:
129,79,77835,1,0,0:0:0:0:
187,77,77929,1,0,0:0:0:0:
219,125,78023,1,0,0:0:0:0:
197,178,78117,5,6,0:1:0:0:
197,178,78867,1,2,0:1:0:0:
116,217,79148,1,2,0:1:0:0:
154,298,79429,1,2,0:1:0:0:
237,259,80742,1,0,0:0:0:0:
479,362,81117,5,2,0:1:0:0:
479,362,81867,1,2,0:1:0:0:
447,277,82148,1,2,0:1:0:0:
491,199,82429,2,0,L|484:139,1,60,2|0,0:1|0:0,0:0:0:0:
463,0,82617,1,14,3:2:0:0:
321,71,82804,5,8,0:2:0:0:
329,95,82898,1,0,3:0:0:0:
161,80,83085,5,0,3:0:0:0:
168,110,83179,1,0,3:0:0:0:
55,8,83367,5,0,3:0:0:0:
0,157,83554,1,0,3:0:0:0:
64,301,83742,1,0,3:0:0:0:
84,336,83835,1,0,3:0:0:0:
112,364,83929,2,0,L|140:361,5,15,0|0|2|0|2|0,3:0|0:0|0:0|0:0|0:0|0:0,0:0:0:0:
137,335,84117,6,0,L|278:362,1,143.999995605469,6|0,3:1|0:0,0:0:0:0:
319,293,84398,1,0,0:0:0:0:
319,293,84492,2,0,P|289:272|259:252,1,71.9999978027344,0|0,1:0|0:0,0:0:0:0:
384,225,84679,1,0,0:0:0:0:
372,211,84773,1,0,0:0:0:0:
360,199,84867,2,0,P|333:169|304:143,1,77.9999964294435,2|0,3:1|0:0,0:0:0:0:
455,152,85054,1,0,0:0:0:0:
444,125,85148,1,2,0:1:0:0:
433,101,85242,2,0,P|414:63|391:28,1,83.9999974365235,0|0,1:0|0:0,0:0:0:0:
267,15,85429,5,2,0:1:0:0:
267,15,85523,1,0,0:0:0:0:
267,14,85617,2,0,P|237:48|225:91,1,90.0000034332277,0|0,3:0|0:0,0:0:0:0:
102,56,85804,1,0,0:0:0:0:
94,78,85898,1,0,0:0:0:0:
89,102,85992,2,0,P|82:149|95:194,1,96,0|0,1:0|0:0,0:0:0:0:
8,265,86179,1,0,0:0:0:0:
30,294,86273,1,0,0:0:0:0:
55,322,86367,2,0,P|95:351|145:358,1,102.000001945496,0|0,3:0|0:0,0:0:0:0:
255,311,86554,2,0,L|239:210,1,102.000001945496
357,350,86742,2,0,L|370:248,1,102.000001945496,0|0,1:0|0:0,0:0:0:0:
505,366,86929,2,0,L|505:384,4,17.9999994506836,0|0|0|0|0,0:0|0:0|0:0|0:0|3:0,0:0:0:0:
503,343,87117,5,6,3:1:0:0:
499,321,87210,1,0,0:0:0:0:
494,299,87304,1,0,0:0:0:0:
489,277,87398,1,0,0:0:0:0:
448,257,87492,5,0,1:0:0:0:
443,236,87585,1,0,0:0:0:0:
436,215,87679,1,0,0:0:0:0:
428,194,87773,1,0,0:0:0:0:
385,176,87867,5,2,3:1:0:0:
375,156,87960,1,0,0:0:0:0:
365,136,88054,1,0,0:0:0:0:
356,116,88148,1,2,0:1:0:0:
308,99,88242,5,0,1:0:0:0:
308,99,88617,5,0,3:0:0:0:
275,114,88710,1,0,0:0:0:0:
238,114,88804,1,8,0:2:0:0:
204,101,88898,1,0,0:0:0:0:
176,34,88992,5,0,1:0:0:0:
140,33,89085,1,0,0:0:0:0:
114,58,89179,1,0,0:0:0:0:
108,93,89273,1,0,0:0:0:0:
52,137,89367,5,2,3:2:0:0:
59,193,89460,1,2,0:2:0:0:
78,247,89554,1,2,0:2:0:0:
114,291,89648,1,2,0:2:0:0:
162,322,89742,1,2,1:2:0:0:
217,336,89835,1,2,0:2:0:0:
278,335,89929,2,0,L|278:317,4,17.9999994506836,2|0|2|0|2,0:2|0:0|0:0|0:0|0:2,0:0:0:0:
316,345,90117,6,0,L|405:331,1,90.0000034332277,6|0,3:1|0:0,0:0:0:0:
404,331,90304,2,0,L|407:355,1,24,0|0,3:0|0:0,0:0:0:0:
433,250,90492,2,0,L|344:236,1,90.0000034332277,0|0,1:0|0:0,0:0:0:0:
345,236,90679,2,0,L|342:260,1,24,0|0,3:0|0:0,0:0:0:0:
347,152,90867,2,0,L|436:138,1,90.0000034332277,2|0,3:1|0:0,0:0:0:0:
435,138,91054,2,0,L|438:162,1,24,0|2,3:0|0:1,0:0:0:0:
464,57,91242,2,0,L|375:43,1,90.0000034332277,0|0,1:0|0:0,0:0:0:0:
376,43,91429,2,0,L|373:67,1,24,2|0,3:1|0:0,0:0:0:0:
264,203,91617,6,0,P|261:159|237:121,1,90.0000034332277,0|0,3:0|0:0,0:0:0:0:
237,120,91804,2,0,L|260:112,1,24,0|0,3:0|0:0,0:0:0:0:
187,293,91992,2,0,P|190:337|214:375,1,90.0000034332277,0|0,1:0|0:0,0:0:0:0:
214,376,92179,2,0,L|191:384,1,24,0|0,3:0|0:0,0:0:0:0:
66,243,92367,2,0,P|42:205|39:161,1,90.0000034332277,0|0,3:0|0:0,0:0:0:0:
39,160,92554,2,0,L|16:168,1,24,0|0,3:0|0:0,0:0:0:0:
58,20,92742,2,0,P|101:32|141:53,1,90.0000034332277,0|0,1:0|0:0,0:0:0:0:
137,85,92929,2,0,L|141:75,4,6,0|0|0|0|0,3:0|0:0|0:0|0:0|0:0,0:0:0:0:
134,126,93117,6,0,B|172:146|172:146|235:138,1,90.0000034332277,6|0,3:1|3:0,0:0:0:0:
397,14,93304,1,0,3:0:0:0:
441,20,93398,1,0,3:0:0:0:
483,36,93492,2,0,B|510:75|510:75|511:118,1,90.0000034332277,0|0,1:0|3:0,0:0:0:0:
468,316,93679,1,0,3:0:0:0:
423,318,93772,1,0,3:0:0:0:
377,319,93867,2,0,B|350:280|350:280|349:237,1,90.0000034332277,2|0,3:1|3:0,0:0:0:0:
198,122,94054,1,0,3:0:0:0:
199,166,94147,1,2,3:1:0:0:
199,211,94242,2,0,L|98:244,1,90.0000034332277,0|0,1:0|3:0,0:0:0:0:
0,289,94429,1,2,3:1:0:0:
3,334,94522,1,0,3:0:0:0:
6,384,94617,5,4,3:2:0:0:
188,384,94804,2,0,B|161:351|161:351|167:304,1,90.0000034332277,0|0,3:0|3:0,0:0:0:0:
242,99,94992,1,8,0:2:0:0:
260,80,95085,1,0,3:0:0:0:
278,99,95179,1,0,3:0:0:0:
63,33,95367,1,0,3:0:0:0:
512,85,95554,1,8,0:3:0:0:
362,364,95742,6,0,B|335:315|335:315|349:265,1,107.999996704102
350,266,96117,6,0,P|261:283|179:317,1,180.000006866455,6|0,3:2|0:0,0:0:0:0:
0,384,96398,1,0,0:0:0:0:
21,367,96492,1,8,3:1:0:0:
22,340,96585,1,0,0:0:0:0:
4,317,96679,2,0,P|12:273|29:232,1,90.0000034332277,2|0,0:2|0:0,0:0:0:0:
240,124,96867,2,0,P|232:168|215:209,1,90.0000034332277,2|0,3:2|0:0,0:0:0:0:
62,91,97054,1,0,0:0:0:0:
47,49,97147,1,2,0:2:0:0:
34,8,97242,5,8,3:1:0:0:
114,45,97335,1,0,0:0:0:0:
204,49,97429,1,2,0:2:0:0:
285,9,97523,1,0,0:0:0:0:
375,12,97617,6,0,P|349:98|332:186,1,180.000006866455,0|0,3:0|0:0,0:0:0:0:
379,343,97898,1,0,0:0:0:0:
421,358,97992,2,0,P|465:351|509:342,1,90.0000034332277,8|0,3:1|0:0,0:0:0:0:
458,166,98179,2,0,P|413:172|369:181,1,90.0000034332277,2|0,0:2|0:0,0:0:0:0:
257,253,98367,2,0,B|189:285|142:246|84:291,1,180.000006866455,0|2,3:0|0:2,0:0:0:0:
66,368,98648,1,0,0:0:0:0:
154,358,98742,5,8,3:1:0:0:
189,276,98835,1,2,0:3:0:0:
145,196,98929,1,2,0:3:0:0:
56,214,99023,1,2,0:3:0:0:
0,258,99117,6,0,P|10:215|0:171,1,90.0000034332277,2|0,3:2|0:0,0:0:0:0:
0,35,99304,1,0,0:0:0:0:
29,10,99398,2,0,P|70:26|114:35,1,90.0000034332277,0|8,0:0|3:1,0:0:0:0:
242,78,99585,1,0,0:0:0:0:
280,60,99679,2,0,P|321:42|363:25,1,90.0000034332277,2|0,0:2|0:0,0:0:0:0:
341,196,99867,2,0,P|251:203|164:227,1,180.000006866455,2|0,3:2|0:0,0:0:0:0:
235,345,100148,1,2,0:2:0:0:
270,375,100242,2,0,P|313:386|358:385,1,90.0000034332277,8|0,3:1|0:0,0:0:0:0:
502,380,100429,5,2,0:2:0:0:
437,310,100523,1,0,0:0:0:0:
477,224,100617,6,0,B|466:168|498:104|481:45,1,180.000006866455,0|0,3:0|0:0,0:0:0:0:
352,48,100898,1,0,0:0:0:0:
325,79,100992,2,0,P|282:92|244:71,1,90.0000034332277,8|0,3:1|0:0,0:0:0:0:
169,149,101179,2,0,P|157:106|136:67,1,90.0000034332277
30,26,101367,5,2,3:2:0:0:
13,29,101460,1,2,0:2:0:0:
50,104,101554,1,2,0:2:0:0:
33,107,101647,1,2,0:2:0:0:
71,187,101742,5,8,3:1:0:0:
14,231,101835,1,2,0:2:0:0:
72,272,101929,1,2,0:2:0:0:
18,320,102023,1,2,0:2:0:0:
83,352,102117,6,0,P|162:310|257:315,1,180.000006866455,6|0,3:2|0:0,0:0:0:0:
441,371,102398,1,0,0:0:0:0:
459,370,102492,1,8,3:1:0:0:
476,369,102585,1,0,0:0:0:0:
502,365,102679,2,0,P|503:320|489:277,1,90.0000034332277,2|0,0:2|0:0,0:0:0:0:
463,121,102867,2,0,P|418:198|400:286,1,180.000006866455,2|0,3:2|0:0,0:0:0:0:
445,114,103148,2,0,P|409:135|373:168,1,90.0000034332277,2|8,0:2|3:1,0:0:0:0:
258,321,103335,5,0,0:0:0:0:
238,291,103429,2,0,P|209:256|172:230,1,90.0000034332277,2|0,0:2|0:0,0:0:0:0:
91,111,103617,6,0,P|177:132|263:111,1,180.000006866455,0|0,3:0|0:0,0:0:0:0:
401,10,103898,1,0,0:0:0:0:
424,23,103992,1,8,3:1:0:0:
427,49,104085,1,0,0:0:0:0:
411,71,104179,2,0,P|368:60|340:25,1,90.0000034332277,2|0,0:2|0:0,0:0:0:0:
162,0,104367,1,0,3:0:0:0:
137,10,104460,1,0,0:0:0:0:
110,16,104554,2,0,P|100:59|92:104,1,90.0000034332277,2|0,0:2|0:0,0:0:0:0:
25,152,104742,5,8,3:1:0:0:
11,231,104835,1,2,0:3:0:0:
28,310,104929,1,2,0:3:0:0:
96,353,105023,1,2,0:3:0:0:
175,334,105117,6,0,B|218:315|259:309|259:309|317:380,1,180.000006866455,2|0,3:2|0:0,0:0:0:0:
292,214,105398,1,0,0:0:0:0:
284,188,105492,1,8,3:1:0:0:
264,169,105585,1,0,0:0:0:0:
243,154,105679,2,0,P|227:113|229:68,1,90.0000034332277
356,12,105867,2,0,P|372:53|370:98,1,90.0000034332277,2|0,3:2|0:0,0:0:0:0:
304,296,106054,1,0,0:0:0:0:
328,337,106148,2,0,P|370:351|415:352,1,90.0000034332277,0|8,0:0|3:1,0:0:0:0:
508,317,106335,5,0,0:0:0:0:
494,199,106429,1,2,0:2:0:0:
481,101,106523,1,0,0:0:0:0:
444,78,106617,5,0,3:0:0:0:
417,73,106710,1,0,3:0:0:0:
390,66,106804,1,0,3:0:0:0:
363,59,106898,1,0,3:0:0:0:
336,51,106992,1,0,3:0:0:0:
309,45,107085,1,0,3:0:0:0:
282,39,107179,1,2,3:2:0:0:
255,33,107273,1,0,3:0:0:0:
228,28,107367,6,0,P|253:65|266:107,1,90.0000034332277,0|0,1:0|0:0,0:0:0:0:
206,285,107554,1,2,0:2:0:0:
183,300,107648,1,0,0:0:0:0:
159,313,107742,6,0,P|133:275|120:233,1,90.0000034332277,2|0,1:2|0:0,0:0:0:0:
444,78,107929,2,0,P|458:120|460:165,1,90.0000034332277,2|0,0:2|0:0,0:0:0:0:
266,346,108117,6,0,B|159:328|159:328|58:364,1,215.999993408203,6|0,3:2|0:0,0:0:0:0:
20,160,108398,1,0,0:0:0:0:
47,193,108492,1,8,3:1:0:0:
87,207,108585,1,0,0:0:0:0:
129,196,108679,2,0,P|177:171|230:160,1,107.999996704102,2|0,0:2|0:0,0:0:0:0:
416,162,108867,2,0,P|467:148|513:118,1,107.999996704102,2|0,3:2|0:0,0:0:0:0:
340,11,109054,1,0,0:0:0:0:
285,11,109147,1,2,0:2:0:0:
214,62,109242,5,8,3:1:0:0:
180,140,109335,1,0,0:0:0:0:
193,225,109429,1,2,0:2:0:0:
245,293,109523,1,0,0:0:0:0:
320,341,109617,6,0,P|425:333|504:262,1,215.999993408203,2|0,3:2|0:0,0:0:0:0:
493,175,109898,1,0,0:0:0:0:
493,175,109992,2,0,P|475:125|436:90,1,107.999996704102,8|0,3:1|0:0,0:0:0:0:
185,236,110179,2,0,P|203:286|242:321,1,107.999996704102,2|0,0:2|0:0,0:0:0:0:
398,175,110367,2,0,P|290:182|182:194,1,215.999993408203,0|2,3:0|0:2,0:0:0:0:
92,196,110648,1,0,0:0:0:0:
10,142,110742,5,8,3:1:0:0:
20,46,110835,1,2,0:3:0:0:
107,2,110929,1,2,0:3:0:0:
188,56,111023,1,2,0:3:0:0:
273,8,111117,6,0,P|324:22|378:30,1,107.999996704102,2|0,3:2|0:0,0:0:0:0:
512,133,111304,1,0,0:0:0:0:
486,156,111398,2,0,P|437:134|386:119,1,107.999996704102,0|8,0:0|3:1,0:0:0:0:
377,277,111585,1,0,0:0:0:0:
407,302,111679,2,0,P|459:288|512:283,1,107.999996704102,2|0,0:2|0:0,0:0:0:0:
349,384,111867,2,0,P|241:369|134:360,1,215.999993408203,2|0,3:2|0:0,0:0:0:0:
2,327,112148,1,2,0:2:0:0:
13,298,112242,2,0,P|36:249|47:196,1,107.999996704102,8|0,3:1|0:0,0:0:0:0:
0,67,112429,1,2,0:2:0:0:
75,0,112523,1,0,0:0:0:0:
143,67,112617,6,0,B|235:112|235:112|287:95|324:46,1,215.999993408203,2|0,3:2|0:0,0:0:0:0:
440,69,112898,1,0,0:0:0:0:
441,94,112992,2,0,P|466:141|497:185,1,107.999996704102,8|0,3:1|0:0,0:0:0:0:
473,328,113179,2,0,P|423:349|371:362,1,107.999996704102
188,367,113367,5,2,3:2:0:0:
153,341,113460,1,2,0:2:0:0:
153,297,113554,1,2,0:2:0:0:
190,275,113648,1,2,0:2:0:0:
248,316,113742,5,8,3:1:0:0:
205,247,113835,1,2,0:2:0:0:
136,194,113929,1,2,0:2:0:0:
49,190,114023,1,2,0:2:0:0:
2,263,114117,6,0,P|87:197|182:146,1,215.999993408203,6|0,3:2|0:0,0:0:0:0:
417,89,114398,1,0,0:0:0:0:
449,117,114492,1,8,3:1:0:0:
470,153,114585,1,0,0:0:0:0:
470,195,114679,2,0,P|423:218|404:267,1,107.999996704102,10|0,0:2|0:0,0:0:0:0:
235,384,114867,2,0,B|317:316|317:316|361:362|413:361,1,215.999993408203,2|0,3:2|0:0,0:0:0:0:
412,361,115148,2,0,P|359:362|309:343,1,107.999996704102,2|8,0:2|3:1,0:0:0:0:
212,257,115335,5,0,0:0:0:0:
121,264,115429,1,10,0:2:0:0:
64,330,115523,1,0,0:0:0:0:
2,382,115617,6,0,P|14:275|19:162,1,215.999993408203,0|8,3:0|0:2,0:0:0:0:
8,10,115898,1,0,0:0:0:0:
41,37,115992,1,8,3:1:0:0:
83,39,116085,1,0,0:0:0:0:
120,17,116179,2,0,P|171:32|218:59,1,107.999996704102,10|0,0:2|0:0,0:0:0:0:
360,181,116367,1,0,3:0:0:0:
410,162,116460,1,0,0:0:0:0:
458,139,116554,2,0,P|479:89|493:37,1,107.999996704102,10|0,0:2|0:0,0:0:0:0:
199,182,116742,2,0,P|212:234|234:283,1,107.999996704102,8|2,3:1|0:3,0:0:0:0:
417,384,116929,1,2,0:3:0:0:
500,351,117023,1,2,0:3:0:0:
512,266,117117,6,0,P|404:252|298:233,1,215.999993408203,2|0,3:2|0:0,0:0:0:0:
148,125,117398,1,0,0:0:0:0:
178,80,117492,1,8,3:1:0:0:
161,29,117585,1,0,0:0:0:0:
110,9,117679,2,0,P|56:16|6:36,1,107.999996704102
0,245,117867,2,0,P|50:225|103:217,1,107.999996704102,2|0,3:2|0:0,0:0:0:0:
257,231,118054,1,0,0:0:0:0:
262,271,118148,2,0,B|271:323|271:323|295:372,1,107.999996704102,0|8,0:0|3:1,0:0:0:0:
432,378,118335,1,0,0:0:0:0:
503,351,118429,1,2,0:2:0:0:
508,275,118523,1,0,0:0:0:0:
503,288,118617,5,2,3:1:0:0:
450,234,118710,1,0,0:0:0:0:
425,173,118804,1,0,0:0:0:0:
430,119,118898,1,0,0:0:0:0:
448,79,118992,1,0,0:0:0:0:
475,62,119085,1,0,0:0:0:0:
485,80,119179,2,0,P|432:69|380:52,1,107.999996704102,2|0,0:1|0:0,0:0:0:0:
116,18,119367,1,0,0:0:0:0:
116,18,119554,6,0,P|138:66|154:118,1,107.999996704102,2|0,0:1|0:0,0:0:0:0:
39,272,119742,2,0,P|89:250|136:223,1,107.999996704102,2|0,0:1|0:0,0:0:0:0:
434,266,119929,2,0,P|336:218|235:180,1,215.999993408203,2|0,0:1|0:0,0:0:0:0:
