osu file format v14

[General]
AudioFilename: audio.mp3
AudioLeadIn: 0
PreviewTime: 71929
Countdown: 0
SampleSet: Soft
StackLeniency: 0.3
Mode: 0
LetterboxInBreaks: 0
WidescreenStoryboard: 1

[Editor]
Bookmarks: 12117,18117,37804
DistanceSpacing: 1.1
BeatDivisor: 8
GridSize: 8
TimelineZoom: 4.799997

[Metadata]
Title:Glitch Street
TitleUnicode:Glitch Street
Artist:KARUT
ArtistUnicode:KARUT
Creator:Shurelia
Version:Arius
Source:ブルーアーカイブ -Blue Archive-
Tags:Blue Archive TriplebulletS ost 42 k_arut video game gacha instrumental electronic yostar delusional zekk anxient kowari pnky scubdomino natsume shiki anime girl natsume_shiki anime_girl scub domino scub_domino jungkyuyoung [keqing] 8972308 tycani fuiba fuyu
BeatmapID:3806985
BeatmapSetID:1817644

[Difficulty]
HPDrainRate:5.5
CircleSize:3
OverallDifficulty:8
ApproachRate:9.5
SliderMultiplier:3
SliderTickRate:1

[Events]
//Background and Video events
0,0,"glitchstreetbg2.jpg",0,0
//Break Periods
2,72317,76842
2,78317,82092
//Storyboard Layer 0 (Background)
//Storyboard Layer 1 (Fail)
//Storyboard Layer 2 (Pass)
//Storyboard Layer 3 (Foreground)
//Storyboard Layer 4 (Overlay)
//Storyboard Sound Samples

[TimingPoints]
117,375,4,2,1,30,1,0
12867,-222.222222222221,4,2,1,30,0,0
13148,-100,4,2,1,30,0,0
13429,-133.333333333333,4,2,1,30,0,0
15117,-100,4,2,1,30,0,0
16148,-153.846153846153,4,2,1,30,0,0
16429,-100,4,2,1,30,0,0
18117,-100,4,2,1,30,0,0
18843,-133.333333333333,4,2,1,30,0,0
19124,-66.6666666666667,4,2,1,30,0,0
19405,-200,4,2,1,30,0,0
21093,-133.333333333333,4,2,1,30,0,0
21867,-66.6666666666667,4,2,1,30,0,0
22148,-100,4,2,1,30,0,0
22429,-200,4,2,1,30,0,0
22617,-200,4,2,1,40,0,0
24117,-55.5555555555556,4,2,1,80,0,0
24492,-285.714285714284,4,2,1,80,0,0
24867,-47.6190476190476,4,2,1,80,0,0
25148,-66.6666666666667,4,2,1,80,0,0
25429,-66.6666666666667,4,2,1,80,0,0
25992,-133.333333333333,4,2,1,80,0,0
27117,-55.5555555555556,4,2,1,80,0,0
27492,-285.714285714284,4,2,1,80,0,0
27867,-47.6190476190476,4,2,1,80,0,0
28148,-100,4,2,1,80,0,0
28429,-66.6666666666667,4,2,1,80,0,0
28898,-133.333333333333,4,2,1,80,0,0
30117,-55.5555555555556,4,2,1,80,0,0
30492,-285.714285714284,4,2,1,80,0,0
30867,-50,4,2,1,80,0,0
31148,-55.5555555555556,4,2,1,80,0,0
31335,-66.6666666666667,4,2,1,80,0,0
31429,-100,4,2,1,80,0,0
31992,-150,4,2,1,80,0,0
32179,-55.5555555555556,4,2,1,80,0,0
33117,-52.6315789473684,4,2,1,80,0,0
33492,-285.714285714284,4,2,1,80,0,0
33867,-66.6666666666667,4,2,1,80,0,0
34148,-100,4,2,1,80,0,0
34429,-125,4,2,1,80,0,0
35179,-66.6666666666667,4,2,1,80,0,0
36117,-200,4,2,1,50,0,0
36304,-133.333333333333,4,2,1,50,0,0
36492,-100,4,2,1,50,0,0
36679,-200,4,2,1,50,0,0
36866,-133.333333333333,4,2,1,50,0,0
37054,-100,4,2,1,50,0,0
37617,-133.333333333333,4,2,1,50,0,0
38179,-100,4,2,1,50,0,0
38742,-75.0001875004688,4,2,1,50,0,0
39117,-200,4,2,1,50,0,0
39304,-133.333333333333,4,2,1,50,0,0
39492,-100,4,2,1,50,0,0
39679,-200,4,2,1,50,0,0
39867,-133.333333333333,4,2,1,50,0,0
40054,-100,4,2,1,50,0,0
40617,-133.333333333333,4,2,1,50,0,0
41179,-100,4,2,1,50,0,0
41742,-75.0001875004688,4,2,1,50,0,0
42117,-133.333333333333,4,2,1,50,0,0
46617,-285.714285714284,4,2,1,20,0,0
48117,-66.6666666666667,4,2,1,60,0,0
48492,-50,4,2,1,60,0,0
49242,-100,4,2,1,60,0,0
50367,-66.6666666666667,4,2,1,60,0,0
52242,-100,4,2,1,60,0,0
53367,-66.6666666666667,4,2,1,60,0,0
53742,-55.5555555555556,4,2,1,60,0,0
54023,-43.4782608695652,4,2,1,60,0,0
54492,-100,4,2,1,60,0,0
56742,-133.333333333333,4,2,1,60,0,0
57117,-50,4,2,1,60,0,0
57492,-100,4,2,1,60,0,0
57867,-46.8384074941452,4,2,1,60,0,0
59742,-222.222222222221,4,2,1,60,0,0
60117,-55.5555555555556,4,2,1,60,0,0
60867,-50,4,2,1,60,0,0
62179,-200,4,2,1,60,0,0
62367,-83.3333333333333,4,2,1,60,0,0
63117,-57.1428571428571,4,2,1,60,0,0
63867,-50,4,2,1,60,0,0
64242,-200,4,2,1,60,0,0
65343,-66.6666666666667,4,2,1,60,0,0
65718,-55.5555555555556,4,2,1,60,0,0
65999,-62.5,4,2,1,60,0,0
66468,-100,4,2,1,60,0,0
66585,-181.818181818181,4,2,1,60,0,0
67992,-153.846153846153,4,2,1,60,0,0
68367,-55.5555555555556,4,2,1,60,0,0
68718,-62.5,4,2,1,60,0,0
68929,-66.6666666666667,4,2,1,60,0,0
69093,-66.6666666666667,4,2,1,60,0,0
69867,-45.9770114942529,4,2,1,60,0,0
72117,-45.9770114942529,4,2,1,30,0,0
82617,-45.9770114942529,4,2,1,50,0,0
83554,-100,4,2,1,50,0,0
83742,-222.222222222221,4,2,1,50,0,0
84117,-100,4,2,1,50,0,0
89742,-200,4,2,1,50,0,0
90117,-66.6666666666667,4,2,1,50,0,0
90867,-100,4,2,1,50,0,0
93117,-66.6666666666667,4,2,1,50,0,0
95554,-43.4782608695652,4,2,1,50,0,0
95742,-181.818181818181,4,2,1,50,0,0
96117,-66.6666666666667,4,2,1,70,0,0
98179,-133.333333333333,4,2,1,70,0,0
98226,-66.6666666666667,4,2,1,70,0,0
101179,-133.333333333333,4,2,1,70,0,0
102117,-66.6666666666667,4,2,1,70,0,0
102492,-133.333333333333,4,2,1,70,0,0
102679,-66.6666666666667,4,2,1,70,0,0
102867,-100,4,2,1,70,0,0
103523,-66.6666666666667,4,2,1,70,0,0
107367,-399.999999999997,4,2,1,70,0,0
108117,-66.6666666666667,4,2,1,70,0,0
109804,-55.5555555555556,4,2,1,70,0,0
109992,-66.6666666666667,4,2,1,70,0,0
110367,-55.5555555555556,4,2,1,70,0,0
111117,-66.6666666666667,4,2,1,70,0,0
111679,-100,4,2,1,70,0,0
111867,-66.6666666666667,4,2,1,70,0,0
112054,-100,4,2,1,70,0,0
112617,-66.6666666666667,4,2,1,70,0,0
112992,-66.6666666666667,4,2,1,70,0,0
114867,-100,4,2,1,70,0,0
115804,-66.6666666666667,4,2,1,70,0,0
115992,-55.5555555555556,4,2,1,70,0,0
116179,-66.6666666666667,4,2,1,70,0,0
116367,-55.5555555555556,4,2,1,70,0,0
116554,-66.6666666666667,4,2,1,70,0,0
118617,-50,4,2,1,70,0,0
118804,-133.333333333333,4,2,1,70,0,0
119085,-181.818181818181,4,2,1,70,0,0

[Colours]
Combo1 : 235,235,226
Combo2 : 204,155,244
Combo3 : 163,172,192
Combo4 : 249,223,121

[HitObjects]
378,38,12117,6,0,P|402:46|379:35,1,75,6|0,3:1|0:0,0:0:0:0:
297,1,12304,5,0,0:0:0:0:
269,9,12397,1,0,0:0:0:0:
239,16,12491,1,0,0:0:0:0:
210,21,12585,1,0,0:0:0:0:
180,26,12679,1,0,0:0:0:0:
150,29,12772,1,0,0:0:0:0:
114,105,12867,6,0,P|120:115|111:106,2,33.7499989700318,2|0|0,1:0|0:0|0:0,0:0:0:0:
34,169,13148,2,0,P|21:189|40:171,2,75,2|0|0,0:1|0:0|0:0,0:0:0:0:
87,269,13429,2,0,P|90:288|82:270,1,56.2500021457673,2|0,0:1|0:0,0:0:0:0:
180,384,13617,5,0,3:0:0:0:
180,333,13710,1,0,0:0:0:0:
188,284,13804,1,0,0:0:0:0:
207,237,13898,1,0,0:0:0:0:
228,192,13992,1,0,0:0:0:0:
245,146,14085,1,0,0:0:0:0:
254,97,14179,1,0,0:0:0:0:
254,47,14273,1,0,0:0:0:0:
326,0,14367,5,0,1:0:0:0:
338,25,14460,1,0,0:0:0:0:
347,51,14554,1,0,0:0:0:0:
354,78,14648,1,0,0:0:0:0:
359,106,14742,1,0,0:0:0:0:
359,106,15117,6,0,P|383:118|363:98,1,75,2|0,3:1|0:0,0:0:0:0:
313,192,15304,1,0,0:0:0:0:
262,194,15397,1,0,0:0:0:0:
212,190,15491,1,0,0:0:0:0:
161,184,15585,1,0,0:0:0:0:
112,171,15679,1,0,0:0:0:0:
65,157,15772,1,0,0:0:0:0:
6,222,15867,6,0,P|-18:228|1:218,2,75,2|0|0,1:0|0:0|0:0,0:0:0:0:
88,281,16148,2,0,P|76:292|83:280,2,48.7499977684022,2|0|0,0:1|0:0|0:0,0:0:0:0:
140,197,16429,2,0,P|157:214|139:203,1,75,2|0,0:1|0:0,0:0:0:0:
160,384,16617,5,0,3:0:0:0:
177,337,16710,1,0,0:0:0:0:
190,290,16804,1,0,0:0:0:0:
200,242,16898,1,0,0:0:0:0:
208,194,16992,1,0,0:0:0:0:
212,145,17085,1,0,0:0:0:0:
214,96,17179,1,0,0:0:0:0:
213,47,17273,1,0,0:0:0:0:
127,17,17367,5,0,1:0:0:0:
95,21,17460,1,0,0:0:0:0:
65,14,17554,1,0,0:0:0:0:
36,6,17648,1,0,0:0:0:0:
6,9,17742,1,0,0:0:0:0:
6,9,18117,6,0,P|-4:-15|1:11,1,75,2|0,3:1|0:0,0:0:0:0:
66,73,18304,5,0,0:0:0:0:
121,63,18397,1,0,0:0:0:0:
178,55,18491,1,0,0:0:0:0:
234,49,18585,1,0,0:0:0:0:
291,45,18679,1,0,0:0:0:0:
347,42,18772,1,0,0:0:0:0:
435,70,18867,6,0,P|449:85|429:79,2,56.2500021457673,2|0|0,1:0|0:0|0:0,0:0:0:0:
458,189,19148,2,0,P|422:204|452:179,2,112.500004291535,2|0|0,0:1|0:0|0:0,0:0:0:0:
346,133,19429,2,0,P|350:118|353:133,1,37.5,2|0,0:1|0:0,0:0:0:0:
512,327,19617,5,0,3:0:0:0:
446,306,19711,1,0,0:0:0:0:
380,286,19805,1,0,0:0:0:0:
314,268,19898,1,0,0:0:0:0:
247,252,19992,1,0,0:0:0:0:
179,237,20086,1,0,0:0:0:0:
112,224,20180,1,0,0:0:0:0:
43,213,20273,1,0,0:0:0:0:
0,286,20367,5,0,1:0:0:0:
10,304,20460,1,0,0:0:0:0:
18,323,20554,1,0,0:0:0:0:
24,344,20648,1,0,0:0:0:0:
28,364,20742,1,0,0:0:0:0:
28,364,21117,6,0,P|49:367|29:359,1,56.2500021457673,2|0,3:1|0:0,0:0:0:0:
137,383,21304,5,0,0:0:0:0:
146,308,21397,1,0,0:0:0:0:
158,232,21491,1,0,0:0:0:0:
172,157,21585,1,0,0:0:0:0:
189,82,21679,1,0,0:0:0:0:
207,8,21772,1,0,0:0:0:0:
274,73,21867,6,0,P|307:63|275:69,2,112.500004291535,2|0|0,1:0|0:0|0:0,0:0:0:0:
93,120,22148,2,0,P|71:113|92:117,2,75,2|0|0,0:1|0:0|0:0,0:0:0:0:
197,191,22429,2,0,P|208:187|197:189,1,37.5,2|0,0:1|0:0,0:0:0:0:
400,84,22617,5,10,3:2:0:0:
512,140,22804,2,0,L|469:134,1,37.5,0|0,3:0|3:0,0:0:0:0:
112,156,22992,5,8,0:2:0:0:
0,212,23179,2,0,L|43:206,1,37.5,2|0,3:2|3:0,0:0:0:0:
272,384,23367,5,8,0:2:0:0:
272,288,23460,1,8,0:2:0:0:
215,365,23554,1,0,3:0:0:0:
306,336,23648,1,0,3:0:0:0:
215,307,23742,1,8,0:0:0:0:
156,227,24117,6,0,B|166:306|76:339|76:339|368:276,1,404.999987640381,6|0,3:1|0:0,0:0:0:0:
413,315,24492,2,0,L|422:278,3,26.2499991989136,2|0|0|0,0:3|0:0|0:0|0:0,0:0:0:0:
511,313,24867,6,0,B|516:249|456:154|347:157|347:157|385:193|382:267,1,314.999990386963,2|0,1:0|0:0,0:0:0:0:
311,383,25148,2,0,B|319:315|380:286|395:318|464:293|465:221,1,225,2|0,3:1|0:0,0:0:0:0:
448,36,25429,6,0,P|341:164|365:0,1,450.000017166138,6|0,3:1|0:0,0:0:0:0:
381,88,25898,1,0,0:0:0:0:
381,88,25992,2,0,P|384:115|394:141,1,56.2500021457673
394,142,26367,5,2,0:3:0:0:
312,162,26460,1,0,0:0:0:0:
229,181,26554,1,0,0:0:0:0:
147,201,26648,1,0,0:0:0:0:
208,264,26742,1,0,1:0:0:0:
290,245,26835,1,0,0:0:0:0:
373,225,26929,1,0,0:0:0:0:
456,206,27023,1,0,0:0:0:0:
440,307,27117,6,0,B|436:193|325:136|229:154|229:154|284:201|293:262,1,404.999987640381,6|0,3:1|0:0,0:0:0:0:
324,328,27492,2,0,L|353:317,3,26.2499991989136,2|0|0|0,0:3|0:0|0:0|0:0,0:0:0:0:
498,377,27867,6,0,L|118:293,1,314.999990386963,2|0,1:0|0:0,0:0:0:0:
50,50,28148,2,0,B|31:124|31:124|102:190,1,150,2|0,3:1|0:0,0:0:0:0:
23,361,28429,6,0,B|-22:263|107:141|143:220|274:121|234:10,1,450.000017166138,6|0,3:1|0:0,0:0:0:0:
131,0,28898,2,0,L|153:95,1,56.2500021457673
0,202,29367,5,2,3:2:0:0:
80,196,29460,1,2,0:0:0:0:
160,200,29554,1,2,0:0:0:0:
238,216,29648,1,2,0:0:0:0:
314,242,29742,1,0,3:2:0:0:
386,279,29835,1,2,0:2:0:0:
452,324,29929,1,2,0:2:0:0:
511,378,30023,1,2,0:2:0:0:
438,198,30117,6,0,B|352:207|286:279|276:358|276:358|187:291|261:168,1,404.999987640381,6|0,3:1|0:0,0:0:0:0:
299,124,30492,5,2,0:3:0:0:
301,132,30585,1,0,0:0:0:0:
304,140,30679,1,0,0:0:0:0:
307,148,30773,1,0,0:0:0:0:
174,92,30867,6,0,B|197:109|205:143|205:143|438:197,1,300,2|0,1:0|0:0,0:0:0:0:
506,2,31148,2,0,B|325:53|325:53|263:257,1,269.999991760254,2|0,3:1|0:0,0:0:0:0:
293,381,31429,6,0,B|265:306|334:252|345:284|435:222|396:121,1,300,6|0,3:1|0:0,0:0:0:0:
278,60,31898,1,0,0:0:0:0:
278,60,31992,2,0,P|293:100|306:182,1,75
305,137,32179,6,0,L|435:169,1,134.999995880127,2|0,0:3|0:0,0:0:0:0:
512,213,32367,1,0,3:0:0:0:
512,213,32554,6,0,L|381:245,1,134.999995880127,2|0,3:3|3:0,0:0:0:0:
246,384,32742,5,2,3:3:0:0:
266,302,32835,1,0,3:0:0:0:
285,219,32929,1,0,3:0:0:0:
305,137,33023,1,0,3:0:0:0:
162,268,33117,6,0,B|71:325|71:325|440:229,1,427.499988584519,6|0,3:1|0:0,0:0:0:0:
459,95,33492,5,2,0:3:0:0:
456,109,33585,1,0,0:0:0:0:
453,124,33679,1,0,0:0:0:0:
451,139,33773,1,0,0:0:0:0:
502,276,33867,6,0,B|435:295|396:232|417:237|373:174|307:196,1,225.000008583069,2|0,1:0|0:0,0:0:0:0:
171,384,34148,2,0,B|216:352|216:352|245:227,1,150,2|0,3:1|0:0,0:0:0:0:
502,276,34429,6,0,P|278:303|57:343,1,420,6|0,3:1|0:0,0:0:0:0:
7,287,35179,6,0,P|21:222|75:177,1,112.500004291535,2|0,0:3|0:0,0:0:0:0:
140,174,35367,1,0,3:0:0:0:
291,384,35554,6,0,P|255:341|246:286,1,112.500004291535,2|0,3:3|3:0,0:0:0:0:
352,99,35742,1,2,3:3:0:0:
370,94,35835,1,0,3:0:0:0:
388,90,35929,1,0,3:0:0:0:
406,85,36023,1,0,3:0:0:0:
486,138,36117,6,0,L|496:206,1,37.5,12|0,3:1|0:0,0:0:0:0:
398,178,36304,2,0,L|373:266,1,56.2500021457673,2|0,3:2|0:0,0:0:0:0:
292,207,36492,2,0,L|203:261,1,75,0|0,3:0|0:0,0:0:0:0:
498,214,36679,6,0,L|493:176,1,37.5,8|0,3:1|0:0,0:0:0:0:
368,288,36867,2,0,L|384:233,1,56.2500021457673,0|0,3:0|0:0,0:0:0:0:
163,284,37054,2,0,L|228:245,1,75,2|0,3:2|0:0,0:0:0:0:
131,118,37242,5,8,3:1:0:0:
159,129,37335,1,0,0:0:0:0:
142,169,37429,1,0,3:0:0:0:
114,160,37523,1,0,0:0:0:0:
5,93,37617,6,0,P|53:69|98:82,1,56.2500021457673,8|0,3:1|0:0,0:0:0:0:
249,53,37804,2,0,P|244:106|211:139,1,56.2500021457673,2|0,3:2|0:0,0:0:0:0:
163,284,37992,2,0,P|118:253|106:208,1,56.2500021457673,0|0,3:0|0:0,0:0:0:0:
5,93,38179,6,0,P|46:57|92:58,1,75,8|0,3:1|0:0,0:0:0:0:
248,53,38366,2,0,P|258:106|235:146,1,75,0|0,3:0|0:0,0:0:0:0:
163,284,38554,2,0,P|111:265|89:225,1,75,2|0,3:2|0:0,0:0:0:0:
0,367,38742,6,0,B|151:365|133:305|309:303,1,300,8|0,3:1|0:0,0:0:0:0:
409,199,39117,6,0,L|419:267,1,37.5,8|0,3:1|0:0,0:0:0:0:
306,249,39304,2,0,L|281:337,1,56.2500021457673,2|0,3:2|0:0,0:0:0:0:
163,284,39492,2,0,L|74:338,1,75,0|0,3:0|0:0,0:0:0:0:
421,275,39679,6,0,L|416:237,1,37.5,8|0,3:1|0:0,0:0:0:0:
276,359,39867,2,0,L|292:304,1,56.2500021457673,0|0,3:0|0:0,0:0:0:0:
34,361,40054,2,0,L|99:322,1,75,2|0,3:2|0:0,0:0:0:0:
385,104,40242,5,8,3:1:0:0:
356,114,40335,1,0,0:0:0:0:
373,155,40429,1,0,3:0:0:0:
401,146,40523,1,0,0:0:0:0:
511,79,40617,6,0,P|463:54|417:67,1,56.2500021457673,8|0,3:1|0:0,0:0:0:0:
266,39,40804,2,0,P|270:92|304:125,1,56.2500021457673,2|0,3:2|0:0,0:0:0:0:
352,270,40992,2,0,P|396:239|409:193,1,56.2500021457673,0|0,3:0|0:0,0:0:0:0:
511,79,41179,6,0,P|470:43|423:44,1,75,8|0,3:1|0:0,0:0:0:0:
267,39,41366,2,0,P|256:92|280:132,1,75,0|0,3:0|0:0,0:0:0:0:
352,270,41554,2,0,P|404:250|426:211,1,75,0|0,3:2|0:0,0:0:0:0:
370,91,41742,6,0,B|374:248|313:233|317:384,1,300,8|0,3:1|0:0,0:0:0:0:
214,384,42117,6,0,L|141:329,1,56.2500021457673,8|0,3:1|0:0,0:0:0:0:
33,322,42304,2,0,L|110:309,1,56.2500021457673,10|0,3:2|0:0,0:0:0:0:
161,261,42492,2,0,L|206:197,1,56.2500021457673,8|0,3:2|0:0,0:0:0:0:
331,202,42679,6,0,L|404:147,1,56.2500021457673,8|0,3:1|0:0,0:0:0:0:
512,140,42866,2,0,L|435:127,1,56.2500021457673,8|0,3:2|0:0,0:0:0:0:
384,79,43054,2,0,L|338:15,1,56.2500021457673,10|0,3:2|0:0,0:0:0:0:
256,3,43242,5,8,3:1:0:0:
256,13,43336,1,0,0:0:0:0:
256,22,43430,1,10,3:2:0:0:
256,32,43523,1,8,3:2:0:0:
160,33,43617,6,0,L|128:79,1,56.2500021457673,8|0,3:1|0:0,0:0:0:0:
0,140,43805,2,0,L|55:130,1,56.2500021457673,10|0,3:2|0:0,0:0:0:0:
136,168,43992,2,0,L|181:202,1,56.2500021457673,8|0,3:2|0:0,0:0:0:0:
318,215,44179,6,0,L|351:261,1,56.2500021457673,8|0,3:1|0:0,0:0:0:0:
479,322,44367,2,0,L|423:312,1,56.2500021457673,8|0,3:2|0:0,0:0:0:0:
342,350,44554,2,0,L|298:384,1,56.2500021457673,10|0,3:2|0:0,0:0:0:0:
256,304,44742,5,8,3:1:0:0:
256,294,44836,1,0,0:0:0:0:
256,285,44930,1,0,0:0:0:0:
256,275,45023,1,0,0:0:0:0:
221,339,45117,5,0,1:0:0:0:
218,301,45211,1,8,0:2:0:0:
201,267,45305,1,8,0:2:0:0:
174,241,45398,1,8,0:2:0:0:
308,210,45492,5,0,1:0:0:0:
311,172,45586,1,8,0:2:0:0:
328,138,45680,1,8,0:2:0:0:
355,112,45773,1,8,0:2:0:0:
161,155,45867,5,0,1:0:0:0:
127,137,45960,1,8,0:2:0:0:
90,131,46054,1,8,0:2:0:0:
53,140,46148,1,8,0:2:0:0:
370,25,46242,5,0,1:0:0:0:
404,7,46335,1,8,0:2:0:0:
441,1,46429,1,8,0:2:0:0:
478,10,46523,1,8,0:2:0:0:
512,195,46617,6,0,L|482:201,8,26.2499991989136,6|0|0|0|0|0|0|0|0,3:1|0:0|0:0|0:0|0:0|0:0|0:0|0:0|0:0,0:0:0:0:
437,276,48117,6,0,B|223:202|223:202|226:134|168:93,1,337.500012874604,6|0,3:2|0:0,0:0:0:0:
173,285,48492,2,0,P|-11:231|99:73,1,450
169,20,48867,5,0,1:2:0:0:
220,88,48960,1,2,0:3:0:0:
210,174,49054,1,2,0:3:0:0:
262,243,49148,1,2,0:3:0:0:
246,347,49242,6,0,L|319:319,2,75,2|2|2,0:3|0:3|0:0,0:0:0:0:
199,11,49617,5,0,3:2:0:0:
189,97,49710,1,2,0:3:0:0:
241,166,49804,1,2,0:3:0:0:
231,251,49898,1,2,0:3:0:0:
317,320,49992,6,0,L|246:346,2,75,2|2|2,0:3|0:3|0:0,0:0:0:0:
1,43,50367,6,0,P|30:69|119:69,1,112.500004291535,0|8,1:0|0:3,0:0:0:0:
321,313,50554,5,4,0:3:0:0:
317,320,50648,1,4,0:3:0:0:
395,255,50742,5,0,3:0:0:0:
391,262,50836,1,0,3:0:0:0:
469,197,50929,5,4,0:3:0:0:
465,204,51023,1,4,0:3:0:0:
382,384,51117,6,0,B|324:212|492:242|405:49,1,337.500012874604,6|0,3:2|0:0,0:0:0:0:
337,17,51492,5,2,0:3:0:0:
250,9,51585,1,2,0:3:0:0:
170,52,51679,1,2,0:3:0:0:
83,43,51773,1,2,0:3:0:0:
0,185,51867,6,0,B|15:118|15:118|29:199,1,112.500004291535,2|0,1:2|0:0,0:0:0:0:
15,384,52054,1,2,0:2:0:0:
23,162,52242,6,0,B|41:304|-17:253|23:426,1,225,2|0,0:3|0:0,0:0:0:0:
101,290,52617,6,0,B|134:307|134:307|215:294,1,75,0|0,3:0|0:0,0:0:0:0:
361,318,52804,2,0,B|399:325|399:325|432:308,1,75,2|0,0:3|0:0,0:0:0:0:
233,366,52992,2,0,B|310:370|310:370|401:281,1,150,2|0,0:3|0:0,0:0:0:0:
362,319,53273,1,0,0:0:0:0:
512,270,53367,6,0,B|429:288|338:205|350:114|383:99|493:78|448:196|410:173,1,337.500012874604,2|0,1:2|0:0,0:0:0:0:
144,329,53742,6,0,B|146:259|204:198|295:211|295:211|246:267|247:337|286:384,1,404.999987640381,2|0,0:2|0:0,0:0:0:0:
512,270,54117,6,0,L|4:366,1,517.500009870529,6|0,3:2|0:0,0:0:0:0:
362,347,54492,2,0,B|407:343|436:375|436:375|399:368|363:382,1,150,2|2,0:3|0:0,0:0:0:0:
3,366,54867,5,2,1:2:0:0:
20,264,54992,1,2,0:2:0:0:
99,331,55117,1,2,0:2:0:0:
198,328,55242,5,2,0:2:0:0:
264,384,55367,1,2,0:2:0:0:
278,298,55492,1,2,0:2:0:0:
375,324,55617,5,2,3:2:0:0:
398,172,55742,1,2,0:2:0:0:
512,270,55867,1,2,0:2:0:0:
428,252,55992,5,2,0:2:0:0:
495,9,56179,6,0,P|489:57|435:106,1,75,2|0,0:0|0:0,0:0:0:0:
246,197,56367,5,0,1:0:0:0:
265,186,56461,1,0,0:0:0:0:
250,182,56554,1,0,0:0:0:0:
261,201,56648,1,0,0:0:0:0:
269,168,56742,6,0,P|236:213|273:171,1,168.750006437302,2|0,0:3|0:0,0:0:0:0:
465,105,57117,6,0,B|49:277,1,450,6|0,3:2|0:0,0:0:0:0:
242,227,57492,6,0,P|284:169|236:224,1,225,2|0,0:3|0:0,0:0:0:0:
0,0,57867,6,0,B|512:384,1,640.500025776959,6|2,1:2|0:3,0:0:0:0:
512,384,58429,1,0,0:0:0:0:
134,180,58617,5,2,3:2:0:0:
122,231,58710,1,2,0:3:0:0:
109,282,58804,1,2,0:3:0:0:
97,333,58898,1,2,0:3:0:0:
84,384,58992,1,0,3:0:0:0:
43,321,59179,5,0,3:0:0:0:
56,270,59273,1,0,3:0:0:0:
68,219,59367,1,2,3:2:0:0:
3,258,59554,5,0,3:0:0:0:
234,147,59742,6,0,P|223:115|232:148,1,101.249996910095,2|0,1:2|0:0,0:0:0:0:
192,33,60117,6,0,B|60:34|2:145|17:251|103:293|173:242|159:176|113:143|86:193,1,404.999987640381,6|0,3:2|0:0,0:0:0:0:
0,384,60492,2,0,P|88:281|253:335,1,269.999991760254,8|8,0:2|0:2,0:0:0:0:
211,294,60773,1,8,0:0:0:0:
296,323,60867,6,0,B|335:328|369:299|369:299|335:316|293:303,1,150,2|0,1:1|0:0,0:0:0:0:
410,220,61054,1,0,0:0:0:0:
438,384,61242,5,2,0:2:0:0:
442,365,61335,1,0,0:0:0:0:
446,347,61429,1,2,0:2:0:0:
507,130,61617,5,2,3:2:0:0:
420,122,61710,1,2,0:0:0:0:
340,165,61804,1,2,0:0:0:0:
253,156,61898,1,2,0:0:0:0:
173,200,61991,1,8,0:2:0:0:
86,191,62085,1,0,0:0:0:0:
6,235,62179,2,0,L|-10:293,1,37.5,2|0,0:0|0:0,0:0:0:0:
80,59,62367,6,0,P|116:77|136:150,1,89.9999972534181,2|0,1:2|0:0,0:0:0:0:
256,291,62554,2,0,P|292:273|312:200,1,89.9999972534181,2|0,0:3|0:0,0:0:0:0:
5,234,62742,2,0,P|108:156|229:203,1,269.999991760254,10|8,0:2|0:2,0:0:0:0:
118,381,63117,6,0,B|74:340|68:251|139:200|139:200|151:282|214:312|279:300,1,393.750015020371,6|0,3:2|0:0,0:0:0:0:
372,384,63492,5,8,0:2:0:0:
376,366,63586,1,0,0:0:0:0:
380,347,63680,1,2,0:0:0:0:
384,329,63774,1,0,0:0:0:0:
409,248,63867,6,0,B|414:209|385:175|385:175|402:209|389:251,1,150,2|0,1:1|0:0,0:0:0:0:
317,117,64054,2,0,B|281:100|240:117|240:117|277:111|313:136,1,150,2|0,0:1|0:0,0:0:0:0:
138,119,64242,6,0,L|152:81,2,37.5,8|0|0,0:2|0:0|0:0,0:0:0:0:
1,243,64617,5,2,3:2:0:0:
88,235,64710,1,0,0:0:0:0:
168,278,64804,1,0,0:0:0:0:
255,269,64898,1,0,0:0:0:0:
335,313,64991,1,8,0:2:0:0:
422,304,65085,1,0,0:0:0:0:
502,348,65179,2,0,L|518:406,1,37.5,0|0,3:0|0:0,0:0:0:0:
430,28,65367,6,0,B|369:17|317:65|308:135|308:135|363:116|429:138|471:209,1,337.500012874604,2|0,1:2|0:0,0:0:0:0:
142,222,65742,2,0,B|192:347|372:367|444:299|410:164|296:192|321:284,1,404.999987640381,2|0,0:2|0:0,0:0:0:0:
512,366,66117,6,0,B|366:388|288:247|362:219|282:100|131:107,1,480,6|8,3:2|0:2,0:0:0:0:
0,177,66585,6,0,B|52:173|39:161|107:153,1,82.5000025177003
253,0,66867,5,2,1:2:0:0:
230,153,66992,1,2,0:0:0:0:
372,99,67117,1,2,0:0:0:0:
323,180,67242,5,8,0:2:0:0:
429,200,67367,1,2,0:0:0:0:
360,285,67492,1,2,0:0:0:0:
426,384,67617,5,2,3:2:0:0:
432,359,67710,1,2,0:0:0:0:
438,334,67804,1,2,0:0:0:0:
445,309,67898,1,0,0:0:0:0:
360,285,67992,5,8,0:2:0:0:
353,310,68085,1,0,0:0:0:0:
347,335,68179,1,8,0:2:0:0:
341,360,68273,1,0,0:0:0:0:
261,300,68367,6,0,B|186:301|207:277|128:276,1,134.999995880127,2|8,1:2|0:0,0:0:0:0:
47,302,68555,1,8,0:2:0:0:
352,311,68742,6,0,L|-16:381,1,360,8|0,0:2|0:0,0:0:0:0:
49,106,69117,6,0,B|99:113|99:113|412:270|412:270|462:277,1,450.000017166138,6|8,3:2|0:2,0:0:0:0:
436,178,69585,1,8,0:0:0:0:
442,154,69679,1,8,0:0:0:0:
448,130,69773,1,8,0:0:0:0:
508,2,69867,6,0,B|500:42|500:42|11:341|11:341|3:381,1,652.499983820916,6|8,1:2|0:2,0:0:0:0:
57,278,70335,1,8,0:0:0:0:
64,254,70428,1,8,0:0:0:0:
70,230,70522,1,8,0:0:0:0:
144,384,70616,5,14,3:2:0:0:
256,312,70804,1,0,3:0:0:0:
256,312,70898,1,0,3:0:0:0:
368,240,70992,1,8,0:2:0:0:
256,168,71180,1,2,3:2:0:0:
256,168,71274,1,0,3:0:0:0:
284,74,71367,5,8,0:2:0:0:
256,55,71460,1,8,0:2:0:0:
227,36,71554,1,0,3:0:0:0:
256,18,71648,1,0,3:0:0:0:
284,0,71742,1,2,0:2:0:0:
256,384,72117,5,6,3:1:0:0:
201,237,77367,5,2,0:2:0:0:
243,262,77460,1,0,0:0:0:0:
291,253,77554,1,0,0:0:0:0:
323,216,77648,1,0,0:0:0:0:
323,167,77742,1,0,0:0:0:0:
291,130,77835,1,0,0:0:0:0:
243,121,77929,1,0,0:0:0:0:
201,146,78023,1,0,0:0:0:0:
184,192,78117,5,6,0:1:0:0:
275,101,82617,5,14,3:2:0:0:
87,285,82804,1,8,0:2:0:0:
87,285,82898,1,0,3:0:0:0:
341,357,83085,1,0,3:0:0:0:
341,357,83179,1,0,3:0:0:0:
283,254,83367,5,0,3:0:0:0:
283,254,83554,2,0,L|159:225,1,75,0|0,3:0|0:0,0:0:0:0:
0,243,83742,6,0,P|48:253|87:285,1,101.249996910095,0|2,3:0|0:0,0:0:0:0:
114,370,84117,6,0,B|70:132,1,225,6|0,3:1|0:0,0:0:0:0:
122,333,84492,6,0,B|78:95,1,225,0|0,1:0|0:0,0:0:0:0:
129,300,84867,6,0,B|85:62,1,225,2|2,3:1|0:1,0:0:0:0:
20,258,85242,6,0,P|16:216|4:184,1,75,0|0,1:0|0:0,0:0:0:0:
199,136,85429,2,0,P|202:177|214:209,1,75,2|0,0:1|0:0,0:0:0:0:
321,0,85617,6,0,L|294:169,1,150,0|0,3:0|0:0,0:0:0:0:
297,148,85898,1,0,0:0:0:0:
403,70,85992,6,0,L|376:239,1,150,0|0,1:0|0:0,0:0:0:0:
379,218,86273,1,0,0:0:0:0:
488,134,86367,6,0,L|461:303,1,150,0|0,3:0|0:0,0:0:0:0:
464,282,86648,1,0,0:0:0:0:
278,326,86742,6,0,P|359:254|463:281,1,225,0|0,1:0|2:0,0:0:0:0:
494,368,87117,5,6,3:1:0:0:
468,376,87210,1,0,0:0:0:0:
448,384,87304,2,0,L|347:356,1,75
306,266,87492,5,0,1:0:0:0:
280,274,87585,1,0,0:0:0:0:
260,282,87679,2,0,L|159:254,1,75
118,164,87867,5,2,3:1:0:0:
92,172,87960,1,0,0:0:0:0:
72,180,88054,2,0,L|-29:152,1,75,0|2,0:0|0:1,0:0:0:0:
180,28,88242,6,0,P|101:71|17:64,1,150,0|0,1:0|0:0,0:0:0:0:
44,384,88617,5,0,3:0:0:0:
29,340,88710,1,0,0:0:0:0:
15,296,88804,1,8,0:2:0:0:
0,253,88898,1,0,0:0:0:0:
260,282,88992,5,0,1:0:0:0:
245,238,89085,1,0,0:0:0:0:
231,194,89179,1,0,0:0:0:0:
216,151,89273,1,0,0:0:0:0:
476,180,89367,5,2,3:2:0:0:
461,136,89460,1,2,0:2:0:0:
447,92,89554,1,2,0:2:0:0:
432,49,89648,1,2,0:2:0:0:
508,1,89742,6,0,L|521:35,3,37.5,2|2|2|2,1:2|0:2|0:2|0:2,0:0:0:0:
507,116,90117,6,0,B|454:111|457:96|389:87,1,112.500004291535,6|0,3:1|0:0,0:0:0:0:
256,24,90304,1,0,3:0:0:0:
7,117,90492,6,0,B|60:112|57:97|125:88,1,112.500004291535,0|0,1:0|0:0,0:0:0:0:
256,24,90679,1,0,3:0:0:0:
457,200,90867,6,0,B|421:196|423:186|376:180,1,75,2|0,3:1|0:0,0:0:0:0:
256,48,91054,1,0,3:0:0:0:
55,200,91242,6,0,B|90:196|88:186|135:180,1,75,0|0,1:0|0:0,0:0:0:0:
256,48,91429,1,2,3:1:0:0:
417,282,91617,5,0,3:0:0:0:
382,273,91710,1,0,0:0:0:0:
256,72,91804,1,0,3:0:0:0:
95,282,91992,5,0,1:0:0:0:
130,273,92085,1,0,0:0:0:0:
256,72,92179,1,0,3:0:0:0:
386,366,92367,5,0,3:0:0:0:
368,361,92460,1,0,0:0:0:0:
256,96,92554,1,0,3:0:0:0:
126,366,92742,5,0,1:0:0:0:
144,361,92835,1,0,0:0:0:0:
256,96,92929,2,0,L|256:200,1,75,0|0,3:0|0:0,0:0:0:0:
353,359,93117,5,6,3:1:0:0:
361,322,93210,1,0,3:0:0:0:
369,285,93304,1,0,3:0:0:0:
378,249,93398,1,0,3:0:0:0:
160,275,93492,5,0,1:0:0:0:
152,238,93585,1,0,3:0:0:0:
144,201,93679,1,0,3:0:0:0:
135,165,93773,1,0,3:0:0:0:
453,186,93867,5,2,3:1:0:0:
461,149,93960,1,0,3:0:0:0:
469,112,94054,1,0,3:0:0:0:
478,76,94148,1,2,3:1:0:0:
63,110,94242,5,0,1:0:0:0:
55,73,94335,1,0,3:0:0:0:
47,36,94429,1,2,3:1:0:0:
38,0,94523,1,0,3:0:0:0:
265,0,94617,5,4,3:2:0:0:
161,211,94804,1,0,3:0:0:0:
161,211,94898,1,0,3:0:0:0:
361,274,95085,1,0,3:0:0:0:
361,274,95179,1,0,3:0:0:0:
287,332,95367,5,0,3:0:0:0:
287,332,95554,6,0,B|178:340|214:381|78:389,1,172.500003290176,8|0,0:3|0:0,0:0:0:0:
0,352,95742,6,0,B|-11:303|-11:303|37:294|49:348|28:365,1,144.375004405975
0,353,96117,6,0,L|30:182,1,168.750006437302,6|0,3:2|0:0,0:0:0:0:
32,174,96304,2,0,P|75:138|130:130,1,112.500004291535
314,247,96492,6,0,L|179:212,1,112.500004291535,8|0,3:1|0:0,0:0:0:0:
164,59,96679,2,0,B|162:151|214:130|205:230,1,168.750006437302,2|0,0:2|0:0,0:0:0:0:
374,321,96867,5,2,3:2:0:0:
374,321,96960,2,0,B|406:273|406:273|399:207,1,112.500004291535
143,150,97148,2,0,B|111:198|111:198|118:264,1,112.500004291535,2|8,0:2|3:1,0:0:0:0:
204,341,97335,5,0,0:0:0:0:
233,254,97429,1,2,0:2:0:0:
312,205,97523,1,0,0:0:0:0:
400,218,97617,6,0,B|524:254|524:254|462:205,1,168.750006437302,0|0,3:0|0:0,0:0:0:0:
467,143,97804,1,0,0:0:0:0:
467,143,97898,1,0,0:0:0:0:
311,204,97992,6,0,L|283:79,1,112.500004291535,8|0,3:1|0:0,0:0:0:0:
496,0,98179,2,0,L|481:73,1,56.2500021457673,2|0,0:2|0:0,0:0:0:0:
439,375,98367,6,0,P|496:301|468:189,1,168.750006437302,0|0,3:0|0:0,0:0:0:0:
489,222,98554,2,0,B|431:207|431:207|356:272,1,112.500004291535,2|0,0:2|0:0,0:0:0:0:
260,86,98742,5,8,3:1:0:0:
269,89,98835,1,2,0:3:0:0:
278,92,98929,1,2,0:3:0:0:
287,95,99023,1,2,0:3:0:0:
174,57,99117,6,0,L|354:18,1,168.750006437302,2|0,3:2|0:0,0:0:0:0:
350,18,99304,2,0,P|383:54|352:152,1,112.500004291535
314,296,99492,6,0,B|286:181|286:181|295:131,1,168.750006437302,8|0,3:1|0:0,0:0:0:0:
303,124,99679,2,0,L|451:153,1,112.500004291535,2|0,0:2|0:0,0:0:0:0:
475,322,99867,6,0,B|379:340|400:280|313:296,1,168.750006437302,2|0,3:2|0:0,0:0:0:0:
203,285,100054,1,0,0:0:0:0:
203,285,100148,2,0,B|165:335|165:335|175:389,1,112.500004291535,2|8,0:2|3:1,0:0:0:0:
314,296,100335,5,0,0:0:0:0:
291,204,100429,1,2,0:2:0:0:
269,113,100523,1,0,0:0:0:0:
246,22,100617,2,0,P|309:16|367:61,1,112.500004291535,0|0,3:0|0:0,0:0:0:0:
473,178,100804,5,0,0:0:0:0:
473,178,100898,1,0,0:0:0:0:
350,39,100992,6,0,L|381:158,1,112.500004291535,8|0,3:1|0:0,0:0:0:0:
79,82,101179,2,0,L|63:22,1,56.2500021457673
252,29,101367,5,2,3:2:0:0:
269,111,101460,1,2,0:2:0:0:
187,129,101554,1,2,0:2:0:0:
169,46,101648,1,2,0:2:0:0:
248,64,101742,5,8,3:1:0:0:
233,107,101835,1,2,0:2:0:0:
190,93,101929,1,2,0:2:0:0:
200,43,102023,1,2,0:2:0:0:
186,186,102117,6,0,B|106:183|113:126|31:126,1,168.750006437302,6|0,3:2|0:0,0:0:0:0:
25,133,102304,2,0,L|-11:257,1,112.500004291535
247,274,102492,5,8,3:1:0:0:
247,274,102585,1,0,0:0:0:0:
60,300,102679,2,0,P|141:308|187:370,1,112.500004291535,2|0,0:2|0:0,0:0:0:0:
369,178,102867,6,0,L|264:201,1,75,2|0,3:2|0:0,0:0:0:0:
245,368,103054,1,0,0:0:0:0:
245,368,103148,2,0,L|349:391,1,75,2|8,0:2|3:1,0:0:0:0:
512,254,103335,5,0,0:0:0:0:
432,295,103429,1,2,0:2:0:0:
344,271,103523,1,0,0:0:0:0:
296,195,103617,2,0,L|266:59,1,112.500004291535,0|0,3:0|0:0,0:0:0:0:
337,2,103804,5,0,0:0:0:0:
342,6,103898,1,0,0:0:0:0:
105,79,103992,6,0,B|205:109|176:45|322:101,1,168.750006437302,8|0,3:1|0:0,0:0:0:0:
278,90,104179,2,0,L|434:125,1,112.500004291535,2|0,0:2|0:0,0:0:0:0:
411,365,104367,6,0,B|379:239|379:239|403:160,1,168.750006437302,0|0,3:0|0:0,0:0:0:0:
400,201,104554,2,0,L|532:233,1,112.500004291535,2|0,0:2|0:0,0:0:0:0:
443,0,104742,5,8,3:1:0:0:
448,17,104835,1,2,0:3:0:0:
453,35,104929,1,2,0:3:0:0:
458,53,105023,1,2,0:3:0:0:
512,241,105117,6,0,P|443:284|425:381,1,168.750006437302,2|0,3:2|0:0,0:0:0:0:
413,368,105304,2,0,L|260:328,1,112.500004291535
397,118,105492,5,8,3:1:0:0:
397,118,105585,1,0,0:0:0:0:
512,242,105679,6,0,L|314:189,1,168.750006437302
337,202,105867,2,0,B|301:247|301:247|320:318,1,112.500004291535,2|0,3:2|0:0,0:0:0:0:
187,331,106054,5,0,0:0:0:0:
187,331,106148,2,0,L|77:358,1,112.500004291535,0|8,0:0|3:1,0:0:0:0:
141,134,106335,5,0,0:0:0:0:
163,233,106429,1,2,0:2:0:0:
187,331,106523,1,0,0:0:0:0:
77,358,106617,5,0,3:0:0:0:
80,344,106710,1,0,3:0:0:0:
84,330,106804,1,0,3:0:0:0:
88,317,106898,1,0,3:0:0:0:
91,303,106992,1,0,3:0:0:0:
95,290,107085,1,0,3:0:0:0:
99,276,107179,1,2,3:2:0:0:
102,262,107273,1,0,3:0:0:0:
23,141,107367,6,0,L|37:195,1,56.25,0|0,1:0|0:0,0:0:0:0:
11,289,107742,5,2,1:2:0:0:
102,262,107835,1,0,0:0:0:0:
194,236,107929,1,2,0:2:0:0:
286,210,108023,1,0,0:0:0:0:
220,329,108117,6,0,B|378:365|378:365|457:308,1,225.000008583069,6|0,3:2|0:0,0:0:0:0:
429,328,108398,1,0,0:0:0:0:
482,183,108492,6,0,L|527:340,1,112.500004291535,8|0,3:1|0:0,0:0:0:0:
435,20,108679,2,0,L|404:128,1,112.500004291535,2|0,0:2|0:0,0:0:0:0:
448,384,108867,6,0,L|382:152,1,225.000008583069,2|0,3:2|0:0,0:0:0:0:
386,167,109148,1,2,0:2:0:0:
318,28,109242,6,0,P|238:35|190:109,1,168.750006437302,8|0,3:1|0:0,0:0:0:0:
192,114,109429,2,0,L|322:149,1,112.500004291535,2|0,0:2|0:0,0:0:0:0:
512,266,109617,5,2,3:2:0:0:
512,266,109804,2,0,P|456:270|391:331,1,134.999995880127
162,244,109992,6,0,B|273:273|273:273|337:254,1,168.750006437302,8|0,3:1|0:0,0:0:0:0:
331,251,110179,2,0,L|289:105,1,112.500004291535,2|0,0:2|0:0,0:0:0:0:
471,374,110367,6,0,L|521:130,1,202.499993820191,0|0,3:0|0:0,0:0:0:0:
512,165,110554,2,0,P|459:126|365:151,1,134.999995880127,2|0,0:2|0:0,0:0:0:0:
179,17,110742,5,8,3:1:0:0:
166,21,110836,1,2,0:3:0:0:
152,25,110930,1,2,0:3:0:0:
138,28,111023,1,2,0:3:0:0:
221,98,111117,6,0,B|67:56|67:56|3:77,1,225.000008583069,2|0,3:2|0:0,0:0:0:0:
8,82,111398,1,0,0:0:0:0:
7,246,111492,6,0,L|38:365,1,112.500004291535,8|0,3:1|0:0,0:0:0:0:
72,155,111679,2,0,L|94:242,1,75,2|0,0:2|0:0,0:0:0:0:
304,115,111867,6,0,L|273:234,1,112.500004291535,2|0,3:2|0:0,0:0:0:0:
239,25,112054,2,0,L|216:112,1,75,0|2,0:0|0:2,0:0:0:0:
192,262,112242,5,8,3:1:0:0:
278,234,112335,1,0,0:0:0:0:
366,259,112429,1,2,0:2:0:0:
423,326,112523,1,0,0:0:0:0:
468,181,112617,6,0,P|478:255|410:332,1,168.750006437302,2|0,3:2|0:0,0:0:0:0:
336,347,112804,1,0,0:0:0:0:
336,347,112898,1,0,0:0:0:0:
160,369,112992,6,0,L|191:261,1,112.500004291535,8|0,3:1|0:0,0:0:0:0:
463,174,113179,2,0,L|341:138,1,112.500004291535
193,82,113367,5,2,3:2:0:0:
176,164,113460,1,2,0:2:0:0:
258,182,113554,1,2,0:2:0:0:
276,99,113648,1,2,0:2:0:0:
197,117,113742,5,8,3:1:0:0:
212,160,113835,1,2,0:2:0:0:
255,146,113929,1,2,0:2:0:0:
245,96,114023,1,2,0:2:0:0:
181,16,114117,6,0,B|209:66|209:66|478:124,1,225.000008583069,6|0,3:2|0:0,0:0:0:0:
372,101,114398,1,0,0:0:0:0:
450,15,114492,2,0,P|476:94|442:149,1,112.500004291535,8|0,3:1|0:0,0:0:0:0:
512,201,114679,2,0,P|444:250|382:234,1,112.500004291535,10|0,0:2|0:0,0:0:0:0:
300,358,114867,6,0,L|320:285,1,75,2|0,3:2|0:0,0:0:0:0:
398,177,115054,2,0,L|418:249,1,75,0|2,0:0|0:2,0:0:0:0:
198,383,115242,6,0,L|218:310,1,75,8|0,3:1|0:0,0:0:0:0:
291,120,115429,2,0,L|311:192,1,75,10|0,0:2|0:0,0:0:0:0:
512,334,115617,5,0,3:0:0:0:
512,334,115804,2,0,B|454:323|456:349|402:341,1,112.500004291535,8|0,0:2|0:0,0:0:0:0:
220,219,115992,6,0,P|131:286|21:226,1,202.499993820191,8|0,3:1|0:0,0:0:0:0:
43,253,116179,2,0,L|11:112,1,112.500004291535,10|0,0:2|0:0,0:0:0:0:
192,27,116367,5,0,3:0:0:0:
192,27,116460,1,0,0:0:0:0:
127,186,116554,2,0,L|95:45,1,112.500004291535,10|0,0:2|0:0,0:0:0:0:
348,53,116742,5,8,3:1:0:0:
353,36,116835,1,2,0:3:0:0:
358,18,116929,1,2,0:3:0:0:
363,0,117023,1,2,0:3:0:0:
443,97,117117,5,2,3:2:0:0:
430,101,117210,1,0,0:0:0:0:
356,145,117304,5,0,0:0:0:0:
343,149,117397,1,0,0:0:0:0:
501,168,117492,5,8,3:1:0:0:
483,173,117585,1,0,0:0:0:0:
362,234,117679,5,0,0:0:0:0:
345,239,117772,1,0,0:0:0:0:
354,356,117867,5,2,3:2:0:0:
295,339,117960,1,0,0:0:0:0:
353,122,118054,5,0,0:0:0:0:
411,137,118147,1,0,0:0:0:0:
236,238,118241,5,8,3:1:0:0:
252,181,118335,1,0,0:0:0:0:
470,238,118429,5,2,0:2:0:0:
454,297,118523,1,0,0:0:0:0:
354,356,118617,6,0,P|280:363|217:325,1,150,2|0,3:1|0:0,0:0:0:0:
15,207,118804,6,0,L|1:153,1,56.2500021457673
201,84,119179,6,0,L|223:-9,1,82.5000025177003,2|0,0:1|0:0,0:0:0:0:
475,78,119554,6,0,L|516:48,1,41.2500012588501,2|0,0:1|0:0,0:0:0:0:
415,178,119742,6,0,L|411:137,1,41.2500012588501,2|0,0:1|0:0,0:0:0:0:
313,15,119929,6,0,L|389:49,1,82.5000025177003,2|0,0:1|0:0,0:0:0:0:
