osu file format v14

[General]
AudioFilename: audio.ogg
AudioLeadIn: 0
PreviewTime: 52696
Countdown: 0
SampleSet: Normal
StackLeniency: 0.7
Mode: 1
LetterboxInBreaks: 0
WidescreenStoryboard: 0

[Editor]
Bookmarks: 1596,14396,27196,39996,52796,78396,103996,116796,129596,148796,151996,155196,167996,180796,193596,206396,231996,251196,257596
DistanceSpacing: 1.7
BeatDivisor: 8
GridSize: 32
TimelineZoom: 2.3

[Metadata]
Title:Assault Gear
TitleUnicode:Assault Gear
Artist:KARUT
ArtistUnicode:KARUT
Creator:KyeX
Version:Overheat
Source:
Tags:electronic instrumental psytrance hard dance hi-tech expert global taiko showdown egts2022 finals dt1 TriplebulletS Recordings
BeatmapID:3812525
BeatmapSetID:1855274

[Difficulty]
HPDrainRate:6
CircleSize:3
OverallDifficulty:6.5
ApproachRate:10
SliderMultiplier:1.4
SliderTickRate:1

[Events]
//Background and Video events
0,0,"maik-beiersdorf-cyberpunk.jpg",0,40
//Break Periods
//Storyboard Layer 0 (Background)
//Storyboard Layer 1 (Fail)
//Storyboard Layer 2 (Pass)
//Storyboard Layer 3 (Foreground)
//Storyboard Layer 4 (Overlay)
//Storyboard Sound Samples

[TimingPoints]
1579,400,4,1,0,80,1,0
1579,-111.111111111111,4,1,0,80,0,0
14376,-111.109276,4,1,0,80,0,0
14476,-110.926476,4,1,0,80,0,0
14676,-110.56178,4,1,0,80,0,0
14876,-110.19828,4,1,0,80,0,0
15076,-109.835976,4,1,0,80,0,0
15176,-109.65527,4,1,0,80,0,0
15276,-109.47486,4,1,0,80,0,0
15476,-109.11493,4,1,0,80,0,0
15676,-108.756195,4,1,0,80,0,0
15876,-108.39863,4,1,0,80,0,0
15976,-108.22029,4,1,0,80,0,0
16076,-108.04224,4,1,0,80,0,0
16276,-107.68703,4,1,0,80,0,0
16476,-107.33298,4,1,0,80,0,0
16676,-106.980095,4,1,0,80,0,0
16776,-106.80409,4,1,0,80,0,0
16876,-106.62837,4,1,0,80,0,0
17076,-106.27781,4,1,0,80,0,0
17576,-105.406425,4,1,0,80,0,0
17676,-105.23301,4,1,0,80,0,0
17876,-104.887024,4,1,0,80,0,0
18076,-104.542175,4,1,0,80,0,0
18276,-104.19848,4,1,0,80,0,0
18376,-104.02705,4,1,0,80,0,0
18476,-103.85588,4,1,0,80,0,0
18676,-103.51444,4,1,0,80,0,0
18876,-103.17411,4,1,0,80,0,0
19076,-102.83489,4,1,0,80,0,0
19176,-102.665726,4,1,0,80,0,0
19276,-102.496796,4,1,0,80,0,0
19476,-102.15982,4,1,0,80,0,0
19676,-101.82394,4,1,0,80,0,0
19876,-101.489174,4,1,0,80,0,0
19976,-101.3222,4,1,0,80,0,0
20076,-101.1555,4,1,0,80,0,0
20776,-99.99593,4,1,0,85,0,0
20876,-99.79792,4,1,0,85,0,0
21076,-99.403114,4,1,0,85,0,0
21276,-99.00986,4,1,0,85,0,0
21476,-98.61814,4,1,0,85,0,0
21576,-98.422874,4,1,0,85,0,0
21676,-98.22798,4,1,0,85,0,0
21876,-97.839386,4,1,0,85,0,0
22076,-97.45231,4,1,0,85,0,0
22276,-97.06674,4,1,0,85,0,0
22376,-96.87454,4,1,0,85,0,0
22476,-96.68274,4,1,0,85,0,0
22676,-96.30023,4,1,0,85,0,0
22876,-95.91926,4,1,0,85,0,0
23076,-95.53977,4,1,0,85,0,0
23176,-95.350586,4,1,0,85,0,0
23276,-95.16179,4,1,0,85,0,0
23476,-94.78531,4,1,0,85,0,0
23676,-94.41032,4,1,0,85,0,0
23876,-94.036804,4,1,0,85,0,0
23976,-93.85061,4,1,0,85,0,0
24076,-93.66478,4,1,0,85,0,0
24276,-93.29423,4,1,0,85,0,0
24476,-92.92513,4,1,0,85,0,0
24676,-92.557495,4,1,0,85,0,0
24776,-92.374214,4,1,0,85,0,0
24876,-92.19131,4,1,0,85,0,0
25076,-91.82659,4,1,0,85,0,0
25376,-91.2822,4,1,0,85,0,0
25476,-91.10145,4,1,0,85,0,0
25576,-90.938034,4,1,0,80,0,0
25676,-92.469086,4,1,0,80,0,0
25776,-94.02592,4,1,0,80,0,0
25876,-95.608955,4,1,0,80,0,0
26076,-98.85543,4,1,0,80,0,0
26276,-102.21215,4,1,0,80,0,0
26376,-103.93302,4,1,0,80,0,0
26476,-105.68285,4,1,0,80,0,0
26576,-107.46215,4,1,0,80,0,0
26676,-109.27141,4,1,0,80,0,0
26776,-111.111115,4,1,0,80,0,0
27176,-90.90909,4,1,0,90,0,0
38876,-90.90909,4,1,0,90,0,0
38976,-90.192825,4,1,0,90,0,0
39076,-89.48221,4,1,0,90,0,0
39176,-88.777176,4,1,0,90,0,0
39276,-88.07771,4,1,0,90,0,0
39376,-87.38375,4,1,0,90,0,0
39476,-86.69526,4,1,0,90,0,0
39576,-86.0122,4,1,0,90,0,0
39676,-85.33451,4,1,0,90,0,0
39776,-84.66216,4,1,0,90,0,0
39876,-83.99513,4,1,0,90,0,0
39976,-83.33333,4,1,0,95,0,0
40776,-83.33333,4,1,0,95,0,0
40876,-82.76828,4,1,0,95,0,0
40976,-82.20706,4,1,0,95,0,0
41076,-81.64966,4,1,0,95,0,0
41126,-81.37237,4,1,0,95,0,0
41176,-81.09602,4,1,0,95,0,0
41276,-80.54615,4,1,0,95,0,0
41376,-79.99999,4,1,0,95,0,0
41576,-83.3333333333333,4,1,0,95,0,0
42376,-83.33333,4,1,0,95,0,0
42476,-82.76828,4,1,0,95,0,0
42576,-82.20706,4,1,0,95,0,0
42676,-81.64966,4,1,0,95,0,0
42726,-81.37237,4,1,0,95,0,0
42776,-81.09602,4,1,0,95,0,0
42876,-80.54615,4,1,0,95,0,0
42976,-79.99999,4,1,0,95,0,0
43176,-83.33333,4,1,0,95,0,0
43976,-83.33333,4,1,0,95,0,0
44076,-82.76828,4,1,0,95,0,0
44176,-82.20706,4,1,0,95,0,0
44276,-81.64966,4,1,0,95,0,0
44326,-81.37237,4,1,0,95,0,0
44376,-81.09602,4,1,0,95,0,0
44476,-80.54615,4,1,0,95,0,0
44576,-79.99999,4,1,0,95,0,0
44776,-83.33333,4,1,0,95,0,0
45576,-83.33333,4,1,0,95,0,0
45676,-82.76828,4,1,0,95,0,0
45776,-82.20706,4,1,0,95,0,0
45876,-81.64966,4,1,0,95,0,0
45926,-81.37237,4,1,0,95,0,0
45976,-81.09602,4,1,0,95,0,0
46076,-80.54615,4,1,0,95,0,0
46176,-79.99999,4,1,0,95,0,0
46376,-83.33333,4,1,0,100,0,0
46476,-83.29159,4,1,0,100,0,0
46576,-83.21536,4,1,0,100,0,0
46676,-83.116875,4,1,0,100,0,0
46776,-83.00054,4,1,0,100,0,0
46876,-82.86899,4,1,0,100,0,0
46976,-82.72401,4,1,0,100,0,0
47076,-82.566956,4,1,0,100,0,0
47176,-82.3989,4,1,0,100,0,0
47276,-82.22074,4,1,0,100,0,0
47376,-82.033226,4,1,0,100,0,0
47476,-81.837006,4,1,0,100,0,0
47576,-81.632645,4,1,0,100,0,0
47676,-81.42067,4,1,0,100,0,0
47776,-81.20154,4,1,0,100,0,0
47876,-80.975685,4,1,0,100,0,0
47976,-80.74348,4,1,0,100,0,0
48076,-80.505295,4,1,0,100,0,0
48176,-80.26146,4,1,0,100,0,0
48276,-80.01228,4,1,0,100,0,0
48376,-79.75808,4,1,0,100,0,0
48476,-79.4991,4,1,0,100,0,0
48576,-79.23562,4,1,0,100,0,0
48676,-78.96788,4,1,0,100,0,0
48776,-78.69612,4,1,0,100,0,0
48876,-78.420555,4,1,0,100,0,0
48976,-78.1414,4,1,0,100,0,0
49076,-77.85888,4,1,0,100,0,0
49176,-77.57315,4,1,0,100,0,0
49276,-77.28444,4,1,0,100,0,0
49376,-76.99288,4,1,0,100,0,0
49476,-76.698685,4,1,0,100,0,0
49576,-76.40199,4,1,0,100,0,0
49676,-76.102974,4,1,0,100,0,0
49776,-75.80177,4,1,0,100,0,0
49876,-75.498535,4,1,0,100,0,0
49976,-75.193405,4,1,0,100,0,0
50076,-74.88651,4,1,0,100,0,0
50176,-74.57799,4,1,0,100,0,0
50276,-74.26796,4,1,0,100,0,0
50376,-73.95655,4,1,0,100,0,0
50476,-73.643875,4,1,0,100,0,0
50576,-73.33004,4,1,0,100,0,0
50676,-73.01516,4,1,0,100,0,0
50776,-72.69934,4,1,0,100,0,0
50826,-72.5411,4,1,0,100,0,0
50876,-72.38267,4,1,0,100,0,0
50976,-72.06526,4,1,0,100,0,0
51076,-71.74719,4,1,0,100,0,0
51176,-71.428566,4,1,0,100,0,0
51276,-62.4999958437499,4,1,0,90,0,0
51976,-71.428566,4,1,0,90,0,0
52276,-77.15167,4,1,0,90,0,0
52476,-81.21961,4,1,0,90,0,0
52576,-83.33333,4,1,0,90,0,0
52779,-76.9230769230769,4,1,0,100,0,1
52976,-66.666664,4,1,0,100,0,1
53042,-66.80342,4,1,0,100,0,1
53109,-67.05937,4,1,0,100,0,1
53176,-67.394455,4,1,0,100,0,1
53276,-68.01604,4,1,0,100,0,1
53376,-68.7671,4,1,0,100,0,1
53476,-69.63934,4,1,0,100,0,1
53576,-70.62993,4,1,0,100,0,1
53676,-71.7394,4,1,0,100,0,1
53776,-72.97074,4,1,0,100,0,1
53976,-75.82101,4,1,0,100,0,1
54076,-77.45563,4,1,0,100,0,1
54176,-79.24357,4,1,0,100,0,1
54276,-81.1977,4,1,0,100,0,1
54376,-83.33333,4,1,0,100,0,1
54776,-83.33333,4,1,0,100,0,1
54876,-83.1666,4,1,0,100,0,1
54976,-82.86349,4,1,0,100,0,1
55076,-82.47422,4,1,0,100,0,1
55176,-82.01797,4,1,0,100,0,1
55276,-81.506516,4,1,0,100,0,1
55326,-81.23283,4,1,0,100,0,1
55376,-80.948364,4,1,0,100,0,1
55476,-80.35014,4,1,0,100,0,1
55576,-79.717285,4,1,0,100,0,1
55676,-79.0544,4,1,0,100,0,1
55776,-78.365456,4,1,0,100,0,1
55976,-76.92308,4,1,0,100,0,1
56176,-66.666664,4,1,0,100,0,1
56242,-66.80342,4,1,0,100,0,1
56309,-67.05937,4,1,0,100,0,1
56376,-67.394455,4,1,0,100,0,1
56476,-68.01604,4,1,0,100,0,1
56576,-68.7671,4,1,0,100,0,1
56676,-69.63934,4,1,0,100,0,1
56776,-70.62993,4,1,0,100,0,1
56876,-71.7394,4,1,0,100,0,1
56976,-72.97074,4,1,0,100,0,1
57176,-75.82101,4,1,0,100,0,1
57276,-77.45563,4,1,0,100,0,1
57376,-79.24357,4,1,0,100,0,1
57476,-81.1977,4,1,0,100,0,1
57576,-83.33333,4,1,0,100,0,1
57776,-84.234535,4,1,0,100,0,1
57876,-84.68879,4,1,0,100,0,1
57976,-85.14549,4,1,0,100,0,1
58076,-85.60465,4,1,0,100,0,1
58176,-86.06629,4,1,0,100,0,1
58376,-86.99705,4,1,0,100,0,1
58576,-87.93788,4,1,0,100,0,1
58776,-85.106384,4,1,0,100,0,1
58876,-82.98235,4,1,0,100,0,1
58976,-80.91134,4,1,0,100,0,1
59042,-79.572876,4,1,0,100,0,1
59109,-78.23676,4,1,0,100,0,1
59176,-76.92309,4,1,0,100,0,1
59376,-66.666664,4,1,0,100,0,1
59442,-66.80342,4,1,0,100,0,1
59509,-67.05937,4,1,0,100,0,1
59576,-67.394455,4,1,0,100,0,1
59676,-68.01604,4,1,0,100,0,1
59776,-68.7671,4,1,0,100,0,1
59876,-69.63934,4,1,0,100,0,1
59976,-70.62994,4,1,0,100,0,1
60076,-71.73941,4,1,0,100,0,1
60176,-72.97075,4,1,0,100,0,1
60376,-75.82103,4,1,0,100,0,1
60476,-77.45565,4,1,0,100,0,1
60576,-79.24358,4,1,0,100,0,1
60676,-81.19773,4,1,0,100,0,1
60776,-83.33335,4,1,0,100,0,1
61176,-83.33335,4,1,0,100,0,1
61276,-82.89644,4,1,0,100,0,1
61376,-82.461815,4,1,0,100,0,1
61476,-82.02947,4,1,0,100,0,1
61576,-81.5994,4,1,0,100,0,1
61676,-81.17158,4,1,0,100,0,1
61776,-80.745995,4,1,0,100,0,1
61876,-80.32266,4,1,0,100,0,1
61976,-79.901535,4,1,0,100,0,1
62176,-79.065895,4,1,0,100,0,1
62376,-78.23899,4,1,0,100,0,1
62576,-77.42074,4,1,0,100,0,1
62642,-77.1526,4,1,0,100,0,1
62709,-76.88135,4,1,0,100,0,1
62776,-76.61104,4,1,0,100,0,1
62976,-75.809814,4,1,0,100,0,1
63176,-75.01697,4,1,0,100,0,1
63376,-74.232414,4,1,0,100,0,1
63476,-73.843216,4,1,0,100,0,1
63576,-73.45606,4,1,0,100,0,1
63776,-72.68783,4,1,0,100,0,1
63976,-71.927635,4,1,0,100,0,1
64176,-71.175385,4,1,0,100,0,1
64276,-70.802216,4,1,0,100,0,1
64376,-70.43101,4,1,0,100,0,1
64476,-70.061745,4,1,0,100,0,1
64576,-69.69441,4,1,0,100,0,1
64779,-68.965515,4,1,0,100,0,0
65579,-71.4285714285714,4,1,0,100,0,1
65764,-66.666664,4,1,0,100,0,1
65830,-66.80342,4,1,0,100,0,1
65897,-67.05937,4,1,0,100,0,1
65964,-67.394455,4,1,0,100,0,1
66064,-68.01604,4,1,0,100,0,1
66164,-68.7671,4,1,0,100,0,1
66264,-69.63934,4,1,0,100,0,1
66364,-70.62993,4,1,0,100,0,1
66464,-71.7394,4,1,0,100,0,1
66564,-72.97074,4,1,0,100,0,1
66764,-75.82101,4,1,0,100,0,1
66864,-77.45563,4,1,0,100,0,1
66964,-79.24357,4,1,0,100,0,1
67064,-81.1977,4,1,0,100,0,1
67164,-83.33333,4,1,0,100,0,1
67564,-83.33333,4,1,0,100,0,1
67664,-83.1666,4,1,0,100,0,1
67764,-82.86349,4,1,0,100,0,1
67864,-82.47422,4,1,0,100,0,1
67964,-82.01797,4,1,0,100,0,1
68064,-81.506516,4,1,0,100,0,1
68114,-81.23283,4,1,0,100,0,1
68164,-80.948364,4,1,0,100,0,1
68264,-80.35014,4,1,0,100,0,1
68364,-79.717285,4,1,0,100,0,1
68464,-79.0544,4,1,0,100,0,1
68564,-78.365456,4,1,0,100,0,1
68764,-76.92308,4,1,0,100,0,1
68964,-66.666664,4,1,0,100,0,1
69030,-66.80342,4,1,0,100,0,1
69097,-67.05937,4,1,0,100,0,1
69164,-67.394455,4,1,0,100,0,1
69264,-68.01604,4,1,0,100,0,1
69364,-68.7671,4,1,0,100,0,1
69464,-69.63934,4,1,0,100,0,1
69564,-70.62993,4,1,0,100,0,1
69664,-71.7394,4,1,0,100,0,1
69764,-72.97074,4,1,0,100,0,1
69964,-75.82101,4,1,0,100,0,1
70064,-77.45563,4,1,0,100,0,1
70164,-79.24357,4,1,0,100,0,1
70264,-81.1977,4,1,0,100,0,1
70364,-83.33333,4,1,0,100,0,1
70564,-84.234535,4,1,0,100,0,1
70664,-84.68879,4,1,0,100,0,1
70764,-85.14549,4,1,0,100,0,1
70864,-85.60465,4,1,0,100,0,1
70964,-86.06629,4,1,0,100,0,1
71164,-86.99705,4,1,0,100,0,1
71364,-87.93788,4,1,0,100,0,1
71564,-85.106384,4,1,0,100,0,1
71664,-82.98235,4,1,0,100,0,1
71764,-80.91134,4,1,0,100,0,1
71830,-79.572876,4,1,0,100,0,1
71897,-78.23676,4,1,0,100,0,1
71964,-76.92309,4,1,0,100,0,1
72164,-66.666664,4,1,0,100,0,1
72230,-66.80342,4,1,0,100,0,1
72297,-67.05937,4,1,0,100,0,1
72364,-67.394455,4,1,0,100,0,1
72464,-68.01604,4,1,0,100,0,1
72564,-68.7671,4,1,0,100,0,1
72664,-69.63934,4,1,0,100,0,1
72764,-70.62994,4,1,0,100,0,1
72864,-71.73941,4,1,0,100,0,1
72964,-72.97075,4,1,0,100,0,1
73164,-75.82103,4,1,0,100,0,1
73264,-77.45565,4,1,0,100,0,1
73364,-79.24358,4,1,0,100,0,1
73464,-81.19773,4,1,0,100,0,1
73564,-83.33335,4,1,0,100,0,1
73964,-83.27831,4,1,0,100,0,1
74064,-82.8211,4,1,0,100,0,1
74164,-82.36639,4,1,0,100,0,1
74264,-81.91418,4,1,0,100,0,1
74364,-81.464455,4,1,0,100,0,1
74564,-80.57237,4,1,0,100,0,1
74664,-80.13001,4,1,0,100,0,1
74764,-79.69008,4,1,0,100,0,1
74864,-79.252556,4,1,0,100,0,1
74964,-78.817444,4,1,0,100,0,1
75164,-77.95436,4,1,0,100,0,1
75364,-77.10074,4,1,0,100,0,1
75430,-76.82109,4,1,0,100,0,1
75497,-76.53825,4,1,0,100,0,1
75564,-76.25645,4,1,0,100,0,1
75764,-75.42142,4,1,0,100,0,1
75830,-75.14786,4,1,0,100,0,1
75897,-74.87118,4,1,0,100,0,1
75964,-74.59551,4,1,0,100,0,1
76164,-73.77867,4,1,0,100,0,1
76230,-73.51107,4,1,0,100,0,1
76297,-73.240425,4,1,0,100,0,1
76364,-72.970764,4,1,0,100,0,1
76564,-72.1717,4,1,0,100,0,1
76630,-71.90994,4,1,0,100,0,1
76697,-71.64518,4,1,0,100,0,1
76779,-71.4285714285714,4,1,0,100,0,0
76876,-62.5,4,1,0,90,0,0
78379,-71.4285714285714,4,1,0,100,0,1
78576,-66.666664,4,1,0,100,0,1
78642,-67.301216,4,1,0,100,0,1
78709,-67.957855,4,1,0,100,0,1
78776,-68.62745,4,1,0,100,0,1
78976,-70.70707,4,1,0,100,0,1
79076,-71.79486,4,1,0,100,0,1
79276,-74.074066,4,1,0,100,0,1
79376,-75.26881,4,1,0,100,0,1
79476,-76.50272,4,1,0,100,0,1
79576,-77.77777,4,1,0,100,0,1
79676,-79.09604,4,1,0,100,0,1
79776,-80.45976,4,1,0,100,0,1
79976,-83.33333,4,1,0,100,0,1
80076,-82.77933,4,1,0,100,0,1
80126,-82.50371,4,1,0,100,0,1
80176,-82.22901,4,1,0,100,0,1
80276,-81.68235,4,1,0,100,0,1
80376,-81.13932,4,1,0,100,0,1
80576,-80.06409,4,1,0,100,0,1
80676,-79.53181,4,1,0,100,0,1
80876,-78.47787,4,1,0,100,0,1
80976,-77.95615,4,1,0,100,0,1
81176,-76.92308,4,1,0,100,0,1
81276,-77.68104,4,1,0,100,0,1
81376,-78.44646,4,1,0,100,0,1
81476,-79.21942,4,1,0,100,0,1
81576,-74.07407,4,1,0,100,0,1
81642,-75.02071,4,1,0,100,0,1
81709,-75.99406,4,1,0,100,0,1
81776,-76.98004,4,1,0,100,0,1
81842,-77.963806,4,1,0,100,0,1
81909,-78.97534,4,1,0,100,0,1
81976,-80,4,1,0,100,0,1
82176,-79.686844,4,1,0,100,0,1
82276,-79.53074,4,1,0,100,0,1
82476,-79.21942,4,1,0,100,0,1
82576,-79.064224,4,1,0,100,0,1
82676,-78.909325,4,1,0,100,0,1
82776,-78.75474,4,1,0,100,0,1
82876,-78.60045,4,1,0,100,0,1
82976,-78.44646,4,1,0,100,0,1
83176,-78.13939,4,1,0,100,0,1
83376,-77.83352,4,1,0,100,0,1
83476,-77.68104,4,1,0,100,0,1
83576,-77.52885,4,1,0,100,0,1
83776,-77.22537,4,1,0,100,0,1
83876,-77.07408,4,1,0,100,0,1
83976,-76.92308,4,1,0,100,0,1
84376,-66.666664,4,1,0,100,0,1
84426,-67.869896,4,1,0,100,0,1
84476,-69.09485,4,1,0,100,0,1
84576,-71.61149,4,1,0,100,0,1
84676,-74.21978,4,1,0,100,0,1
84776,-76.92307,4,1,0,100,0,1
84976,-66.666664,4,1,0,100,0,1
85042,-67.301216,4,1,0,100,0,1
85109,-67.95786,4,1,0,100,0,1
85176,-68.62745,4,1,0,100,0,1
85376,-70.70707,4,1,0,100,0,1
85476,-71.79486,4,1,0,100,0,1
85676,-74.07407,4,1,0,100,0,1
85776,-75.268814,4,1,0,100,0,1
85876,-76.50272,4,1,0,100,0,1
85976,-77.77778,4,1,0,100,0,1
86076,-79.09605,4,1,0,100,0,1
86176,-80.45977,4,1,0,100,0,1
86376,-83.33333,4,1,0,100,0,1
86476,-82.77933,4,1,0,100,0,1
86526,-82.50371,4,1,0,100,0,1
86576,-82.229004,4,1,0,100,0,1
86676,-81.68234,4,1,0,100,0,1
86776,-81.13932,4,1,0,100,0,1
86976,-80.06407,4,1,0,100,0,1
87076,-79.5318,4,1,0,100,0,1
87276,-78.47786,4,1,0,100,0,1
87376,-77.95613,4,1,0,100,0,1
87576,-76.923065,4,1,0,100,0,1
87676,-77.68102,4,1,0,100,0,1
87776,-78.44645,4,1,0,100,0,1
87876,-79.21941,4,1,0,100,0,1
87976,-74.07407,4,1,0,100,0,1
88042,-75.02071,4,1,0,100,0,1
88109,-75.99406,4,1,0,100,0,1
88176,-76.98004,4,1,0,100,0,1
88242,-77.963806,4,1,0,100,0,1
88309,-78.97534,4,1,0,100,0,1
88376,-80,4,1,0,100,0,1
88576,-79.47876,4,1,0,100,0,1
88676,-79.21942,4,1,0,100,0,1
88876,-78.70327,4,1,0,100,0,1
88976,-78.44646,4,1,0,100,0,1
89076,-78.190475,4,1,0,100,0,1
89176,-77.93533,4,1,0,100,0,1
89276,-77.68104,4,1,0,100,0,1
89376,-77.42755,4,1,0,100,0,1
89579,-76.92308,4,1,0,100,0,0
89776,-73.84144,4,1,0,100,0,0
89976,-70.88325,4,1,0,100,0,0
90076,-69.44888,4,1,0,100,0,0
90176,-68.04356,4,1,0,100,0,0
90276,-66.666664,4,1,0,100,0,0
90376,-58.8235273356402,4,1,0,90,0,0
91179,-76.9230733727812,4,1,0,100,0,1
91376,-66.666664,4,1,0,100,0,1
91442,-67.301216,4,1,0,100,0,1
91509,-67.95786,4,1,0,100,0,1
91576,-68.62745,4,1,0,100,0,1
91676,-69.65174,4,1,0,100,0,1
91776,-70.70707,4,1,0,100,0,1
91876,-71.79486,4,1,0,100,0,1
92076,-74.07407,4,1,0,100,0,1
92176,-75.268814,4,1,0,100,0,1
92276,-76.50272,4,1,0,100,0,1
92376,-77.77778,4,1,0,100,0,1
92476,-79.09605,4,1,0,100,0,1
92576,-80.45977,4,1,0,100,0,1
92776,-83.33333,4,1,0,100,0,1
92876,-82.77933,4,1,0,100,0,1
92926,-82.50371,4,1,0,100,0,1
92976,-82.229004,4,1,0,100,0,1
93076,-81.68234,4,1,0,100,0,1
93176,-81.13932,4,1,0,100,0,1
93376,-80.06407,4,1,0,100,0,1
93476,-79.5318,4,1,0,100,0,1
93576,-79.00307,4,1,0,100,0,1
93676,-78.47786,4,1,0,100,0,1
93776,-77.95613,4,1,0,100,0,1
93976,-76.923065,4,1,0,100,0,1
94076,-77.68102,4,1,0,100,0,1
94176,-78.44645,4,1,0,100,0,1
94276,-79.21941,4,1,0,100,0,1
94376,-74.07407,4,1,0,100,0,1
94442,-75.02071,4,1,0,100,0,1
94509,-75.99406,4,1,0,100,0,1
94576,-76.98004,4,1,0,100,0,1
94642,-77.963806,4,1,0,100,0,1
94709,-78.97534,4,1,0,100,0,1
94776,-80,4,1,0,100,0,1
94976,-79.38667,4,1,0,100,0,1
95076,-79.08177,4,1,0,100,0,1
95276,-78.47549,4,1,0,100,0,1
95376,-78.174095,4,1,0,100,0,1
95476,-77.873856,4,1,0,100,0,1
95576,-77.574776,4,1,0,100,0,1
95676,-77.276825,4,1,0,100,0,1
95776,-76.98004,4,1,0,100,0,1
95976,-76.38987,4,1,0,100,0,1
96176,-75.804214,4,1,0,100,0,1
96276,-75.51308,4,1,0,100,0,1
96376,-75.22305,4,1,0,100,0,1
96576,-74.646355,4,1,0,100,0,1
96676,-74.359665,4,1,0,100,0,1
96776,-74.074066,4,1,0,100,0,1
97176,-66.666664,4,1,0,100,0,1
97226,-67.869896,4,1,0,100,0,1
97276,-69.09486,4,1,0,100,0,1
97376,-71.61149,4,1,0,100,0,1
97476,-74.21979,4,1,0,100,0,1
97576,-76.92308,4,1,0,100,0,1
97776,-66.666664,4,1,0,100,0,1
97842,-67.301216,4,1,0,100,0,1
97909,-67.95786,4,1,0,100,0,1
97976,-68.62745,4,1,0,100,0,1
98076,-69.65174,4,1,0,100,0,1
98176,-70.70707,4,1,0,100,0,1
98276,-71.79486,4,1,0,100,0,1
98476,-74.07407,4,1,0,100,0,1
98526,-74.666664,4,1,0,100,0,1
98576,-75.268814,4,1,0,100,0,1
98676,-76.50272,4,1,0,100,0,1
98776,-77.77778,4,1,0,100,0,1
98876,-79.09605,4,1,0,100,0,1
98976,-80.45977,4,1,0,100,0,1
99176,-83.33333,4,1,0,100,0,1
99276,-82.77933,4,1,0,100,0,1
99326,-82.50371,4,1,0,100,0,1
99376,-82.229004,4,1,0,100,0,1
99476,-81.68234,4,1,0,100,0,1
99576,-81.13932,4,1,0,100,0,1
99776,-80.06407,4,1,0,100,0,1
99876,-79.5318,4,1,0,100,0,1
99976,-79.00307,4,1,0,100,0,1
100076,-78.47786,4,1,0,100,0,1
100176,-77.95613,4,1,0,100,0,1
100376,-76.923065,4,1,0,100,0,1
100476,-77.68102,4,1,0,100,0,1
100576,-78.44645,4,1,0,100,0,1
100676,-79.21941,4,1,0,100,0,1
100776,-74.07407,4,1,0,100,0,1
100842,-75.02071,4,1,0,100,0,1
100909,-75.99406,4,1,0,100,0,1
100976,-76.98004,4,1,0,100,0,1
101042,-77.963806,4,1,0,100,0,1
101109,-78.97534,4,1,0,100,0,1
101176,-80,4,1,0,100,0,1
101376,-79.47876,4,1,0,100,0,1
101576,-78.960915,4,1,0,100,0,1
101776,-78.44646,4,1,0,100,0,1
101876,-78.190475,4,1,0,100,0,1
101976,-77.93533,4,1,0,100,0,1
102176,-77.42755,4,1,0,100,0,1
102379,-76.92308,4,1,0,100,0,0
102576,-73.84144,4,1,0,100,0,0
102776,-70.88325,4,1,0,100,0,0
102876,-69.44889,4,1,0,100,0,0
102976,-68.043564,4,1,0,100,0,0
103076,-66.66667,4,1,0,100,0,0
103176,-58.8235320069205,4,1,0,90,0,0
103976,-125,4,1,0,70,0,0
104375,-124.47149,4,1,0,70,0,0
104775,-123.94916,4,1,0,71,0,0
105175,-123.42898,4,1,0,71,0,0
105575,-122.911,4,1,0,71,0,0
105975,-122.39521,4,1,0,72,0,0
106375,-121.88155,4,1,0,72,0,0
106775,-121.37007,4,1,0,73,0,0
107175,-120.86073,4,1,0,73,0,0
107575,-120.35352,4,1,0,73,0,0
107975,-119.848465,4,1,0,74,0,0
108375,-119.345505,4,1,0,74,0,0
108775,-118.844666,4,1,0,74,0,0
109175,-118.345924,4,1,0,75,0,0
109575,-117.849266,4,1,0,75,0,0
109975,-117.354706,4,1,0,75,0,0
110375,-116.86222,4,1,0,76,0,0
110775,-116.37179,4,1,0,76,0,0
110975,-116.12735,4,1,0,76,0,0
111175,-115.88344,4,1,0,76,0,0
111575,-115.39712,4,1,0,77,0,0
111975,-114.912834,4,1,0,77,0,0
112175,-114.67147,4,1,0,77,0,0
112375,-114.4306,4,1,0,78,0,0
112775,-113.95039,4,1,0,78,0,0
113175,-113.47218,4,1,0,78,0,0
113375,-113.23384,4,1,0,78,0,0
113575,-112.99599,4,1,0,79,0,0
113975,-112.52179,4,1,0,79,0,0
114375,-112.04959,4,1,0,79,0,0
114575,-111.81423,4,1,0,79,0,0
114775,-111.57936,4,1,0,80,0,0
115175,-111.111115,4,1,0,80,0,0
115975,-117.647058823529,4,1,0,80,0,0
116776,-125,4,1,0,90,0,0
116976,-124.990036,4,1,0,90,0,0
117076,-124.977585,4,1,0,90,0,0
117276,-124.93775,4,1,0,90,0,0
117376,-124.91038,4,1,0,90,0,0
117576,-124.84077,4,1,0,90,0,0
117676,-124.79853,4,1,0,90,0,0
117776,-124.75137,4,1,0,90,0,0
117876,-124.69928,4,1,0,90,0,0
117976,-124.64229,4,1,0,90,0,0
118176,-124.51362,4,1,0,90,0,0
118376,-124.365486,4,1,0,90,0,0
118576,-124.19802,4,1,0,90,0,0
118676,-124.10709,4,1,0,90,0,0
118876,-123.910934,4,1,0,90,0,0
118976,-123.80576,4,1,0,90,0,0
119176,-123.58134,4,1,0,90,0,0
119276,-123.46214,4,1,0,90,0,0
119376,-123.33832,4,1,0,90,0,0
119476,-123.2099,4,1,0,90,0,0
119576,-123.07692,4,1,0,90,0,0
119776,-122.7974,4,1,0,90,0,0
119976,-122.49999,4,1,0,90,0,0
120176,-122.18499,4,1,0,90,0,0
120276,-122.02097,4,1,0,90,0,0
120476,-121.680084,4,1,0,90,0,0
120576,-121.503296,4,1,0,90,0,0
120776,-121.13721,4,1,0,90,0,0
120876,-120.94799,4,1,0,90,0,0
120976,-120.754715,4,1,0,90,0,0
121076,-120.55743,4,1,0,90,0,0
121176,-120.356155,4,1,0,90,0,0
121376,-119.941864,4,1,0,90,0,0
121576,-119.51219,4,1,0,90,0,0
121776,-119.067505,4,1,0,90,0,0
121876,-118.83965,4,1,0,90,0,0
122076,-118.373116,4,1,0,90,0,0
122176,-118.13456,4,1,0,90,0,0
122376,-117.64706,4,1,0,90,0,0
122476,-117.398224,4,1,0,90,0,0
122576,-117.14605,4,1,0,90,0,0
122676,-116.89061,4,1,0,90,0,0
122776,-116.63195,4,1,0,90,0,0
122976,-116.10515,4,1,0,90,0,0
123076,-115.837105,4,1,0,90,0,0
123176,-115.56604,4,1,0,90,0,0
123376,-114.8715,4,1,0,90,0,0
123476,-114.5258,4,1,0,90,0,0
123676,-113.83752,4,1,0,91,0,0
123776,-113.49492,4,1,0,91,0,0
123976,-112.81285,4,1,0,91,0,0
124076,-112.47333,4,1,0,91,0,0
124176,-112.13486,4,1,0,91,0,0
124276,-111.79737,4,1,0,91,0,0
124376,-111.46094,4,1,0,91,0,0
124576,-110.79106,4,1,0,91,0,0
124676,-110.45766,4,1,0,92,0,0
124776,-110.12523,4,1,0,92,0,0
124976,-109.46339,4,1,0,92,0,0
125076,-109.133965,4,1,0,92,0,0
125276,-108.478096,4,1,0,92,0,0
125376,-108.15163,4,1,0,92,0,0
125576,-107.50165,4,1,0,93,0,0
125676,-107.17812,4,1,0,93,0,0
125776,-106.855576,4,1,0,93,0,0
125876,-106.534004,4,1,0,93,0,0
125976,-106.213394,4,1,0,93,0,0
126176,-105.57506,4,1,0,93,0,0
126276,-105.25734,4,1,0,93,0,0
126376,-104.94057,4,1,0,93,0,0
126576,-104.3099,4,1,0,94,0,0
126676,-103.99598,4,1,0,94,0,0
126876,-103.37098,4,1,0,94,0,0
126976,-103.05988,4,1,0,94,0,0
127176,-102.440506,4,1,0,94,0,0
127276,-102.13222,4,1,0,94,0,0
127376,-101.82485,4,1,0,94,0,0
127476,-101.51842,4,1,0,94,0,0
127576,-101.2129,4,1,0,95,0,0
127776,-100.60463,4,1,0,95,0,0
127876,-100.301865,4,1,0,95,0,0
127976,-100,4,1,0,95,0,0
128076,-90.9090909090909,4,1,0,90,0,0
129576,-83.3333333333333,4,1,0,100,0,0
139176,-83.33333,4,1,0,100,0,0
139276,-82.91748,4,1,0,100,0,0
139376,-82.503716,4,1,0,100,0,0
139476,-82.092,4,1,0,100,0,0
139576,-81.68236,4,1,0,100,0,0
139676,-81.27475,4,1,0,100,0,0
139776,-80.86917,4,1,0,100,0,0
139876,-80.465614,4,1,0,100,0,0
139976,-80.06408,4,1,0,100,0,0
140076,-79.66455,4,1,0,100,0,0
140176,-79.267006,4,1,0,100,0,0
140276,-78.87145,4,1,0,100,0,0
140376,-78.477875,4,1,0,100,0,0
140576,-77.696594,4,1,0,100,0,0
140776,-76.92308,4,1,0,100,0,0
140876,-77.730446,4,1,0,100,0,0
141076,-79.37064,4,1,0,100,0,0
141276,-81.04547,4,1,0,100,0,0
141576,-83.6242,4,1,0,100,0,0
141676,-84.501884,4,1,0,100,0,0
141776,-85.38879,4,1,0,100,0,0
141876,-86.284996,4,1,0,100,0,0
141976,-87.1906,4,1,0,100,0,0
142025,-87.63781,4,1,0,100,0,0
142075,-88.09651,4,1,0,100,0,0
142176,-89.03043,4,1,0,100,0,0
142376,-83.3333376111113,4,1,0,100,0,0
148776,-83.33333,4,1,0,100,0,0
148976,-82.91748,4,1,0,100,0,0
149076,-82.710335,4,1,0,100,0,0
149276,-82.29761,4,1,0,100,0,0
149376,-82.092,4,1,0,100,0,0
149576,-81.68236,4,1,0,100,0,0
149676,-81.478294,4,1,0,100,0,0
149776,-81.27475,4,1,0,100,0,0
149876,-81.07171,4,1,0,100,0,0
150076,-80.667145,4,1,0,100,0,0
150176,-80.465614,4,1,0,100,0,0
150376,-80.06408,4,1,0,100,0,0
150576,-79.66455,4,1,0,100,0,0
150676,-79.46552,4,1,0,100,0,0
150876,-79.06898,4,1,0,100,0,0
150976,-78.87145,4,1,0,100,0,0
151176,-78.477875,4,1,0,100,0,0
151276,-78.281815,4,1,0,100,0,0
151376,-78.08626,4,1,0,100,0,0
151476,-77.89117,4,1,0,100,0,0
151676,-77.50248,4,1,0,100,0,0
151776,-77.30887,4,1,0,100,0,0
151976,-76.92308,4,1,0,100,0,0
152076,-76.56762,4,1,0,100,0,0
152176,-76.2138,4,1,0,100,0,0
152276,-75.86161,4,1,0,100,0,0
152376,-75.511055,4,1,0,100,0,0
152476,-75.1621,4,1,0,100,0,0
152576,-74.81479,4,1,0,100,0,0
152676,-74.469055,4,1,0,100,0,0
152776,-74.12494,4,1,0,100,0,0
152876,-73.78241,4,1,0,100,0,0
152976,-73.44145,4,1,0,100,0,0
153076,-73.10207,4,1,0,100,0,0
153176,-72.76427,4,1,0,100,0,0
153226,-72.59595,4,1,0,100,0,0
153276,-72.42802,4,1,0,100,0,0
153376,-72.09333,4,1,0,100,0,0
153476,-71.76018,4,1,0,100,0,0
153576,-71.42857,4,1,0,80,0,0
153776,-73.287476,4,1,0,80,0,0
153876,-74.23499,4,1,0,80,0,0
154076,-76.16693,4,1,0,80,0,0
154276,-78.14915,4,1,0,80,0,0
154376,-79.159515,4,1,0,80,0,0
154476,-80.18295,4,1,0,80,0,0
154576,-81.21961,4,1,0,80,0,0
154676,-82.269684,4,1,0,80,0,0
154776,-83.3333300000001,4,1,0,80,0,0
155976,-125,4,1,0,80,0,0
167176,-124.99999,4,1,0,60,0,0
167376,-122.23074,4,1,0,60,0,0
167576,-119.52286,4,1,0,60,0,0
167776,-116.874954,4,1,0,60,0,0
167976,-111.111111111111,4,1,0,90,0,0
180776,-111.111115,4,1,0,90,0,0
181176,-112.384476,4,1,0,80,0,0
181376,-113.02662,4,1,0,80,0,0
181576,-113.67243,4,1,0,80,0,0
181976,-114.975136,4,1,0,80,0,0
182376,-116.29279,4,1,0,80,0,0
182576,-116.95727,4,1,0,80,0,0
182776,-117.62554,4,1,0,80,0,0
183176,-118.97355,4,1,0,80,0,0
183576,-120.337036,4,1,0,80,0,0
183776,-121.02461,4,1,0,80,0,0
183976,-121.71612,4,1,0,80,0,0
184376,-123.111015,4,1,0,80,0,0
184776,-124.521904,4,1,0,80,0,0
184976,-125.233406,4,1,0,80,0,0
185176,-125.94896,4,1,0,80,0,0
185576,-127.392365,4,1,0,80,0,0
185976,-128.85231,4,1,0,80,0,0
186176,-129.58856,4,1,0,80,0,0
186376,-130.329,4,1,0,80,0,0
186776,-131.8226,4,1,0,80,0,0
187176,-125,4,1,0,80,0,0
187376,-124.03101,4,1,0,80,0,0
187476,-123.552124,4,1,0,80,0,0
187676,-122.60536,4,1,0,80,0,0
187776,-122.1374,4,1,0,80,0,0
187976,-121.21212,4,1,0,80,0,0
188176,-120.30075,4,1,0,80,0,0
188376,-119.40299,4,1,0,80,0,0
188776,-117.64706,4,1,0,80,0,0
188976,-116.78832,4,1,0,80,0,0
189076,-116.36364,4,1,0,80,0,0
189176,-115.942024,4,1,0,80,0,0
189376,-115.10792,4,1,0,80,0,0
189576,-114.28571,4,1,0,80,0,0
189976,-112.676056,4,1,0,80,0,0
190176,-111.88811,4,1,0,80,0,0
190376,-111.111115,4,1,0,80,0,0
190576,-110.344826,4,1,0,80,0,0
190676,-109.96564,4,1,0,80,0,0
190876,-109.21502,4,1,0,80,0,0
190976,-108.84354,4,1,0,80,0,0
191176,-108.10811,4,1,0,80,0,0
191376,-107.38255,4,1,0,80,0,0
191476,-107.023415,4,1,0,80,0,0
191676,-106.312294,4,1,0,80,0,0
191776,-105.96026,4,1,0,80,0,0
191976,-105.26316,4,1,0,80,0,0
192176,-104.575165,4,1,0,80,0,0
192276,-104.23453,4,1,0,80,0,0
192476,-103.559875,4,1,0,80,0,0
192576,-103.22581,4,1,0,80,0,0
192776,-102.5641,4,1,0,80,0,0
192976,-101.91083,4,1,0,80,0,0
193076,-101.5873,4,1,0,80,0,0
193176,-101.26582,4,1,0,80,0,0
193376,-100.62894,4,1,0,80,0,0
193576,-100,4,1,0,80,0,0
193676,-100,4,1,0,80,0,0
193776,-100,4,1,0,80,0,0
193876,-100,4,1,0,80,0,0
193976,-100,4,1,0,81,0,0
194076,-100,4,1,0,81,0,0
194176,-100,4,1,0,81,0,0
194376,-100,4,1,0,81,0,0
194476,-99.190125,4,1,0,81,0,0
194576,-98.38682,4,1,0,82,0,0
194676,-97.59001,4,1,0,82,0,0
194726,-97.19403,4,1,0,82,0,0
194776,-96.79966,4,1,0,82,0,0
194876,-96.01571,4,1,0,82,0,0
194976,-95.2381,4,1,0,82,0,0
195176,-100,4,1,0,83,0,0
195276,-100,4,1,0,83,0,0
195376,-100,4,1,0,83,0,0
195476,-100,4,1,0,83,0,0
195576,-100,4,1,0,83,0,0
195676,-100,4,1,0,83,0,0
195776,-100,4,1,0,83,0,0
195976,-100,4,1,0,84,0,0
196076,-99.190125,4,1,0,84,0,0
196176,-98.38682,4,1,0,84,0,0
196276,-97.59001,4,1,0,84,0,0
196326,-97.19403,4,1,0,84,0,0
196376,-96.79966,4,1,0,84,0,0
196476,-96.01571,4,1,0,85,0,0
196576,-95.2381,4,1,0,85,0,0
196776,-100,4,1,0,85,0,0
196876,-100,4,1,0,85,0,0
196976,-100,4,1,0,85,0,0
197076,-100,4,1,0,85,0,0
197176,-100,4,1,0,86,0,0
197276,-100,4,1,0,86,0,0
197376,-100,4,1,0,86,0,0
197576,-100,4,1,0,86,0,0
197676,-99.190125,4,1,0,86,0,0
197776,-98.38682,4,1,0,87,0,0
197876,-97.59001,4,1,0,87,0,0
197926,-97.19403,4,1,0,87,0,0
197976,-96.79966,4,1,0,87,0,0
198076,-96.01571,4,1,0,87,0,0
198176,-95.2381,4,1,0,87,0,0
198376,-100,4,1,0,88,0,0
198476,-100,4,1,0,88,0,0
198576,-100,4,1,0,88,0,0
198676,-100,4,1,0,88,0,0
198776,-100,4,1,0,88,0,0
198876,-100,4,1,0,88,0,0
198976,-100,4,1,0,88,0,0
199176,-100,4,1,0,89,0,0
199276,-99.190125,4,1,0,89,0,0
199376,-98.38682,4,1,0,89,0,0
199476,-97.59001,4,1,0,89,0,0
199526,-97.19403,4,1,0,89,0,0
199576,-96.79966,4,1,0,89,0,0
199676,-96.01571,4,1,0,90,0,0
199776,-95.2381,4,1,0,90,0,0
199976,-100,4,1,0,95,0,0
200076,-99.991325,4,1,0,95,0,0
200176,-99.9653,4,1,0,95,0,0
200276,-99.92193,4,1,0,95,0,0
200376,-99.861305,4,1,0,95,0,0
200476,-99.78346,4,1,0,95,0,0
200576,-99.68848,4,1,0,95,0,0
200676,-99.57646,4,1,0,95,0,0
200776,-99.44752,4,1,0,95,0,0
200876,-99.30179,4,1,0,95,0,0
200976,-99.13943,4,1,0,95,0,0
201076,-98.96058,4,1,0,95,0,0
201176,-98.76543,4,1,0,95,0,0
201276,-98.5542,4,1,0,95,0,0
201376,-98.32707,4,1,0,95,0,0
201476,-98.08429,4,1,0,95,0,0
201576,-97.826096,4,1,0,95,0,0
201676,-97.55272,4,1,0,95,0,0
201776,-97.264435,4,1,0,95,0,0
201876,-96.96154,4,1,0,95,0,0
201976,-96.644295,4,1,0,95,0,0
202076,-96.31302,4,1,0,95,0,0
202176,-95.96801,4,1,0,95,0,0
202276,-95.6096,4,1,0,95,0,0
202376,-95.2381,4,1,0,95,0,0
202476,-94.85385,4,1,0,95,0,0
202576,-94.4572,4,1,0,95,0,0
202676,-94.04849,4,1,0,95,0,0
202776,-93.62809,4,1,0,95,0,0
202876,-93.19635,4,1,0,95,0,0
202976,-92.753624,4,1,0,95,0,0
203076,-92.30029,4,1,0,95,0,0
203176,-91.83674,4,1,0,95,0,0
203276,-91.363304,4,1,0,95,0,0
203376,-90.88041,4,1,0,95,0,0
203476,-90.3884,4,1,0,95,0,0
203576,-89.88764,4,1,0,95,0,0
203676,-89.37854,4,1,0,95,0,0
203776,-88.86146,4,1,0,95,0,0
203876,-88.336784,4,1,0,95,0,0
203976,-87.804886,4,1,0,95,0,0
204076,-87.26611,4,1,0,95,0,0
204176,-86.72086,4,1,0,95,0,0
204276,-86.1695,4,1,0,95,0,0
204376,-85.612366,4,1,0,95,0,0
204426,-85.33176,4,1,0,95,0,0
204476,-85.049835,4,1,0,95,0,0
204576,-84.482254,4,1,0,95,0,0
204676,-83.909966,4,1,0,95,0,0
204776,-83.33333,4,1,0,95,0,0
204876,-71.4285689795919,4,1,0,90,0,0
206379,-71.428566,4,1,0,95,0,1
206476,-71.96891,4,1,0,95,0,1
206576,-72.51334,4,1,0,95,0,1
206676,-73.06189,4,1,0,95,0,1
206876,-74.17146,4,1,0,95,0,1
206976,-74.73255,4,1,0,95,0,1
207076,-75.29789,4,1,0,95,0,1
207176,-75.8675,4,1,0,95,0,1
207276,-76.44143,4,1,0,95,0,1
207376,-77.01969,4,1,0,95,0,1
207476,-77.602325,4,1,0,95,0,1
207676,-78.78085,4,1,0,95,0,1
207776,-79.37681,4,1,0,95,0,1
207876,-79.97729,4,1,0,95,0,1
207976,-80.5823,4,1,0,95,0,1
208076,-81.19188,4,1,0,95,0,1
208176,-81.80608,4,1,0,95,0,1
208276,-82.42493,4,1,0,95,0,1
208476,-83.6767,4,1,0,95,0,1
208676,-84.94748,4,1,0,95,0,1
208776,-85.59009,4,1,0,95,0,1
208876,-86.237564,4,1,0,95,0,1
208976,-86.88994,4,1,0,95,0,1
209076,-87.547226,4,1,0,95,0,1
209276,-88.87679,4,1,0,95,0,1
209376,-89.54913,4,1,0,95,0,1
209576,-71.42857,4,1,0,95,0,1
209676,-71.96891,4,1,0,95,0,1
209776,-72.51334,4,1,0,95,0,1
209876,-73.06189,4,1,0,95,0,1
210076,-74.17146,4,1,0,95,0,1
210176,-74.73256,4,1,0,95,0,1
210276,-75.29789,4,1,0,95,0,1
210376,-75.86751,4,1,0,95,0,1
210476,-76.44143,4,1,0,95,0,1
210576,-77.01969,4,1,0,95,0,1
210676,-77.60233,4,1,0,95,0,1
210876,-78.78086,4,1,0,95,0,1
210976,-79.37681,4,1,0,95,0,1
211076,-79.97729,4,1,0,95,0,1
211176,-80.582306,4,1,0,95,0,1
211276,-81.19188,4,1,0,95,0,1
211376,-81.80608,4,1,0,95,0,1
211476,-82.42493,4,1,0,95,0,1
211676,-83.676704,4,1,0,95,0,1
211876,-84.94748,4,1,0,95,0,1
211976,-85.590096,4,1,0,95,0,1
212076,-86.237564,4,1,0,95,0,1
212176,-86.88994,4,1,0,95,0,1
212276,-87.54723,4,1,0,95,0,1
212376,-88.20951,4,1,0,95,0,1
212426,-88.54252,4,1,0,95,0,1
212476,-88.87679,4,1,0,95,0,1
212576,-89.54913,4,1,0,95,0,1
212776,-71.4285714285714,4,1,0,95,0,1
212876,-71.96891,4,1,0,95,0,1
212976,-72.51334,4,1,0,95,0,1
213076,-73.06189,4,1,0,95,0,1
213276,-74.17146,4,1,0,95,0,1
213376,-74.73256,4,1,0,95,0,1
213476,-75.29789,4,1,0,95,0,1
213576,-75.86751,4,1,0,95,0,1
213676,-76.44143,4,1,0,95,0,1
213776,-77.01969,4,1,0,95,0,1
213876,-77.60233,4,1,0,95,0,1
214076,-78.78086,4,1,0,95,0,1
214176,-79.37681,4,1,0,95,0,1
214276,-79.97729,4,1,0,95,0,1
214376,-80.582306,4,1,0,95,0,1
214476,-81.19188,4,1,0,95,0,1
214576,-81.80608,4,1,0,95,0,1
214676,-82.42493,4,1,0,95,0,1
214876,-83.676704,4,1,0,95,0,1
215076,-84.94748,4,1,0,95,0,1
215176,-85.590096,4,1,0,95,0,1
215276,-86.237564,4,1,0,95,0,1
215376,-86.88994,4,1,0,95,0,1
215476,-87.54723,4,1,0,95,0,1
215676,-88.87679,4,1,0,95,0,1
215776,-89.54913,4,1,0,95,0,1
215976,-71.42857,4,1,0,95,0,1
216076,-71.96891,4,1,0,95,0,1
216176,-72.51334,4,1,0,95,0,1
216276,-73.06189,4,1,0,95,0,1
216476,-74.17146,4,1,0,95,0,1
216576,-74.73256,4,1,0,95,0,1
216676,-75.29789,4,1,0,95,0,1
216776,-75.86751,4,1,0,95,0,1
216876,-76.44143,4,1,0,95,0,1
216976,-77.01969,4,1,0,95,0,1
217076,-77.60233,4,1,0,95,0,1
217276,-78.78086,4,1,0,95,0,1
217376,-79.37681,4,1,0,95,0,1
217476,-79.97729,4,1,0,95,0,1
217579,-80.582306,4,1,0,95,0,0
217776,-81.80608,4,1,0,95,0,0
217876,-82.42493,4,1,0,95,0,0
218076,-83.676704,4,1,0,95,0,0
218176,-84.30969,4,1,0,95,0,0
218276,-84.94748,4,1,0,95,0,0
218376,-85.590096,4,1,0,95,0,0
218476,-86.237564,4,1,0,95,0,0
218576,-86.88994,4,1,0,95,0,0
218676,-87.54723,4,1,0,95,0,0
218776,-88.20951,4,1,0,95,0,0
218876,-88.87679,4,1,0,95,0,0
218976,-89.54913,4,1,0,95,0,0
219076,-90.226555,4,1,0,95,0,0
219179,-71.4285708673469,4,1,0,95,0,1
219276,-71.96891,4,1,0,95,0,1
219376,-72.51334,4,1,0,95,0,1
219476,-73.06189,4,1,0,95,0,1
219676,-74.17146,4,1,0,95,0,1
219776,-74.73256,4,1,0,95,0,1
219876,-75.29789,4,1,0,95,0,1
219976,-75.86751,4,1,0,95,0,1
220076,-76.44143,4,1,0,95,0,1
220176,-77.01969,4,1,0,95,0,1
220276,-77.60233,4,1,0,95,0,1
220476,-78.78086,4,1,0,95,0,1
220576,-79.37681,4,1,0,95,0,1
220676,-79.97729,4,1,0,95,0,1
220776,-80.582306,4,1,0,95,0,1
220876,-81.19188,4,1,0,95,0,1
220976,-81.80608,4,1,0,95,0,1
221076,-82.42493,4,1,0,95,0,1
221276,-83.676704,4,1,0,95,0,1
221476,-84.94748,4,1,0,95,0,1
221576,-85.590096,4,1,0,95,0,1
221676,-86.237564,4,1,0,95,0,1
221776,-86.88994,4,1,0,95,0,1
221876,-87.54723,4,1,0,95,0,1
222076,-88.87679,4,1,0,95,0,1
222176,-89.54913,4,1,0,95,0,1
222376,-71.42857,4,1,0,95,0,1
222476,-71.96891,4,1,0,95,0,1
222576,-72.51334,4,1,0,95,0,1
222676,-73.06189,4,1,0,95,0,1
222876,-74.17146,4,1,0,95,0,1
222976,-74.73256,4,1,0,95,0,1
223076,-75.29789,4,1,0,95,0,1
223176,-75.86751,4,1,0,95,0,1
223276,-76.44143,4,1,0,95,0,1
223376,-77.01969,4,1,0,95,0,1
223476,-77.60233,4,1,0,95,0,1
223676,-78.78086,4,1,0,95,0,1
223776,-79.37681,4,1,0,95,0,1
223876,-79.97729,4,1,0,95,0,1
223976,-80.582306,4,1,0,95,0,1
224076,-81.19188,4,1,0,95,0,1
224176,-81.80608,4,1,0,95,0,1
224276,-82.42493,4,1,0,95,0,1
224476,-83.676704,4,1,0,95,0,1
224676,-84.94748,4,1,0,95,0,1
224776,-85.590096,4,1,0,95,0,1
224876,-86.237564,4,1,0,95,0,1
224976,-86.88994,4,1,0,95,0,1
225076,-87.54723,4,1,0,95,0,1
225176,-88.20951,4,1,0,95,0,1
225226,-88.54252,4,1,0,95,0,1
225276,-88.87679,4,1,0,95,0,1
225376,-89.54913,4,1,0,95,0,1
225576,-71.42857,4,1,0,95,0,1
225676,-71.96891,4,1,0,95,0,1
225776,-72.51334,4,1,0,95,0,1
225876,-73.06189,4,1,0,95,0,1
226076,-74.17146,4,1,0,95,0,1
226176,-74.73256,4,1,0,95,0,1
226276,-75.29789,4,1,0,95,0,1
226376,-75.86751,4,1,0,95,0,1
226476,-76.44143,4,1,0,95,0,1
226576,-77.01969,4,1,0,95,0,1
226676,-77.60233,4,1,0,95,0,1
226876,-78.78086,4,1,0,95,0,1
226976,-79.37681,4,1,0,95,0,1
227076,-79.97729,4,1,0,95,0,1
227176,-80.582306,4,1,0,95,0,1
227276,-81.19188,4,1,0,95,0,1
227376,-81.80608,4,1,0,95,0,1
227476,-82.42493,4,1,0,95,0,1
227676,-83.676704,4,1,0,95,0,1
227876,-84.94748,4,1,0,95,0,1
227976,-85.590096,4,1,0,95,0,1
228076,-86.237564,4,1,0,95,0,1
228176,-86.88994,4,1,0,95,0,1
228276,-87.54723,4,1,0,95,0,1
228476,-88.87679,4,1,0,95,0,1
228576,-89.54913,4,1,0,95,0,1
228776,-71.42857,4,1,0,95,0,1
228876,-71.96891,4,1,0,95,0,1
228976,-72.51334,4,1,0,95,0,1
229076,-73.06189,4,1,0,95,0,1
229276,-74.17146,4,1,0,95,0,1
229376,-74.73256,4,1,0,95,0,1
229476,-75.29789,4,1,0,95,0,1
229576,-75.86751,4,1,0,95,0,1
229676,-76.44143,4,1,0,95,0,1
229776,-77.01969,4,1,0,95,0,1
229876,-77.60233,4,1,0,95,0,1
230076,-78.78086,4,1,0,95,0,1
230176,-79.37681,4,1,0,95,0,1
230276,-79.97729,4,1,0,95,0,1
230379,-80.582306,4,1,0,95,0,0
230476,-81.19188,4,1,0,95,0,0
230676,-82.42493,4,1,0,95,0,0
230876,-83.676704,4,1,0,95,0,0
231076,-84.94748,4,1,0,95,0,0
231126,-85.26818,4,1,0,95,0,0
231176,-85.590096,4,1,0,95,0,0
231276,-86.237564,4,1,0,95,0,0
231376,-86.88994,4,1,0,95,0,0
231476,-87.54723,4,1,0,95,0,0
231576,-88.20951,4,1,0,95,0,0
231642,-88.64935,4,1,0,95,0,0
231709,-89.09811,4,1,0,95,0,0
231776,-89.54913,4,1,0,95,0,0
231979,-66.666664,4,1,0,100,0,1
232076,-67.13317,4,1,0,100,0,1
232276,-68.076004,4,1,0,100,0,1
232476,-69.03207,4,1,0,100,0,1
232576,-69.51513,4,1,0,100,0,1
232676,-70.00158,4,1,0,100,0,1
232776,-70.49142,4,1,0,100,0,1
232876,-70.98469,4,1,0,100,0,1
233076,-71.98161,4,1,0,100,0,1
233276,-72.99254,4,1,0,100,0,1
233376,-73.5033,4,1,0,100,0,1
233476,-74.01765,4,1,0,100,0,1
233576,-74.5356,4,1,0,100,0,1
233676,-75.05717,4,1,0,100,0,1
233776,-75.58239,4,1,0,100,0,1
233876,-76.11129,4,1,0,100,0,1
234076,-77.1802,4,1,0,100,0,1
234276,-78.26414,4,1,0,100,0,1
234376,-78.8118,4,1,0,100,0,1
234476,-79.3633,4,1,0,100,0,1
234576,-79.918655,4,1,0,100,0,1
234676,-80.47788,4,1,0,100,0,1
234776,-81.04104,4,1,0,100,0,1
234876,-81.60814,4,1,0,100,0,1
234976,-82.17919,4,1,0,100,0,1
235176,-66.666664,4,1,0,100,0,1
235276,-67.13317,4,1,0,100,0,1
235476,-68.076004,4,1,0,100,0,1
235676,-69.03207,4,1,0,100,0,1
235776,-69.51513,4,1,0,100,0,1
235876,-70.00157,4,1,0,100,0,1
235976,-70.49142,4,1,0,100,0,1
236076,-70.98468,4,1,0,100,0,1
236276,-71.98161,4,1,0,100,0,1
236476,-72.99253,4,1,0,100,0,1
236576,-73.5033,4,1,0,100,0,1
236676,-74.01765,4,1,0,100,0,1
236776,-74.5356,4,1,0,100,0,1
236826,-74.79592,4,1,0,100,0,1
236876,-75.05717,4,1,0,100,0,1
236976,-75.58239,4,1,0,100,0,1
237076,-76.11128,4,1,0,100,0,1
237176,-76.643875,4,1,0,100,0,1
237276,-77.1802,4,1,0,100,0,1
237476,-78.26413,4,1,0,100,0,1
237576,-78.81179,4,1,0,100,0,1
237676,-79.3633,4,1,0,100,0,1
237776,-79.91865,4,1,0,100,0,1
237876,-80.477875,4,1,0,100,0,1
237926,-80.75897,4,1,0,100,0,1
237976,-81.04103,4,1,0,100,0,1
238076,-81.60813,4,1,0,100,0,1
238176,-82.179184,4,1,0,100,0,1
238376,-66.666664,4,1,0,100,0,1
238476,-67.13317,4,1,0,100,0,1
238676,-68.076004,4,1,0,100,0,1
238876,-69.03207,4,1,0,100,0,1
238976,-69.51513,4,1,0,100,0,1
239076,-70.00157,4,1,0,100,0,1
239176,-70.49142,4,1,0,100,0,1
239276,-70.98468,4,1,0,100,0,1
239476,-71.98161,4,1,0,100,0,1
239676,-72.99253,4,1,0,100,0,1
239776,-73.5033,4,1,0,100,0,1
239876,-74.01765,4,1,0,100,0,1
239976,-74.5356,4,1,0,100,0,1
240076,-75.05717,4,1,0,100,0,1
240176,-75.58239,4,1,0,100,0,1
240276,-76.11128,4,1,0,100,0,1
240476,-77.1802,4,1,0,100,0,1
240676,-78.26413,4,1,0,100,0,1
240776,-78.81179,4,1,0,100,0,1
240876,-79.3633,4,1,0,100,0,1
240976,-79.91865,4,1,0,100,0,1
241076,-80.477875,4,1,0,100,0,1
241176,-81.04103,4,1,0,100,0,1
241276,-81.60813,4,1,0,100,0,1
241376,-82.179184,4,1,0,100,0,1
241576,-66.666664,4,1,0,100,0,1
241676,-67.13317,4,1,0,100,0,1
241876,-68.076004,4,1,0,100,0,1
242076,-69.03207,4,1,0,100,0,1
242176,-69.51513,4,1,0,100,0,1
242276,-70.00157,4,1,0,100,0,1
242376,-70.49142,4,1,0,100,0,1
242476,-70.98468,4,1,0,100,0,1
242676,-71.98161,4,1,0,100,0,1
242876,-72.99253,4,1,0,100,0,1
242976,-73.5033,4,1,0,100,0,1
243076,-74.01765,4,1,0,100,0,1
243179,-74.5356,4,1,0,100,0,0
243376,-75.58239,4,1,0,95,0,0
243476,-76.11128,4,1,0,95,0,0
243676,-77.1802,4,1,0,95,0,0
243776,-77.720276,4,1,0,95,0,0
243876,-78.26413,4,1,0,95,0,0
243976,-78.81179,4,1,0,95,0,0
244076,-79.3633,4,1,0,95,0,0
244176,-79.91865,4,1,0,95,0,0
244276,-80.477875,4,1,0,95,0,0
244376,-81.04103,4,1,0,95,0,0
244476,-81.60813,4,1,0,95,0,0
244576,-82.179184,4,1,0,95,0,0
244676,-82.75424,4,1,0,95,0,0
244779,-66.666664,4,1,0,100,0,1
244876,-67.13317,4,1,0,100,0,1
245076,-68.076004,4,1,0,100,0,1
245276,-69.03207,4,1,0,100,0,1
245376,-69.51513,4,1,0,100,0,1
245476,-70.00157,4,1,0,100,0,1
245576,-70.49142,4,1,0,100,0,1
245676,-70.98468,4,1,0,100,0,1
245876,-71.98161,4,1,0,100,0,1
246076,-72.99253,4,1,0,100,0,1
246176,-73.5033,4,1,0,100,0,1
246276,-74.01765,4,1,0,100,0,1
246376,-74.5356,4,1,0,100,0,1
246476,-75.05717,4,1,0,100,0,1
246576,-75.58239,4,1,0,100,0,1
246676,-76.11128,4,1,0,100,0,1
246876,-77.1802,4,1,0,100,0,1
247076,-78.26413,4,1,0,100,0,1
247176,-78.81179,4,1,0,100,0,1
247276,-79.3633,4,1,0,100,0,1
247376,-79.91865,4,1,0,100,0,1
247476,-80.477875,4,1,0,100,0,1
247576,-81.04103,4,1,0,100,0,1
247676,-81.60813,4,1,0,100,0,1
247776,-82.179184,4,1,0,100,0,1
247976,-66.666664,4,1,0,100,0,1
248076,-67.13317,4,1,0,100,0,1
248276,-68.076004,4,1,0,100,0,1
248476,-69.03207,4,1,0,100,0,1
248576,-69.51513,4,1,0,100,0,1
248676,-70.00157,4,1,0,100,0,1
248776,-70.49142,4,1,0,100,0,1
248876,-70.98468,4,1,0,100,0,1
249076,-71.98161,4,1,0,100,0,1
249276,-72.99253,4,1,0,100,0,1
249376,-73.5033,4,1,0,100,0,1
249476,-74.01765,4,1,0,100,0,1
249576,-74.5356,4,1,0,100,0,1
249626,-74.79592,4,1,0,100,0,1
249676,-75.05717,4,1,0,100,0,1
249776,-75.58239,4,1,0,100,0,1
249876,-76.11128,4,1,0,100,0,1
249976,-76.643875,4,1,0,100,0,1
250076,-77.1802,4,1,0,100,0,1
250276,-78.26413,4,1,0,100,0,1
250376,-78.81179,4,1,0,100,0,1
250476,-79.3633,4,1,0,100,0,1
250576,-79.91865,4,1,0,100,0,1
250676,-80.477875,4,1,0,100,0,1
250726,-80.75897,4,1,0,100,0,1
250776,-81.04103,4,1,0,100,0,1
250876,-81.60813,4,1,0,100,0,1
250976,-82.179184,4,1,0,100,0,1
251176,-71.42857,4,1,0,100,0,1
251276,-71.96891,4,1,0,100,0,1
251476,-73.06189,4,1,0,100,0,1
251676,-74.17146,4,1,0,100,0,1
251776,-74.73256,4,1,0,100,0,1
251876,-75.29789,4,1,0,100,0,1
251976,-75.86751,4,1,0,100,0,1
252076,-76.44143,4,1,0,100,0,1
252276,-77.60233,4,1,0,100,0,1
252476,-78.78086,4,1,0,100,0,1
252576,-79.37681,4,1,0,100,0,1
252776,-80.582306,4,1,0,100,0,1
252876,-81.19188,4,1,0,100,0,1
253076,-82.42493,4,1,0,100,0,1
253276,-83.676704,4,1,0,100,0,1
253476,-84.94748,4,1,0,100,0,1
253576,-85.590096,4,1,0,100,0,1
253676,-86.237564,4,1,0,100,0,1
253876,-87.54723,4,1,0,100,0,1
254076,-88.87679,4,1,0,100,0,1
254176,-89.54913,4,1,0,100,0,1
254376,-76.92308,4,1,0,100,0,1
254476,-77.55636,4,1,0,100,0,1
254576,-78.19484,4,1,0,100,0,1
254676,-78.8386,4,1,0,100,0,1
254776,-79.48764,4,1,0,100,0,1
254976,-80.8018,4,1,0,100,0,1
255176,-82.13769,4,1,0,100,0,1
255276,-82.813896,4,1,0,100,0,1
255476,-84.18306,4,1,0,100,0,1
255576,-84.8761,4,1,0,100,0,1
255676,-85.57485,4,1,0,100,0,1
255776,-86.27935,4,1,0,100,0,1
255876,-86.989655,4,1,0,100,0,1
255979,-87.70581,4,1,0,100,0,0
256076,-88.42786,4,1,0,95,0,0
256276,-89.889824,4,1,0,95,0,0
256476,-91.37597,4,1,0,95,0,0
256676,-92.88668,4,1,0,95,0,0
256876,-94.42237,4,1,0,95,0,0
257076,-95.98345,4,1,0,95,0,0
257276,-97.57034,4,1,0,95,0,0
257376,-98.37359,4,1,0,95,0,0
257576,-66.6666666666667,4,1,0,95,0,0

[HitObjects]
256,192,1579,5,4,0:0:0:0:
256,192,1779,1,8,0:0:0:0:
256,192,1879,1,0,0:0:0:0:
256,192,2079,1,0,0:0:0:0:
256,192,2279,1,0,0:0:0:0:
256,192,2379,1,8,0:0:0:0:
256,192,3179,1,0,0:0:0:0:
256,192,3279,1,8,0:0:0:0:
256,192,3479,1,0,0:0:0:0:
256,192,3679,1,0,0:0:0:0:
256,192,3879,1,0,0:0:0:0:
256,192,3979,1,8,0:0:0:0:
256,192,4779,1,0,0:0:0:0:
256,192,4879,1,8,0:0:0:0:
256,192,5079,1,8,0:0:0:0:
256,192,5279,1,0,0:0:0:0:
256,192,5479,1,0,0:0:0:0:
256,192,5579,1,8,0:0:0:0:
256,192,6379,1,0,0:0:0:0:
256,192,6479,1,8,0:0:0:0:
256,192,6679,1,0,0:0:0:0:
256,192,6879,1,0,0:0:0:0:
256,192,7079,1,0,0:0:0:0:
256,192,7179,1,8,0:0:0:0:
256,192,7979,1,0,0:0:0:0:
256,192,8079,1,8,0:0:0:0:
256,192,8279,1,8,0:0:0:0:
256,192,8479,1,0,0:0:0:0:
256,192,8679,1,0,0:0:0:0:
256,192,8779,1,8,0:0:0:0:
256,192,9579,1,0,0:0:0:0:
256,192,9679,1,8,0:0:0:0:
256,192,9879,1,0,0:0:0:0:
256,192,10079,1,0,0:0:0:0:
256,192,10279,1,0,0:0:0:0:
256,192,10379,1,8,0:0:0:0:
256,192,11179,1,0,0:0:0:0:
256,192,11279,1,8,0:0:0:0:
256,192,11479,1,8,0:0:0:0:
256,192,11679,1,0,0:0:0:0:
256,192,11879,1,0,0:0:0:0:
256,192,11979,1,8,0:0:0:0:
256,192,12079,1,0,0:0:0:0:
256,192,12279,1,8,0:0:0:0:
256,192,12579,1,8,0:0:0:0:
256,192,12679,1,0,0:0:0:0:
256,192,12779,1,0,0:0:0:0:
256,192,12879,1,8,0:0:0:0:
256,192,13079,1,0,0:0:0:0:
256,192,13279,1,0,0:0:0:0:
256,192,13479,1,0,0:0:0:0:
256,192,13579,1,8,0:0:0:0:
256,192,14379,1,0,0:0:0:0:
256,192,14479,1,8,0:0:0:0:
256,192,14679,1,0,0:0:0:0:
256,192,14879,1,0,0:0:0:0:
256,192,15079,1,0,0:0:0:0:
256,192,15179,1,8,0:0:0:0:
256,192,15279,1,0,0:0:0:0:
256,192,15479,1,8,0:0:0:0:
256,192,15679,1,0,0:0:0:0:
256,192,15879,1,0,0:0:0:0:
256,192,15979,1,0,0:0:0:0:
256,192,16079,1,8,0:0:0:0:
256,192,16279,1,0,0:0:0:0:
256,192,16479,1,0,0:0:0:0:
256,192,16679,1,0,0:0:0:0:
256,192,16779,1,8,0:0:0:0:
256,192,16879,1,0,0:0:0:0:
256,192,17079,1,8,0:0:0:0:
256,192,17579,1,0,0:0:0:0:
256,192,17679,1,8,0:0:0:0:
256,192,17879,1,0,0:0:0:0:
256,192,18079,1,0,0:0:0:0:
256,192,18279,1,0,0:0:0:0:
256,192,18379,1,8,0:0:0:0:
256,192,18479,1,0,0:0:0:0:
256,192,18679,1,8,0:0:0:0:
256,192,18879,1,0,0:0:0:0:
256,192,19079,1,0,0:0:0:0:
256,192,19179,1,8,0:0:0:0:
256,192,19279,1,8,0:0:0:0:
256,192,19479,1,0,0:0:0:0:
256,192,19679,1,0,0:0:0:0:
256,192,19879,1,0,0:0:0:0:
256,192,19979,1,8,0:0:0:0:
256,192,20079,1,0,0:0:0:0:
256,192,20779,1,0,0:0:0:0:
256,192,20879,1,8,0:0:0:0:
256,192,21079,1,0,0:0:0:0:
256,192,21279,1,0,0:0:0:0:
256,192,21479,1,0,0:0:0:0:
256,192,21579,1,8,0:0:0:0:
256,192,21679,1,0,0:0:0:0:
256,192,21879,1,8,0:0:0:0:
256,192,22079,1,0,0:0:0:0:
256,192,22279,1,0,0:0:0:0:
256,192,22379,1,0,0:0:0:0:
256,192,22479,1,8,0:0:0:0:
256,192,22679,1,0,0:0:0:0:
256,192,22879,1,0,0:0:0:0:
256,192,23079,1,0,0:0:0:0:
256,192,23179,1,8,0:0:0:0:
256,192,23279,1,0,0:0:0:0:
256,192,23479,1,8,0:0:0:0:
256,192,23679,1,0,0:0:0:0:
256,192,23879,1,0,0:0:0:0:
256,192,23979,1,0,0:0:0:0:
256,192,24079,1,8,0:0:0:0:
256,192,24279,1,0,0:0:0:0:
256,192,24479,1,0,0:0:0:0:
256,192,24679,1,0,0:0:0:0:
256,192,24779,1,8,0:0:0:0:
256,192,24879,1,0,0:0:0:0:
256,192,25079,1,8,0:0:0:0:
256,192,25379,1,0,0:0:0:0:
256,192,25479,1,0,0:0:0:0:
256,192,25579,1,8,0:0:0:0:
256,192,25679,1,8,0:0:0:0:
256,192,25779,1,0,0:0:0:0:
256,192,25879,1,8,0:0:0:0:
256,192,26079,1,0,0:0:0:0:
256,192,26279,1,8,0:0:0:0:
256,192,26379,1,0,0:0:0:0:
256,192,26479,1,0,0:0:0:0:
256,192,26579,1,8,0:0:0:0:
256,192,26679,1,8,0:0:0:0:
256,192,26779,1,0,0:0:0:0:
256,192,27179,1,0,0:0:0:0:
256,192,27279,1,8,0:0:0:0:
256,192,27479,1,0,0:0:0:0:
256,192,27679,1,8,0:0:0:0:
256,192,27779,1,0,0:0:0:0:
256,192,27979,1,8,0:0:0:0:
256,192,28045,1,8,0:0:0:0:
256,192,28112,1,8,0:0:0:0:
256,192,28179,1,0,0:0:0:0:
256,192,28279,1,0,0:0:0:0:
256,192,28379,1,8,0:0:0:0:
256,192,28579,1,8,0:0:0:0:
256,192,28679,1,8,0:0:0:0:
256,192,28779,1,0,0:0:0:0:
256,192,28879,1,8,0:0:0:0:
256,192,29079,1,0,0:0:0:0:
256,192,29279,1,8,0:0:0:0:
256,192,29379,1,0,0:0:0:0:
256,192,29579,1,8,0:0:0:0:
256,192,29779,1,0,0:0:0:0:
256,192,29879,1,8,0:0:0:0:
256,192,29979,1,0,0:0:0:0:
256,192,30079,1,8,0:0:0:0:
256,192,30179,1,8,0:0:0:0:
256,192,30279,1,0,0:0:0:0:
256,192,30379,1,0,0:0:0:0:
256,192,30479,1,8,0:0:0:0:
256,192,30679,1,0,0:0:0:0:
256,192,30879,1,8,0:0:0:0:
256,192,30979,1,0,0:0:0:0:
256,192,31179,1,8,0:0:0:0:
256,192,31245,1,0,0:0:0:0:
256,192,31312,1,0,0:0:0:0:
256,192,31379,1,8,0:0:0:0:
256,192,31479,1,0,0:0:0:0:
256,192,31579,1,8,0:0:0:0:
256,192,31779,1,8,0:0:0:0:
256,192,31879,1,8,0:0:0:0:
256,192,31979,1,0,0:0:0:0:
256,192,32079,1,8,0:0:0:0:
256,192,32279,1,0,0:0:0:0:
256,192,32479,1,8,0:0:0:0:
256,192,32579,1,0,0:0:0:0:
256,192,32779,1,8,0:0:0:0:
256,192,32979,1,0,0:0:0:0:
256,192,33079,1,8,0:0:0:0:
256,192,33179,1,8,0:0:0:0:
256,192,33279,1,0,0:0:0:0:
256,192,33379,1,8,0:0:0:0:
256,192,33479,1,0,0:0:0:0:
256,192,33579,1,0,0:0:0:0:
256,192,33679,1,8,0:0:0:0:
256,192,33879,1,0,0:0:0:0:
256,192,34079,1,8,0:0:0:0:
256,192,34179,1,0,0:0:0:0:
256,192,34379,1,8,0:0:0:0:
256,192,34445,1,8,0:0:0:0:
256,192,34512,1,8,0:0:0:0:
256,192,34579,1,0,0:0:0:0:
256,192,34679,1,0,0:0:0:0:
256,192,34779,1,8,0:0:0:0:
256,192,34979,1,8,0:0:0:0:
256,192,35079,1,8,0:0:0:0:
256,192,35179,1,0,0:0:0:0:
256,192,35279,1,8,0:0:0:0:
256,192,35479,1,0,0:0:0:0:
256,192,35679,1,8,0:0:0:0:
256,192,35779,1,0,0:0:0:0:
256,192,35979,1,8,0:0:0:0:
256,192,36179,1,0,0:0:0:0:
256,192,36279,1,8,0:0:0:0:
256,192,36379,1,0,0:0:0:0:
256,192,36479,1,8,0:0:0:0:
256,192,36579,1,8,0:0:0:0:
256,192,36679,1,0,0:0:0:0:
256,192,36779,1,0,0:0:0:0:
256,192,36879,1,8,0:0:0:0:
256,192,37079,1,0,0:0:0:0:
256,192,37279,1,8,0:0:0:0:
256,192,37379,1,0,0:0:0:0:
256,192,37579,1,8,0:0:0:0:
256,192,37645,1,0,0:0:0:0:
256,192,37712,1,0,0:0:0:0:
256,192,37779,1,8,0:0:0:0:
256,192,37879,1,0,0:0:0:0:
256,192,37979,1,8,0:0:0:0:
256,192,38179,1,8,0:0:0:0:
256,192,38279,1,8,0:0:0:0:
256,192,38379,1,0,0:0:0:0:
256,192,38479,1,0,0:0:0:0:
256,192,38579,1,8,0:0:0:0:
256,192,38679,1,0,0:0:0:0:
256,192,38879,1,8,0:0:0:0:
256,192,38979,1,8,0:0:0:0:
256,192,39079,1,0,0:0:0:0:
256,192,39179,1,8,0:0:0:0:
256,192,39279,1,0,0:0:0:0:
256,192,39379,1,8,0:0:0:0:
256,192,39479,1,8,0:0:0:0:
256,192,39579,1,0,0:0:0:0:
256,192,39679,1,8,0:0:0:0:
256,192,39779,1,8,0:0:0:0:
256,192,39879,1,8,0:0:0:0:
256,192,39979,1,0,0:0:0:0:
256,192,40079,1,0,0:0:0:0:
256,192,40179,1,8,0:0:0:0:
256,192,40279,1,0,0:0:0:0:
256,192,40379,1,8,0:0:0:0:
256,192,40479,1,8,0:0:0:0:
256,192,40579,1,0,0:0:0:0:
256,192,40779,1,0,0:0:0:0:
256,192,40879,1,0,0:0:0:0:
256,192,40979,1,8,0:0:0:0:
256,192,41079,1,0,0:0:0:0:
256,192,41129,1,0,0:0:0:0:
256,192,41179,1,0,0:0:0:0:
256,192,41279,1,8,0:0:0:0:
256,192,41379,1,0,0:0:0:0:
256,192,41579,1,8,0:0:0:0:
256,192,41679,1,8,0:0:0:0:
256,192,41779,1,0,0:0:0:0:
256,192,41879,1,8,0:0:0:0:
256,192,41979,1,0,0:0:0:0:
256,192,42079,1,0,0:0:0:0:
256,192,42179,1,8,0:0:0:0:
256,192,42379,1,8,0:0:0:0:
256,192,42479,1,8,0:0:0:0:
256,192,42579,1,0,0:0:0:0:
256,192,42679,1,8,0:0:0:0:
256,192,42729,1,8,0:0:0:0:
256,192,42779,1,8,0:0:0:0:
256,192,42879,1,0,0:0:0:0:
256,192,42979,1,8,0:0:0:0:
256,192,43179,1,0,0:0:0:0:
256,192,43279,1,8,0:0:0:0:
256,192,43379,1,8,0:0:0:0:
256,192,43479,1,0,0:0:0:0:
256,192,43579,1,8,0:0:0:0:
256,192,43679,1,8,0:0:0:0:
256,192,43779,1,0,0:0:0:0:
256,192,43979,1,0,0:0:0:0:
256,192,44079,1,8,0:0:0:0:
256,192,44179,1,8,0:0:0:0:
256,192,44279,1,0,0:0:0:0:
256,192,44329,1,0,0:0:0:0:
256,192,44379,1,0,0:0:0:0:
256,192,44479,1,8,0:0:0:0:
256,192,44579,1,0,0:0:0:0:
256,192,44779,1,8,0:0:0:0:
256,192,44879,1,0,0:0:0:0:
256,192,44979,1,0,0:0:0:0:
256,192,45079,1,8,0:0:0:0:
256,192,45179,1,0,0:0:0:0:
256,192,45279,1,0,0:0:0:0:
256,192,45379,1,8,0:0:0:0:
256,192,45579,1,8,0:0:0:0:
256,192,45679,1,0,0:0:0:0:
256,192,45779,1,0,0:0:0:0:
256,192,45879,1,8,0:0:0:0:
256,192,45929,1,8,0:0:0:0:
256,192,45979,1,8,0:0:0:0:
256,192,46079,1,0,0:0:0:0:
256,192,46179,1,8,0:0:0:0:
256,192,46379,1,0,0:0:0:0:
256,192,46479,1,0,0:0:0:0:
256,192,46579,1,8,0:0:0:0:
256,192,46679,1,0,0:0:0:0:
256,192,46779,1,8,0:0:0:0:
256,192,46879,1,8,0:0:0:0:
256,192,46979,1,0,0:0:0:0:
256,192,47079,1,0,0:0:0:0:
256,192,47179,1,8,0:0:0:0:
256,192,47279,1,0,0:0:0:0:
256,192,47379,1,8,0:0:0:0:
256,192,47479,1,8,0:0:0:0:
256,192,47579,1,0,0:0:0:0:
256,192,47679,1,8,0:0:0:0:
256,192,47779,1,0,0:0:0:0:
256,192,47879,1,0,0:0:0:0:
256,192,47979,1,8,0:0:0:0:
256,192,48079,1,0,0:0:0:0:
256,192,48179,1,8,0:0:0:0:
256,192,48279,1,0,0:0:0:0:
256,192,48379,1,8,0:0:0:0:
256,192,48479,1,8,0:0:0:0:
256,192,48579,1,0,0:0:0:0:
256,192,48679,1,0,0:0:0:0:
256,192,48779,1,8,0:0:0:0:
256,192,48879,1,0,0:0:0:0:
256,192,48979,1,0,0:0:0:0:
256,192,49079,1,0,0:0:0:0:
256,192,49179,1,8,0:0:0:0:
256,192,49279,1,0,0:0:0:0:
256,192,49379,1,8,0:0:0:0:
256,192,49479,1,8,0:0:0:0:
256,192,49579,1,0,0:0:0:0:
256,192,49679,1,8,0:0:0:0:
256,192,49779,1,8,0:0:0:0:
256,192,49879,1,8,0:0:0:0:
256,192,49979,1,0,0:0:0:0:
256,192,50079,1,8,0:0:0:0:
256,192,50179,1,8,0:0:0:0:
256,192,50279,1,0,0:0:0:0:
256,192,50379,1,8,0:0:0:0:
256,192,50479,1,8,0:0:0:0:
256,192,50579,1,0,0:0:0:0:
256,192,50679,1,0,0:0:0:0:
256,192,50779,1,8,0:0:0:0:
256,192,50829,1,8,0:0:0:0:
256,192,50879,1,0,0:0:0:0:
256,192,50979,1,8,0:0:0:0:
256,192,51079,1,8,0:0:0:0:
256,192,51179,1,0,0:0:0:0:
256,192,51279,12,0,51879,0:0:0:0:
256,192,51979,5,8,0:0:0:0:
256,192,52279,1,8,0:0:0:0:
256,192,52479,1,8,0:0:0:0:
256,192,52579,1,0,0:0:0:0:
256,192,52779,1,12,0:0:0:0:
256,192,52979,1,0,0:0:0:0:
256,192,53045,1,0,0:0:0:0:
256,192,53112,1,0,0:0:0:0:
256,192,53179,1,8,0:0:0:0:
256,192,53279,1,0,0:0:0:0:
256,192,53379,1,8,0:0:0:0:
256,192,53479,1,8,0:0:0:0:
256,192,53579,1,0,0:0:0:0:
256,192,53679,1,8,0:0:0:0:
256,192,53779,1,8,0:0:0:0:
256,192,53979,1,8,0:0:0:0:
256,192,54079,1,8,0:0:0:0:
256,192,54179,1,0,0:0:0:0:
256,192,54279,1,8,0:0:0:0:
256,192,54379,1,0,0:0:0:0:
256,192,54579,1,0,0:0:0:0:
256,192,54779,1,8,0:0:0:0:
256,192,54879,1,0,0:0:0:0:
256,192,54979,1,8,0:0:0:0:
256,192,55079,1,8,0:0:0:0:
256,192,55179,1,0,0:0:0:0:
256,192,55279,1,8,0:0:0:0:
256,192,55329,1,8,0:0:0:0:
256,192,55379,1,8,0:0:0:0:
256,192,55479,1,0,0:0:0:0:
256,192,55579,1,8,0:0:0:0:
256,192,55679,1,8,0:0:0:0:
256,192,55779,1,0,0:0:0:0:
256,192,55979,1,8,0:0:0:0:
256,192,56179,1,0,0:0:0:0:
256,192,56245,1,0,0:0:0:0:
256,192,56312,1,0,0:0:0:0:
256,192,56379,1,8,0:0:0:0:
256,192,56479,1,8,0:0:0:0:
256,192,56579,1,0,0:0:0:0:
256,192,56679,1,8,0:0:0:0:
256,192,56779,1,0,0:0:0:0:
256,192,56879,1,0,0:0:0:0:
256,192,56979,1,8,0:0:0:0:
256,192,57179,1,8,0:0:0:0:
256,192,57279,1,8,0:0:0:0:
256,192,57379,1,0,0:0:0:0:
256,192,57479,1,0,0:0:0:0:
256,192,57579,1,8,0:0:0:0:
256,192,57779,1,0,0:0:0:0:
256,192,57879,1,8,0:0:0:0:
256,192,57979,1,8,0:0:0:0:
256,192,58079,1,0,0:0:0:0:
256,192,58179,1,8,0:0:0:0:
256,192,58379,1,0,0:0:0:0:
256,192,58579,1,8,0:0:0:0:
256,192,58779,1,8,0:0:0:0:
256,192,58879,1,8,0:0:0:0:
256,192,58979,1,0,0:0:0:0:
256,192,59045,1,0,0:0:0:0:
256,192,59112,1,0,0:0:0:0:
256,192,59179,1,8,0:0:0:0:
256,192,59379,1,8,0:0:0:0:
256,192,59445,1,0,0:0:0:0:
256,192,59512,1,0,0:0:0:0:
256,192,59579,1,8,0:0:0:0:
256,192,59679,1,0,0:0:0:0:
256,192,59779,1,8,0:0:0:0:
256,192,59879,1,8,0:0:0:0:
256,192,59979,1,0,0:0:0:0:
256,192,60079,1,8,0:0:0:0:
256,192,60179,1,8,0:0:0:0:
256,192,60379,1,8,0:0:0:0:
256,192,60479,1,0,0:0:0:0:
256,192,60579,1,0,0:0:0:0:
256,192,60679,1,8,0:0:0:0:
256,192,60779,1,0,0:0:0:0:
256,192,60979,1,8,0:0:0:0:
256,192,61179,1,8,0:0:0:0:
256,192,61279,1,8,0:0:0:0:
256,192,61379,1,0,0:0:0:0:
256,192,61479,1,8,0:0:0:0:
256,192,61579,1,0,0:0:0:0:
256,192,61679,1,0,0:0:0:0:
256,192,61779,1,8,0:0:0:0:
256,192,61879,1,0,0:0:0:0:
256,192,61979,1,8,0:0:0:0:
256,192,62179,1,0,0:0:0:0:
256,192,62379,1,8,0:0:0:0:
256,192,62579,1,0,0:0:0:0:
256,192,62645,1,0,0:0:0:0:
256,192,62712,1,0,0:0:0:0:
256,192,62779,1,8,0:0:0:0:
256,192,62979,1,0,0:0:0:0:
256,192,63179,1,8,0:0:0:0:
256,192,63379,1,0,0:0:0:0:
256,192,63479,1,0,0:0:0:0:
256,192,63579,1,8,0:0:0:0:
256,192,63779,1,0,0:0:0:0:
256,192,63979,1,8,0:0:0:0:
256,192,64179,1,0,0:0:0:0:
256,192,64279,1,8,0:0:0:0:
256,192,64379,1,8,0:0:0:0:
256,192,64479,1,0,0:0:0:0:
256,192,64579,1,8,0:0:0:0:
256,192,64779,1,0,0:0:0:0:
256,192,65579,1,12,0:0:0:0:
256,192,65779,1,0,0:0:0:0:
256,192,65845,1,0,0:0:0:0:
256,192,65912,1,0,0:0:0:0:
256,192,65979,1,8,0:0:0:0:
256,192,66079,1,0,0:0:0:0:
256,192,66179,1,8,0:0:0:0:
256,192,66279,1,8,0:0:0:0:
256,192,66379,1,0,0:0:0:0:
256,192,66479,1,8,0:0:0:0:
256,192,66579,1,8,0:0:0:0:
256,192,66779,1,8,0:0:0:0:
256,192,66879,1,8,0:0:0:0:
256,192,66979,1,0,0:0:0:0:
256,192,67079,1,8,0:0:0:0:
256,192,67179,1,0,0:0:0:0:
256,192,67379,1,0,0:0:0:0:
256,192,67579,1,8,0:0:0:0:
256,192,67679,1,0,0:0:0:0:
256,192,67779,1,8,0:0:0:0:
256,192,67879,1,8,0:0:0:0:
256,192,67979,1,0,0:0:0:0:
256,192,68079,1,8,0:0:0:0:
256,192,68129,1,8,0:0:0:0:
256,192,68179,1,8,0:0:0:0:
256,192,68279,1,0,0:0:0:0:
256,192,68379,1,8,0:0:0:0:
256,192,68479,1,8,0:0:0:0:
256,192,68579,1,0,0:0:0:0:
256,192,68779,1,8,0:0:0:0:
256,192,68979,1,0,0:0:0:0:
256,192,69045,1,0,0:0:0:0:
256,192,69112,1,0,0:0:0:0:
256,192,69179,1,8,0:0:0:0:
256,192,69279,1,8,0:0:0:0:
256,192,69379,1,0,0:0:0:0:
256,192,69479,1,8,0:0:0:0:
256,192,69579,1,0,0:0:0:0:
256,192,69679,1,0,0:0:0:0:
256,192,69779,1,8,0:0:0:0:
256,192,69979,1,8,0:0:0:0:
256,192,70079,1,8,0:0:0:0:
256,192,70179,1,0,0:0:0:0:
256,192,70279,1,0,0:0:0:0:
256,192,70379,1,8,0:0:0:0:
256,192,70579,1,0,0:0:0:0:
256,192,70679,1,8,0:0:0:0:
256,192,70779,1,8,0:0:0:0:
256,192,70879,1,0,0:0:0:0:
256,192,70979,1,8,0:0:0:0:
256,192,71179,1,0,0:0:0:0:
256,192,71379,1,8,0:0:0:0:
256,192,71579,1,8,0:0:0:0:
256,192,71679,1,8,0:0:0:0:
256,192,71779,1,0,0:0:0:0:
256,192,71845,1,0,0:0:0:0:
256,192,71912,1,0,0:0:0:0:
256,192,71979,1,8,0:0:0:0:
256,192,72179,1,8,0:0:0:0:
256,192,72245,1,0,0:0:0:0:
256,192,72312,1,0,0:0:0:0:
256,192,72379,1,8,0:0:0:0:
256,192,72479,1,0,0:0:0:0:
256,192,72579,1,8,0:0:0:0:
256,192,72679,1,8,0:0:0:0:
256,192,72779,1,0,0:0:0:0:
256,192,72879,1,8,0:0:0:0:
256,192,72979,1,8,0:0:0:0:
256,192,73179,1,8,0:0:0:0:
256,192,73279,1,0,0:0:0:0:
256,192,73379,1,0,0:0:0:0:
256,192,73479,1,8,0:0:0:0:
256,192,73579,1,0,0:0:0:0:
256,192,73779,1,8,0:0:0:0:
256,192,73979,1,8,0:0:0:0:
256,192,74079,1,8,0:0:0:0:
256,192,74179,1,0,0:0:0:0:
256,192,74279,1,8,0:0:0:0:
256,192,74379,1,0,0:0:0:0:
256,192,74579,1,0,0:0:0:0:
256,192,74679,1,0,0:0:0:0:
256,192,74779,1,8,0:0:0:0:
256,192,74879,1,8,0:0:0:0:
256,192,74979,1,0,0:0:0:0:
256,192,75179,1,8,0:0:0:0:
256,192,75379,1,0,0:0:0:0:
256,192,75445,1,0,0:0:0:0:
256,192,75512,1,0,0:0:0:0:
256,192,75579,1,8,0:0:0:0:
256,192,75779,1,8,0:0:0:0:
256,192,75845,1,0,0:0:0:0:
256,192,75912,1,0,0:0:0:0:
256,192,75979,1,8,0:0:0:0:
256,192,76179,1,0,0:0:0:0:
256,192,76245,1,0,0:0:0:0:
256,192,76312,1,0,0:0:0:0:
256,192,76379,1,8,0:0:0:0:
256,192,76579,1,8,0:0:0:0:
256,192,76645,1,0,0:0:0:0:
256,192,76712,1,0,0:0:0:0:
256,192,76779,1,8,0:0:0:0:
256,192,76879,12,0,78279,0:0:0:0:
256,192,78379,5,12,0:0:0:0:
256,192,78579,1,0,0:0:0:0:
256,192,78645,1,0,0:0:0:0:
256,192,78712,1,0,0:0:0:0:
256,192,78779,1,8,0:0:0:0:
256,192,78979,1,0,0:0:0:0:
256,192,79079,1,8,0:0:0:0:
256,192,79279,1,8,0:0:0:0:
256,192,79379,1,8,0:0:0:0:
256,192,79479,1,0,0:0:0:0:
256,192,79579,1,8,0:0:0:0:
256,192,79679,1,0,0:0:0:0:
256,192,79779,1,8,0:0:0:0:
256,192,79979,1,0,0:0:0:0:
256,192,80079,1,8,0:0:0:0:
256,192,80129,1,8,0:0:0:0:
256,192,80179,1,8,0:0:0:0:
256,192,80279,1,0,0:0:0:0:
256,192,80379,1,8,0:0:0:0:
256,192,80579,1,8,0:0:0:0:
256,192,80679,1,0,0:0:0:0:
256,192,80879,1,0,0:0:0:0:
256,192,80979,1,8,0:0:0:0:
256,192,81179,1,8,0:0:0:0:
256,192,81279,1,8,0:0:0:0:
256,192,81379,1,0,0:0:0:0:
256,192,81479,1,0,0:0:0:0:
256,192,81579,1,8,0:0:0:0:
256,192,81645,1,8,0:0:0:0:
256,192,81712,1,8,0:0:0:0:
256,192,81779,1,0,0:0:0:0:
256,192,81845,1,0,0:0:0:0:
256,192,81912,1,0,0:0:0:0:
256,192,81979,1,8,0:0:0:0:
256,192,82179,1,0,0:0:0:0:
256,192,82279,1,8,0:0:0:0:
256,192,82479,1,0,0:0:0:0:
256,192,82579,1,8,0:0:0:0:
256,192,82679,1,0,0:0:0:0:
256,192,82779,1,8,0:0:0:0:
256,192,82879,1,8,0:0:0:0:
256,192,82979,1,0,0:0:0:0:
256,192,83179,1,8,0:0:0:0:
256,192,83379,1,0,0:0:0:0:
256,192,83479,1,0,0:0:0:0:
256,192,83579,1,8,0:0:0:0:
256,192,83779,1,0,0:0:0:0:
256,192,83879,1,8,0:0:0:0:
256,192,83979,1,0,0:0:0:0:
256,192,84379,1,8,0:0:0:0:
256,192,84429,1,8,0:0:0:0:
256,192,84479,1,8,0:0:0:0:
256,192,84579,1,0,0:0:0:0:
256,192,84679,1,0,0:0:0:0:
256,192,84779,1,12,0:0:0:0:
256,192,84979,1,0,0:0:0:0:
256,192,85045,1,0,0:0:0:0:
256,192,85112,1,0,0:0:0:0:
256,192,85179,1,8,0:0:0:0:
256,192,85379,1,0,0:0:0:0:
256,192,85479,1,8,0:0:0:0:
256,192,85679,1,8,0:0:0:0:
256,192,85779,1,8,0:0:0:0:
256,192,85879,1,0,0:0:0:0:
256,192,85979,1,8,0:0:0:0:
256,192,86079,1,0,0:0:0:0:
256,192,86179,1,8,0:0:0:0:
256,192,86379,1,0,0:0:0:0:
256,192,86479,1,8,0:0:0:0:
256,192,86529,1,8,0:0:0:0:
256,192,86579,1,8,0:0:0:0:
256,192,86679,1,0,0:0:0:0:
256,192,86779,1,8,0:0:0:0:
256,192,86979,1,8,0:0:0:0:
256,192,87079,1,0,0:0:0:0:
256,192,87279,1,0,0:0:0:0:
256,192,87379,1,8,0:0:0:0:
256,192,87579,1,8,0:0:0:0:
256,192,87679,1,0,0:0:0:0:
256,192,87779,1,8,0:0:0:0:
256,192,87879,1,8,0:0:0:0:
256,192,87979,1,0,0:0:0:0:
256,192,88045,1,8,0:0:0:0:
256,192,88112,1,8,0:0:0:0:
256,192,88179,1,0,0:0:0:0:
256,192,88245,1,0,0:0:0:0:
256,192,88312,1,0,0:0:0:0:
256,192,88379,1,8,0:0:0:0:
256,192,88579,1,0,0:0:0:0:
256,192,88679,1,8,0:0:0:0:
256,192,88879,1,0,0:0:0:0:
256,192,88979,1,8,0:0:0:0:
256,192,89079,1,0,0:0:0:0:
256,192,89179,1,8,0:0:0:0:
256,192,89279,1,8,0:0:0:0:
256,192,89379,1,0,0:0:0:0:
256,192,89579,1,0,0:0:0:0:
256,192,89779,1,8,0:0:0:0:
256,192,89979,1,8,0:0:0:0:
256,192,90079,1,8,0:0:0:0:
256,192,90179,1,8,0:0:0:0:
256,192,90279,1,8,0:0:0:0:
256,192,90379,12,0,90979,0:0:0:0:
256,192,91179,5,12,0:0:0:0:
256,192,91379,1,0,0:0:0:0:
256,192,91445,1,0,0:0:0:0:
256,192,91512,1,0,0:0:0:0:
256,192,91579,1,8,0:0:0:0:
256,192,91679,1,0,0:0:0:0:
256,192,91779,1,0,0:0:0:0:
256,192,91879,1,8,0:0:0:0:
256,192,92079,1,8,0:0:0:0:
256,192,92179,1,8,0:0:0:0:
256,192,92279,1,0,0:0:0:0:
256,192,92379,1,8,0:0:0:0:
256,192,92479,1,0,0:0:0:0:
256,192,92579,1,8,0:0:0:0:
256,192,92779,1,0,0:0:0:0:
256,192,92879,1,8,0:0:0:0:
256,192,92929,1,8,0:0:0:0:
256,192,92979,1,8,0:0:0:0:
256,192,93079,1,0,0:0:0:0:
256,192,93179,1,8,0:0:0:0:
256,192,93379,1,0,0:0:0:0:
256,192,93479,1,8,0:0:0:0:
256,192,93579,1,8,0:0:0:0:
256,192,93679,1,0,0:0:0:0:
256,192,93779,1,8,0:0:0:0:
256,192,93979,1,8,0:0:0:0:
256,192,94079,1,8,0:0:0:0:
256,192,94179,1,0,0:0:0:0:
256,192,94279,1,0,0:0:0:0:
256,192,94379,1,8,0:0:0:0:
256,192,94445,1,8,0:0:0:0:
256,192,94512,1,8,0:0:0:0:
256,192,94579,1,0,0:0:0:0:
256,192,94645,1,0,0:0:0:0:
256,192,94712,1,0,0:0:0:0:
256,192,94779,1,8,0:0:0:0:
256,192,94979,1,0,0:0:0:0:
256,192,95079,1,8,0:0:0:0:
256,192,95279,1,0,0:0:0:0:
256,192,95379,1,8,0:0:0:0:
256,192,95479,1,0,0:0:0:0:
256,192,95579,1,8,0:0:0:0:
256,192,95679,1,8,0:0:0:0:
256,192,95779,1,0,0:0:0:0:
256,192,95979,1,8,0:0:0:0:
256,192,96179,1,0,0:0:0:0:
256,192,96279,1,0,0:0:0:0:
256,192,96379,1,8,0:0:0:0:
256,192,96579,1,0,0:0:0:0:
256,192,96679,1,8,0:0:0:0:
256,192,96779,1,0,0:0:0:0:
256,192,97179,1,8,0:0:0:0:
256,192,97229,1,8,0:0:0:0:
256,192,97279,1,8,0:0:0:0:
256,192,97379,1,0,0:0:0:0:
256,192,97479,1,0,0:0:0:0:
256,192,97579,1,12,0:0:0:0:
256,192,97779,1,0,0:0:0:0:
256,192,97845,1,0,0:0:0:0:
256,192,97912,1,0,0:0:0:0:
256,192,97979,1,8,0:0:0:0:
256,192,98079,1,0,0:0:0:0:
256,192,98179,1,0,0:0:0:0:
256,192,98279,1,8,0:0:0:0:
256,192,98479,1,0,0:0:0:0:
256,192,98529,1,0,0:0:0:0:
256,192,98579,1,0,0:0:0:0:
256,192,98679,1,8,0:0:0:0:
256,192,98779,1,8,0:0:0:0:
256,192,98879,1,0,0:0:0:0:
256,192,98979,1,8,0:0:0:0:
256,192,99179,1,0,0:0:0:0:
256,192,99279,1,8,0:0:0:0:
256,192,99329,1,8,0:0:0:0:
256,192,99379,1,8,0:0:0:0:
256,192,99479,1,0,0:0:0:0:
256,192,99579,1,8,0:0:0:0:
256,192,99779,1,0,0:0:0:0:
256,192,99879,1,8,0:0:0:0:
256,192,99979,1,8,0:0:0:0:
256,192,100079,1,0,0:0:0:0:
256,192,100179,1,8,0:0:0:0:
256,192,100379,1,8,0:0:0:0:
256,192,100479,1,0,0:0:0:0:
256,192,100579,1,8,0:0:0:0:
256,192,100679,1,8,0:0:0:0:
256,192,100779,1,0,0:0:0:0:
256,192,100845,1,8,0:0:0:0:
256,192,100912,1,8,0:0:0:0:
256,192,100979,1,0,0:0:0:0:
256,192,101045,1,0,0:0:0:0:
256,192,101112,1,0,0:0:0:0:
256,192,101179,1,8,0:0:0:0:
256,192,101379,1,0,0:0:0:0:
256,192,101579,1,8,0:0:0:0:
256,192,101779,1,0,0:0:0:0:
256,192,101879,1,0,0:0:0:0:
256,192,101979,1,8,0:0:0:0:
256,192,102179,1,0,0:0:0:0:
256,192,102379,1,12,0:0:0:0:
256,192,102579,1,8,0:0:0:0:
256,192,102779,1,8,0:0:0:0:
256,192,102879,1,8,0:0:0:0:
256,192,102979,1,8,0:0:0:0:
256,192,103079,1,8,0:0:0:0:
256,192,103179,12,0,103779,0:0:0:0:
256,192,103979,5,12,0:0:0:0:
256,192,104379,1,0,0:0:0:0:
256,192,104779,1,8,0:0:0:0:
256,192,105179,1,0,0:0:0:0:
256,192,105579,1,0,0:0:0:0:
256,192,105979,1,0,0:0:0:0:
256,192,106379,1,8,0:0:0:0:
256,192,106779,1,0,0:0:0:0:
256,192,107179,1,0,0:0:0:0:
256,192,107579,1,0,0:0:0:0:
256,192,107979,1,8,0:0:0:0:
256,192,108379,1,0,0:0:0:0:
256,192,108779,1,0,0:0:0:0:
256,192,109179,1,0,0:0:0:0:
256,192,109579,1,8,0:0:0:0:
256,192,109979,1,0,0:0:0:0:
256,192,110379,1,8,0:0:0:0:
256,192,110779,1,0,0:0:0:0:
256,192,110979,1,0,0:0:0:0:
256,192,111179,1,8,0:0:0:0:
256,192,111579,1,0,0:0:0:0:
256,192,111979,1,0,0:0:0:0:
256,192,112179,1,8,0:0:0:0:
256,192,112379,1,0,0:0:0:0:
256,192,112779,1,8,0:0:0:0:
256,192,113179,1,0,0:0:0:0:
256,192,113379,1,8,0:0:0:0:
256,192,113579,1,0,0:0:0:0:
256,192,113979,1,0,0:0:0:0:
256,192,114379,1,8,0:0:0:0:
256,192,114579,1,0,0:0:0:0:
256,192,114779,1,0,0:0:0:0:
256,192,115179,1,0,0:0:0:0:
256,192,115979,1,8,0:0:0:0:
256,192,116779,1,12,0:0:0:0:
256,192,116979,1,0,0:0:0:0:
256,192,117079,1,8,0:0:0:0:
256,192,117279,1,8,0:0:0:0:
256,192,117379,1,8,0:0:0:0:
256,192,117579,1,0,0:0:0:0:
256,192,117679,1,8,0:0:0:0:
256,192,117779,1,0,0:0:0:0:
256,192,117879,1,0,0:0:0:0:
256,192,117979,1,8,0:0:0:0:
256,192,118179,1,0,0:0:0:0:
256,192,118379,1,8,0:0:0:0:
256,192,118579,1,0,0:0:0:0:
256,192,118679,1,8,0:0:0:0:
256,192,118879,1,8,0:0:0:0:
256,192,118979,1,0,0:0:0:0:
256,192,119179,1,8,0:0:0:0:
256,192,119279,1,8,0:0:0:0:
256,192,119379,1,0,0:0:0:0:
256,192,119479,1,0,0:0:0:0:
256,192,119579,1,8,0:0:0:0:
256,192,119779,1,0,0:0:0:0:
256,192,119979,1,8,0:0:0:0:
256,192,120179,1,0,0:0:0:0:
256,192,120279,1,8,0:0:0:0:
256,192,120479,1,8,0:0:0:0:
256,192,120579,1,8,0:0:0:0:
256,192,120779,1,0,0:0:0:0:
256,192,120879,1,8,0:0:0:0:
256,192,120979,1,0,0:0:0:0:
256,192,121079,1,0,0:0:0:0:
256,192,121179,1,8,0:0:0:0:
256,192,121379,1,0,0:0:0:0:
256,192,121579,1,8,0:0:0:0:
256,192,121779,1,0,0:0:0:0:
256,192,121879,1,8,0:0:0:0:
256,192,122079,1,8,0:0:0:0:
256,192,122179,1,0,0:0:0:0:
256,192,122379,1,8,0:0:0:0:
256,192,122479,1,8,0:0:0:0:
256,192,122579,1,0,0:0:0:0:
256,192,122679,1,0,0:0:0:0:
256,192,122779,1,8,0:0:0:0:
256,192,122979,1,0,0:0:0:0:
256,192,123079,1,0,0:0:0:0:
256,192,123179,1,8,0:0:0:0:
256,192,123379,1,0,0:0:0:0:
256,192,123479,1,8,0:0:0:0:
256,192,123679,1,8,0:0:0:0:
256,192,123779,1,8,0:0:0:0:
256,192,123979,1,0,0:0:0:0:
256,192,124079,1,8,0:0:0:0:
256,192,124179,1,0,0:0:0:0:
256,192,124279,1,0,0:0:0:0:
256,192,124379,1,8,0:0:0:0:
256,192,124579,1,0,0:0:0:0:
256,192,124679,1,0,0:0:0:0:
256,192,124779,1,8,0:0:0:0:
256,192,124979,1,0,0:0:0:0:
256,192,125079,1,8,0:0:0:0:
256,192,125279,1,8,0:0:0:0:
256,192,125379,1,0,0:0:0:0:
256,192,125579,1,8,0:0:0:0:
256,192,125679,1,8,0:0:0:0:
256,192,125779,1,0,0:0:0:0:
256,192,125879,1,0,0:0:0:0:
256,192,125979,1,8,0:0:0:0:
256,192,126179,1,0,0:0:0:0:
256,192,126279,1,0,0:0:0:0:
256,192,126379,1,8,0:0:0:0:
256,192,126579,1,0,0:0:0:0:
256,192,126679,1,8,0:0:0:0:
256,192,126879,1,8,0:0:0:0:
256,192,126979,1,8,0:0:0:0:
256,192,127179,1,0,0:0:0:0:
256,192,127279,1,8,0:0:0:0:
256,192,127379,1,0,0:0:0:0:
256,192,127479,1,0,0:0:0:0:
256,192,127579,1,8,0:0:0:0:
256,192,127779,1,0,0:0:0:0:
256,192,127879,1,0,0:0:0:0:
256,192,127979,1,8,0:0:0:0:
256,192,128079,12,0,129179,0:0:0:0:
256,192,129579,5,12,0:0:0:0:
256,192,129779,1,0,0:0:0:0:
256,192,129879,1,8,0:0:0:0:
256,192,130079,1,8,0:0:0:0:
256,192,130179,1,8,0:0:0:0:
256,192,130379,1,0,0:0:0:0:
256,192,130479,1,0,0:0:0:0:
256,192,130579,1,8,0:0:0:0:
256,192,130679,1,0,0:0:0:0:
256,192,130779,1,8,0:0:0:0:
256,192,130879,1,8,0:0:0:0:
256,192,130979,1,0,0:0:0:0:
256,192,131179,1,8,0:0:0:0:
256,192,131279,1,0,0:0:0:0:
256,192,131379,1,0,0:0:0:0:
256,192,131479,1,8,0:0:0:0:
256,192,131679,1,8,0:0:0:0:
256,192,131779,1,0,0:0:0:0:
256,192,131979,1,0,0:0:0:0:
256,192,132079,1,8,0:0:0:0:
256,192,132179,1,0,0:0:0:0:
256,192,132279,1,0,0:0:0:0:
256,192,132379,1,8,0:0:0:0:
256,192,132479,1,8,0:0:0:0:
256,192,132579,1,0,0:0:0:0:
256,192,132679,1,0,0:0:0:0:
256,192,132779,1,8,0:0:0:0:
256,192,132979,1,0,0:0:0:0:
256,192,133079,1,8,0:0:0:0:
256,192,133279,1,8,0:0:0:0:
256,192,133379,1,8,0:0:0:0:
256,192,133579,1,0,0:0:0:0:
256,192,133679,1,8,0:0:0:0:
256,192,133779,1,0,0:0:0:0:
256,192,133879,1,8,0:0:0:0:
256,192,133979,1,8,0:0:0:0:
256,192,134079,1,8,0:0:0:0:
256,192,134179,1,0,0:0:0:0:
256,192,134379,1,0,0:0:0:0:
256,192,134479,1,8,0:0:0:0:
256,192,134579,1,0,0:0:0:0:
256,192,134679,1,8,0:0:0:0:
256,192,134879,1,8,0:0:0:0:
256,192,134979,1,0,0:0:0:0:
256,192,135179,1,0,0:0:0:0:
256,192,135279,1,8,0:0:0:0:
256,192,135379,1,0,0:0:0:0:
256,192,135479,1,8,0:0:0:0:
256,192,135579,1,8,0:0:0:0:
256,192,135679,1,0,0:0:0:0:
256,192,135779,1,8,0:0:0:0:
256,192,135879,1,0,0:0:0:0:
256,192,135979,1,8,0:0:0:0:
256,192,136179,1,0,0:0:0:0:
256,192,136279,1,8,0:0:0:0:
256,192,136479,1,8,0:0:0:0:
256,192,136579,1,8,0:0:0:0:
256,192,136779,1,0,0:0:0:0:
256,192,136879,1,0,0:0:0:0:
256,192,136979,1,8,0:0:0:0:
256,192,137079,1,0,0:0:0:0:
256,192,137179,1,8,0:0:0:0:
256,192,137279,1,8,0:0:0:0:
256,192,137379,1,0,0:0:0:0:
256,192,137579,1,8,0:0:0:0:
256,192,137679,1,0,0:0:0:0:
256,192,137779,1,0,0:0:0:0:
256,192,137879,1,8,0:0:0:0:
256,192,138079,1,8,0:0:0:0:
256,192,138179,1,0,0:0:0:0:
256,192,138379,1,0,0:0:0:0:
256,192,138479,1,8,0:0:0:0:
256,192,138579,1,0,0:0:0:0:
256,192,138679,1,0,0:0:0:0:
256,192,138779,1,8,0:0:0:0:
256,192,138879,1,8,0:0:0:0:
256,192,138979,1,0,0:0:0:0:
256,192,139079,1,0,0:0:0:0:
256,192,139179,1,8,0:0:0:0:
256,192,139279,1,0,0:0:0:0:
256,192,139379,1,8,0:0:0:0:
256,192,139479,1,8,0:0:0:0:
256,192,139579,1,0,0:0:0:0:
256,192,139679,1,0,0:0:0:0:
256,192,139779,1,8,0:0:0:0:
256,192,139879,1,8,0:0:0:0:
256,192,139979,1,8,0:0:0:0:
256,192,140079,1,0,0:0:0:0:
256,192,140179,1,8,0:0:0:0:
256,192,140279,1,0,0:0:0:0:
256,192,140379,1,8,0:0:0:0:
256,192,140579,1,0,0:0:0:0:
256,192,140779,1,8,0:0:0:0:
256,192,140879,1,0,0:0:0:0:
256,192,141079,1,0,0:0:0:0:
256,192,141279,1,0,0:0:0:0:
256,192,141579,1,0,0:0:0:0:
256,192,141679,1,0,0:0:0:0:
256,192,141779,1,0,0:0:0:0:
256,192,141879,1,0,0:0:0:0:
256,192,141979,1,8,0:0:0:0:
256,192,142029,1,8,0:0:0:0:
256,192,142079,1,8,0:0:0:0:
256,192,142179,1,0,0:0:0:0:
256,192,142379,1,12,0:0:0:0:
256,192,142579,1,0,0:0:0:0:
256,192,142679,1,8,0:0:0:0:
256,192,142879,1,8,0:0:0:0:
256,192,142979,1,8,0:0:0:0:
256,192,143179,1,0,0:0:0:0:
256,192,143279,1,0,0:0:0:0:
256,192,143379,1,8,0:0:0:0:
256,192,143479,1,0,0:0:0:0:
256,192,143579,1,8,0:0:0:0:
256,192,143645,1,8,0:0:0:0:
256,192,143712,1,8,0:0:0:0:
256,192,143779,1,0,0:0:0:0:
256,192,143879,1,0,0:0:0:0:
256,192,143979,1,8,0:0:0:0:
256,192,144079,1,0,0:0:0:0:
256,192,144179,1,0,0:0:0:0:
256,192,144279,1,8,0:0:0:0:
256,192,144479,1,8,0:0:0:0:
256,192,144579,1,0,0:0:0:0:
256,192,144779,1,0,0:0:0:0:
256,192,144879,1,8,0:0:0:0:
256,192,144979,1,0,0:0:0:0:
256,192,145079,1,0,0:0:0:0:
256,192,145179,1,8,0:0:0:0:
256,192,145245,1,0,0:0:0:0:
256,192,145312,1,0,0:0:0:0:
256,192,145379,1,8,0:0:0:0:
256,192,145479,1,0,0:0:0:0:
256,192,145579,1,8,0:0:0:0:
256,192,145779,1,0,0:0:0:0:
256,192,145879,1,8,0:0:0:0:
256,192,146079,1,8,0:0:0:0:
256,192,146179,1,8,0:0:0:0:
256,192,146379,1,0,0:0:0:0:
256,192,146479,1,8,0:0:0:0:
256,192,146579,1,8,0:0:0:0:
256,192,146679,1,0,0:0:0:0:
256,192,146779,1,8,0:0:0:0:
256,192,146845,1,8,0:0:0:0:
256,192,146912,1,8,0:0:0:0:
256,192,146979,1,0,0:0:0:0:
256,192,147079,1,0,0:0:0:0:
256,192,147179,1,8,0:0:0:0:
256,192,147279,1,8,0:0:0:0:
256,192,147379,1,0,0:0:0:0:
256,192,147479,1,8,0:0:0:0:
256,192,147679,1,8,0:0:0:0:
256,192,147779,1,0,0:0:0:0:
256,192,147979,1,8,0:0:0:0:
256,192,148079,1,8,0:0:0:0:
256,192,148179,1,0,0:0:0:0:
256,192,148279,1,0,0:0:0:0:
256,192,148379,1,8,0:0:0:0:
256,192,148445,1,0,0:0:0:0:
256,192,148512,1,0,0:0:0:0:
256,192,148579,1,8,0:0:0:0:
256,192,148679,1,0,0:0:0:0:
256,192,148779,1,8,0:0:0:0:
256,192,148979,1,0,0:0:0:0:
256,192,149079,1,8,0:0:0:0:
256,192,149279,1,8,0:0:0:0:
256,192,149379,1,8,0:0:0:0:
256,192,149579,1,8,0:0:0:0:
256,192,149679,1,0,0:0:0:0:
256,192,149779,1,0,0:0:0:0:
256,192,149879,1,8,0:0:0:0:
256,192,150079,1,8,0:0:0:0:
256,192,150179,1,0,0:0:0:0:
256,192,150379,1,8,0:0:0:0:
256,192,150579,1,0,0:0:0:0:
256,192,150679,1,8,0:0:0:0:
256,192,150879,1,8,0:0:0:0:
256,192,150979,1,8,0:0:0:0:
256,192,151179,1,8,0:0:0:0:
256,192,151279,1,0,0:0:0:0:
256,192,151379,1,0,0:0:0:0:
256,192,151479,1,8,0:0:0:0:
256,192,151679,1,8,0:0:0:0:
256,192,151779,1,0,0:0:0:0:
256,192,151979,1,8,0:0:0:0:
256,192,152079,1,8,0:0:0:0:
256,192,152179,1,0,0:0:0:0:
256,192,152279,1,0,0:0:0:0:
256,192,152379,1,8,0:0:0:0:
256,192,152479,1,8,0:0:0:0:
256,192,152579,1,8,0:0:0:0:
256,192,152679,1,8,0:0:0:0:
256,192,152779,1,0,0:0:0:0:
256,192,152879,1,0,0:0:0:0:
256,192,152979,1,8,0:0:0:0:
256,192,153079,1,0,0:0:0:0:
256,192,153179,1,8,0:0:0:0:
256,192,153229,1,8,0:0:0:0:
256,192,153279,1,8,0:0:0:0:
256,192,153379,1,0,0:0:0:0:
256,192,153479,1,0,0:0:0:0:
256,192,153579,1,8,0:0:0:0:
256,192,153779,1,0,0:0:0:0:
256,192,153879,1,8,0:0:0:0:
256,192,154079,1,0,0:0:0:0:
256,192,154279,1,8,0:0:0:0:
256,192,154379,1,0,0:0:0:0:
256,192,154479,1,0,0:0:0:0:
256,192,154579,1,8,0:0:0:0:
256,192,154679,1,8,0:0:0:0:
256,192,154779,1,0,0:0:0:0:
256,192,155179,1,12,0:0:0:0:
256,192,155979,1,8,0:0:0:0:
256,192,156779,1,0,0:0:0:0:
256,192,157179,1,0,0:0:0:0:
256,192,157379,1,0,0:0:0:0:
256,192,157579,1,8,0:0:0:0:
256,192,157979,1,0,0:0:0:0:
256,192,158379,1,8,0:0:0:0:
256,192,159179,1,8,0:0:0:0:
256,192,159979,1,0,0:0:0:0:
256,192,160379,1,8,0:0:0:0:
256,192,160579,1,0,0:0:0:0:
256,192,160779,1,8,0:0:0:0:
256,192,161579,1,8,0:0:0:0:
256,192,162379,1,8,0:0:0:0:
256,192,163179,1,0,0:0:0:0:
256,192,163579,1,0,0:0:0:0:
256,192,163779,1,0,0:0:0:0:
256,192,163979,1,8,0:0:0:0:
256,192,164379,1,0,0:0:0:0:
256,192,164779,1,8,0:0:0:0:
256,192,165579,1,8,0:0:0:0:
256,192,166379,1,0,0:0:0:0:
256,192,166779,1,8,0:0:0:0:
256,192,166979,1,0,0:0:0:0:
256,192,167179,1,8,0:0:0:0:
256,192,167379,1,0,0:0:0:0:
256,192,167579,1,0,0:0:0:0:
256,192,167779,1,0,0:0:0:0:
256,192,167979,1,12,0:0:0:0:
256,192,168379,1,8,0:0:0:0:
256,192,168579,1,0,0:0:0:0:
256,192,168779,1,8,0:0:0:0:
256,192,168979,1,0,0:0:0:0:
256,192,169079,1,8,0:0:0:0:
256,192,169179,1,0,0:0:0:0:
256,192,169379,1,8,0:0:0:0:
256,192,169579,1,0,0:0:0:0:
256,192,169779,1,8,0:0:0:0:
256,192,169879,1,0,0:0:0:0:
256,192,170079,1,8,0:0:0:0:
256,192,170279,1,0,0:0:0:0:
256,192,170379,1,8,0:0:0:0:
256,192,170579,1,0,0:0:0:0:
256,192,170645,1,0,0:0:0:0:
256,192,170712,1,0,0:0:0:0:
256,192,170779,1,8,0:0:0:0:
256,192,170979,1,0,0:0:0:0:
256,192,171179,1,8,0:0:0:0:
256,192,171379,1,0,0:0:0:0:
256,192,171479,1,0,0:0:0:0:
256,192,171579,1,8,0:0:0:0:
256,192,171779,1,0,0:0:0:0:
256,192,171979,1,8,0:0:0:0:
256,192,172179,1,0,0:0:0:0:
256,192,172279,1,8,0:0:0:0:
256,192,172379,1,0,0:0:0:0:
256,192,172579,1,8,0:0:0:0:
256,192,172779,1,0,0:0:0:0:
256,192,172979,1,8,0:0:0:0:
256,192,173079,1,0,0:0:0:0:
256,192,173279,1,8,0:0:0:0:
256,192,173479,1,0,0:0:0:0:
256,192,173579,1,8,0:0:0:0:
256,192,173779,1,0,0:0:0:0:
256,192,173845,1,0,0:0:0:0:
256,192,173912,1,0,0:0:0:0:
256,192,173979,1,8,0:0:0:0:
256,192,174179,1,0,0:0:0:0:
256,192,174379,1,12,0:0:0:0:
256,192,174779,1,8,0:0:0:0:
256,192,174979,1,0,0:0:0:0:
256,192,175179,1,8,0:0:0:0:
256,192,175379,1,0,0:0:0:0:
256,192,175479,1,8,0:0:0:0:
256,192,175579,1,0,0:0:0:0:
256,192,175779,1,8,0:0:0:0:
256,192,175979,1,0,0:0:0:0:
256,192,176179,1,8,0:0:0:0:
256,192,176279,1,0,0:0:0:0:
256,192,176479,1,8,0:0:0:0:
256,192,176679,1,0,0:0:0:0:
256,192,176779,1,8,0:0:0:0:
256,192,176979,1,0,0:0:0:0:
256,192,177045,1,0,0:0:0:0:
256,192,177112,1,0,0:0:0:0:
256,192,177179,1,8,0:0:0:0:
256,192,177379,1,0,0:0:0:0:
256,192,177579,1,8,0:0:0:0:
256,192,177779,1,0,0:0:0:0:
256,192,177879,1,0,0:0:0:0:
256,192,177979,1,8,0:0:0:0:
256,192,178179,1,0,0:0:0:0:
256,192,178379,1,8,0:0:0:0:
256,192,178579,1,8,0:0:0:0:
256,192,178679,1,8,0:0:0:0:
256,192,178779,1,0,0:0:0:0:
256,192,178979,1,8,0:0:0:0:
256,192,179179,1,0,0:0:0:0:
256,192,179379,1,8,0:0:0:0:
256,192,179479,1,0,0:0:0:0:
256,192,179679,1,8,0:0:0:0:
256,192,179879,1,0,0:0:0:0:
256,192,179979,1,8,0:0:0:0:
256,192,180179,1,0,0:0:0:0:
256,192,180245,1,0,0:0:0:0:
256,192,180312,1,0,0:0:0:0:
256,192,180379,1,8,0:0:0:0:
256,192,180579,1,0,0:0:0:0:
256,192,180779,1,8,0:0:0:0:
256,192,181179,1,0,0:0:0:0:
256,192,181379,1,8,0:0:0:0:
256,192,181579,1,0,0:0:0:0:
256,192,181979,1,8,0:0:0:0:
256,192,182379,1,0,0:0:0:0:
256,192,182579,1,8,0:0:0:0:
256,192,182779,1,0,0:0:0:0:
256,192,183179,1,8,0:0:0:0:
256,192,183579,1,8,0:0:0:0:
256,192,183779,1,8,0:0:0:0:
256,192,183979,1,0,0:0:0:0:
256,192,184379,1,8,0:0:0:0:
256,192,184779,1,0,0:0:0:0:
256,192,184979,1,8,0:0:0:0:
288,192,185179,1,0,0:0:0:0:
256,192,185579,1,8,0:0:0:0:
256,192,185979,1,0,0:0:0:0:
256,192,186179,1,8,0:0:0:0:
256,192,186379,1,0,0:0:0:0:
256,192,186779,1,8,0:0:0:0:
256,192,187179,1,0,0:0:0:0:
256,192,187379,1,8,0:0:0:0:
256,192,187479,1,0,0:0:0:0:
256,192,187679,1,0,0:0:0:0:
256,192,187779,1,8,0:0:0:0:
256,192,187979,1,0,0:0:0:0:
256,192,188179,1,0,0:0:0:0:
256,192,188379,1,8,0:0:0:0:
256,192,188779,1,8,0:0:0:0:
256,192,188979,1,8,0:0:0:0:
256,192,189079,1,8,0:0:0:0:
256,192,189179,1,0,0:0:0:0:
256,192,189379,1,8,0:0:0:0:
256,192,189579,1,0,0:0:0:0:
256,192,189979,1,0,0:0:0:0:
256,192,190179,1,8,0:0:0:0:
256,192,190379,1,0,0:0:0:0:
256,192,190579,1,0,0:0:0:0:
256,192,190679,1,8,0:0:0:0:
256,192,190879,1,8,0:0:0:0:
256,192,190979,1,8,0:0:0:0:
256,192,191179,1,0,0:0:0:0:
256,192,191379,1,8,0:0:0:0:
256,192,191479,1,0,0:0:0:0:
256,192,191679,1,0,0:0:0:0:
256,192,191779,1,8,0:0:0:0:
256,192,191979,1,8,0:0:0:0:
256,192,192179,1,0,0:0:0:0:
256,192,192279,1,8,0:0:0:0:
256,192,192479,1,0,0:0:0:0:
256,192,192579,1,0,0:0:0:0:
256,192,192779,1,8,0:0:0:0:
256,192,192979,1,0,0:0:0:0:
256,192,193079,1,0,0:0:0:0:
256,192,193179,1,8,0:0:0:0:
256,192,193379,1,8,0:0:0:0:
256,192,193579,1,0,0:0:0:0:
256,192,193679,1,0,0:0:0:0:
256,192,193779,1,8,0:0:0:0:
256,192,193879,1,0,0:0:0:0:
256,192,193979,1,8,0:0:0:0:
256,192,194079,1,8,0:0:0:0:
256,192,194179,1,0,0:0:0:0:
256,192,194379,1,0,0:0:0:0:
256,192,194479,1,0,0:0:0:0:
256,192,194579,1,8,0:0:0:0:
256,192,194679,1,0,0:0:0:0:
256,192,194729,1,0,0:0:0:0:
256,192,194779,1,0,0:0:0:0:
256,192,194879,1,8,0:0:0:0:
256,192,194979,1,0,0:0:0:0:
256,192,195179,1,8,0:0:0:0:
256,192,195279,1,8,0:0:0:0:
256,192,195379,1,0,0:0:0:0:
256,192,195479,1,8,0:0:0:0:
256,192,195579,1,0,0:0:0:0:
256,192,195679,1,0,0:0:0:0:
256,192,195779,1,8,0:0:0:0:
256,192,195979,1,8,0:0:0:0:
256,192,196079,1,8,0:0:0:0:
256,192,196179,1,0,0:0:0:0:
256,192,196279,1,8,0:0:0:0:
256,192,196329,1,8,0:0:0:0:
256,192,196379,1,8,0:0:0:0:
256,192,196479,1,0,0:0:0:0:
256,192,196579,1,8,0:0:0:0:
256,192,196779,1,0,0:0:0:0:
256,192,196879,1,8,0:0:0:0:
256,192,196979,1,8,0:0:0:0:
256,192,197079,1,0,0:0:0:0:
256,192,197179,1,8,0:0:0:0:
256,192,197279,1,8,0:0:0:0:
256,192,197379,1,0,0:0:0:0:
256,192,197579,1,0,0:0:0:0:
256,192,197679,1,8,0:0:0:0:
256,192,197779,1,8,0:0:0:0:
256,192,197879,1,0,0:0:0:0:
256,192,197929,1,0,0:0:0:0:
256,192,197979,1,0,0:0:0:0:
256,192,198079,1,8,0:0:0:0:
256,192,198179,1,0,0:0:0:0:
256,192,198379,1,8,0:0:0:0:
256,192,198479,1,0,0:0:0:0:
256,192,198579,1,0,0:0:0:0:
256,192,198679,1,8,0:0:0:0:
256,192,198779,1,0,0:0:0:0:
256,192,198879,1,0,0:0:0:0:
256,192,198979,1,8,0:0:0:0:
256,192,199179,1,8,0:0:0:0:
256,192,199279,1,0,0:0:0:0:
256,192,199379,1,0,0:0:0:0:
256,192,199479,1,8,0:0:0:0:
256,192,199529,1,8,0:0:0:0:
256,192,199579,1,8,0:0:0:0:
256,192,199679,1,0,0:0:0:0:
256,192,199779,1,8,0:0:0:0:
256,192,199979,1,8,0:0:0:0:
256,192,200079,1,0,0:0:0:0:
256,192,200179,1,8,0:0:0:0:
256,192,200279,1,0,0:0:0:0:
256,192,200379,1,8,0:0:0:0:
256,192,200479,1,8,0:0:0:0:
256,192,200579,1,0,0:0:0:0:
256,192,200679,1,0,0:0:0:0:
256,192,200779,1,8,0:0:0:0:
256,192,200879,1,0,0:0:0:0:
256,192,200979,1,8,0:0:0:0:
256,192,201079,1,8,0:0:0:0:
256,192,201179,1,0,0:0:0:0:
256,192,201279,1,8,0:0:0:0:
256,192,201379,1,0,0:0:0:0:
256,192,201479,1,0,0:0:0:0:
256,192,201579,1,8,0:0:0:0:
256,192,201679,1,0,0:0:0:0:
256,192,201779,1,8,0:0:0:0:
256,192,201879,1,0,0:0:0:0:
256,192,201979,1,8,0:0:0:0:
256,192,202079,1,8,0:0:0:0:
256,192,202179,1,0,0:0:0:0:
256,192,202279,1,0,0:0:0:0:
256,192,202379,1,8,0:0:0:0:
256,192,202479,1,0,0:0:0:0:
256,192,202579,1,0,0:0:0:0:
256,192,202679,1,0,0:0:0:0:
256,192,202779,1,8,0:0:0:0:
256,192,202879,1,0,0:0:0:0:
256,192,202979,1,8,0:0:0:0:
256,192,203079,1,8,0:0:0:0:
256,192,203179,1,0,0:0:0:0:
256,192,203279,1,8,0:0:0:0:
256,192,203379,1,8,0:0:0:0:
256,192,203479,1,8,0:0:0:0:
256,192,203579,1,0,0:0:0:0:
256,192,203679,1,0,0:0:0:0:
256,192,203779,1,8,0:0:0:0:
256,192,203879,1,0,0:0:0:0:
256,192,203979,1,8,0:0:0:0:
256,192,204079,1,8,0:0:0:0:
256,192,204179,1,0,0:0:0:0:
256,192,204279,1,0,0:0:0:0:
256,192,204379,1,8,0:0:0:0:
256,192,204429,1,8,0:0:0:0:
256,192,204479,1,0,0:0:0:0:
256,192,204579,1,8,0:0:0:0:
256,192,204679,1,8,0:0:0:0:
256,192,204779,1,0,0:0:0:0:
256,192,204879,12,0,205979,0:0:0:0:
256,192,206379,5,8,0:0:0:0:
256,192,206479,1,0,0:0:0:0:
256,192,206579,1,8,0:0:0:0:
256,192,206679,1,0,0:0:0:0:
256,192,206879,1,0,0:0:0:0:
256,192,206979,1,8,0:0:0:0:
256,192,207079,1,8,0:0:0:0:
256,192,207179,1,0,0:0:0:0:
256,192,207279,1,8,0:0:0:0:
256,192,207379,1,0,0:0:0:0:
256,192,207479,1,8,0:0:0:0:
256,192,207679,1,8,0:0:0:0:
256,192,207779,1,0,0:0:0:0:
256,192,207879,1,0,0:0:0:0:
256,192,207979,1,8,0:0:0:0:
256,192,208079,1,8,0:0:0:0:
256,192,208179,1,0,0:0:0:0:
256,192,208279,1,8,0:0:0:0:
256,192,208479,1,0,0:0:0:0:
256,192,208679,1,8,0:0:0:0:
256,192,208779,1,0,0:0:0:0:
256,192,208879,1,8,0:0:0:0:
256,192,208979,1,8,0:0:0:0:
256,192,209079,1,0,0:0:0:0:
256,192,209279,1,0,0:0:0:0:
256,192,209379,1,8,0:0:0:0:
256,192,209579,1,0,0:0:0:0:
256,192,209679,1,8,0:0:0:0:
256,192,209779,1,0,0:0:0:0:
256,192,209879,1,8,0:0:0:0:
256,192,210079,1,0,0:0:0:0:
256,192,210179,1,8,0:0:0:0:
256,192,210279,1,0,0:0:0:0:
256,192,210379,1,8,0:0:0:0:
256,192,210479,1,8,0:0:0:0:
256,192,210579,1,0,0:0:0:0:
256,192,210679,1,8,0:0:0:0:
256,192,210879,1,8,0:0:0:0:
256,192,210979,1,8,0:0:0:0:
256,192,211079,1,0,0:0:0:0:
256,192,211179,1,8,0:0:0:0:
256,192,211279,1,8,0:0:0:0:
256,192,211379,1,0,0:0:0:0:
256,192,211479,1,8,0:0:0:0:
256,192,211679,1,0,0:0:0:0:
256,192,211879,1,0,0:0:0:0:
256,192,211979,1,8,0:0:0:0:
256,192,212079,1,8,0:0:0:0:
256,192,212179,1,0,0:0:0:0:
256,192,212279,1,8,0:0:0:0:
256,192,212379,1,0,0:0:0:0:
256,192,212429,1,0,0:0:0:0:
256,192,212479,1,0,0:0:0:0:
256,192,212579,1,8,0:0:0:0:
256,192,212779,1,8,0:0:0:0:
256,192,212879,1,0,0:0:0:0:
256,192,212979,1,8,0:0:0:0:
256,192,213079,1,0,0:0:0:0:
256,192,213279,1,0,0:0:0:0:
256,192,213379,1,8,0:0:0:0:
256,192,213479,1,8,0:0:0:0:
256,192,213579,1,0,0:0:0:0:
256,192,213679,1,8,0:0:0:0:
256,192,213779,1,0,0:0:0:0:
256,192,213879,1,8,0:0:0:0:
256,192,214079,1,8,0:0:0:0:
256,192,214179,1,0,0:0:0:0:
256,192,214279,1,0,0:0:0:0:
256,192,214379,1,8,0:0:0:0:
256,192,214479,1,8,0:0:0:0:
256,192,214579,1,0,0:0:0:0:
256,192,214679,1,8,0:0:0:0:
256,192,214879,1,0,0:0:0:0:
256,192,215079,1,8,0:0:0:0:
256,192,215179,1,0,0:0:0:0:
256,192,215279,1,8,0:0:0:0:
256,192,215379,1,8,0:0:0:0:
256,192,215479,1,0,0:0:0:0:
256,192,215679,1,0,0:0:0:0:
256,192,215779,1,8,0:0:0:0:
256,192,215979,1,0,0:0:0:0:
256,192,216079,1,8,0:0:0:0:
256,192,216179,1,0,0:0:0:0:
256,192,216279,1,8,0:0:0:0:
256,192,216479,1,0,0:0:0:0:
256,192,216579,1,8,0:0:0:0:
256,192,216679,1,0,0:0:0:0:
256,192,216779,1,8,0:0:0:0:
256,192,216879,1,8,0:0:0:0:
256,192,216979,1,0,0:0:0:0:
256,192,217079,1,8,0:0:0:0:
256,192,217279,1,8,0:0:0:0:
256,192,217379,1,0,0:0:0:0:
256,192,217479,1,0,0:0:0:0:
256,192,217579,1,12,0:0:0:0:
256,192,217779,1,8,0:0:0:0:
256,192,217879,1,0,0:0:0:0:
256,192,218079,1,8,0:0:0:0:
256,192,218179,1,8,0:0:0:0:
256,192,218279,1,0,0:0:0:0:
256,192,218379,1,8,0:0:0:0:
256,192,218479,1,0,0:0:0:0:
256,192,218579,1,8,0:0:0:0:
256,192,218679,1,8,0:0:0:0:
256,192,218779,1,0,0:0:0:0:
256,192,218879,1,8,0:0:0:0:
256,192,218979,1,8,0:0:0:0:
256,192,219079,1,8,0:0:0:0:
256,192,219179,1,0,0:0:0:0:
256,192,219279,1,8,0:0:0:0:
256,192,219379,1,8,0:0:0:0:
256,192,219479,1,0,0:0:0:0:
256,192,219679,1,0,0:0:0:0:
256,192,219779,1,8,0:0:0:0:
256,192,219879,1,8,0:0:0:0:
256,192,219979,1,0,0:0:0:0:
256,192,220079,1,8,0:0:0:0:
256,192,220179,1,0,0:0:0:0:
256,192,220279,1,8,0:0:0:0:
256,192,220479,1,8,0:0:0:0:
256,192,220579,1,0,0:0:0:0:
256,192,220679,1,0,0:0:0:0:
256,192,220779,1,8,0:0:0:0:
256,192,220879,1,8,0:0:0:0:
256,192,220979,1,0,0:0:0:0:
256,192,221079,1,8,0:0:0:0:
256,192,221279,1,0,0:0:0:0:
256,192,221479,1,8,0:0:0:0:
256,192,221579,1,0,0:0:0:0:
256,192,221679,1,8,0:0:0:0:
256,192,221779,1,8,0:0:0:0:
256,192,221879,1,0,0:0:0:0:
256,192,222079,1,0,0:0:0:0:
256,192,222179,1,8,0:0:0:0:
256,192,222379,1,0,0:0:0:0:
256,192,222479,1,8,0:0:0:0:
256,192,222579,1,0,0:0:0:0:
256,192,222679,1,8,0:0:0:0:
256,192,222879,1,0,0:0:0:0:
256,192,222979,1,8,0:0:0:0:
256,192,223079,1,0,0:0:0:0:
256,192,223179,1,8,0:0:0:0:
256,192,223279,1,8,0:0:0:0:
256,192,223379,1,0,0:0:0:0:
256,192,223479,1,8,0:0:0:0:
256,192,223679,1,8,0:0:0:0:
256,192,223779,1,8,0:0:0:0:
256,192,223879,1,0,0:0:0:0:
256,192,223979,1,8,0:0:0:0:
256,192,224079,1,8,0:0:0:0:
256,192,224179,1,0,0:0:0:0:
256,192,224279,1,8,0:0:0:0:
256,192,224479,1,0,0:0:0:0:
256,192,224679,1,0,0:0:0:0:
256,192,224779,1,8,0:0:0:0:
256,192,224879,1,8,0:0:0:0:
256,192,224979,1,0,0:0:0:0:
256,192,225079,1,8,0:0:0:0:
256,192,225179,1,0,0:0:0:0:
256,192,225229,1,0,0:0:0:0:
256,192,225279,1,0,0:0:0:0:
256,192,225379,1,8,0:0:0:0:
256,192,225579,1,8,0:0:0:0:
256,192,225679,1,0,0:0:0:0:
256,192,225779,1,8,0:0:0:0:
256,192,225879,1,0,0:0:0:0:
256,192,226079,1,0,0:0:0:0:
256,192,226179,1,8,0:0:0:0:
256,192,226279,1,8,0:0:0:0:
256,192,226379,1,0,0:0:0:0:
256,192,226479,1,8,0:0:0:0:
256,192,226579,1,0,0:0:0:0:
256,192,226679,1,8,0:0:0:0:
256,192,226879,1,8,0:0:0:0:
256,192,226979,1,0,0:0:0:0:
256,192,227079,1,0,0:0:0:0:
256,192,227179,1,8,0:0:0:0:
256,192,227279,1,8,0:0:0:0:
256,192,227379,1,0,0:0:0:0:
256,192,227479,1,8,0:0:0:0:
256,192,227679,1,0,0:0:0:0:
256,192,227879,1,8,0:0:0:0:
256,192,227979,1,0,0:0:0:0:
256,192,228079,1,8,0:0:0:0:
256,192,228179,1,8,0:0:0:0:
256,192,228279,1,0,0:0:0:0:
256,192,228479,1,0,0:0:0:0:
256,192,228579,1,8,0:0:0:0:
256,192,228779,1,0,0:0:0:0:
256,192,228879,1,8,0:0:0:0:
256,192,228979,1,0,0:0:0:0:
256,192,229079,1,8,0:0:0:0:
256,192,229279,1,0,0:0:0:0:
256,192,229379,1,8,0:0:0:0:
256,192,229479,1,0,0:0:0:0:
256,192,229579,1,8,0:0:0:0:
256,192,229679,1,8,0:0:0:0:
256,192,229779,1,0,0:0:0:0:
256,192,229879,1,8,0:0:0:0:
256,192,230079,1,8,0:0:0:0:
256,192,230179,1,8,0:0:0:0:
256,192,230279,1,0,0:0:0:0:
256,192,230379,1,8,0:0:0:0:
256,192,230479,1,0,0:0:0:0:
256,192,230679,1,8,0:0:0:0:
256,192,230879,1,0,0:0:0:0:
256,192,231079,1,0,0:0:0:0:
256,192,231129,1,0,0:0:0:0:
256,192,231179,1,0,0:0:0:0:
256,192,231279,1,8,0:0:0:0:
256,192,231379,1,8,0:0:0:0:
256,192,231479,1,0,0:0:0:0:
256,192,231579,1,8,0:0:0:0:
256,192,231645,1,8,0:0:0:0:
256,192,231712,1,0,0:0:0:0:
256,192,231779,1,8,0:0:0:0:
256,192,231979,1,0,0:0:0:0:
256,192,232079,1,8,0:0:0:0:
256,192,232279,1,0,0:0:0:0:
256,192,232479,1,0,0:0:0:0:
256,192,232579,1,8,0:0:0:0:
256,192,232679,1,8,0:0:0:0:
256,192,232779,1,0,0:0:0:0:
256,192,232879,1,8,0:0:0:0:
256,192,233079,1,0,0:0:0:0:
256,192,233279,1,8,0:0:0:0:
256,192,233379,1,0,0:0:0:0:
256,192,233479,1,0,0:0:0:0:
256,192,233579,1,8,0:0:0:0:
256,192,233679,1,8,0:0:0:0:
256,192,233779,1,0,0:0:0:0:
256,192,233879,1,8,0:0:0:0:
256,192,234079,1,0,0:0:0:0:
256,192,234279,1,8,0:0:0:0:
256,192,234379,1,8,0:0:0:0:
256,192,234479,1,0,0:0:0:0:
256,192,234579,1,0,0:0:0:0:
256,192,234679,1,8,0:0:0:0:
256,192,234779,1,0,0:0:0:0:
256,192,234879,1,8,0:0:0:0:
256,192,234979,1,8,0:0:0:0:
256,192,235179,1,0,0:0:0:0:
256,192,235279,1,8,0:0:0:0:
256,192,235479,1,0,0:0:0:0:
256,192,235679,1,8,0:0:0:0:
256,192,235779,1,8,0:0:0:0:
256,192,235879,1,8,0:0:0:0:
256,192,235979,1,0,0:0:0:0:
256,192,236079,1,8,0:0:0:0:
256,192,236279,1,0,0:0:0:0:
256,192,236479,1,8,0:0:0:0:
256,192,236579,1,0,0:0:0:0:
256,192,236679,1,0,0:0:0:0:
256,192,236779,1,8,0:0:0:0:
256,192,236829,1,8,0:0:0:0:
256,192,236879,1,8,0:0:0:0:
256,192,236979,1,0,0:0:0:0:
256,192,237079,1,8,0:0:0:0:
256,192,237179,1,8,0:0:0:0:
256,192,237279,1,0,0:0:0:0:
256,192,237479,1,8,0:0:0:0:
256,192,237579,1,8,0:0:0:0:
256,192,237679,1,0,0:0:0:0:
256,192,237779,1,8,0:0:0:0:
256,192,237879,1,0,0:0:0:0:
256,192,237929,1,0,0:0:0:0:
256,192,237979,1,0,0:0:0:0:
256,192,238079,1,8,0:0:0:0:
256,192,238179,1,8,0:0:0:0:
256,192,238379,1,0,0:0:0:0:
256,192,238479,1,8,0:0:0:0:
256,192,238679,1,0,0:0:0:0:
256,192,238879,1,0,0:0:0:0:
256,192,238979,1,8,0:0:0:0:
256,192,239079,1,8,0:0:0:0:
256,192,239179,1,0,0:0:0:0:
256,192,239279,1,8,0:0:0:0:
256,192,239479,1,0,0:0:0:0:
256,192,239679,1,8,0:0:0:0:
256,192,239779,1,0,0:0:0:0:
256,192,239879,1,0,0:0:0:0:
256,192,239979,1,8,0:0:0:0:
256,192,240079,1,8,0:0:0:0:
256,192,240179,1,0,0:0:0:0:
256,192,240279,1,8,0:0:0:0:
256,192,240479,1,0,0:0:0:0:
256,192,240679,1,8,0:0:0:0:
256,192,240779,1,8,0:0:0:0:
256,192,240879,1,0,0:0:0:0:
256,192,240979,1,0,0:0:0:0:
256,192,241079,1,8,0:0:0:0:
256,192,241179,1,0,0:0:0:0:
256,192,241279,1,8,0:0:0:0:
256,192,241379,1,8,0:0:0:0:
256,192,241579,1,0,0:0:0:0:
256,192,241679,1,8,0:0:0:0:
256,192,241879,1,0,0:0:0:0:
256,192,242079,1,8,0:0:0:0:
256,192,242179,1,8,0:0:0:0:
256,192,242279,1,8,0:0:0:0:
256,192,242379,1,0,0:0:0:0:
256,192,242479,1,8,0:0:0:0:
256,192,242679,1,0,0:0:0:0:
256,192,242879,1,8,0:0:0:0:
256,192,242979,1,0,0:0:0:0:
256,192,243079,1,0,0:0:0:0:
256,192,243179,1,8,0:0:0:0:
256,192,243379,1,8,0:0:0:0:
256,192,243479,1,0,0:0:0:0:
256,192,243679,1,8,0:0:0:0:
256,192,243779,1,8,0:0:0:0:
256,192,243879,1,0,0:0:0:0:
256,192,243979,1,8,0:0:0:0:
256,192,244079,1,0,0:0:0:0:
256,192,244179,1,8,0:0:0:0:
256,192,244279,1,8,0:0:0:0:
256,192,244379,1,0,0:0:0:0:
256,192,244479,1,8,0:0:0:0:
256,192,244579,1,8,0:0:0:0:
256,192,244679,1,8,0:0:0:0:
256,192,244779,1,0,0:0:0:0:
256,192,244879,1,8,0:0:0:0:
256,192,245079,1,0,0:0:0:0:
256,192,245279,1,0,0:0:0:0:
256,192,245379,1,8,0:0:0:0:
256,192,245479,1,8,0:0:0:0:
256,192,245579,1,0,0:0:0:0:
256,192,245679,1,8,0:0:0:0:
256,192,245879,1,0,0:0:0:0:
256,192,246079,1,8,0:0:0:0:
256,192,246179,1,0,0:0:0:0:
256,192,246279,1,0,0:0:0:0:
256,192,246379,1,8,0:0:0:0:
256,192,246479,1,8,0:0:0:0:
256,192,246579,1,0,0:0:0:0:
256,192,246679,1,8,0:0:0:0:
256,192,246879,1,0,0:0:0:0:
256,192,247079,1,8,0:0:0:0:
256,192,247179,1,8,0:0:0:0:
256,192,247279,1,0,0:0:0:0:
256,192,247379,1,0,0:0:0:0:
256,192,247479,1,8,0:0:0:0:
256,192,247579,1,0,0:0:0:0:
256,192,247679,1,8,0:0:0:0:
256,192,247779,1,8,0:0:0:0:
256,192,247979,1,0,0:0:0:0:
256,192,248079,1,8,0:0:0:0:
256,192,248279,1,0,0:0:0:0:
256,192,248479,1,8,0:0:0:0:
256,192,248579,1,8,0:0:0:0:
256,192,248679,1,8,0:0:0:0:
256,192,248779,1,0,0:0:0:0:
256,192,248879,1,8,0:0:0:0:
256,192,249079,1,0,0:0:0:0:
256,192,249279,1,8,0:0:0:0:
256,192,249379,1,0,0:0:0:0:
256,192,249479,1,0,0:0:0:0:
256,192,249579,1,8,0:0:0:0:
256,192,249629,1,8,0:0:0:0:
256,192,249679,1,8,0:0:0:0:
256,192,249779,1,0,0:0:0:0:
256,192,249879,1,8,0:0:0:0:
256,192,249979,1,8,0:0:0:0:
256,192,250079,1,0,0:0:0:0:
256,192,250279,1,8,0:0:0:0:
256,192,250379,1,8,0:0:0:0:
256,192,250479,1,0,0:0:0:0:
256,192,250579,1,8,0:0:0:0:
256,192,250679,1,0,0:0:0:0:
256,192,250729,1,0,0:0:0:0:
256,192,250779,1,0,0:0:0:0:
256,192,250879,1,8,0:0:0:0:
256,192,250979,1,8,0:0:0:0:
256,192,251179,1,0,0:0:0:0:
256,192,251279,1,8,0:0:0:0:
256,192,251479,1,0,0:0:0:0:
256,192,251679,1,0,0:0:0:0:
256,192,251779,1,8,0:0:0:0:
256,192,251879,1,8,0:0:0:0:
256,192,251979,1,0,0:0:0:0:
256,192,252079,1,8,0:0:0:0:
256,192,252279,1,0,0:0:0:0:
256,192,252479,1,8,0:0:0:0:
256,192,252579,1,0,0:0:0:0:
256,192,252779,1,8,0:0:0:0:
256,192,252879,1,8,0:0:0:0:
256,192,253079,1,8,0:0:0:0:
256,192,253279,1,0,0:0:0:0:
256,192,253479,1,8,0:0:0:0:
256,192,253579,1,8,0:0:0:0:
256,192,253679,1,0,0:0:0:0:
256,192,253879,1,8,0:0:0:0:
256,192,254079,1,0,0:0:0:0:
256,192,254179,1,8,0:0:0:0:
256,192,254379,1,0,0:0:0:0:
256,192,254479,1,8,0:0:0:0:
256,192,254579,1,0,0:0:0:0:
256,192,254679,1,0,0:0:0:0:
256,192,254779,1,8,0:0:0:0:
256,192,254979,1,8,0:0:0:0:
256,192,255179,1,0,0:0:0:0:
256,192,255279,1,8,0:0:0:0:
256,192,255479,1,0,0:0:0:0:
256,192,255579,1,8,0:0:0:0:
256,192,255679,1,8,0:0:0:0:
256,192,255779,1,0,0:0:0:0:
256,192,255879,1,0,0:0:0:0:
256,192,255979,1,8,0:0:0:0:
256,192,256079,1,8,0:0:0:0:
256,192,256279,1,0,0:0:0:0:
256,192,256479,1,0,0:0:0:0:
256,192,256679,1,8,0:0:0:0:
256,192,256879,1,8,0:0:0:0:
256,192,257079,1,0,0:0:0:0:
256,192,257279,1,0,0:0:0:0:
256,192,257379,1,8,0:0:0:0:
256,192,257579,1,4,0:0:0:0:
