osu file format v14

[General]
AudioFilename: audio.ogg
AudioLeadIn: 0
PreviewTime: 52696
Countdown: 0
SampleSet: Normal
StackLeniency: 0.7
Mode: 1
LetterboxInBreaks: 0
WidescreenStoryboard: 1

[Editor]
Bookmarks: 1596,14396,27196,39996,52796,78396,103996,116796,129596,148796,151996,155196,167996,180796,193596,206396,231996,251196,257596
DistanceSpacing: 1.7
BeatDivisor: 8
GridSize: 32
TimelineZoom: 2.3

[Metadata]
Title:Assault Gear
TitleUnicode:Assault Gear
Artist:KARUT
ArtistUnicode:KARUT
Creator:KyeX
Version:Oni
Source:
Tags:electronic instrumental psytrance hard dance hi-tech expert global taiko showdown egts2022 finals dt1 TriplebulletS Recordings
BeatmapID:3923704
BeatmapSetID:1855274

[Difficulty]
HPDrainRate:5
CircleSize:3
OverallDifficulty:5.5
ApproachRate:10
SliderMultiplier:1.4
SliderTickRate:1

[Events]
//Background and Video events
0,0,"maik-beiersdorf-cyberpunk.jpg",0,40
//Break Periods
//Storyboard Layer 0 (Background)
//Storyboard Layer 1 (Fail)
//Storyboard Layer 2 (Pass)
//Storyboard Layer 3 (Foreground)
//Storyboard Layer 4 (Overlay)
//Storyboard Sound Samples

[TimingPoints]
1579,400,4,1,0,80,1,0
1579,-111.111111111111,4,1,0,80,0,0
14376,-111.109276,4,1,0,80,0,0
14676,-110.796196,4,1,0,80,0,0
14876,-110.58798,4,1,0,80,0,0
15176,-110.27636,4,1,0,80,0,0
15276,-110.1727,4,1,0,80,0,0
15476,-109.96562,4,1,0,80,0,0
15676,-109.758965,4,1,0,80,0,0
15876,-109.5527,4,1,0,80,0,0
15976,-109.4497,4,1,0,80,0,0
16076,-109.346794,4,1,0,80,0,0
16276,-109.1413,4,1,0,80,0,0
16776,-108.62922,4,1,0,80,0,0
16876,-108.52709,4,1,0,80,0,0
17076,-108.32314,4,1,0,80,0,0
17576,-107.8149,4,1,0,80,0,0
17676,-107.71355,4,1,0,80,0,0
17876,-107.51111,4,1,0,80,0,0
18376,-107.00668,4,1,0,80,0,0
18476,-106.9061,4,1,0,80,0,0
18676,-106.70517,4,1,0,80,0,0
19076,-106.30447,4,1,0,80,0,0
19176,-106.20453,4,1,0,80,0,0
19276,-106.104675,4,1,0,80,0,0
19476,-105.90527,4,1,0,80,0,0
19676,-105.70624,4,1,0,80,0,0
19876,-105.50758,4,1,0,80,0,0
19976,-105.40839,4,1,0,80,0,0
20776,-104.61822,4,1,0,85,0,0
21076,-104.32342,4,1,0,85,0,0
21276,-104.12736,4,1,0,85,0,0
21476,-103.93166,4,1,0,85,0,0
21576,-103.83395,4,1,0,85,0,0
21676,-103.73633,4,1,0,85,0,0
21876,-103.54138,4,1,0,85,0,0
22076,-103.34679,4,1,0,85,0,0
22276,-103.152565,4,1,0,85,0,0
22376,-103.05558,4,1,0,85,0,0
22476,-102.95869,4,1,0,85,0,0
22676,-102.765205,4,1,0,85,0,0
23176,-102.28304,4,1,0,85,0,0
23276,-102.18689,4,1,0,85,0,0
23476,-101.994835,4,1,0,85,0,0
23675,-101.80409,4,1,0,85,0,0
23875,-101.61277,4,1,0,85,0,0
23976,-101.5163,4,1,0,85,0,0
24076,-101.42085,4,1,0,85,0,0
24276,-101.23024,4,1,0,85,0,0
24475,-101.04095,4,1,0,85,0,0
24776,-100.755295,4,1,0,85,0,0
24876,-100.660576,4,1,0,85,0,0
25076,-100.47139,4,1,0,85,0,0
25376,-100.18829,4,1,0,85,0,0
25476,-100.0941,4,1,0,85,0,0
25576,-100,4,1,0,85,0,0
25676,-100,4,1,0,80,0,0
27176,-100,4,1,0,90,0,0
39976,-95.2380952380952,4,1,0,95,0,0
46376,-95.2381,4,1,0,100,0,0
46476,-95.05776,4,1,0,100,0,0
46676,-94.698135,4,1,0,100,0,0
46776,-94.51882,4,1,0,100,0,0
46976,-94.16124,4,1,0,100,0,0
47176,-93.80499,4,1,0,100,0,0
47276,-93.62737,4,1,0,100,0,0
47376,-93.450096,4,1,0,100,0,0
47476,-93.273155,4,1,0,100,0,0
47576,-93.09654,4,1,0,100,0,0
47776,-92.74433,4,1,0,100,0,0
47976,-92.39345,4,1,0,100,0,0
48176,-92.04389,4,1,0,100,0,0
48276,-91.86961,4,1,0,100,0,0
48376,-91.69566,4,1,0,100,0,0
48576,-91.348755,4,1,0,100,0,0
48776,-91.00315,4,1,0,100,0,0
48876,-90.83084,4,1,0,100,0,0
48976,-90.65886,4,1,0,100,0,0
49076,-90.487206,4,1,0,100,0,0
49176,-90.315865,4,1,0,100,0,0
49376,-89.974174,4,1,0,100,0,0
49576,-89.63377,4,1,0,100,0,0
49676,-89.46405,4,1,0,100,0,0
49776,-89.294655,4,1,0,100,0,0
49876,-89.12558,4,1,0,100,0,0
49976,-88.956825,4,1,0,100,0,0
50076,-88.7884,4,1,0,100,0,0
50176,-88.62027,4,1,0,100,0,0
50276,-88.452484,4,1,0,100,0,0
50376,-88.284996,4,1,0,100,0,0
50576,-87.95099,4,1,0,100,0,0
50776,-87.61825,4,1,0,100,0,0
50876,-87.45234,4,1,0,100,0,0
50976,-87.28675,4,1,0,100,0,0
51076,-87.121475,4,1,0,100,0,0
51176,-86.95652,4,1,0,100,0,0
51276,-86.9565217391304,4,1,0,90,0,0
51976,-95.2381,4,1,0,90,0,0
52276,-98.880424,4,1,0,90,0,0
52476,-101.38571,4,1,0,90,0,0
52779,-90.9090909090909,4,1,0,100,0,1
62376,-90.90909,4,1,0,100,0,1
62576,-90.57295,4,1,0,100,0,1
62676,-90.40536,4,1,0,100,0,1
62776,-90.238075,4,1,0,100,0,1
63176,-89.57201,4,1,0,100,0,1
63376,-89.240814,4,1,0,100,0,1
63576,-88.91085,4,1,0,100,0,1
63976,-88.25458,4,1,0,100,0,1
64176,-87.92825,4,1,0,100,0,1
64276,-87.76556,4,1,0,100,0,1
64376,-87.60314,4,1,0,100,0,1
64476,-87.44104,4,1,0,100,0,1
64576,-87.279236,4,1,0,100,0,1
64779,-86.95652,4,1,0,100,0,0
65579,-90.9090909090909,4,1,0,100,0,1
75176,-90.90909,4,1,0,100,0,1
75376,-89.92569,4,1,0,100,0,1
75476,-89.437965,4,1,0,100,0,1
75576,-88.95292,4,1,0,100,0,1
75776,-87.99066,4,1,0,100,0,1
75976,-87.03883,4,1,0,100,0,1
76176,-86.09728,4,1,0,100,0,1
76276,-85.63035,4,1,0,100,0,1
76376,-85.16592,4,1,0,100,0,1
76576,-84.24465,4,1,0,100,0,1
76779,-83.33333,4,1,0,100,0,0
76876,-76.9230769230769,4,1,0,90,0,0
78379,-86.9565217391304,4,1,0,100,0,1
89579,-86.95652,4,1,0,100,0,0
89776,-85.90555,4,1,0,100,0,0
89976,-84.86727,4,1,0,100,0,0
90076,-84.35284,4,1,0,100,0,0
90176,-83.84154,4,1,0,100,0,0
90276,-83.33333,4,1,0,100,0,0
90376,-80,4,1,0,90,0,0
91179,-86.9565217391304,4,1,0,100,0,1
100776,-86.95652,4,1,0,100,0,1
100976,-86.05492,4,1,0,100,0,1
101076,-85.60761,4,1,0,100,0,1
101176,-85.16264,4,1,0,100,0,1
101376,-84.27962,4,1,0,100,0,1
101576,-83.40577,4,1,0,100,0,1
101776,-82.54097,4,1,0,100,0,1
101876,-82.11194,4,1,0,100,0,1
101976,-81.685135,4,1,0,100,0,1
102176,-80.83817,4,1,0,100,0,1
102379,-80,4,1,0,100,0,0
102576,-79.10853,4,1,0,100,0,0
102776,-78.227,4,1,0,100,0,0
102876,-77.78992,4,1,0,100,0,0
102976,-77.355286,4,1,0,100,0,0
103076,-76.92308,4,1,0,100,0,0
103176,-74.0740740740741,4,1,0,90,0,0
103971,-125,4,1,0,70,0,0
104374,-124.47149,4,1,0,70,0,0
104774,-123.94916,4,1,0,71,0,0
105174,-123.42898,4,1,0,71,0,0
105574,-122.911,4,1,0,71,0,0
105974,-122.39521,4,1,0,72,0,0
106374,-121.88155,4,1,0,72,0,0
106774,-121.37007,4,1,0,73,0,0
107174,-120.86073,4,1,0,73,0,0
107574,-120.35352,4,1,0,73,0,0
107974,-119.848465,4,1,0,74,0,0
108374,-119.345505,4,1,0,74,0,0
108774,-118.844666,4,1,0,74,0,0
109174,-118.345924,4,1,0,75,0,0
109574,-117.849266,4,1,0,75,0,0
109974,-117.354706,4,1,0,75,0,0
110374,-116.86222,4,1,0,76,0,0
110774,-116.37179,4,1,0,76,0,0
111174,-115.88344,4,1,0,76,0,0
111574,-115.39712,4,1,0,77,0,0
111974,-114.912834,4,1,0,77,0,0
112374,-114.4306,4,1,0,78,0,0
112774,-113.95039,4,1,0,78,0,0
113174,-113.47218,4,1,0,78,0,0
113574,-112.99599,4,1,0,79,0,0
113974,-112.52179,4,1,0,79,0,0
114374,-112.04959,4,1,0,79,0,0
114774,-111.57936,4,1,0,80,0,0
115174,-111.111115,4,1,0,80,0,0
115975,-117.647058823529,4,1,0,80,0,0
116771,-111.111115,4,1,0,90,0,0
116971,-111.11058,4,1,0,90,0,0
117071,-111.109665,4,1,0,90,0,0
117271,-111.10591,4,1,0,90,0,0
117371,-111.10291,4,1,0,90,0,0
117571,-111.094284,4,1,0,90,0,0
117671,-111.088524,4,1,0,90,0,0
117771,-111.08171,4,1,0,90,0,0
117876,-124.69928,4,1,0,90,0,0
117976,-111.064735,4,1,0,90,0,0
118176,-124.51362,4,1,0,90,0,0
118376,-111.01596,4,1,0,90,0,0
118576,-110.98342,4,1,0,90,0,0
118676,-110.96497,4,1,0,90,0,0
118876,-110.923485,4,1,0,90,0,0
118976,-110.90039,4,1,0,90,0,0
119176,-110.849304,4,1,0,90,0,0
119276,-110.82125,4,1,0,90,0,0
119376,-110.79147,4,1,0,90,0,0
119476,-123.2099,4,1,0,90,0,0
119576,-110.72665,4,1,0,90,0,0
119776,-122.7974,4,1,0,90,0,0
119976,-110.57502,4,1,0,90,0,0
120176,-110.48777,4,1,0,90,0,0
120276,-110.4412,4,1,0,90,0,0
120476,-110.34206,4,1,0,90,0,0
120576,-110.28943,4,1,0,90,0,0
120776,-110.17794,4,1,0,90,0,0
120876,-110.119064,4,1,0,90,0,0
120976,-110.058044,4,1,0,90,0,0
121076,-120.55743,4,1,0,90,0,0
121176,-109.92954,4,1,0,90,0,0
121376,-119.941864,4,1,0,90,0,0
121576,-109.64621,4,1,0,90,0,0
121776,-109.49111,4,1,0,90,0,0
121876,-109.41015,4,1,0,90,0,0
122076,-109.24134,4,1,0,90,0,0
122176,-109.153465,4,1,0,90,0,0
122376,-108.97072,4,1,0,90,0,0
122476,-108.87583,4,1,0,90,0,0
122576,-108.77859,4,1,0,90,0,0
122676,-116.89061,4,1,0,90,0,0
122776,-108.576996,4,1,0,90,0,0
122976,-116.10515,4,1,0,90,0,0
123076,-115.837105,4,1,0,90,0,0
123176,-115.56604,4,1,0,90,0,0
123376,-114.8715,4,1,0,90,0,0
123476,-114.5258,4,1,0,90,0,0
123676,-113.83752,4,1,0,91,0,0
123776,-113.49492,4,1,0,91,0,0
123976,-112.81285,4,1,0,91,0,0
124076,-112.47333,4,1,0,91,0,0
124176,-112.13486,4,1,0,91,0,0
124276,-111.79737,4,1,0,91,0,0
124376,-111.46094,4,1,0,91,0,0
124576,-110.79106,4,1,0,91,0,0
124676,-110.45766,4,1,0,92,0,0
124776,-110.12523,4,1,0,92,0,0
124976,-109.46339,4,1,0,92,0,0
125076,-109.133965,4,1,0,92,0,0
125276,-108.478096,4,1,0,92,0,0
125376,-108.15163,4,1,0,92,0,0
125576,-107.50165,4,1,0,93,0,0
125676,-107.17812,4,1,0,93,0,0
125776,-106.855576,4,1,0,93,0,0
125876,-106.534004,4,1,0,93,0,0
125976,-106.213394,4,1,0,93,0,0
126176,-105.57506,4,1,0,93,0,0
126276,-105.25734,4,1,0,93,0,0
126376,-104.94057,4,1,0,93,0,0
126576,-104.3099,4,1,0,94,0,0
126676,-103.99598,4,1,0,94,0,0
126876,-103.37098,4,1,0,94,0,0
126976,-103.05988,4,1,0,94,0,0
127176,-102.440506,4,1,0,94,0,0
127276,-102.13222,4,1,0,94,0,0
127376,-101.82485,4,1,0,94,0,0
127476,-101.51842,4,1,0,94,0,0
127576,-101.2129,4,1,0,95,0,0
127776,-100.60463,4,1,0,95,0,0
127876,-100.301865,4,1,0,95,0,0
127976,-100,4,1,0,95,0,0
128076,-95.2380952380952,4,1,0,90,0,0
129576,-95.2380952380952,4,1,0,100,0,0
139176,-95.23809,4,1,0,100,0,0
139276,-94.96159,4,1,0,100,0,0
139376,-94.68588,4,1,0,100,0,0
139476,-94.41098,4,1,0,100,0,0
139676,-93.86358,4,1,0,100,0,0
139776,-93.591064,4,1,0,100,0,0
139976,-93.04841,4,1,0,100,0,0
140076,-92.77827,4,1,0,100,0,0
140176,-92.50891,4,1,0,100,0,0
140376,-91.97253,4,1,0,100,0,0
140776,-90.90909,4,1,0,100,0,0
140876,-91.63401,4,1,0,100,0,0
141076,-93.10124,4,1,0,100,0,0
141276,-94.59196,4,1,0,100,0,0
141576,-96.872925,4,1,0,100,0,0
141676,-97.64541,4,1,0,100,0,0
141776,-98.42405,4,1,0,100,0,0
141876,-99.20889,4,1,0,100,0,0
141976,-100,4,1,0,100,0,0
142376,-95.2380952380952,4,1,0,100,0,0
148776,-95.2381,4,1,0,100,0,0
148976,-94.70967,4,1,0,100,0,0
149076,-94.44658,4,1,0,100,0,0
149276,-93.92255,4,1,0,100,0,0
149376,-93.66163,4,1,0,100,0,0
149576,-93.14196,4,1,0,100,0,0
149676,-81.478294,4,1,0,100,0,0
149776,-92.62518,4,1,0,100,0,0
149876,-92.36786,4,1,0,100,0,0
150076,-91.85538,4,1,0,100,0,0
150176,-91.60019,4,1,0,100,0,0
150376,-91.091965,4,1,0,100,0,0
150576,-90.58655,4,1,0,100,0,0
150676,-90.3349,4,1,0,100,0,0
150876,-89.83369,4,1,0,100,0,0
150976,-89.58412,4,1,0,100,0,0
151176,-89.08708,4,1,0,100,0,0
151276,-78.281815,4,1,0,100,0,0
151376,-88.59278,4,1,0,100,0,0
151476,-88.34668,4,1,0,100,0,0
151676,-87.85649,4,1,0,100,0,0
151776,-87.61243,4,1,0,100,0,0
151976,-87.12633,4,1,0,100,0,0
152076,-86.884285,4,1,0,100,0,0
152176,-86.642914,4,1,0,100,0,0
152276,-86.402214,4,1,0,100,0,0
152376,-86.16219,4,1,0,100,0,0
152476,-75.1621,4,1,0,100,0,0
152576,-85.684135,4,1,0,100,0,0
152676,-74.469055,4,1,0,100,0,0
152776,-85.208725,4,1,0,100,0,0
152876,-84.972015,4,1,0,100,0,0
152976,-84.735954,4,1,0,100,0,0
153076,-84.50056,4,1,0,100,0,0
153176,-84.265816,4,1,0,100,0,0
153226,-72.59595,4,1,0,100,0,0
153276,-72.42802,4,1,0,100,0,0
153376,-83.79828,4,1,0,100,0,0
153476,-71.76018,4,1,0,100,0,0
153576,-83.33333,4,1,0,100,0,0
153679,-80,4,1,0,80,0,0
155079,-117.647058823529,4,1,0,80,0,0
167176,-117.64706,4,1,0,60,0,0
167376,-114.420784,4,1,0,60,0,0
167576,-111.282974,4,1,0,60,0,0
167776,-108.23123,4,1,0,60,0,0
167976,-105.26316,4,1,0,90,0,0
180776,-105.26316,4,1,0,90,0,0
181176,-105.99746,4,1,0,80,0,0
181376,-106.366516,4,1,0,80,0,0
181576,-106.73688,4,1,0,80,0,0
181976,-107.481445,4,1,0,80,0,0
182376,-108.23123,4,1,0,80,0,0
182576,-108.60808,4,1,0,80,0,0
182776,-108.98623,4,1,0,80,0,0
183176,-109.74648,4,1,0,80,0,0
183576,-110.51207,4,1,0,80,0,0
183776,-110.89685,4,1,0,80,0,0
183976,-111.282974,4,1,0,80,0,0
184376,-112.05928,4,1,0,80,0,0
184776,-112.84098,4,1,0,80,0,0
184976,-113.23388,4,1,0,80,0,0
185176,-113.62813,4,1,0,80,0,0
185576,-114.420784,4,1,0,80,0,0
185976,-115.21896,4,1,0,80,0,0
186176,-115.62014,4,1,0,80,0,0
186376,-116.02271,4,1,0,80,0,0
186776,-116.83206,4,1,0,80,0,0
187176,-117.64706,4,1,0,80,0,0
187376,-124.03101,4,1,0,80,0,0
187476,-117.58627,4,1,0,80,0,0
187676,-117.47834,4,1,0,80,0,0
187776,-117.40427,4,1,0,80,0,0
187976,-117.21612,4,1,0,80,0,0
188176,-120.30075,4,1,0,80,0,0
188376,-116.68186,4,1,0,80,0,0
188776,-115.942024,4,1,0,80,0,0
188976,-115.497406,4,1,0,80,0,0
189076,-115.256905,4,1,0,80,0,0
189176,-115.004486,4,1,0,80,0,0
189376,-114.46457,4,1,0,80,0,0
189576,-113.879005,4,1,0,80,0,0
189976,-112.57696,4,1,0,80,0,0
190176,-111.88811,4,1,0,80,0,0
190376,-111.111115,4,1,0,80,0,0
190576,-110.344826,4,1,0,80,0,0
190676,-109.91252,4,1,0,80,0,0
190876,-109.06961,4,1,0,80,0,0
190976,-108.63569,4,1,0,80,0,0
191176,-107.7441,4,1,0,80,0,0
191376,-107.38255,4,1,0,80,0,0
191476,-106.35094,4,1,0,80,0,0
191676,-105.38774,4,1,0,80,0,0
191776,-104.89654,4,1,0,80,0,0
191976,-103.8961,4,1,0,80,0,0
192176,-104.575165,4,1,0,80,0,0
192276,-102.35394,4,1,0,80,0,0
192476,-101.30089,4,1,0,80,0,0
192576,-100.76756,4,1,0,80,0,0
192776,-99.68848,4,1,0,80,0,0
192976,-98.59426,4,1,0,80,0,0
193076,-98.04204,4,1,0,80,0,0
193176,-97.48667,4,1,0,80,0,0
193376,-96.3674,4,1,0,80,0,0
193576,-95.2381,4,1,0,80,0,0
193779,-95.2381,4,1,0,80,0,0
193879,-95.2381,4,1,0,80,0,0
193979,-95.2381,4,1,0,81,0,0
194179,-95.2381,4,1,0,81,0,0
194379,-95.2381,4,1,0,81,0,0
194579,-95.2381,4,1,0,82,0,0
194679,-95.2381,4,1,0,82,0,0
194779,-95.2381,4,1,0,82,0,0
194879,-95.2381,4,1,0,82,0,0
194979,-95.2381,4,1,0,82,0,0
195179,-95.2381,4,1,0,83,0,0
195379,-95.2381,4,1,0,83,0,0
195479,-95.2381,4,1,0,83,0,0
195579,-95.2381,4,1,0,83,0,0
195779,-95.2381,4,1,0,84,0,0
195979,-95.2381,4,1,0,84,0,0
196179,-95.2381,4,1,0,84,0,0
196279,-95.2381,4,1,0,84,0,0
196379,-95.2381,4,1,0,85,0,0
196479,-95.2381,4,1,0,85,0,0
196579,-95.2381,4,1,0,85,0,0
196779,-95.2381,4,1,0,85,0,0
196979,-95.2381,4,1,0,85,0,0
197079,-95.2381,4,1,0,86,0,0
197179,-95.2381,4,1,0,86,0,0
197379,-95.2381,4,1,0,86,0,0
197579,-95.2381,4,1,0,86,0,0
197779,-95.2381,4,1,0,87,0,0
197879,-95.2381,4,1,0,87,0,0
197979,-95.2381,4,1,0,87,0,0
198079,-95.2381,4,1,0,87,0,0
198179,-95.2381,4,1,0,87,0,0
198379,-95.2381,4,1,0,88,0,0
198579,-95.2381,4,1,0,88,0,0
198679,-95.2381,4,1,0,88,0,0
198779,-95.2381,4,1,0,88,0,0
198979,-95.2381,4,1,0,89,0,0
199179,-95.2381,4,1,0,89,0,0
199379,-95.2381,4,1,0,89,0,0
199479,-95.2381,4,1,0,90,0,0
199579,-95.2381,4,1,0,90,0,0
199679,-95.2381,4,1,0,90,0,0
199779,-95.2381,4,1,0,90,0,0
199976,-95.2381,4,1,0,95,0,0
200076,-95.05776,4,1,0,95,0,0
200276,-94.698135,4,1,0,95,0,0
200376,-94.51882,4,1,0,95,0,0
200576,-94.16124,4,1,0,95,0,0
200776,-93.80499,4,1,0,95,0,0
200876,-93.62737,4,1,0,95,0,0
200976,-93.450096,4,1,0,95,0,0
201076,-93.273155,4,1,0,95,0,0
201176,-93.09654,4,1,0,95,0,0
201376,-92.74433,4,1,0,95,0,0
201576,-92.39345,4,1,0,95,0,0
201676,-92.21851,4,1,0,95,0,0
201876,-91.86961,4,1,0,95,0,0
201976,-91.69566,4,1,0,95,0,0
202176,-91.348755,4,1,0,95,0,0
202276,-91.17578,4,1,0,95,0,0
202376,-91.00315,4,1,0,95,0,0
202476,-90.83084,4,1,0,95,0,0
202576,-90.65886,4,1,0,95,0,0
202776,-90.315865,4,1,0,95,0,0
202976,-89.974174,4,1,0,95,0,0
203176,-89.63377,4,1,0,95,0,0
203276,-89.46405,4,1,0,95,0,0
203376,-89.294655,4,1,0,95,0,0
203476,-89.12558,4,1,0,95,0,0
203576,-88.956825,4,1,0,95,0,0
203776,-88.62027,4,1,0,95,0,0
203976,-88.284996,4,1,0,95,0,0
204076,-88.117836,4,1,0,95,0,0
204176,-87.95099,4,1,0,95,0,0
204276,-87.78446,4,1,0,95,0,0
204376,-87.61825,4,1,0,95,0,0
204576,-87.28675,4,1,0,95,0,0
204676,-87.121475,4,1,0,95,0,0
204776,-86.95652,4,1,0,95,0,0
204876,-86.9565217391304,4,1,0,90,0,0
206379,-86.95652,4,1,0,95,0,1
206476,-87.36257,4,1,0,95,0,1
206576,-87.77052,4,1,0,95,0,1
206676,-88.18038,4,1,0,95,0,1
206876,-89.00583,4,1,0,95,0,1
206976,-89.421455,4,1,0,95,0,1
207076,-89.83902,4,1,0,95,0,1
207176,-90.25853,4,1,0,95,0,1
207276,-90.68001,4,1,0,95,0,1
207376,-91.10344,4,1,0,95,0,1
207476,-91.52886,4,1,0,95,0,1
207676,-92.38565,4,1,0,95,0,1
207776,-92.81707,4,1,0,95,0,1
207876,-93.25049,4,1,0,95,0,1
207976,-93.68592,4,1,0,95,0,1
208076,-94.123405,4,1,0,95,0,1
208176,-94.56293,4,1,0,95,0,1
208276,-95.004486,4,1,0,95,0,1
208476,-95.89383,4,1,0,95,0,1
208676,-96.7915,4,1,0,95,0,1
208776,-97.24347,4,1,0,95,0,1
208876,-97.69756,4,1,0,95,0,1
208976,-98.15377,4,1,0,95,0,1
209076,-98.6121,4,1,0,95,0,1
209276,-99.53522,4,1,0,95,0,1
209376,-100,4,1,0,95,0,1
209576,-86.95652,4,1,0,95,0,1
209676,-87.36257,4,1,0,95,0,1
209776,-87.77052,4,1,0,95,0,1
209876,-88.18038,4,1,0,95,0,1
210076,-89.00583,4,1,0,95,0,1
210176,-89.421455,4,1,0,95,0,1
210276,-89.83902,4,1,0,95,0,1
210376,-90.25853,4,1,0,95,0,1
210476,-90.68001,4,1,0,95,0,1
210576,-91.10344,4,1,0,95,0,1
210676,-91.52886,4,1,0,95,0,1
210876,-92.38565,4,1,0,95,0,1
210976,-92.81707,4,1,0,95,0,1
211076,-93.25049,4,1,0,95,0,1
211176,-93.68592,4,1,0,95,0,1
211276,-94.123405,4,1,0,95,0,1
211376,-94.56293,4,1,0,95,0,1
211476,-95.004486,4,1,0,95,0,1
211676,-95.89383,4,1,0,95,0,1
211876,-96.7915,4,1,0,95,0,1
211976,-97.24347,4,1,0,95,0,1
212076,-97.69756,4,1,0,95,0,1
212176,-98.15377,4,1,0,95,0,1
212276,-98.6121,4,1,0,95,0,1
212376,-99.07259,4,1,0,95,0,1
212426,-99.303635,4,1,0,95,0,1
212476,-99.53522,4,1,0,95,0,1
212576,-100,4,1,0,95,0,1
212776,-86.95652,4,1,0,95,0,1
212876,-87.36257,4,1,0,95,0,1
212976,-87.77052,4,1,0,95,0,1
213076,-88.18038,4,1,0,95,0,1
213276,-89.00583,4,1,0,95,0,1
213376,-89.421455,4,1,0,95,0,1
213476,-89.83902,4,1,0,95,0,1
213576,-90.25853,4,1,0,95,0,1
213676,-90.68001,4,1,0,95,0,1
213776,-91.10344,4,1,0,95,0,1
213876,-91.52886,4,1,0,95,0,1
214076,-92.38565,4,1,0,95,0,1
214176,-92.81707,4,1,0,95,0,1
214276,-93.25049,4,1,0,95,0,1
214376,-93.68592,4,1,0,95,0,1
214476,-94.123405,4,1,0,95,0,1
214576,-94.56293,4,1,0,95,0,1
214676,-95.004486,4,1,0,95,0,1
214876,-95.89383,4,1,0,95,0,1
215076,-96.7915,4,1,0,95,0,1
215176,-97.24347,4,1,0,95,0,1
215276,-97.69756,4,1,0,95,0,1
215376,-98.15377,4,1,0,95,0,1
215476,-98.6121,4,1,0,95,0,1
215676,-99.53522,4,1,0,95,0,1
215776,-100,4,1,0,95,0,1
215976,-86.95652,4,1,0,95,0,1
216076,-87.36257,4,1,0,95,0,1
216176,-87.77052,4,1,0,95,0,1
216276,-88.18038,4,1,0,95,0,1
216476,-89.00583,4,1,0,95,0,1
216576,-89.421455,4,1,0,95,0,1
216676,-89.83902,4,1,0,95,0,1
216776,-90.25853,4,1,0,95,0,1
216876,-90.68001,4,1,0,95,0,1
216976,-91.10344,4,1,0,95,0,1
217076,-91.52886,4,1,0,95,0,1
217276,-92.38565,4,1,0,95,0,1
217376,-92.81707,4,1,0,95,0,1
217476,-93.25049,4,1,0,95,0,1
217579,-93.68592,4,1,0,95,0,0
217776,-98.290115,4,1,0,95,0,0
217876,-97.819695,4,1,0,95,0,0
218076,-96.8856,4,1,0,95,0,0
218176,-96.42188,4,1,0,95,0,0
218276,-95.9604,4,1,0,95,0,0
218376,-95.50113,4,1,0,95,0,0
218576,-94.58918,4,1,0,95,0,0
218776,-93.68592,4,1,0,95,0,0
218876,-88.87679,4,1,0,95,0,0
218976,-89.54913,4,1,0,95,0,0
219076,-90.226555,4,1,0,95,0,0
219179,-86.95652,4,1,0,95,0,1
219276,-87.36257,4,1,0,95,0,1
219376,-87.77052,4,1,0,95,0,1
219476,-88.18038,4,1,0,95,0,1
219676,-89.00583,4,1,0,95,0,1
219776,-89.421455,4,1,0,95,0,1
219876,-89.83902,4,1,0,95,0,1
219976,-90.25853,4,1,0,95,0,1
220076,-90.68001,4,1,0,95,0,1
220176,-91.10344,4,1,0,95,0,1
220276,-91.52886,4,1,0,95,0,1
220476,-92.38565,4,1,0,95,0,1
220576,-92.81707,4,1,0,95,0,1
220676,-93.25049,4,1,0,95,0,1
220776,-93.68592,4,1,0,95,0,1
220876,-94.123405,4,1,0,95,0,1
220976,-94.56293,4,1,0,95,0,1
221076,-95.004486,4,1,0,95,0,1
221276,-95.89383,4,1,0,95,0,1
221476,-96.7915,4,1,0,95,0,1
221576,-97.24347,4,1,0,95,0,1
221676,-97.69756,4,1,0,95,0,1
221776,-98.15377,4,1,0,95,0,1
221876,-98.6121,4,1,0,95,0,1
222076,-99.53522,4,1,0,95,0,1
222176,-100,4,1,0,95,0,1
222376,-86.95652,4,1,0,95,0,1
222476,-87.36257,4,1,0,95,0,1
222576,-87.77052,4,1,0,95,0,1
222676,-88.18038,4,1,0,95,0,1
222876,-89.00583,4,1,0,95,0,1
222976,-89.421455,4,1,0,95,0,1
223076,-89.83902,4,1,0,95,0,1
223176,-90.25853,4,1,0,95,0,1
223276,-90.68001,4,1,0,95,0,1
223376,-91.10344,4,1,0,95,0,1
223476,-91.52886,4,1,0,95,0,1
223676,-92.38565,4,1,0,95,0,1
223776,-92.81707,4,1,0,95,0,1
223876,-93.25049,4,1,0,95,0,1
223976,-93.68592,4,1,0,95,0,1
224076,-94.123405,4,1,0,95,0,1
224176,-94.56293,4,1,0,95,0,1
224276,-95.004486,4,1,0,95,0,1
224476,-95.89383,4,1,0,95,0,1
224676,-96.7915,4,1,0,95,0,1
224776,-97.24347,4,1,0,95,0,1
224876,-97.69756,4,1,0,95,0,1
224976,-98.15377,4,1,0,95,0,1
225076,-98.6121,4,1,0,95,0,1
225176,-99.07259,4,1,0,95,0,1
225226,-99.303635,4,1,0,95,0,1
225276,-99.53522,4,1,0,95,0,1
225376,-100,4,1,0,95,0,1
225576,-86.95652,4,1,0,95,0,1
225676,-87.36257,4,1,0,95,0,1
225776,-87.77052,4,1,0,95,0,1
225876,-88.18038,4,1,0,95,0,1
226076,-89.00583,4,1,0,95,0,1
226176,-89.421455,4,1,0,95,0,1
226276,-89.83902,4,1,0,95,0,1
226376,-90.25853,4,1,0,95,0,1
226476,-90.68001,4,1,0,95,0,1
226576,-91.10344,4,1,0,95,0,1
226676,-91.52886,4,1,0,95,0,1
226876,-92.38565,4,1,0,95,0,1
226976,-92.81707,4,1,0,95,0,1
227076,-93.25049,4,1,0,95,0,1
227176,-93.68592,4,1,0,95,0,1
227276,-94.123405,4,1,0,95,0,1
227376,-94.56293,4,1,0,95,0,1
227476,-95.004486,4,1,0,95,0,1
227676,-95.89383,4,1,0,95,0,1
227876,-96.7915,4,1,0,95,0,1
227976,-97.24347,4,1,0,95,0,1
228076,-97.69756,4,1,0,95,0,1
228176,-98.15377,4,1,0,95,0,1
228276,-98.6121,4,1,0,95,0,1
228476,-99.53522,4,1,0,95,0,1
228576,-100,4,1,0,95,0,1
228776,-86.95652,4,1,0,95,0,1
228876,-87.36257,4,1,0,95,0,1
228976,-87.77052,4,1,0,95,0,1
229076,-88.18038,4,1,0,95,0,1
229276,-89.00583,4,1,0,95,0,1
229376,-89.421455,4,1,0,95,0,1
229476,-89.83902,4,1,0,95,0,1
229576,-90.25853,4,1,0,95,0,1
229676,-90.68001,4,1,0,95,0,1
229776,-91.10344,4,1,0,95,0,1
229876,-91.52886,4,1,0,95,0,1
230076,-92.38565,4,1,0,95,0,1
230176,-92.81707,4,1,0,95,0,1
230276,-93.25049,4,1,0,95,0,1
230379,-93.68592,4,1,0,95,0,0
230576,-89.49377,4,1,0,90,0,0
231979,-83.33333,4,1,0,100,0,1
232076,-83.705086,4,1,0,100,0,1
232276,-84.45356,4,1,0,100,0,1
232476,-85.20873,4,1,0,100,0,1
232576,-85.588844,4,1,0,100,0,1
232676,-85.97065,4,1,0,100,0,1
232776,-86.35416,4,1,0,100,0,1
232876,-86.73938,4,1,0,100,0,1
233076,-87.51499,4,1,0,100,0,1
233276,-88.29754,4,1,0,100,0,1
233376,-88.69144,4,1,0,100,0,1
233476,-89.08708,4,1,0,100,0,1
233576,-89.48449,4,1,0,100,0,1
233676,-89.88368,4,1,0,100,0,1
233776,-90.284645,4,1,0,100,0,1
233876,-90.6874,4,1,0,100,0,1
234076,-91.49832,4,1,0,100,0,1
234276,-92.31648,4,1,0,100,0,1
234376,-92.728294,4,1,0,100,0,1
234476,-93.14196,4,1,0,100,0,1
234576,-93.557465,4,1,0,100,0,1
234676,-93.974815,4,1,0,100,0,1
234776,-94.394035,4,1,0,100,0,1
234876,-94.815125,4,1,0,100,0,1
234976,-95.2381,4,1,0,100,0,1
235176,-83.33333,4,1,0,100,0,1
235276,-83.705086,4,1,0,100,0,1
235476,-84.45356,4,1,0,100,0,1
235676,-85.20873,4,1,0,100,0,1
235776,-85.588844,4,1,0,100,0,1
235876,-85.97065,4,1,0,100,0,1
235976,-86.35416,4,1,0,100,0,1
236076,-86.73938,4,1,0,100,0,1
236276,-87.51499,4,1,0,100,0,1
236476,-88.29754,4,1,0,100,0,1
236576,-88.69144,4,1,0,100,0,1
236676,-89.08708,4,1,0,100,0,1
236776,-89.48449,4,1,0,100,0,1
236826,-89.68386,4,1,0,100,0,1
236876,-89.88368,4,1,0,100,0,1
236976,-90.284645,4,1,0,100,0,1
237076,-90.6874,4,1,0,100,0,1
237176,-91.09196,4,1,0,100,0,1
237276,-91.49832,4,1,0,100,0,1
237476,-92.31648,4,1,0,100,0,1
237576,-92.728294,4,1,0,100,0,1
237676,-93.14196,4,1,0,100,0,1
237776,-93.557465,4,1,0,100,0,1
237876,-93.974815,4,1,0,100,0,1
237926,-94.1842,4,1,0,100,0,1
237976,-94.394035,4,1,0,100,0,1
238076,-94.815125,4,1,0,100,0,1
238176,-95.2381,4,1,0,100,0,1
238376,-83.33333,4,1,0,100,0,1
238476,-83.705086,4,1,0,100,0,1
238676,-84.45356,4,1,0,100,0,1
238876,-85.20873,4,1,0,100,0,1
238976,-85.588844,4,1,0,100,0,1
239076,-85.97065,4,1,0,100,0,1
239176,-86.35416,4,1,0,100,0,1
239276,-86.73938,4,1,0,100,0,1
239476,-87.51499,4,1,0,100,0,1
239676,-88.29754,4,1,0,100,0,1
239776,-88.69144,4,1,0,100,0,1
239876,-89.08708,4,1,0,100,0,1
239976,-89.48449,4,1,0,100,0,1
240076,-89.88368,4,1,0,100,0,1
240176,-90.284645,4,1,0,100,0,1
240276,-90.6874,4,1,0,100,0,1
240476,-91.49832,4,1,0,100,0,1
240676,-92.31648,4,1,0,100,0,1
240776,-92.728294,4,1,0,100,0,1
240876,-93.14196,4,1,0,100,0,1
240976,-93.557465,4,1,0,100,0,1
241076,-93.974815,4,1,0,100,0,1
241176,-94.394035,4,1,0,100,0,1
241276,-94.815125,4,1,0,100,0,1
241376,-95.2381,4,1,0,100,0,1
241576,-83.33333,4,1,0,100,0,1
241676,-83.705086,4,1,0,100,0,1
241876,-84.45356,4,1,0,100,0,1
242076,-85.208725,4,1,0,100,0,1
242176,-85.58884,4,1,0,100,0,1
242276,-85.97064,4,1,0,100,0,1
242376,-86.35416,4,1,0,100,0,1
242476,-86.73938,4,1,0,100,0,1
242676,-87.51499,4,1,0,100,0,1
242876,-88.29753,4,1,0,100,0,1
242976,-88.691414,4,1,0,100,0,1
243076,-89.087074,4,1,0,100,0,1
243179,-89.48449,4,1,0,100,0,0
243376,-93.67575,4,1,0,95,0,0
243476,-93.24794,4,1,0,95,0,0
243676,-92.39817,4,1,0,95,0,0
243776,-91.9762,4,1,0,95,0,0
243876,-91.55615,4,1,0,95,0,0
243976,-91.138,4,1,0,95,0,0
244176,-90.30746,4,1,0,95,0,0
244376,-89.48448,4,1,0,95,0,0
244779,-83.33333,4,1,0,100,0,1
244876,-83.705086,4,1,0,100,0,1
245076,-84.45356,4,1,0,100,0,1
245276,-85.20873,4,1,0,100,0,1
245376,-85.588844,4,1,0,100,0,1
245476,-85.97065,4,1,0,100,0,1
245576,-86.35416,4,1,0,100,0,1
245676,-86.73938,4,1,0,100,0,1
245876,-87.51499,4,1,0,100,0,1
246076,-88.29754,4,1,0,100,0,1
246176,-88.69144,4,1,0,100,0,1
246276,-89.08708,4,1,0,100,0,1
246376,-89.48449,4,1,0,100,0,1
246476,-89.88368,4,1,0,100,0,1
246576,-90.284645,4,1,0,100,0,1
246676,-90.6874,4,1,0,100,0,1
246876,-91.49832,4,1,0,100,0,1
247076,-92.31648,4,1,0,100,0,1
247176,-92.728294,4,1,0,100,0,1
247276,-93.14196,4,1,0,100,0,1
247376,-93.557465,4,1,0,100,0,1
247476,-93.974815,4,1,0,100,0,1
247576,-94.394035,4,1,0,100,0,1
247676,-94.815125,4,1,0,100,0,1
247776,-95.2381,4,1,0,100,0,1
247976,-83.33333,4,1,0,100,0,1
248076,-83.705086,4,1,0,100,0,1
248276,-84.45356,4,1,0,100,0,1
248476,-85.20873,4,1,0,100,0,1
248576,-85.588844,4,1,0,100,0,1
248676,-85.97065,4,1,0,100,0,1
248776,-86.35416,4,1,0,100,0,1
248876,-86.73938,4,1,0,100,0,1
249076,-87.51499,4,1,0,100,0,1
249276,-88.29754,4,1,0,100,0,1
249376,-88.69144,4,1,0,100,0,1
249476,-89.08708,4,1,0,100,0,1
249576,-89.48449,4,1,0,100,0,1
249626,-89.68386,4,1,0,100,0,1
249676,-89.88368,4,1,0,100,0,1
249776,-90.284645,4,1,0,100,0,1
249876,-90.6874,4,1,0,100,0,1
249976,-91.09196,4,1,0,100,0,1
250076,-91.49832,4,1,0,100,0,1
250276,-92.31648,4,1,0,100,0,1
250376,-92.728294,4,1,0,100,0,1
250476,-93.14196,4,1,0,100,0,1
250576,-93.557465,4,1,0,100,0,1
250676,-93.974815,4,1,0,100,0,1
250726,-94.1842,4,1,0,100,0,1
250776,-94.394035,4,1,0,100,0,1
250876,-94.815125,4,1,0,100,0,1
250976,-95.2381,4,1,0,100,0,1
251176,-83.33333,4,1,0,100,0,1
251276,-83.705086,4,1,0,100,0,1
251476,-84.45356,4,1,0,100,0,1
251676,-85.20873,4,1,0,100,0,1
251776,-85.588844,4,1,0,100,0,1
251876,-85.97065,4,1,0,100,0,1
251976,-86.35416,4,1,0,100,0,1
252076,-86.73938,4,1,0,100,0,1
252276,-87.51499,4,1,0,100,0,1
252476,-88.29754,4,1,0,100,0,1
252576,-88.69144,4,1,0,100,0,1
252776,-89.48449,4,1,0,100,0,1
252876,-89.88368,4,1,0,100,0,1
253076,-90.6874,4,1,0,100,0,1
253276,-91.49832,4,1,0,100,0,1
253476,-92.31648,4,1,0,100,0,1
253576,-92.728294,4,1,0,100,0,1
253676,-93.14196,4,1,0,100,0,1
253876,-93.974815,4,1,0,100,0,1
254076,-94.815125,4,1,0,100,0,1
254176,-95.2381,4,1,0,100,0,1
254376,-86.95652,4,1,0,100,0,1
254476,-86.725525,4,1,0,100,0,1
254576,-86.49515,4,1,0,100,0,1
254676,-86.26538,4,1,0,100,0,1
254776,-86.03622,4,1,0,100,0,1
254976,-85.57973,4,1,0,100,0,1
255176,-85.125656,4,1,0,100,0,1
255276,-84.89951,4,1,0,100,0,1
255376,-84.673996,4,1,0,100,0,1
255476,-84.44906,4,1,0,100,0,1
255576,-84.224724,4,1,0,100,0,1
255676,-84.00099,4,1,0,100,0,1
255776,-83.77785,4,1,0,100,0,1
255876,-83.55529,4,1,0,100,0,1
255979,-83.33333,4,1,0,100,0,0
256076,-88.42786,4,1,0,95,0,0
256676,-95.2381,4,1,0,95,0,0
256876,-96.2763,4,1,0,95,0,0
257076,-97.32584,4,1,0,95,0,0
257276,-98.38681,4,1,0,95,0,0
257376,-98.92163,4,1,0,95,0,0
257576,-90.9090909090909,4,1,0,95,0,0

[HitObjects]
256,192,1579,5,4,0:0:0:0:
256,192,1879,1,8,0:0:0:0:
256,192,2079,1,0,0:0:0:0:
256,192,2279,1,0,0:0:0:0:
256,192,2379,1,8,0:0:0:0:
256,192,3179,1,8,0:0:0:0:
256,192,3479,1,0,0:0:0:0:
256,192,3679,1,0,0:0:0:0:
256,192,3879,1,0,0:0:0:0:
256,192,3979,1,8,0:0:0:0:
256,192,4779,1,0,0:0:0:0:
256,192,5079,1,8,0:0:0:0:
256,192,5279,1,0,0:0:0:0:
256,192,5479,1,0,0:0:0:0:
256,192,5579,1,8,0:0:0:0:
256,192,6379,1,0,0:0:0:0:
256,192,6479,1,8,0:0:0:0:
256,192,6679,1,0,0:0:0:0:
256,192,7179,1,8,0:0:0:0:
256,192,7979,1,0,0:0:0:0:
256,192,8279,1,8,0:0:0:0:
256,192,8479,1,0,0:0:0:0:
256,192,8679,1,0,0:0:0:0:
256,192,8779,1,8,0:0:0:0:
256,192,9579,1,8,0:0:0:0:
256,192,9879,1,0,0:0:0:0:
256,192,10079,1,0,0:0:0:0:
256,192,10379,1,8,0:0:0:0:
256,192,11179,1,0,0:0:0:0:
256,192,11479,1,8,0:0:0:0:
256,192,11779,1,0,0:0:0:0:
256,192,11979,1,8,0:0:0:0:
256,192,12279,1,8,0:0:0:0:
256,192,12779,1,0,0:0:0:0:
256,192,12879,1,8,0:0:0:0:
256,192,13079,1,0,0:0:0:0:
256,192,13579,1,8,0:0:0:0:
256,192,14379,1,0,0:0:0:0:
256,192,14679,1,8,0:0:0:0:
256,192,14879,1,0,0:0:0:0:
256,192,15179,1,8,0:0:0:0:
256,192,15279,1,0,0:0:0:0:
256,192,15479,1,8,0:0:0:0:
256,192,15679,1,0,0:0:0:0:
256,192,15879,1,0,0:0:0:0:
256,192,15979,1,0,0:0:0:0:
256,192,16079,1,8,0:0:0:0:
256,192,16279,1,0,0:0:0:0:
256,192,16779,1,8,0:0:0:0:
256,192,16879,1,0,0:0:0:0:
256,192,17079,1,8,0:0:0:0:
256,192,17579,1,0,0:0:0:0:
256,192,17679,1,8,0:0:0:0:
256,192,17879,1,0,0:0:0:0:
256,192,18379,1,8,0:0:0:0:
256,192,18479,1,0,0:0:0:0:
256,192,18679,1,8,0:0:0:0:
256,192,19079,1,0,0:0:0:0:
256,192,19179,1,0,0:0:0:0:
256,192,19279,1,8,0:0:0:0:
256,192,19479,1,0,0:0:0:0:
256,192,19679,1,0,0:0:0:0:
256,192,19879,1,0,0:0:0:0:
256,192,19979,1,8,0:0:0:0:
256,192,20779,1,0,0:0:0:0:
256,192,21079,1,8,0:0:0:0:
256,192,21279,1,0,0:0:0:0:
256,192,21479,1,0,0:0:0:0:
256,192,21579,1,8,0:0:0:0:
256,192,21679,1,0,0:0:0:0:
256,192,21879,1,8,0:0:0:0:
256,192,22079,1,0,0:0:0:0:
256,192,22279,1,0,0:0:0:0:
256,192,22379,1,0,0:0:0:0:
256,192,22479,1,8,0:0:0:0:
256,192,22679,1,0,0:0:0:0:
256,192,23179,1,8,0:0:0:0:
256,192,23279,1,0,0:0:0:0:
256,192,23479,1,8,0:0:0:0:
256,192,23679,1,0,0:0:0:0:
256,192,23879,1,0,0:0:0:0:
256,192,23979,1,0,0:0:0:0:
256,192,24079,1,8,0:0:0:0:
256,192,24279,1,8,0:0:0:0:
256,192,24479,1,0,0:0:0:0:
256,192,24779,1,8,0:0:0:0:
256,192,24879,1,0,0:0:0:0:
256,192,25079,1,8,0:0:0:0:
256,192,25379,1,0,0:0:0:0:
256,192,25479,1,0,0:0:0:0:
256,192,25579,1,8,0:0:0:0:
256,192,27179,1,0,0:0:0:0:
256,192,27279,1,8,0:0:0:0:
256,192,27479,1,0,0:0:0:0:
256,192,27779,1,0,0:0:0:0:
256,192,27979,1,8,0:0:0:0:
256,192,28079,1,8,0:0:0:0:
256,192,28179,1,0,0:0:0:0:
256,192,28379,1,8,0:0:0:0:
256,192,28579,1,8,0:0:0:0:
256,192,28679,1,0,0:0:0:0:
256,192,28879,1,8,0:0:0:0:
256,192,29079,1,0,0:0:0:0:
256,192,29579,1,8,0:0:0:0:
256,192,29779,1,0,0:0:0:0:
256,192,29879,1,8,0:0:0:0:
256,192,29979,1,0,0:0:0:0:
256,192,30079,1,0,0:0:0:0:
256,192,30179,1,8,0:0:0:0:
256,192,30379,1,0,0:0:0:0:
256,192,30479,1,8,0:0:0:0:
256,192,30679,1,8,0:0:0:0:
256,192,30979,1,0,0:0:0:0:
256,192,31179,1,8,0:0:0:0:
256,192,31279,1,8,0:0:0:0:
256,192,31379,1,0,0:0:0:0:
256,192,31579,1,8,0:0:0:0:
256,192,31779,1,8,0:0:0:0:
256,192,31879,1,0,0:0:0:0:
256,192,32079,1,8,0:0:0:0:
256,192,32279,1,0,0:0:0:0:
256,192,32779,1,8,0:0:0:0:
256,192,32979,1,0,0:0:0:0:
256,192,33079,1,0,0:0:0:0:
256,192,33179,1,8,0:0:0:0:
256,192,33379,1,0,0:0:0:0:
256,192,33579,1,8,0:0:0:0:
256,192,33679,1,8,0:0:0:0:
256,192,33879,1,0,0:0:0:0:
256,192,34179,1,0,0:0:0:0:
256,192,34379,1,8,0:0:0:0:
256,192,34479,1,8,0:0:0:0:
256,192,34579,1,0,0:0:0:0:
256,192,34779,1,8,0:0:0:0:
256,192,34979,1,8,0:0:0:0:
256,192,35079,1,0,0:0:0:0:
256,192,35279,1,8,0:0:0:0:
256,192,35479,1,0,0:0:0:0:
256,192,35979,1,8,0:0:0:0:
256,192,36179,1,0,0:0:0:0:
256,192,36279,1,8,0:0:0:0:
256,192,36379,1,0,0:0:0:0:
256,192,36579,1,8,0:0:0:0:
256,192,36779,1,0,0:0:0:0:
256,192,36879,1,8,0:0:0:0:
256,192,37079,1,8,0:0:0:0:
256,192,37379,1,0,0:0:0:0:
256,192,37579,1,8,0:0:0:0:
256,192,37679,1,8,0:0:0:0:
256,192,37779,1,0,0:0:0:0:
256,192,37979,1,8,0:0:0:0:
256,192,38179,1,0,0:0:0:0:
256,192,38279,1,0,0:0:0:0:
256,192,38379,1,8,0:0:0:0:
256,192,38579,1,0,0:0:0:0:
256,192,38679,1,0,0:0:0:0:
256,192,38879,1,8,0:0:0:0:
256,192,38979,1,0,0:0:0:0:
256,192,39079,1,0,0:0:0:0:
256,192,39179,1,8,0:0:0:0:
256,192,39379,1,8,0:0:0:0:
256,192,39579,1,0,0:0:0:0:
256,192,39979,1,0,0:0:0:0:
256,192,40179,1,8,0:0:0:0:
256,192,40279,1,0,0:0:0:0:
256,192,40379,1,8,0:0:0:0:
256,192,40579,1,0,0:0:0:0:
256,192,40779,1,8,0:0:0:0:
256,192,40979,1,0,0:0:0:0:
256,192,41079,1,0,0:0:0:0:
256,192,41179,1,8,0:0:0:0:
256,192,41279,1,8,0:0:0:0:
256,192,41379,1,0,0:0:0:0:
256,192,41579,1,8,0:0:0:0:
256,192,41779,1,0,0:0:0:0:
256,192,41879,1,8,0:0:0:0:
256,192,41979,1,0,0:0:0:0:
256,192,42179,1,8,0:0:0:0:
256,192,42379,1,0,0:0:0:0:
256,192,42579,1,8,0:0:0:0:
256,192,42679,1,8,0:0:0:0:
256,192,42779,1,0,0:0:0:0:
256,192,42879,1,0,0:0:0:0:
256,192,42979,1,8,0:0:0:0:
256,192,43179,1,8,0:0:0:0:
256,192,43379,1,0,0:0:0:0:
256,192,43479,1,0,0:0:0:0:
256,192,43579,1,8,0:0:0:0:
256,192,43779,1,0,0:0:0:0:
256,192,43979,1,8,0:0:0:0:
256,192,44179,1,0,0:0:0:0:
256,192,44279,1,8,0:0:0:0:
256,192,44379,1,0,0:0:0:0:
256,192,44479,1,0,0:0:0:0:
256,192,44579,1,8,0:0:0:0:
256,192,44779,1,0,0:0:0:0:
256,192,44979,1,8,0:0:0:0:
256,192,45079,1,8,0:0:0:0:
256,192,45179,1,0,0:0:0:0:
256,192,45379,1,8,0:0:0:0:
256,192,45579,1,0,0:0:0:0:
256,192,45779,1,8,0:0:0:0:
256,192,45879,1,0,0:0:0:0:
256,192,45979,1,8,0:0:0:0:
256,192,46379,1,8,0:0:0:0:
256,192,46479,1,0,0:0:0:0:
256,192,46679,1,0,0:0:0:0:
256,192,46779,1,8,0:0:0:0:
256,192,46979,1,0,0:0:0:0:
256,192,47179,1,8,0:0:0:0:
256,192,47279,1,8,0:0:0:0:
256,192,47379,1,0,0:0:0:0:
256,192,47479,1,0,0:0:0:0:
256,192,47579,1,8,0:0:0:0:
256,192,47779,1,0,0:0:0:0:
256,192,47979,1,8,0:0:0:0:
256,192,48179,1,0,0:0:0:0:
256,192,48279,1,0,0:0:0:0:
256,192,48379,1,8,0:0:0:0:
256,192,48579,1,0,0:0:0:0:
256,192,48779,1,8,0:0:0:0:
256,192,48879,1,0,0:0:0:0:
256,192,48979,1,8,0:0:0:0:
256,192,49079,1,8,0:0:0:0:
256,192,49179,1,0,0:0:0:0:
256,192,49379,1,0,0:0:0:0:
256,192,49579,1,8,0:0:0:0:
256,192,49679,1,8,0:0:0:0:
256,192,49779,1,0,0:0:0:0:
256,192,49879,1,0,0:0:0:0:
256,192,49979,1,8,0:0:0:0:
256,192,50079,1,8,0:0:0:0:
256,192,50179,1,0,0:0:0:0:
256,192,50279,1,0,0:0:0:0:
256,192,50379,1,8,0:0:0:0:
256,192,50579,1,0,0:0:0:0:
256,192,50779,1,8,0:0:0:0:
256,192,50879,1,8,0:0:0:0:
256,192,50979,1,8,0:0:0:0:
256,192,51079,1,8,0:0:0:0:
256,192,51179,1,0,0:0:0:0:
256,192,51979,5,8,0:0:0:0:
256,192,52279,1,8,0:0:0:0:
256,192,52479,1,8,0:0:0:0:
256,192,52779,1,12,0:0:0:0:
256,192,53179,1,8,0:0:0:0:
256,192,53379,1,0,0:0:0:0:
256,192,53479,1,8,0:0:0:0:
256,192,53679,1,8,0:0:0:0:
256,192,53779,1,8,0:0:0:0:
256,192,53979,1,0,0:0:0:0:
256,192,54179,1,8,0:0:0:0:
256,192,54279,1,8,0:0:0:0:
256,192,54379,1,0,0:0:0:0:
256,192,54579,1,8,0:0:0:0:
256,192,54779,1,0,0:0:0:0:
256,192,54879,1,0,0:0:0:0:
256,192,54979,1,8,0:0:0:0:
256,192,55079,1,8,0:0:0:0:
256,192,55179,1,0,0:0:0:0:
256,192,55379,1,8,0:0:0:0:
256,192,55479,1,0,0:0:0:0:
256,192,55579,1,8,0:0:0:0:
256,192,55779,1,0,0:0:0:0:
256,192,55979,1,8,0:0:0:0:
256,192,56379,1,8,0:0:0:0:
256,192,56579,1,0,0:0:0:0:
256,192,56679,1,0,0:0:0:0:
256,192,56879,1,8,0:0:0:0:
256,192,56979,1,8,0:0:0:0:
256,192,57179,1,8,0:0:0:0:
256,192,57379,1,0,0:0:0:0:
256,192,57479,1,0,0:0:0:0:
256,192,57579,1,8,0:0:0:0:
256,192,57779,1,0,0:0:0:0:
256,192,57879,1,0,0:0:0:0:
256,192,57979,1,8,0:0:0:0:
256,192,58079,1,0,0:0:0:0:
256,192,58179,1,8,0:0:0:0:
256,192,58379,1,0,0:0:0:0:
256,192,58579,1,8,0:0:0:0:
256,192,58779,1,8,0:0:0:0:
256,192,58879,1,8,0:0:0:0:
256,192,58979,1,0,0:0:0:0:
256,192,59179,1,8,0:0:0:0:
256,192,59579,1,8,0:0:0:0:
256,192,59779,1,0,0:0:0:0:
256,192,59879,1,8,0:0:0:0:
256,192,60079,1,8,0:0:0:0:
256,192,60179,1,8,0:0:0:0:
256,192,60379,1,0,0:0:0:0:
256,192,60579,1,8,0:0:0:0:
256,192,60679,1,8,0:0:0:0:
256,192,60779,1,0,0:0:0:0:
256,192,60979,1,8,0:0:0:0:
256,192,61179,1,8,0:0:0:0:
256,192,61279,1,0,0:0:0:0:
256,192,61379,1,8,0:0:0:0:
256,192,61479,1,8,0:0:0:0:
256,192,61579,1,0,0:0:0:0:
256,192,61779,1,0,0:0:0:0:
256,192,61979,1,8,0:0:0:0:
256,192,62379,1,8,0:0:0:0:
256,192,62579,1,0,0:0:0:0:
256,192,62679,1,0,0:0:0:0:
256,192,62779,1,8,0:0:0:0:
256,192,63179,1,8,0:0:0:0:
256,192,63379,1,0,0:0:0:0:
256,192,63579,1,8,0:0:0:0:
256,192,63979,1,8,0:0:0:0:
256,192,64179,1,0,0:0:0:0:
256,192,64279,1,0,0:0:0:0:
256,192,64379,1,8,0:0:0:0:
256,192,64479,1,0,0:0:0:0:
256,192,64579,1,8,0:0:0:0:
256,192,64779,1,0,0:0:0:0:
256,192,65579,1,12,0:0:0:0:
256,192,65979,1,8,0:0:0:0:
256,192,66179,1,0,0:0:0:0:
256,192,66279,1,8,0:0:0:0:
256,192,66479,1,8,0:0:0:0:
256,192,66579,1,8,0:0:0:0:
256,192,66779,1,8,0:0:0:0:
256,192,66979,1,0,0:0:0:0:
256,192,67079,1,8,0:0:0:0:
256,192,67179,1,0,0:0:0:0:
256,192,67379,1,8,0:0:0:0:
256,192,67579,1,0,0:0:0:0:
256,192,67679,1,0,0:0:0:0:
256,192,67779,1,8,0:0:0:0:
256,192,67879,1,8,0:0:0:0:
256,192,67979,1,0,0:0:0:0:
256,192,68179,1,8,0:0:0:0:
256,192,68279,1,0,0:0:0:0:
256,192,68379,1,8,0:0:0:0:
256,192,68579,1,0,0:0:0:0:
256,192,68779,1,8,0:0:0:0:
256,192,69179,1,8,0:0:0:0:
256,192,69379,1,0,0:0:0:0:
256,192,69479,1,0,0:0:0:0:
256,192,69679,1,8,0:0:0:0:
256,192,69779,1,8,0:0:0:0:
256,192,69979,1,8,0:0:0:0:
256,192,70179,1,0,0:0:0:0:
256,192,70279,1,0,0:0:0:0:
256,192,70379,1,8,0:0:0:0:
256,192,70579,1,0,0:0:0:0:
256,192,70679,1,8,0:0:0:0:
256,192,70779,1,0,0:0:0:0:
256,192,70879,1,0,0:0:0:0:
256,192,70979,1,8,0:0:0:0:
256,192,71179,1,0,0:0:0:0:
256,192,71379,1,8,0:0:0:0:
256,192,71579,1,8,0:0:0:0:
256,192,71679,1,8,0:0:0:0:
256,192,71779,1,0,0:0:0:0:
256,192,71979,1,8,0:0:0:0:
256,192,72379,1,8,0:0:0:0:
256,192,72579,1,0,0:0:0:0:
256,192,72679,1,8,0:0:0:0:
256,192,72879,1,8,0:0:0:0:
256,192,72979,1,8,0:0:0:0:
256,192,73179,1,0,0:0:0:0:
256,192,73379,1,8,0:0:0:0:
256,192,73479,1,8,0:0:0:0:
256,192,73579,1,0,0:0:0:0:
256,192,73779,1,8,0:0:0:0:
256,192,73979,1,0,0:0:0:0:
256,192,74079,1,0,0:0:0:0:
256,192,74179,1,0,0:0:0:0:
256,192,74279,1,0,0:0:0:0:
256,192,74379,1,8,0:0:0:0:
256,192,74579,1,0,0:0:0:0:
256,192,74779,1,8,0:0:0:0:
256,192,75179,1,8,0:0:0:0:
256,192,75379,1,0,0:0:0:0:
256,192,75479,1,0,0:0:0:0:
256,192,75579,1,8,0:0:0:0:
256,192,75779,1,0,0:0:0:0:
256,192,75979,1,8,0:0:0:0:
256,192,76179,1,8,0:0:0:0:
256,192,76279,1,0,0:0:0:0:
256,192,76379,1,8,0:0:0:0:
256,192,76579,1,0,0:0:0:0:
256,192,76779,1,8,0:0:0:0:
256,192,76979,12,0,78179,0:0:0:0:
256,192,78379,5,12,0:0:0:0:
256,192,78779,1,8,0:0:0:0:
256,192,78979,1,0,0:0:0:0:
256,192,79079,1,8,0:0:0:0:
256,192,79279,1,8,0:0:0:0:
256,192,79379,1,8,0:0:0:0:
256,192,79579,1,0,0:0:0:0:
256,192,79779,1,8,0:0:0:0:
256,192,79979,1,0,0:0:0:0:
256,192,80079,1,8,0:0:0:0:
256,192,80179,1,8,0:0:0:0:
256,192,80279,1,8,0:0:0:0:
256,192,80379,1,0,0:0:0:0:
256,192,80579,1,8,0:0:0:0:
256,192,80679,1,0,0:0:0:0:
256,192,80979,1,8,0:0:0:0:
256,192,81179,1,8,0:0:0:0:
256,192,81279,1,8,0:0:0:0:
256,192,81379,1,0,0:0:0:0:
256,192,81479,1,0,0:0:0:0:
256,192,81579,1,8,0:0:0:0:
256,192,81779,1,0,0:0:0:0:
256,192,81979,1,8,0:0:0:0:
256,192,82179,1,0,0:0:0:0:
256,192,82279,1,8,0:0:0:0:
256,192,82479,1,8,0:0:0:0:
256,192,82579,1,0,0:0:0:0:
256,192,82779,1,8,0:0:0:0:
256,192,83179,1,8,0:0:0:0:
256,192,83379,1,0,0:0:0:0:
256,192,83579,1,8,0:0:0:0:
256,192,83779,1,8,0:0:0:0:
256,192,83879,1,8,0:0:0:0:
256,192,83979,1,0,0:0:0:0:
256,192,84379,1,8,0:0:0:0:
256,192,84479,1,0,0:0:0:0:
256,192,84579,1,8,0:0:0:0:
256,192,84779,1,12,0:0:0:0:
256,192,85179,1,8,0:0:0:0:
256,192,85379,1,0,0:0:0:0:
256,192,85479,1,8,0:0:0:0:
256,192,85679,1,8,0:0:0:0:
256,192,85779,1,8,0:0:0:0:
256,192,85979,1,0,0:0:0:0:
256,192,86179,1,8,0:0:0:0:
256,192,86379,1,0,0:0:0:0:
256,192,86479,1,8,0:0:0:0:
256,192,86579,1,8,0:0:0:0:
256,192,86679,1,8,0:0:0:0:
256,192,86779,1,0,0:0:0:0:
256,192,86979,1,8,0:0:0:0:
256,192,87079,1,0,0:0:0:0:
256,192,87379,1,8,0:0:0:0:
256,192,87579,1,0,0:0:0:0:
256,192,87679,1,0,0:0:0:0:
256,192,87779,1,8,0:0:0:0:
256,192,87879,1,0,0:0:0:0:
256,192,87979,1,8,0:0:0:0:
256,192,88379,1,8,0:0:0:0:
256,192,88579,1,0,0:0:0:0:
256,192,88679,1,8,0:0:0:0:
256,192,88879,1,0,0:0:0:0:
256,192,88979,1,8,0:0:0:0:
256,192,89079,1,0,0:0:0:0:
256,192,89179,1,8,0:0:0:0:
256,192,89379,1,8,0:0:0:0:
256,192,89579,1,0,0:0:0:0:
256,192,89779,1,8,0:0:0:0:
256,192,89979,1,8,0:0:0:0:
256,192,90079,1,8,0:0:0:0:
256,192,90179,1,8,0:0:0:0:
256,192,90279,1,8,0:0:0:0:
256,192,90379,12,0,90979,0:0:0:0:
256,192,91179,5,12,0:0:0:0:
256,192,91579,1,8,0:0:0:0:
256,192,91779,1,0,0:0:0:0:
256,192,91879,1,8,0:0:0:0:
256,192,92079,1,8,0:0:0:0:
256,192,92179,1,8,0:0:0:0:
256,192,92379,1,8,0:0:0:0:
256,192,92579,1,0,0:0:0:0:
256,192,92779,1,0,0:0:0:0:
256,192,92879,1,8,0:0:0:0:
256,192,92979,1,8,0:0:0:0:
256,192,93079,1,8,0:0:0:0:
256,192,93179,1,0,0:0:0:0:
256,192,93379,1,8,0:0:0:0:
256,192,93479,1,0,0:0:0:0:
256,192,93779,1,8,0:0:0:0:
256,192,93979,1,0,0:0:0:0:
256,192,94079,1,8,0:0:0:0:
256,192,94179,1,0,0:0:0:0:
256,192,94279,1,0,0:0:0:0:
256,192,94379,1,8,0:0:0:0:
256,192,94779,1,8,0:0:0:0:
256,192,94979,1,0,0:0:0:0:
256,192,95079,1,8,0:0:0:0:
256,192,95279,1,8,0:0:0:0:
256,192,95379,1,0,0:0:0:0:
256,192,95579,1,8,0:0:0:0:
256,192,95979,1,8,0:0:0:0:
256,192,96179,1,0,0:0:0:0:
256,192,96379,1,8,0:0:0:0:
256,192,96579,1,0,0:0:0:0:
256,192,96679,1,8,0:0:0:0:
256,192,96779,1,0,0:0:0:0:
256,192,97179,1,8,0:0:0:0:
256,192,97279,1,8,0:0:0:0:
256,192,97379,1,0,0:0:0:0:
256,192,97579,1,12,0:0:0:0:
256,192,97979,1,8,0:0:0:0:
256,192,98179,1,0,0:0:0:0:
256,192,98279,1,0,0:0:0:0:
256,192,98479,1,8,0:0:0:0:
256,192,98579,1,8,0:0:0:0:
256,192,98679,1,8,0:0:0:0:
256,192,98779,1,0,0:0:0:0:
256,192,98979,1,8,0:0:0:0:
256,192,99179,1,0,0:0:0:0:
256,192,99279,1,8,0:0:0:0:
256,192,99379,1,8,0:0:0:0:
256,192,99479,1,8,0:0:0:0:
256,192,99579,1,0,0:0:0:0:
256,192,99779,1,8,0:0:0:0:
256,192,99879,1,0,0:0:0:0:
256,192,100179,1,8,0:0:0:0:
256,192,100379,1,8,0:0:0:0:
256,192,100479,1,8,0:0:0:0:
256,192,100579,1,0,0:0:0:0:
256,192,100679,1,0,0:0:0:0:
256,192,100779,1,8,0:0:0:0:
256,192,100979,1,0,0:0:0:0:
256,192,101079,1,0,0:0:0:0:
256,192,101179,1,8,0:0:0:0:
256,192,101379,1,0,0:0:0:0:
256,192,101579,1,8,0:0:0:0:
256,192,101779,1,8,0:0:0:0:
256,192,101879,1,0,0:0:0:0:
256,192,101979,1,8,0:0:0:0:
256,192,102179,1,0,0:0:0:0:
256,192,102379,1,12,0:0:0:0:
256,192,102579,1,8,0:0:0:0:
256,192,102779,1,8,0:0:0:0:
256,192,102879,1,8,0:0:0:0:
256,192,102979,1,8,0:0:0:0:
256,192,103079,1,8,0:0:0:0:
256,192,103179,12,0,103779,0:0:0:0:
256,192,103979,5,12,0:0:0:0:
256,192,104379,1,0,0:0:0:0:
256,192,104779,1,8,0:0:0:0:
256,192,105179,1,0,0:0:0:0:
256,192,105579,1,0,0:0:0:0:
256,192,105979,1,0,0:0:0:0:
256,192,106379,1,8,0:0:0:0:
256,192,106779,1,0,0:0:0:0:
256,192,107179,1,0,0:0:0:0:
256,192,107579,1,0,0:0:0:0:
256,192,107979,1,8,0:0:0:0:
256,192,108379,1,0,0:0:0:0:
256,192,108779,1,0,0:0:0:0:
256,192,109179,1,0,0:0:0:0:
256,192,109579,1,8,0:0:0:0:
256,192,109979,1,0,0:0:0:0:
256,192,110379,1,0,0:0:0:0:
256,192,110779,1,0,0:0:0:0:
256,192,111179,1,8,0:0:0:0:
256,192,111579,1,0,0:0:0:0:
256,192,111979,1,0,0:0:0:0:
256,192,112379,1,0,0:0:0:0:
256,192,112779,1,8,0:0:0:0:
256,192,113179,1,0,0:0:0:0:
256,192,113579,1,0,0:0:0:0:
256,192,113979,1,0,0:0:0:0:
256,192,114379,1,8,0:0:0:0:
256,192,114779,1,0,0:0:0:0:
256,192,115179,1,0,0:0:0:0:
256,192,115979,1,8,0:0:0:0:
256,192,116779,1,12,0:0:0:0:
256,192,116979,1,0,0:0:0:0:
256,192,117079,1,8,0:0:0:0:
256,192,117279,1,8,0:0:0:0:
256,192,117379,1,8,0:0:0:0:
256,192,117579,1,0,0:0:0:0:
256,192,117679,1,8,0:0:0:0:
256,192,117779,1,0,0:0:0:0:
256,192,117979,1,8,0:0:0:0:
256,192,118379,1,8,0:0:0:0:
256,192,118579,1,0,0:0:0:0:
256,192,118679,1,8,0:0:0:0:
256,192,118879,1,8,0:0:0:0:
256,192,118979,1,0,0:0:0:0:
256,192,119179,1,8,0:0:0:0:
256,192,119279,1,8,0:0:0:0:
256,192,119379,1,0,0:0:0:0:
256,192,119579,1,8,0:0:0:0:
256,192,119979,1,8,0:0:0:0:
256,192,120179,1,0,0:0:0:0:
256,192,120279,1,8,0:0:0:0:
256,192,120479,1,8,0:0:0:0:
256,192,120579,1,8,0:0:0:0:
256,192,120779,1,0,0:0:0:0:
256,192,120879,1,8,0:0:0:0:
256,192,120979,1,0,0:0:0:0:
256,192,121179,1,8,0:0:0:0:
256,192,121579,1,8,0:0:0:0:
256,192,121779,1,0,0:0:0:0:
256,192,121879,1,8,0:0:0:0:
256,192,122079,1,8,0:0:0:0:
256,192,122179,1,0,0:0:0:0:
256,192,122379,1,0,0:0:0:0:
256,192,122479,1,0,0:0:0:0:
256,192,122579,1,8,0:0:0:0:
256,192,122779,1,8,0:0:0:0:
256,192,123179,1,8,0:0:0:0:
256,192,123379,1,0,0:0:0:0:
256,192,123479,1,8,0:0:0:0:
256,192,123679,1,8,0:0:0:0:
256,192,123779,1,8,0:0:0:0:
256,192,123979,1,0,0:0:0:0:
256,192,124079,1,8,0:0:0:0:
256,192,124179,1,0,0:0:0:0:
256,192,124379,1,8,0:0:0:0:
256,192,124779,1,8,0:0:0:0:
256,192,124979,1,0,0:0:0:0:
256,192,125079,1,8,0:0:0:0:
256,192,125279,1,8,0:0:0:0:
256,192,125379,1,0,0:0:0:0:
256,192,125579,1,8,0:0:0:0:
256,192,125679,1,8,0:0:0:0:
256,192,125779,1,0,0:0:0:0:
256,192,125979,1,8,0:0:0:0:
256,192,126379,1,8,0:0:0:0:
256,192,126579,1,0,0:0:0:0:
256,192,126679,1,8,0:0:0:0:
256,192,126879,1,8,0:0:0:0:
256,192,126979,1,8,0:0:0:0:
256,192,127179,1,0,0:0:0:0:
256,192,127279,1,8,0:0:0:0:
256,192,127379,1,0,0:0:0:0:
256,192,127579,1,8,0:0:0:0:
256,192,127979,1,8,0:0:0:0:
256,192,128179,12,0,129179,0:0:0:0:
256,192,129579,5,12,0:0:0:0:
256,192,129779,1,0,0:0:0:0:
256,192,129879,1,8,0:0:0:0:
256,192,130079,1,8,0:0:0:0:
256,192,130179,1,8,0:0:0:0:
256,192,130379,1,0,0:0:0:0:
256,192,130479,1,8,0:0:0:0:
256,192,130579,1,0,0:0:0:0:
256,192,130779,1,8,0:0:0:0:
256,192,130979,1,0,0:0:0:0:
256,192,131179,1,8,0:0:0:0:
256,192,131379,1,0,0:0:0:0:
256,192,131479,1,8,0:0:0:0:
256,192,131679,1,8,0:0:0:0:
256,192,131779,1,0,0:0:0:0:
256,192,131979,1,8,0:0:0:0:
256,192,132079,1,0,0:0:0:0:
256,192,132179,1,8,0:0:0:0:
256,192,132379,1,0,0:0:0:0:
256,192,132779,1,8,0:0:0:0:
256,192,132979,1,0,0:0:0:0:
256,192,133079,1,8,0:0:0:0:
256,192,133279,1,8,0:0:0:0:
256,192,133379,1,8,0:0:0:0:
256,192,133579,1,0,0:0:0:0:
256,192,133679,1,8,0:0:0:0:
256,192,133779,1,0,0:0:0:0:
256,192,133979,1,8,0:0:0:0:
256,192,134179,1,0,0:0:0:0:
256,192,134379,1,8,0:0:0:0:
256,192,134579,1,0,0:0:0:0:
256,192,134679,1,8,0:0:0:0:
256,192,134879,1,8,0:0:0:0:
256,192,134979,1,0,0:0:0:0:
256,192,135179,1,8,0:0:0:0:
256,192,135279,1,8,0:0:0:0:
256,192,135379,1,0,0:0:0:0:
256,192,135579,1,8,0:0:0:0:
256,192,135979,1,8,0:0:0:0:
256,192,136179,1,0,0:0:0:0:
256,192,136279,1,8,0:0:0:0:
256,192,136479,1,8,0:0:0:0:
256,192,136579,1,8,0:0:0:0:
256,192,136779,1,0,0:0:0:0:
256,192,136879,1,8,0:0:0:0:
256,192,136979,1,0,0:0:0:0:
256,192,137179,1,8,0:0:0:0:
256,192,137379,1,0,0:0:0:0:
256,192,137579,1,8,0:0:0:0:
256,192,137779,1,0,0:0:0:0:
256,192,137879,1,8,0:0:0:0:
256,192,138079,1,8,0:0:0:0:
256,192,138179,1,0,0:0:0:0:
256,192,138379,1,8,0:0:0:0:
256,192,138479,1,8,0:0:0:0:
256,192,138579,1,0,0:0:0:0:
256,192,138779,1,8,0:0:0:0:
256,192,138979,1,0,0:0:0:0:
256,192,139179,1,8,0:0:0:0:
256,192,139279,1,0,0:0:0:0:
256,192,139379,1,0,0:0:0:0:
256,192,139479,1,8,0:0:0:0:
256,192,139679,1,8,0:0:0:0:
256,192,139779,1,8,0:0:0:0:
256,192,139979,1,0,0:0:0:0:
256,192,140079,1,8,0:0:0:0:
256,192,140179,1,0,0:0:0:0:
256,192,140379,1,8,0:0:0:0:
256,192,140779,1,8,0:0:0:0:
256,192,140879,1,0,0:0:0:0:
256,192,141079,1,0,0:0:0:0:
256,192,141279,1,0,0:0:0:0:
256,192,141579,1,0,0:0:0:0:
256,192,141679,1,0,0:0:0:0:
256,192,141779,1,0,0:0:0:0:
256,192,141879,1,0,0:0:0:0:
256,192,141979,1,8,0:0:0:0:
256,192,142379,1,12,0:0:0:0:
256,192,142579,1,0,0:0:0:0:
256,192,142679,1,8,0:0:0:0:
256,192,142879,1,8,0:0:0:0:
256,192,142979,1,8,0:0:0:0:
256,192,143179,1,0,0:0:0:0:
256,192,143279,1,8,0:0:0:0:
256,192,143379,1,0,0:0:0:0:
256,192,143579,1,8,0:0:0:0:
256,192,143779,1,0,0:0:0:0:
256,192,143879,1,0,0:0:0:0:
256,192,143979,1,8,0:0:0:0:
256,192,144179,1,0,0:0:0:0:
256,192,144279,1,8,0:0:0:0:
256,192,144479,1,8,0:0:0:0:
256,192,144579,1,0,0:0:0:0:
256,192,144779,1,8,0:0:0:0:
256,192,144879,1,8,0:0:0:0:
256,192,144979,1,0,0:0:0:0:
256,192,145179,1,8,0:0:0:0:
256,192,145579,1,8,0:0:0:0:
256,192,145779,1,0,0:0:0:0:
256,192,145879,1,8,0:0:0:0:
256,192,146079,1,8,0:0:0:0:
256,192,146179,1,8,0:0:0:0:
256,192,146379,1,0,0:0:0:0:
256,192,146479,1,8,0:0:0:0:
256,192,146579,1,0,0:0:0:0:
256,192,146779,1,0,0:0:0:0:
256,192,146979,1,8,0:0:0:0:
256,192,147079,1,8,0:0:0:0:
256,192,147179,1,0,0:0:0:0:
256,192,147379,1,0,0:0:0:0:
256,192,147479,1,8,0:0:0:0:
256,192,147679,1,8,0:0:0:0:
256,192,147779,1,0,0:0:0:0:
256,192,147979,1,8,0:0:0:0:
256,192,148079,1,0,0:0:0:0:
256,192,148179,1,8,0:0:0:0:
256,192,148379,1,0,0:0:0:0:
256,192,148779,1,8,0:0:0:0:
256,192,148979,1,0,0:0:0:0:
256,192,149079,1,8,0:0:0:0:
256,192,149279,1,8,0:0:0:0:
256,192,149379,1,8,0:0:0:0:
256,192,149579,1,8,0:0:0:0:
256,192,149779,1,0,0:0:0:0:
256,192,149879,1,8,0:0:0:0:
256,192,150079,1,8,0:0:0:0:
256,192,150179,1,0,0:0:0:0:
256,192,150379,1,8,0:0:0:0:
256,192,150579,1,0,0:0:0:0:
256,192,150679,1,8,0:0:0:0:
256,192,150879,1,8,0:0:0:0:
256,192,150979,1,8,0:0:0:0:
256,192,151179,1,8,0:0:0:0:
256,192,151379,1,0,0:0:0:0:
256,192,151479,1,8,0:0:0:0:
256,192,151679,1,8,0:0:0:0:
256,192,151779,1,0,0:0:0:0:
256,192,151979,1,8,0:0:0:0:
256,192,152079,1,8,0:0:0:0:
256,192,152179,1,0,0:0:0:0:
256,192,152279,1,0,0:0:0:0:
256,192,152379,1,8,0:0:0:0:
256,192,152579,1,8,0:0:0:0:
256,192,152779,1,0,0:0:0:0:
256,192,152879,1,8,0:0:0:0:
256,192,152979,1,0,0:0:0:0:
256,192,153079,1,0,0:0:0:0:
256,192,153179,1,8,0:0:0:0:
256,192,153379,1,8,0:0:0:0:
256,192,153579,1,0,0:0:0:0:
256,192,153779,12,0,154779,0:0:0:0:
256,192,155179,5,12,0:0:0:0:
256,192,155979,1,8,0:0:0:0:
256,192,156779,1,0,0:0:0:0:
256,192,157579,1,8,0:0:0:0:
256,192,157979,1,0,0:0:0:0:
256,192,158379,1,8,0:0:0:0:
256,192,159179,1,8,0:0:0:0:
256,192,159979,1,0,0:0:0:0:
256,192,160779,1,8,0:0:0:0:
256,192,161579,1,8,0:0:0:0:
256,192,162379,1,8,0:0:0:0:
256,192,163179,1,0,0:0:0:0:
256,192,163979,1,8,0:0:0:0:
256,192,164379,1,0,0:0:0:0:
256,192,164779,1,8,0:0:0:0:
256,192,165579,1,8,0:0:0:0:
256,192,166379,1,0,0:0:0:0:
256,192,167179,1,8,0:0:0:0:
256,192,167379,1,0,0:0:0:0:
256,192,167579,1,0,0:0:0:0:
256,192,167779,1,0,0:0:0:0:
256,192,167979,1,12,0:0:0:0:
256,192,168379,1,0,0:0:0:0:
256,192,168779,1,8,0:0:0:0:
256,192,168979,1,0,0:0:0:0:
256,192,169079,1,8,0:0:0:0:
256,192,169179,1,0,0:0:0:0:
256,192,169379,1,8,0:0:0:0:
256,192,169579,1,0,0:0:0:0:
256,192,169779,1,8,0:0:0:0:
256,192,169879,1,0,0:0:0:0:
256,192,170079,1,8,0:0:0:0:
256,192,170379,1,8,0:0:0:0:
256,192,170579,1,0,0:0:0:0:
256,192,170679,1,0,0:0:0:0:
256,192,170779,1,8,0:0:0:0:
256,192,170979,1,0,0:0:0:0:
256,192,171179,1,8,0:0:0:0:
256,192,171579,1,0,0:0:0:0:
256,192,171979,1,8,0:0:0:0:
256,192,172179,1,0,0:0:0:0:
256,192,172279,1,0,0:0:0:0:
256,192,172379,1,8,0:0:0:0:
256,192,172579,1,8,0:0:0:0:
256,192,172779,1,0,0:0:0:0:
256,192,172979,1,8,0:0:0:0:
256,192,173079,1,0,0:0:0:0:
256,192,173279,1,8,0:0:0:0:
256,192,173579,1,8,0:0:0:0:
256,192,173779,1,0,0:0:0:0:
256,192,173879,1,0,0:0:0:0:
256,192,173979,1,8,0:0:0:0:
256,192,174179,1,0,0:0:0:0:
256,192,174379,1,12,0:0:0:0:
256,192,174779,1,0,0:0:0:0:
256,192,175179,1,8,0:0:0:0:
256,192,175379,1,0,0:0:0:0:
256,192,175479,1,8,0:0:0:0:
256,192,175579,1,0,0:0:0:0:
256,192,175779,1,8,0:0:0:0:
256,192,175979,1,0,0:0:0:0:
256,192,176179,1,8,0:0:0:0:
256,192,176279,1,0,0:0:0:0:
256,192,176479,1,8,0:0:0:0:
256,192,176779,1,8,0:0:0:0:
256,192,176979,1,0,0:0:0:0:
256,192,177079,1,0,0:0:0:0:
256,192,177179,1,8,0:0:0:0:
256,192,177379,1,0,0:0:0:0:
256,192,177579,1,8,0:0:0:0:
256,192,177979,1,0,0:0:0:0:
256,192,178379,1,8,0:0:0:0:
256,192,178579,1,0,0:0:0:0:
256,192,178679,1,0,0:0:0:0:
256,192,178779,1,8,0:0:0:0:
256,192,178979,1,8,0:0:0:0:
256,192,179179,1,0,0:0:0:0:
256,192,179379,1,8,0:0:0:0:
256,192,179479,1,0,0:0:0:0:
256,192,179679,1,8,0:0:0:0:
256,192,179879,1,0,0:0:0:0:
256,192,179979,1,8,0:0:0:0:
256,192,180179,1,0,0:0:0:0:
256,192,180279,1,0,0:0:0:0:
256,192,180379,1,8,0:0:0:0:
256,192,180579,1,0,0:0:0:0:
256,192,180779,1,8,0:0:0:0:
256,192,181179,1,0,0:0:0:0:
256,192,181379,1,8,0:0:0:0:
256,192,181579,1,0,0:0:0:0:
256,192,181979,1,8,0:0:0:0:
256,192,182379,1,0,0:0:0:0:
256,192,182579,1,8,0:0:0:0:
256,192,182779,1,0,0:0:0:0:
256,192,183179,1,8,0:0:0:0:
256,192,183579,1,0,0:0:0:0:
256,192,183779,1,8,0:0:0:0:
256,192,183979,1,8,0:0:0:0:
256,192,184379,1,8,0:0:0:0:
256,192,184779,1,0,0:0:0:0:
256,192,184979,1,8,0:0:0:0:
288,192,185179,1,0,0:0:0:0:
256,192,185579,1,8,0:0:0:0:
256,192,185979,1,0,0:0:0:0:
256,192,186179,1,8,0:0:0:0:
256,192,186379,1,0,0:0:0:0:
256,192,186779,1,8,0:0:0:0:
256,192,187179,1,0,0:0:0:0:
256,192,187479,1,8,0:0:0:0:
256,192,187679,1,0,0:0:0:0:
256,192,187779,1,8,0:0:0:0:
256,192,187979,1,0,0:0:0:0:
256,192,188379,1,8,0:0:0:0:
256,192,188779,1,8,0:0:0:0:
256,192,188979,1,0,0:0:0:0:
256,192,189079,1,8,0:0:0:0:
256,192,189179,1,0,0:0:0:0:
256,192,189379,1,8,0:0:0:0:
256,192,189579,1,0,0:0:0:0:
256,192,189979,1,8,0:0:0:0:
256,192,190379,1,0,0:0:0:0:
256,192,190679,1,8,0:0:0:0:
256,192,190879,1,0,0:0:0:0:
256,192,190979,1,8,0:0:0:0:
256,192,191179,1,0,0:0:0:0:
256,192,191479,1,0,0:0:0:0:
256,192,191679,1,8,0:0:0:0:
256,192,191779,1,0,0:0:0:0:
256,192,191979,1,8,0:0:0:0:
256,192,192279,1,8,0:0:0:0:
256,192,192479,1,0,0:0:0:0:
256,192,192579,1,0,0:0:0:0:
256,192,192779,1,8,0:0:0:0:
256,192,192979,1,0,0:0:0:0:
256,192,193079,1,0,0:0:0:0:
256,192,193179,1,8,0:0:0:0:
256,192,193579,1,0,0:0:0:0:
256,192,193779,1,8,0:0:0:0:
256,192,193879,1,0,0:0:0:0:
256,192,193979,1,8,0:0:0:0:
256,192,194179,1,0,0:0:0:0:
256,192,194379,1,8,0:0:0:0:
256,192,194579,1,0,0:0:0:0:
256,192,194679,1,0,0:0:0:0:
256,192,194779,1,8,0:0:0:0:
256,192,194879,1,8,0:0:0:0:
256,192,194979,1,0,0:0:0:0:
256,192,195179,1,8,0:0:0:0:
256,192,195379,1,0,0:0:0:0:
256,192,195479,1,8,0:0:0:0:
256,192,195579,1,0,0:0:0:0:
256,192,195779,1,8,0:0:0:0:
256,192,195979,1,0,0:0:0:0:
256,192,196179,1,8,0:0:0:0:
256,192,196279,1,8,0:0:0:0:
256,192,196379,1,0,0:0:0:0:
256,192,196479,1,0,0:0:0:0:
256,192,196579,1,8,0:0:0:0:
256,192,196779,1,8,0:0:0:0:
256,192,196979,1,0,0:0:0:0:
256,192,197079,1,0,0:0:0:0:
256,192,197179,1,8,0:0:0:0:
256,192,197379,1,0,0:0:0:0:
256,192,197579,1,8,0:0:0:0:
256,192,197779,1,0,0:0:0:0:
256,192,197879,1,8,0:0:0:0:
256,192,197979,1,0,0:0:0:0:
256,192,198079,1,0,0:0:0:0:
256,192,198179,1,8,0:0:0:0:
256,192,198379,1,0,0:0:0:0:
256,192,198579,1,8,0:0:0:0:
256,192,198679,1,8,0:0:0:0:
256,192,198779,1,0,0:0:0:0:
256,192,198979,1,8,0:0:0:0:
256,192,199179,1,0,0:0:0:0:
256,192,199379,1,8,0:0:0:0:
256,192,199479,1,0,0:0:0:0:
256,192,199579,1,8,0:0:0:0:
256,192,199979,1,8,0:0:0:0:
256,192,200079,1,0,0:0:0:0:
256,192,200279,1,0,0:0:0:0:
256,192,200379,1,8,0:0:0:0:
256,192,200579,1,0,0:0:0:0:
256,192,200779,1,8,0:0:0:0:
256,192,200879,1,8,0:0:0:0:
256,192,200979,1,0,0:0:0:0:
256,192,201079,1,0,0:0:0:0:
256,192,201179,1,8,0:0:0:0:
256,192,201379,1,0,0:0:0:0:
256,192,201579,1,8,0:0:0:0:
256,192,201679,1,8,0:0:0:0:
256,192,201879,1,0,0:0:0:0:
256,192,201979,1,8,0:0:0:0:
256,192,202179,1,0,0:0:0:0:
256,192,202279,1,0,0:0:0:0:
256,192,202379,1,8,0:0:0:0:
256,192,202479,1,0,0:0:0:0:
256,192,202579,1,8,0:0:0:0:
256,192,202779,1,0,0:0:0:0:
256,192,202979,1,8,0:0:0:0:
256,192,203179,1,0,0:0:0:0:
256,192,203279,1,8,0:0:0:0:
256,192,203379,1,0,0:0:0:0:
256,192,203479,1,0,0:0:0:0:
256,192,203579,1,8,0:0:0:0:
256,192,203779,1,0,0:0:0:0:
256,192,203979,1,8,0:0:0:0:
256,192,204079,1,0,0:0:0:0:
256,192,204179,1,0,0:0:0:0:
256,192,204279,1,0,0:0:0:0:
256,192,204379,1,8,0:0:0:0:
256,192,204579,1,8,0:0:0:0:
256,192,204679,1,8,0:0:0:0:
256,192,204779,1,0,0:0:0:0:
256,192,206379,5,8,0:0:0:0:
256,192,206479,1,8,0:0:0:0:
256,192,206679,1,0,0:0:0:0:
256,192,206879,1,8,0:0:0:0:
256,192,206979,1,8,0:0:0:0:
256,192,207079,1,0,0:0:0:0:
256,192,207179,1,0,0:0:0:0:
256,192,207279,1,8,0:0:0:0:
256,192,207479,1,0,0:0:0:0:
256,192,207779,1,8,0:0:0:0:
256,192,207979,1,0,0:0:0:0:
256,192,208079,1,8,0:0:0:0:
256,192,208279,1,0,0:0:0:0:
256,192,208679,1,8,0:0:0:0:
256,192,208879,1,8,0:0:0:0:
256,192,209079,1,0,0:0:0:0:
256,192,209279,1,0,0:0:0:0:
256,192,209379,1,8,0:0:0:0:
256,192,209579,1,8,0:0:0:0:
256,192,209679,1,8,0:0:0:0:
256,192,209879,1,0,0:0:0:0:
256,192,210079,1,8,0:0:0:0:
256,192,210179,1,0,0:0:0:0:
256,192,210279,1,0,0:0:0:0:
256,192,210379,1,0,0:0:0:0:
256,192,210479,1,8,0:0:0:0:
256,192,210679,1,0,0:0:0:0:
256,192,210979,1,8,0:0:0:0:
256,192,211179,1,8,0:0:0:0:
256,192,211279,1,0,0:0:0:0:
256,192,211479,1,8,0:0:0:0:
256,192,211879,1,0,0:0:0:0:
256,192,212079,1,8,0:0:0:0:
256,192,212279,1,0,0:0:0:0:
256,192,212379,1,8,0:0:0:0:
256,192,212579,1,0,0:0:0:0:
256,192,212779,1,8,0:0:0:0:
256,192,212879,1,8,0:0:0:0:
256,192,213079,1,0,0:0:0:0:
256,192,213279,1,8,0:0:0:0:
256,192,213379,1,8,0:0:0:0:
256,192,213479,1,0,0:0:0:0:
256,192,213579,1,0,0:0:0:0:
256,192,213679,1,8,0:0:0:0:
256,192,213879,1,0,0:0:0:0:
256,192,214179,1,8,0:0:0:0:
256,192,214379,1,0,0:0:0:0:
256,192,214479,1,8,0:0:0:0:
256,192,214679,1,0,0:0:0:0:
256,192,215079,1,8,0:0:0:0:
256,192,215279,1,8,0:0:0:0:
256,192,215479,1,0,0:0:0:0:
256,192,215679,1,0,0:0:0:0:
256,192,215779,1,8,0:0:0:0:
256,192,215979,1,8,0:0:0:0:
256,192,216079,1,8,0:0:0:0:
256,192,216279,1,0,0:0:0:0:
256,192,216479,1,8,0:0:0:0:
256,192,216579,1,0,0:0:0:0:
256,192,216679,1,0,0:0:0:0:
256,192,216779,1,0,0:0:0:0:
256,192,216879,1,8,0:0:0:0:
256,192,217079,1,0,0:0:0:0:
256,192,217379,1,0,0:0:0:0:
256,192,217579,1,12,0:0:0:0:
256,192,217779,1,0,0:0:0:0:
256,192,217879,1,0,0:0:0:0:
256,192,218079,1,8,0:0:0:0:
256,192,218179,1,0,0:0:0:0:
256,192,218279,1,0,0:0:0:0:
256,192,218379,1,8,0:0:0:0:
256,192,218579,1,8,0:0:0:0:
256,192,218779,1,0,0:0:0:0:
256,192,219179,1,0,0:0:0:0:
256,192,219279,1,8,0:0:0:0:
256,192,219479,1,8,0:0:0:0:
256,192,219679,1,0,0:0:0:0:
256,192,219779,1,8,0:0:0:0:
256,192,219879,1,0,0:0:0:0:
256,192,219979,1,0,0:0:0:0:
256,192,220079,1,8,0:0:0:0:
256,192,220279,1,0,0:0:0:0:
256,192,220579,1,8,0:0:0:0:
256,192,220779,1,0,0:0:0:0:
256,192,220879,1,8,0:0:0:0:
256,192,221079,1,0,0:0:0:0:
256,192,221479,1,8,0:0:0:0:
256,192,221679,1,8,0:0:0:0:
256,192,221879,1,0,0:0:0:0:
256,192,222079,1,0,0:0:0:0:
256,192,222179,1,8,0:0:0:0:
256,192,222379,1,8,0:0:0:0:
256,192,222479,1,8,0:0:0:0:
256,192,222679,1,0,0:0:0:0:
256,192,222879,1,8,0:0:0:0:
256,192,222979,1,8,0:0:0:0:
256,192,223079,1,0,0:0:0:0:
256,192,223179,1,0,0:0:0:0:
256,192,223279,1,8,0:0:0:0:
256,192,223479,1,0,0:0:0:0:
256,192,223779,1,8,0:0:0:0:
256,192,223979,1,8,0:0:0:0:
256,192,224079,1,0,0:0:0:0:
256,192,224279,1,8,0:0:0:0:
256,192,224679,1,0,0:0:0:0:
256,192,224879,1,8,0:0:0:0:
256,192,225079,1,0,0:0:0:0:
256,192,225179,1,8,0:0:0:0:
256,192,225379,1,0,0:0:0:0:
256,192,225579,1,8,0:0:0:0:
256,192,225679,1,8,0:0:0:0:
256,192,225879,1,0,0:0:0:0:
256,192,226079,1,8,0:0:0:0:
256,192,226179,1,0,0:0:0:0:
256,192,226279,1,0,0:0:0:0:
256,192,226379,1,0,0:0:0:0:
256,192,226479,1,8,0:0:0:0:
256,192,226679,1,0,0:0:0:0:
256,192,226979,1,8,0:0:0:0:
256,192,227179,1,0,0:0:0:0:
256,192,227279,1,8,0:0:0:0:
256,192,227479,1,0,0:0:0:0:
256,192,227879,1,8,0:0:0:0:
256,192,228079,1,8,0:0:0:0:
256,192,228279,1,0,0:0:0:0:
256,192,228479,1,0,0:0:0:0:
256,192,228579,1,8,0:0:0:0:
256,192,228779,1,8,0:0:0:0:
256,192,228879,1,8,0:0:0:0:
256,192,229079,1,0,0:0:0:0:
256,192,229279,1,8,0:0:0:0:
256,192,229379,1,8,0:0:0:0:
256,192,229479,1,0,0:0:0:0:
256,192,229579,1,0,0:0:0:0:
256,192,229679,1,8,0:0:0:0:
256,192,229879,1,0,0:0:0:0:
256,192,230179,1,0,0:0:0:0:
256,192,230379,1,12,0:0:0:0:
256,192,230579,12,0,231779,0:0:0:0:
256,192,231979,5,8,0:0:0:0:
256,192,232079,1,8,0:0:0:0:
256,192,232279,1,0,0:0:0:0:
256,192,232479,1,8,0:0:0:0:
256,192,232579,1,8,0:0:0:0:
256,192,232679,1,0,0:0:0:0:
256,192,232879,1,8,0:0:0:0:
256,192,233079,1,0,0:0:0:0:
256,192,233279,1,8,0:0:0:0:
256,192,233379,1,0,0:0:0:0:
256,192,233479,1,8,0:0:0:0:
256,192,233579,1,8,0:0:0:0:
256,192,233679,1,0,0:0:0:0:
256,192,233879,1,8,0:0:0:0:
256,192,234279,1,8,0:0:0:0:
256,192,234479,1,8,0:0:0:0:
256,192,234679,1,0,0:0:0:0:
256,192,234879,1,0,0:0:0:0:
256,192,234979,1,8,0:0:0:0:
256,192,235179,1,8,0:0:0:0:
256,192,235279,1,8,0:0:0:0:
256,192,235479,1,0,0:0:0:0:
256,192,235679,1,8,0:0:0:0:
256,192,235779,1,0,0:0:0:0:
256,192,235879,1,0,0:0:0:0:
256,192,236079,1,8,0:0:0:0:
256,192,236279,1,0,0:0:0:0:
256,192,236479,1,8,0:0:0:0:
256,192,236579,1,8,0:0:0:0:
256,192,236679,1,0,0:0:0:0:
256,192,236779,1,8,0:0:0:0:
256,192,236879,1,8,0:0:0:0:
256,192,237079,1,0,0:0:0:0:
256,192,237479,1,8,0:0:0:0:
256,192,237679,1,8,0:0:0:0:
256,192,237879,1,0,0:0:0:0:
256,192,238079,1,8,0:0:0:0:
256,192,238179,1,8,0:0:0:0:
256,192,238379,1,0,0:0:0:0:
256,192,238479,1,8,0:0:0:0:
256,192,238679,1,0,0:0:0:0:
256,192,238879,1,8,0:0:0:0:
256,192,238979,1,8,0:0:0:0:
256,192,239079,1,0,0:0:0:0:
256,192,239279,1,8,0:0:0:0:
256,192,239479,1,0,0:0:0:0:
256,192,239679,1,8,0:0:0:0:
256,192,239779,1,8,0:0:0:0:
256,192,239879,1,0,0:0:0:0:
256,192,239979,1,8,0:0:0:0:
256,192,240079,1,0,0:0:0:0:
256,192,240279,1,8,0:0:0:0:
256,192,240679,1,8,0:0:0:0:
256,192,240879,1,8,0:0:0:0:
256,192,241079,1,0,0:0:0:0:
256,192,241279,1,0,0:0:0:0:
256,192,241379,1,8,0:0:0:0:
256,192,241579,1,8,0:0:0:0:
256,192,241679,1,8,0:0:0:0:
256,192,241879,1,0,0:0:0:0:
256,192,242079,1,8,0:0:0:0:
256,192,242179,1,0,0:0:0:0:
256,192,242279,1,0,0:0:0:0:
256,192,242479,1,8,0:0:0:0:
256,192,242679,1,0,0:0:0:0:
256,192,242879,1,8,0:0:0:0:
256,192,242979,1,0,0:0:0:0:
256,192,243179,1,12,0:0:0:0:
256,192,243379,1,0,0:0:0:0:
256,192,243479,1,0,0:0:0:0:
256,192,243679,1,8,0:0:0:0:
256,192,243779,1,0,0:0:0:0:
256,192,243879,1,0,0:0:0:0:
256,192,243979,1,8,0:0:0:0:
256,192,244179,1,8,0:0:0:0:
256,192,244379,1,0,0:0:0:0:
256,192,244779,1,0,0:0:0:0:
256,192,244879,1,8,0:0:0:0:
256,192,245079,1,8,0:0:0:0:
256,192,245279,1,0,0:0:0:0:
256,192,245379,1,8,0:0:0:0:
256,192,245479,1,0,0:0:0:0:
256,192,245679,1,8,0:0:0:0:
256,192,245879,1,0,0:0:0:0:
256,192,246079,1,8,0:0:0:0:
256,192,246179,1,0,0:0:0:0:
256,192,246279,1,8,0:0:0:0:
256,192,246379,1,8,0:0:0:0:
256,192,246479,1,0,0:0:0:0:
256,192,246679,1,8,0:0:0:0:
256,192,247079,1,8,0:0:0:0:
256,192,247279,1,8,0:0:0:0:
256,192,247479,1,0,0:0:0:0:
256,192,247679,1,0,0:0:0:0:
256,192,247779,1,8,0:0:0:0:
256,192,247979,1,8,0:0:0:0:
256,192,248079,1,8,0:0:0:0:
256,192,248279,1,0,0:0:0:0:
256,192,248479,1,8,0:0:0:0:
256,192,248579,1,8,0:0:0:0:
256,192,248679,1,0,0:0:0:0:
256,192,248879,1,8,0:0:0:0:
256,192,249079,1,0,0:0:0:0:
256,192,249279,1,8,0:0:0:0:
256,192,249379,1,8,0:0:0:0:
256,192,249479,1,0,0:0:0:0:
256,192,249579,1,8,0:0:0:0:
256,192,249679,1,8,0:0:0:0:
256,192,249879,1,0,0:0:0:0:
256,192,250279,1,8,0:0:0:0:
256,192,250479,1,8,0:0:0:0:
256,192,250679,1,0,0:0:0:0:
256,192,250879,1,8,0:0:0:0:
256,192,250979,1,8,0:0:0:0:
256,192,251179,1,0,0:0:0:0:
256,192,251279,1,8,0:0:0:0:
256,192,251479,1,0,0:0:0:0:
256,192,251679,1,0,0:0:0:0:
256,192,251779,1,0,0:0:0:0:
256,192,251879,1,8,0:0:0:0:
256,192,252079,1,8,0:0:0:0:
256,192,252279,1,0,0:0:0:0:
256,192,252479,1,8,0:0:0:0:
256,192,252579,1,0,0:0:0:0:
256,192,252779,1,8,0:0:0:0:
256,192,252879,1,8,0:0:0:0:
256,192,253079,1,0,0:0:0:0:
256,192,253279,1,0,0:0:0:0:
256,192,253479,1,8,0:0:0:0:
256,192,253679,1,8,0:0:0:0:
256,192,253879,1,0,0:0:0:0:
256,192,254079,1,0,0:0:0:0:
256,192,254179,1,8,0:0:0:0:
256,192,254379,1,8,0:0:0:0:
256,192,254479,1,8,0:0:0:0:
256,192,254679,1,0,0:0:0:0:
256,192,254779,1,8,0:0:0:0:
256,192,254979,1,0,0:0:0:0:
256,192,255179,1,8,0:0:0:0:
256,192,255379,1,0,0:0:0:0:
256,192,255479,1,0,0:0:0:0:
256,192,255579,1,8,0:0:0:0:
256,192,255779,1,0,0:0:0:0:
256,192,255979,1,8,0:0:0:0:
256,192,256679,1,8,0:0:0:0:
256,192,256879,1,8,0:0:0:0:
256,192,257079,1,0,0:0:0:0:
256,192,257279,1,0,0:0:0:0:
256,192,257379,1,8,0:0:0:0:
256,192,257579,1,4,0:0:0:0:
