osu file format v14

[General]
AudioFilename: audio.ogg
AudioLeadIn: 0
PreviewTime: 48729
Countdown: 0
SampleSet: None
StackLeniency: 0.2
Mode: 0
LetterboxInBreaks: 0
WidescreenStoryboard: 1

[Editor]
Bookmarks: 823,12823,24823,36823,48823,60823,72823,84823,96823,108823,120823
DistanceSpacing: 2.6
BeatDivisor: 4
GridSize: 8
TimelineZoom: 0.8999996

[Metadata]
Title:After School Dessert
TitleUnicode:After School Dessert
Artist:KARUT
ArtistUnicode:KARUT
Creator:nik
Version:Kuse's Another
Source:ブルーアーカイブ -Blue Archive-
Tags:ブルアカ ba buruaka trinity nexon nat games yostar video game vgm kawaii future bass instrumental soundtrack electronic theme sweet secrets and gunfights: a tale of after school sweets 放課後スイーツ物語 甘い秘密と銃撃戦 club ost original 128 theme_128 nikolomara uzawa reisa apis035 eisbahn midorijeon kuse kubsnia_zhoyl_
BeatmapID:4614840
BeatmapSetID:2154762

[Difficulty]
HPDrainRate:5
CircleSize:4
OverallDifficulty:8
ApproachRate:9
SliderMultiplier:1.6
SliderTickRate:1

[Events]
//Background and Video events
0,0,"BG_CS_Event_11.jpg",0,0
//Break Periods
//Storyboard Layer 0 (Background)
//Storyboard Layer 1 (Fail)
//Storyboard Layer 2 (Pass)
//Storyboard Layer 3 (Foreground)
//Storyboard Layer 4 (Overlay)
//Storyboard Sound Samples

[TimingPoints]
823,375,4,2,2,60,1,0
823,-125,4,2,2,60,0,0
1010,-125,4,2,1,60,0,0
7010,-125,4,2,2,60,0,0
7198,-125,4,2,1,60,0,0
7385,-125,4,2,2,60,0,0
7573,-125,4,2,1,60,0,0
7760,-125,4,2,2,60,0,0
7948,-125,4,2,1,60,0,0
8135,-125,4,2,2,60,0,0
8323,-125,4,2,1,60,0,0
8510,-125,4,2,2,60,0,0
8698,-125,4,2,1,60,0,0
8885,-125,4,2,2,60,0,0
9073,-125,4,2,1,60,0,0
11135,-125,4,2,3,60,0,0
12073,-66.6666666666667,4,2,4,60,0,0
12448,-66.6666666666667,4,2,1,60,0,0
12635,-66.6666666666667,4,2,5,60,0,0
12823,-66.6666666666667,4,2,2,80,0,0
13010,-66.6666666666667,4,2,3,80,0,0
13198,-66.6666666666667,4,2,1,80,0,0
13385,-66.6666666666667,4,2,3,80,0,0
13948,-66.6666666666667,4,2,1,80,0,0
14135,-66.6666666666667,4,2,3,80,0,0
14698,-66.6666666666667,4,2,1,80,0,0
14885,-66.6666666666667,4,2,3,80,0,0
15166,-66.6666666666667,4,2,1,80,0,0
15635,-66.6666666666667,4,2,3,80,0,0
15823,-66.6666666666667,4,2,1,80,0,0
16010,-66.6666666666667,4,2,3,80,0,0
16198,-66.6666666666667,4,2,1,80,0,0
16385,-66.6666666666667,4,2,3,80,0,0
16948,-66.6666666666667,4,2,1,80,0,0
17135,-66.6666666666667,4,2,3,80,0,0
17698,-66.6666666666667,4,2,1,80,0,0
17885,-66.6666666666667,4,2,3,80,0,0
18073,-66.6666666666667,4,2,1,80,0,0
18260,-66.6666666666667,4,2,3,80,0,0
18448,-66.6666666666667,4,2,6,80,0,0
18635,-66.6666666666667,4,2,1,80,0,0
19010,-66.6666666666667,4,2,3,80,0,0
19198,-66.6666666666667,4,2,1,80,0,0
19385,-66.6666666666667,4,2,3,80,0,0
19948,-66.6666666666667,4,2,1,80,0,0
20135,-66.6666666666667,4,2,3,80,0,0
20698,-66.6666666666667,4,2,1,80,0,0
20885,-66.6666666666667,4,2,3,80,0,0
21166,-66.6666666666667,4,2,1,80,0,0
21635,-66.6666666666667,4,2,3,80,0,0
21823,-66.6666666666667,4,2,1,80,0,0
22010,-66.6666666666667,4,2,3,80,0,0
22198,-66.6666666666667,4,2,1,80,0,0
22385,-66.6666666666667,4,2,3,80,0,0
22948,-66.6666666666667,4,2,1,80,0,0
23135,-55.5555555555556,4,2,3,80,0,0
24448,-66.6666666666667,4,2,1,80,0,0
24823,-125,4,2,2,70,0,0
27635,-125,4,2,1,70,0,0
28573,-125,4,2,2,70,0,0
30448,-125,4,2,6,70,0,0
30541,-125,4,2,2,70,0,0
30635,-125,4,2,1,70,0,0
31573,-125,4,2,2,70,0,0
33635,-125,4,2,1,70,0,0
34573,-125,4,2,2,70,0,0
36448,-200,4,2,7,70,0,0
36541,-200,4,2,2,70,0,0
36635,-200,4,2,1,70,0,0
36823,-125,4,2,2,70,0,0
39635,-125,4,2,1,70,0,0
40573,-125,4,2,2,70,0,0
42448,-125,4,2,6,70,0,0
42541,-125,4,2,2,70,0,0
42635,-125,4,2,1,70,0,0
43573,-125,4,2,2,70,0,0
45635,-125,4,2,1,70,0,0
46573,-125,4,2,3,70,0,0
46760,-125,4,2,1,70,0,0
47135,-83.3333333333333,4,2,3,70,0,0
48073,-83.3333333333333,4,2,2,70,0,0
48448,-83.3333333333333,4,2,4,70,0,0
48541,-83.3333333333333,4,2,2,70,0,0
48635,-83.3333333333333,4,2,1,70,0,0
48823,-100,4,2,2,60,0,0
54448,-100,4,2,3,60,0,0
54823,-100,4,2,2,60,0,0
55760,-100,4,2,8,60,0,0
55948,-100,4,2,2,60,0,0
57260,-100,4,2,8,60,0,0
57448,-100,4,2,2,60,0,0
58010,-100,4,2,4,60,0,0
58198,-100,4,2,2,60,0,0
58760,-100,4,2,8,60,0,0
58948,-100,4,2,2,60,0,0
59229,-100,4,2,7,60,0,0
59510,-100,4,2,2,60,0,0
59698,-100,4,2,8,60,0,0
59885,-100,4,2,2,60,0,0
60448,-100,4,2,7,60,0,0
60823,-100,4,2,2,65,0,0
61198,-100,4,2,9,65,0,0
61385,-100,4,2,1,65,0,0
61948,-100,4,2,5,65,0,0
62135,-100,4,2,10,65,0,0
62510,-100,4,2,1,65,0,0
62698,-100,4,2,5,65,0,0
62885,-100,4,2,1,65,0,0
63448,-100,4,2,9,65,0,0
63635,-100,4,2,4,65,0,0
63823,-100,4,2,1,65,0,0
64198,-100,4,2,9,65,0,0
64385,-100,4,2,1,65,0,0
64948,-100,4,2,4,65,0,0
65135,-100,4,2,10,65,0,0
65323,-100,4,2,2,65,0,0
66448,-100,4,2,3,65,0,0
66635,-100,4,2,5,65,0,0
66823,-100,4,2,2,65,0,0
67198,-100,4,2,9,65,0,0
67385,-100,4,2,1,65,0,0
67948,-100,4,2,5,65,0,0
68135,-100,4,2,10,65,0,0
68510,-100,4,2,1,65,0,0
68698,-100,4,2,5,65,0,0
68885,-100,4,2,1,65,0,0
69448,-100,4,2,9,65,0,0
69635,-100,4,2,4,65,0,0
69823,-100,4,2,1,65,0,0
70198,-100,4,2,9,65,0,0
70385,-100,4,2,1,65,0,0
70948,-100,4,2,4,65,0,0
71135,-100,4,2,10,65,0,0
71510,-100,4,2,8,65,0,0
72448,-100,4,2,4,65,0,0
72635,-100,4,2,8,65,0,0
72823,-100,4,2,11,60,0,0
73104,-100,4,2,8,60,0,0
73666,-100,4,2,8,60,0,0
73760,-100,4,2,11,60,0,0
73854,-100,4,2,11,60,0,0
73948,-100,4,2,4,60,0,0
74041,-100,4,2,4,60,0,0
74135,-100,4,2,10,60,0,0
74323,-100,4,2,11,60,0,0
74604,-100,4,2,8,60,0,0
75166,-100,4,2,8,60,0,0
75260,-100,4,2,11,60,0,0
75354,-100,4,2,11,60,0,0
75448,-100,4,2,8,60,0,0
75635,-100,4,2,4,60,0,0
75823,-100,4,2,11,60,0,0
76104,-100,4,2,8,60,0,0
76666,-100,4,2,8,60,0,0
76760,-100,4,2,11,60,0,0
76854,-100,4,2,11,60,0,0
76948,-100,4,2,4,60,0,0
77041,-100,4,2,4,60,0,0
77135,-100,4,2,10,60,0,0
77323,-100,4,2,11,60,0,0
77604,-100,4,2,8,60,0,0
78166,-100,4,2,8,60,0,0
78260,-100,4,2,8,60,0,0
78354,-100,4,2,8,60,0,0
78448,-100,4,2,12,60,0,0
78635,-100,4,2,8,60,0,0
78823,-100,4,2,11,60,0,0
79104,-100,4,2,8,60,0,0
79666,-100,4,2,8,60,0,0
79760,-100,4,2,11,60,0,0
79854,-100,4,2,11,60,0,0
79948,-100,4,2,4,60,0,0
80041,-100,4,2,4,60,0,0
80135,-100,4,2,10,60,0,0
80323,-100,4,2,11,60,0,0
80604,-100,4,2,8,60,0,0
81166,-100,4,2,8,60,0,0
81260,-100,4,2,11,60,0,0
81354,-100,4,2,11,60,0,0
81448,-100,4,2,8,60,0,0
81635,-100,4,2,4,60,0,0
81823,-100,4,2,11,60,0,0
81916,-100,4,2,8,60,0,0
82666,-100,4,2,8,60,0,0
82760,-100,4,2,11,60,0,0
82854,-100,4,2,11,60,0,0
82948,-100,4,2,4,60,0,0
83041,-100,4,2,4,60,0,0
83135,-100,4,2,10,60,0,0
83323,-100,4,2,11,60,0,0
83416,-100,4,2,3,60,0,0
83698,-100,4,2,11,60,0,0
83791,-100,4,2,1,60,0,0
84073,-100,4,2,4,60,0,0
84260,-100,4,2,8,60,0,0
84448,-100,4,2,1,60,0,0
84541,-100,4,2,8,60,0,0
84823,-66.6666666666667,4,2,2,80,0,0
85010,-66.6666666666667,4,2,3,80,0,0
85198,-66.6666666666667,4,2,1,80,0,0
85385,-66.6666666666667,4,2,3,80,0,0
85948,-66.6666666666667,4,2,1,80,0,0
86135,-66.6666666666667,4,2,3,80,0,0
86698,-66.6666666666667,4,2,1,80,0,0
86885,-66.6666666666667,4,2,3,80,0,0
87166,-66.6666666666667,4,2,1,80,0,0
87635,-66.6666666666667,4,2,3,80,0,0
87823,-66.6666666666667,4,2,1,80,0,0
88010,-66.6666666666667,4,2,3,80,0,0
88198,-66.6666666666667,4,2,1,80,0,0
88385,-66.6666666666667,4,2,3,80,0,0
88948,-66.6666666666667,4,2,1,80,0,0
89135,-66.6666666666667,4,2,3,80,0,0
89698,-66.6666666666667,4,2,1,80,0,0
89885,-66.6666666666667,4,2,3,80,0,0
90073,-66.6666666666667,4,2,1,80,0,0
90260,-66.6666666666667,4,2,3,80,0,0
90448,-66.6666666666667,4,2,6,80,0,0
90635,-66.6666666666667,4,2,1,80,0,0
91010,-66.6666666666667,4,2,3,80,0,0
91198,-66.6666666666667,4,2,1,80,0,0
91385,-66.6666666666667,4,2,3,80,0,0
91948,-66.6666666666667,4,2,1,80,0,0
92135,-66.6666666666667,4,2,3,80,0,0
92698,-66.6666666666667,4,2,1,80,0,0
92885,-66.6666666666667,4,2,3,80,0,0
93166,-66.6666666666667,4,2,1,80,0,0
93635,-66.6666666666667,4,2,3,80,0,0
93823,-66.6666666666667,4,2,1,80,0,0
94010,-66.6666666666667,4,2,3,80,0,0
94198,-66.6666666666667,4,2,1,80,0,0
94385,-66.6666666666667,4,2,3,80,0,0
94948,-66.6666666666667,4,2,1,80,0,0
95135,-55.5555555555556,4,2,3,80,0,0
96073,-55.5555555555556,4,2,2,80,0,0
96448,-55.5555555555556,4,2,1,80,0,0
96823,-66.6666666666667,4,2,2,80,0,0
97010,-66.6666666666667,4,2,3,80,0,0
97198,-66.6666666666667,4,2,1,80,0,0
97385,-66.6666666666667,4,2,3,80,0,0
97948,-66.6666666666667,4,2,1,80,0,0
98135,-66.6666666666667,4,2,3,80,0,0
98698,-66.6666666666667,4,2,1,80,0,0
98885,-66.6666666666667,4,2,3,80,0,0
99166,-66.6666666666667,4,2,1,80,0,0
99635,-66.6666666666667,4,2,3,80,0,0
99823,-66.6666666666667,4,2,1,80,0,0
100010,-66.6666666666667,4,2,3,80,0,0
100198,-66.6666666666667,4,2,1,80,0,0
100385,-66.6666666666667,4,2,3,80,0,0
100948,-66.6666666666667,4,2,1,80,0,0
101135,-66.6666666666667,4,2,3,80,0,0
101698,-66.6666666666667,4,2,1,80,0,0
101885,-66.6666666666667,4,2,3,80,0,0
102073,-66.6666666666667,4,2,1,80,0,0
102260,-66.6666666666667,4,2,3,80,0,0
102448,-66.6666666666667,4,2,6,80,0,0
102635,-66.6666666666667,4,2,1,80,0,0
103010,-66.6666666666667,4,2,3,80,0,0
103198,-66.6666666666667,4,2,1,80,0,0
103385,-66.6666666666667,4,2,3,80,0,0
103948,-66.6666666666667,4,2,1,80,0,0
104135,-66.6666666666667,4,2,3,80,0,0
104698,-66.6666666666667,4,2,1,80,0,0
104885,-66.6666666666667,4,2,3,80,0,0
105166,-66.6666666666667,4,2,1,80,0,0
105635,-66.6666666666667,4,2,3,80,0,0
105823,-66.6666666666667,4,2,1,80,0,0
106010,-66.6666666666667,4,2,3,80,0,0
106198,-66.6666666666667,4,2,1,80,0,0
106385,-66.6666666666667,4,2,3,80,0,0
106948,-66.6666666666667,4,2,1,80,0,0
107135,-55.5555555555556,4,2,3,80,0,0
108073,-55.5555555555556,4,2,2,80,0,0
108448,-55.5555555555556,4,2,1,80,0,0
108823,-100,4,2,11,60,0,0
109010,-100,4,2,2,60,0,0
109198,-100,4,2,11,60,0,0
109385,-100,4,2,2,60,0,0
109573,-100,4,2,12,60,0,0
109760,-100,4,2,8,60,0,0
109948,-100,4,2,11,60,0,0
110135,-100,4,2,2,60,0,0
110323,-100,4,2,11,60,0,0
110510,-100,4,2,2,60,0,0
110698,-100,4,2,11,60,0,0
110885,-100,4,2,2,60,0,0
111073,-100,4,2,12,60,0,0
111260,-100,4,2,8,60,0,0
111448,-100,4,2,11,60,0,0
111635,-100,4,2,2,60,0,0
111823,-100,4,2,11,60,0,0
112010,-100,4,2,2,60,0,0
112198,-100,4,2,11,60,0,0
112385,-100,4,2,2,60,0,0
112573,-100,4,2,12,60,0,0
112760,-100,4,2,8,60,0,0
112948,-100,4,2,11,60,0,0
113135,-100,4,2,2,60,0,0
113323,-100,4,2,11,60,0,0
113510,-100,4,2,2,60,0,0
113698,-100,4,2,11,60,0,0
113885,-100,4,2,8,60,0,0
114073,-100,4,2,12,60,0,0
114260,-100,4,2,8,60,0,0
114448,-100,4,2,12,60,0,0
114635,-100,4,2,2,60,0,0
114823,-100,4,2,13,60,0,0
115010,-100,4,2,2,60,0,0
115198,-100,4,2,11,60,0,0
115385,-100,4,2,2,60,0,0
115573,-100,4,2,12,60,0,0
115760,-100,4,2,8,60,0,0
115948,-100,4,2,11,60,0,0
116135,-100,4,2,2,60,0,0
116323,-100,4,2,11,60,0,0
116510,-100,4,2,2,60,0,0
116698,-100,4,2,11,60,0,0
116885,-100,4,2,2,60,0,0
117073,-100,4,2,12,60,0,0
117260,-100,4,2,8,60,0,0
117448,-100,4,2,11,60,0,0
117635,-100,4,2,2,60,0,0
117823,-100,4,2,11,60,0,0
117916,-100,4,2,6,60,0,0
118198,-100,4,2,11,60,0,0
118291,-100,4,2,6,60,0,0
118573,-100,4,2,11,60,0,0
118666,-100,4,2,1,60,0,0
118760,-100,4,2,8,60,0,0
118948,-100,4,2,11,60,0,0
119041,-100,4,2,7,60,0,0
119323,-100,4,2,7,60,0,0
119510,-100,4,2,1,60,0,0
119885,-100,4,2,14,60,0,0
119979,-100,4,2,4,60,0,0
120073,-66.6666666666667,4,2,4,60,0,0
120541,-66.6666666666667,4,2,8,60,0,0
120823,-66.6666666666667,4,2,1,60,0,0

[Colours]
Combo1 : 183,255,183
Combo2 : 128,128,192
Combo3 : 255,128,128
Combo4 : 255,210,211
Combo5 : 255,169,91

[HitObjects]
94,144,823,5,6,0:1:0:0:
130,75,1010,1,2,0:0:0:0:
95,154,1198,1,2,0:0:0:0:
138,70,1385,2,0,P|174:50|273:72,1,128,2|2,0:0|0:0,0:0:0:0:
248,145,1948,1,2,0:0:0:0:
227,227,2135,6,0,P|255:258|344:251,1,128,2|2,0:0|0:0,0:0:0:0:
409,212,2698,1,2,0:0:0:0:
487,180,2885,2,0,P|470:234|450:310,1,128,2|0,0:0|0:0,0:0:0:0:
468,327,3354,1,0,0:0:0:0:
468,327,3448,1,2,0:0:0:0:
389,374,3635,1,2,0:0:0:0:
380,282,3823,5,2,0:0:0:0:
429,204,4010,1,2,0:0:0:0:
382,292,4198,1,2,0:0:0:0:
424,194,4385,2,0,P|390:150|318:157,1,128,2|2,0:0|0:0,0:0:0:0:
251,210,4948,1,2,0:0:0:0:
186,272,5135,6,0,P|124:278|84:231,1,128,2|2,0:0|0:0,0:0:0:0:
59,145,5698,1,2,0:0:0:0:
117,77,5885,1,2,0:0:0:0:
206,83,6073,1,2,0:0:0:0:
231,168,6260,5,2,0:0:0:0:
305,218,6448,1,2,0:0:0:0:
385,178,6635,1,0,0:0:0:0:
278,25,6823,6,0,P|310:14|346:5,1,64,6|2,3:2|3:2,0:0:0:0:
368,20,7104,1,0,3:2:0:0:
368,20,7198,1,2,3:2:0:0:
401,107,7385,1,2,3:2:0:0:
331,171,7573,6,0,P|319:212|313:249,1,64,0|2,3:2|3:2,0:0:0:0:
329,264,7854,1,0,3:2:0:0:
329,264,7948,1,2,3:2:0:0:
268,343,8135,1,2,3:2:0:0:
379,381,8323,6,0,P|395:336|412:281,1,96,0|0,3:2|3:2,0:0:0:0:
406,247,8698,1,2,3:2:0:0:
506,277,8885,2,0,P|488:216|477:159,1,96,2|2,3:2|0:0,0:0:0:0:
476,148,9260,1,0,3:2:0:0:
512,65,9448,1,2,3:2:0:0:
512,65,9635,1,2,3:2:0:0:
376,3,9823,5,2,3:2:0:0:
389,84,10010,1,2,3:2:0:0:
266,164,10198,1,2,3:2:0:0:
283,83,10385,1,2,3:2:0:0:
362,190,10573,5,0,3:2:0:0:
339,207,10666,1,0,3:2:0:0:
324,231,10760,1,2,3:2:0:0:
310,256,10854,1,0,0:0:0:0:
300,283,10948,1,2,3:2:0:0:
278,264,11041,1,0,3:2:0:0:
241,255,11135,6,0,P|197:272|152:303,1,96,2|0,3:2|3:2,0:0:0:0:
138,267,11510,2,0,P|104:250|40:235,1,96,2|0,3:2|3:2,0:0:0:0:
41,198,11885,2,0,L|34:154,1,32,2|0,3:2|0:0,0:0:0:0:
130,142,12073,6,0,B|116:170|116:170|115:142,3,60.0000022888184,2|0|0|0,0:0|0:0|0:0|0:0,0:0:0:0:
124,64,12448,6,0,P|177:79|195:189,1,180.000006866455,2|0,3:1|3:2,0:0:0:0:
165,229,12823,5,6,1:1:0:0:
344,186,13010,1,2,0:0:0:0:
238,125,13198,1,10,1:2:0:0:
361,292,13385,2,0,P|417:280|454:165,1,180.000006866455,2|0,0:0|0:0,0:0:0:0:
434,132,13760,1,2,0:0:0:0:
473,282,13948,1,10,1:2:0:0:
344,186,14135,2,0,P|326:126|405:31,1,180.000006866455,2|0,0:0|0:0,0:0:0:0:
436,34,14510,5,2,0:0:0:0:
291,94,14698,1,10,1:2:0:0:
167,0,14885,2,0,P|99:21|-11:93,1,180.000006866455,2|2,0:0|0:0,0:0:0:0:
0,121,15260,1,2,0:3:0:0:
159,188,15448,1,10,1:2:0:0:
96,108,15635,1,2,3:2:0:0:
66,277,15823,5,2,1:2:0:0:
270,228,16010,1,2,0:0:0:0:
159,188,16198,1,10,1:2:0:0:
285,335,16385,2,0,P|309:261|348:162,1,180.000006866455,2|0,0:0|0:0,0:0:0:0:
366,118,16760,1,2,0:0:0:0:
404,276,16948,1,10,1:2:0:0:
229,223,17135,6,0,P|211:152|173:50,1,180.000006866455,2|0,0:0|0:0,0:0:0:0:
149,6,17510,1,2,0:0:0:0:
118,168,17698,1,10,1:2:0:0:
286,120,17885,1,2,0:0:0:0:
72,85,18073,5,2,1:2:0:0:
281,22,18260,1,2,0:0:0:0:
229,223,18448,1,10,1:2:0:0:
229,223,18541,1,0,0:0:0:0:
229,223,18635,1,2,3:3:0:0:
21,170,18823,5,6,1:2:0:0:
162,317,19010,1,2,0:0:0:0:
33,291,19198,1,10,1:2:0:0:
229,223,19385,2,0,P|272:282|251:388,1,180.000006866455,2|0,0:0|0:0,0:0:0:0:
213,384,19760,1,2,0:0:0:0:
359,262,19948,1,10,1:2:0:0:
285,141,20135,6,0,P|351:167|433:87,1,180.000006866455,2|0,0:0|0:0,0:0:0:0:
442,58,20510,1,2,0:0:0:0:
473,220,20698,1,10,1:2:0:0:
339,66,20885,2,0,P|262:41|187:120,1,180.000006866455,2|2,0:0|0:0,0:0:0:0:
171,148,21260,1,2,0:3:0:0:
42,71,21448,1,10,1:2:0:0:
42,71,21541,1,0,0:0:0:0:
42,71,21635,1,2,3:2:0:0:
149,252,21823,5,2,1:2:0:0:
308,184,22010,1,2,3:2:0:0:
182,344,22198,1,10,1:2:0:0:
355,384,22385,2,0,P|381:302|408:182,1,180.000006866455,2|0,3:2|3:2,0:0:0:0:
397,164,22760,1,2,3:2:0:0:
248,267,22948,1,10,1:2:0:0:
151,98,23135,6,0,B|131:26|43:24|43:24|21:77|100:126,1,215.999993408203,2|0,1:2|3:2,0:0:0:0:
195,175,23510,6,0,B|268:182|301:100|301:100|260:61|186:117,1,215.999993408203,2|0,1:2|3:2,0:0:0:0:
103,180,23885,6,0,P|103:226|146:233,1,71.9999978027344,2|0,1:2|0:0,0:0:0:0:
179,354,24073,6,0,P|149:291|17:303,1,215.999993408203,10|0,1:1|0:0,0:0:0:0:
0,212,24448,1,2,1:1:0:0:
7,202,24541,1,2,0:0:0:0:
14,190,24635,1,2,3:2:0:0:
18,178,24729,1,2,3:2:0:0:
12,141,24823,6,0,P|52:165|88:174,1,64,6|2,1:1|0:0,0:0:0:0:
102,158,25104,1,0,0:0:0:0:
102,158,25198,1,2,0:0:0:0:
69,82,25385,2,0,P|116:68|170:59,1,96,2|0,0:0|0:0,0:0:0:0:
189,80,25760,6,0,P|228:89|264:42,1,96,2|0,0:0|0:0,0:0:0:0:
279,4,26135,1,2,1:2:0:0:
279,4,26510,1,2,0:0:0:0:
317,69,26698,1,2,0:0:0:0:
387,37,26885,1,0,0:0:0:0:
489,147,27073,5,10,1:2:0:0:
420,184,27260,1,2,0:0:0:0:
381,115,27448,1,2,1:2:0:0:
312,152,27635,1,2,3:2:0:0:
409,269,27823,6,0,P|392:309|382:340,1,64,2|2,1:2|0:0,0:0:0:0:
399,369,28104,1,0,0:0:0:0:
399,369,28198,1,2,0:0:0:0:
314,299,28385,2,0,P|281:272|224:270,1,96,2|0,0:0|0:0,0:0:0:0:
182,292,28760,6,0,L|208:181,1,96,2|0,0:0|0:0,0:0:0:0:
214,147,29135,1,2,1:2:0:0:
214,147,29510,1,2,0:0:0:0:
281,117,29698,1,2,0:0:0:0:
259,46,29885,1,0,0:0:0:0:
384,4,30073,5,10,1:2:0:0:
332,62,30261,1,2,0:0:0:0:
354,133,30448,1,2,1:2:0:0:
309,189,30635,1,0,3:2:0:0:
309,189,30729,1,0,3:2:0:0:
309,189,30823,6,0,P|304:241|297:272,1,64,6|2,1:2|0:0,0:0:0:0:
296,298,31104,1,0,0:0:0:0:
296,298,31198,1,2,0:0:0:0:
266,373,31385,2,0,P|316:354|387:339,1,96,2|0,0:0|0:0,0:0:0:0:
395,371,31760,6,0,P|440:355|440:290,1,96,2|0,0:0|0:0,0:0:0:0:
432,258,32135,1,2,1:2:0:0:
432,258,32510,1,2,0:0:0:0:
446,186,32698,1,2,0:0:0:0:
459,114,32885,1,0,0:0:0:0:
504,235,33073,5,10,1:2:0:0:
432,258,33260,1,2,0:0:0:0:
375,208,33448,1,2,1:2:0:0:
305,227,33635,1,2,3:2:0:0:
217,118,33823,6,0,P|256:116|289:133,1,64,2|2,1:2|0:0,0:0:0:0:
315,152,34104,1,0,0:0:0:0:
315,152,34198,1,2,0:0:0:0:
181,191,34385,2,0,P|150:165|145:94,1,96,2|0,1:2|0:0,0:0:0:0:
154,61,34760,2,0,P|104:96|56:90,1,96,2|0,0:0|0:0,0:0:0:0:
20,86,35135,6,0,P|40:151|48:193,1,96,2|0,1:2|0:0,0:0:0:0:
83,215,35510,2,0,P|73:250|62:281,1,64,2|0,0:0|0:0,0:0:0:0:
8,382,35885,1,2,0:0:0:0:
160,273,36073,2,0,P|146:315|197:335,1,96,10|0,1:2|0:0,0:0:0:0:
223,356,36448,6,0,P|246:347|284:347,1,60,2|0,1:2|3:2,0:0:0:0:
360,347,36823,6,0,P|364:309|312:279,1,96,6|0,1:1|0:0,0:0:0:0:
276,268,37198,1,2,0:0:0:0:
239,156,37385,2,0,P|221:194|214:226,1,64,2|8,0:0|0:0,0:0:0:0:
386,128,37760,1,2,0:0:0:0:
310,103,37948,1,2,0:0:0:0:
356,209,38135,6,0,P|395:181|481:148,1,128,2|2,1:2|0:0,0:0:0:0:
452,253,38698,2,0,P|488:267|527:270,2,64,2|2|8,0:0|0:0|1:2,0:0:0:0:
385,324,39260,1,2,0:0:0:0:
303,334,39448,1,2,1:2:0:0:
387,338,39635,1,2,3:2:0:0:
268,246,39823,6,0,P|234:231|154:217,1,96,2|0,1:2|0:0,0:0:0:0:
129,227,40198,1,2,0:0:0:0:
39,338,40385,2,0,P|52:295|66:266,1,64,2|8,0:0|0:0,0:0:0:0:
180,137,40760,2,0,P|167:94|153:65,1,64,2|0,0:0|0:0,0:0:0:0:
24,0,41135,6,0,P|15:59|87:85,1,128,2|2,1:2|0:0,0:0:0:0:
159,76,41698,1,2,0:0:0:0:
40,190,41885,2,0,P|92:169|158:159,1,96,2|0,0:0|0:0,0:0:0:0:
176,174,42260,1,0,0:0:0:0:
258,278,42448,1,2,1:2:0:0:
335,260,42635,1,0,3:2:0:0:
329,75,42823,6,0,P|301:141|292:180,1,96,6|0,1:2|0:0,0:0:0:0:
283,206,43198,1,2,0:0:0:0:
392,154,43385,2,0,P|414:196|429:265,1,96,2|0,0:0|0:0,0:0:0:0:
417,293,43760,1,2,0:0:0:0:
447,364,43948,1,2,0:0:0:0:
258,334,44135,6,0,P|268:296|316:256,1,96,2|0,1:2|0:0,0:0:0:0:
350,251,44510,1,2,0:0:0:0:
262,144,44698,1,2,0:0:0:0:
338,165,44885,2,0,P|277:183|213:213,1,128,2|2,0:0|0:0,0:0:0:0:
116,267,45448,1,2,1:2:0:0:
93,371,45635,1,2,3:2:0:0:
93,371,45729,1,0,3:2:0:0:
93,371,45823,6,0,P|136:354|177:339,1,64,2|2,1:2|3:2,0:0:0:0:
195,360,46104,1,0,0:0:0:0:
195,360,46198,1,2,3:2:0:0:
116,267,46385,2,0,P|128:205|152:134,1,128,2|2,1:2|3:2,0:0:0:0:
115,63,46948,1,2,3:2:0:0:
267,0,47135,6,0,P|223:37|234:120,1,143.999995605469,2|0,1:2|3:2,0:0:0:0:
355,230,47510,6,0,P|295:212|188:192,1,143.999995605469,2|0,3:2|3:2,0:0:0:0:
265,287,47885,6,0,P|258:317|244:357,1,47.9999985351563,2|0,3:2|0:0,0:0:0:0:
139,221,48073,6,0,P|142:159|236:114,1,143.999995605469,10|0,1:2|0:0,0:0:0:0:
280,133,48448,1,2,1:2:0:0:
294,131,48541,1,0,3:2:0:0:
307,125,48635,1,0,3:2:0:0:
319,118,48729,1,0,3:2:0:0:
323,103,48823,6,0,P|331:70|353:16,1,80,6|8,1:1|0:3,0:0:0:0:
424,100,49198,1,2,1:2:0:0:
500,111,49385,1,10,0:3:0:0:
445,198,49573,5,0,1:2:0:0:
512,237,49760,1,10,0:3:0:0:
450,302,49948,5,10,1:3:0:0:
506,368,50135,1,8,0:3:0:0:
506,368,50229,1,8,0:3:0:0:
506,368,50323,6,0,P|448:351|420:346,1,80,8|10,1:3|0:3,0:0:0:0:
322,372,50698,1,2,1:2:0:0:
305,295,50885,1,10,0:3:0:0:
199,332,51073,5,0,1:2:0:0:
214,257,51260,1,10,0:3:0:0:
107,259,51448,5,10,1:3:0:0:
149,197,51635,1,8,0:3:0:0:
149,197,51729,1,8,0:3:0:0:
149,197,51823,6,0,P|174:183|230:163,1,80,10|8,1:3|0:3,0:0:0:0:
283,84,52198,1,2,1:2:0:0:
243,15,52385,1,10,0:3:0:0:
363,76,52573,5,0,1:2:0:0:
373,0,52760,1,10,0:3:0:0:
434,110,52948,5,10,1:3:0:0:
494,60,53135,1,8,0:3:0:0:
494,60,53229,1,8,0:3:0:0:
494,60,53323,6,0,P|484:102|475:144,1,80,8|10,1:3|0:3,0:0:0:0:
397,218,53698,1,2,1:2:0:0:
321,202,53885,1,10,0:3:0:0:
279,300,54073,5,0,1:2:0:0:
206,324,54260,1,10,0:3:0:0:
113,258,54448,5,10,1:3:0:0:
38,239,54635,1,8,0:3:0:0:
38,239,54729,1,8,0:3:0:0:
38,239,54823,6,0,P|75:222|130:209,1,80,10|8,1:3|0:3,0:0:0:0:
206,147,55198,1,10,1:3:0:0:
193,224,55385,1,10,0:3:0:0:
281,133,55573,5,0,1:2:0:0:
326,199,55760,1,10,0:0:0:0:
333,72,55948,5,10,1:3:0:0:
415,77,56135,1,8,0:3:0:0:
415,77,56229,1,8,0:3:0:0:
415,77,56323,6,0,P|451:96|493:109,1,80,8|10,1:3|0:3,0:0:0:0:
507,208,56698,1,10,1:3:0:0:
441,248,56885,1,10,0:3:0:0:
477,362,57073,5,0,1:2:0:0:
410,319,57260,1,10,0:0:0:0:
295,361,57448,5,10,1:3:0:0:
337,293,57635,1,8,0:3:0:0:
337,293,57729,1,8,0:3:0:0:
337,293,57823,6,0,P|328:255|316:212,1,80,10|8,1:3|0:0,0:0:0:0:
247,114,58198,1,10,1:3:0:0:
241,193,58385,1,10,0:3:0:0:
137,91,58573,5,0,1:2:0:0:
155,168,58760,1,10,0:0:0:0:
52,63,58948,5,10,1:3:0:0:
40,146,59135,1,8,1:3:0:0:
40,146,59229,1,8,0:0:0:0:
40,146,59323,6,0,L|55:195,1,40,8|8,0:3|0:3,0:0:0:0:
88,263,59510,1,10,1:3:0:0:
88,263,59604,1,8,0:3:0:0:
88,263,59698,2,0,L|71:315,3,40,10|0|10|10,0:0|0:0|1:3|0:3,0:0:0:0:
139,357,60073,6,0,L|179:345,3,40,0|10|0|0,1:2|0:3|0:0|0:0,0:0:0:0:
189,270,60448,1,10,0:0:0:0:
200,269,60541,1,8,0:0:0:0:
211,273,60635,1,8,0:0:0:0:
220,279,60729,1,8,0:0:0:0:
229,286,60823,6,0,P|267:301|315:308,1,80,6|2,1:2|0:0,0:0:0:0:
341,140,61198,1,10,1:2:0:0:
303,214,61385,2,0,P|346:179|422:194,1,120,2|8,0:0|0:3,0:0:0:0:
439,208,61760,2,0,L|465:104,1,80,2|8,0:0|1:2,0:0:0:0:
505,11,62135,6,0,P|449:53|390:25,1,120,2|0,0:0|0:0,0:0:0:0:
364,14,62510,2,0,P|308:17|276:60,1,80,2|8,0:0|1:2,0:0:0:0:
212,146,62885,2,0,P|173:137|140:96,1,80,2|2,0:0|1:2,0:0:0:0:
290,112,63260,1,2,0:0:0:0:
248,227,63448,1,10,1:2:0:0:
350,307,63635,1,2,0:3:0:0:
198,371,63823,6,0,P|258:353|295:346,1,80,2|2,1:2|0:0,0:0:0:0:
408,375,64198,1,10,1:2:0:0:
350,307,64385,2,0,P|341:239|326:180,1,120,2|8,0:0|0:3,0:0:0:0:
311,140,64760,1,2,0:0:0:0:
416,217,64948,1,8,1:3:0:0:
484,100,65135,6,0,P|441:90|365:59,1,120,2|0,0:0|0:0,0:0:0:0:
340,24,65510,2,0,P|295:37|280:69,1,80,2|0,0:0|1:2,0:0:0:0:
416,217,65885,2,0,P|454:209|475:176,1,80,10|2,0:3|1:2,0:0:0:0:
326,206,66260,1,10,0:3:0:0:
433,325,66448,2,0,P|361:301|288:283,1,120,10|0,1:3|0:0,0:0:0:0:
277,319,66823,6,0,P|245:361|199:363,1,80,6|2,1:2|0:0,0:0:0:0:
73,267,67198,1,10,1:2:0:0:
137,366,67385,2,0,P|147:315|175:216,1,120,2|8,0:0|0:3,0:0:0:0:
176,205,67760,2,0,P|165:175|145:131,1,80,2|8,0:0|1:2,0:0:0:0:
21,105,68135,6,0,P|28:170|99:169,1,120,2|0,0:0|0:0,0:0:0:0:
110,218,68510,2,0,P|139:206|203:195,1,80,2|8,0:0|1:2,0:0:0:0:
247,122,68885,1,2,0:0:0:0:
331,254,69073,1,2,1:2:0:0:
395,184,69260,1,2,0:0:0:0:
473,238,69448,1,10,1:2:0:0:
408,301,69635,1,2,0:3:0:0:
309,174,69823,6,0,P|244:159|202:151,1,80,2|2,1:2|0:0,0:0:0:0:
154,180,70198,1,10,1:2:0:0:
52,100,70385,2,0,P|75:168|85:198,1,80,2|0,0:0|1:2,0:0:0:0:
23,320,70760,2,0,P|46:286|115:277,1,80,2|8,0:0|1:3,0:0:0:0:
205,328,71135,6,0,P|249:365|326:353,1,120,2|0,1:2|0:0,0:0:0:0:
345,331,71510,2,0,P|329:295|281:297,1,80,2|0,1:2|0:0,0:0:0:0:
224,243,71885,1,10,1:2:0:0:
291,164,72073,5,2,1:2:0:0:
411,206,72260,1,10,0:0:0:0:
512,128,72448,1,10,1:2:0:0:
504,12,72635,1,10,0:0:0:0:
504,12,72729,1,10,0:0:0:0:
504,12,72823,6,0,P|492:63|484:120,1,80,6|0,1:2|0:0,0:0:0:0:
512,128,73104,1,2,0:0:0:0:
512,128,73198,1,8,0:0:0:0:
493,208,73385,1,2,0:0:0:0:
413,131,73573,6,0,L|363:120,1,40,2|8,0:0|0:0,0:0:0:0:
296,101,73760,2,0,L|246:90,1,40,2|0,1:2|0:0,0:0:0:0:
274,192,73948,2,0,L|326:176,1,40,8|0,0:0|0:0,0:0:0:0:
187,158,74135,6,0,L|159:321,1,160,2|0,0:0|0:0,0:0:0:0:
151,363,74604,1,2,0:0:0:0:
151,363,74698,1,8,0:0:0:0:
238,335,74885,1,2,0:0:0:0:
331,375,75073,6,0,L|320:326,1,40,2|8,0:0|0:0,0:0:0:0:
303,254,75260,2,0,L|292:205,1,40,2|0,1:2|0:0,0:0:0:0:
406,252,75448,2,0,P|419:296|485:309,1,120,10|0,0:0|0:0,0:0:0:0:
512,279,75823,6,0,P|452:292|411:313,1,80,2|0,1:2|0:0,0:0:0:0:
403,336,76104,1,2,0:0:0:0:
403,336,76198,1,8,0:0:0:0:
324,381,76385,1,2,0:0:0:0:
256,297,76573,6,0,L|272:238,1,40,2|8,0:0|0:0,0:0:0:0:
292,175,76760,2,0,L|308:116,1,40,2|0,1:2|0:0,0:0:0:0:
414,190,76948,2,0,L|365:176,1,40,8|0,0:0|0:0,0:0:0:0:
217,132,77135,5,2,0:0:0:0:
142,191,77323,1,10,1:2:0:0:
179,278,77510,1,0,0:0:0:0:
179,278,77604,1,10,0:0:0:0:
179,278,77698,1,0,0:0:0:0:
104,338,77885,1,10,0:0:0:0:
47,242,78073,6,0,L|89:255,1,40,10|0,0:0|0:0,0:0:0:0:
179,278,78260,2,0,L|221:291,1,40,10|0,0:0|0:0,0:0:0:0:
341,330,78448,1,10,0:0:0:0:
341,330,78541,1,8,0:0:0:0:
341,330,78635,1,10,0:0:0:0:
308,173,78823,6,0,P|365:184|388:214,1,80,6|0,1:2|0:0,0:0:0:0:
402,246,79104,1,2,0:0:0:0:
402,246,79198,1,8,0:0:0:0:
471,190,79385,1,2,0:0:0:0:
419,108,79573,6,0,L|432:65,1,40,2|8,0:0|0:0,0:0:0:0:
333,93,79760,2,0,L|346:50,1,40,2|0,1:2|0:0,0:0:0:0:
244,80,79948,2,0,L|257:37,1,40,8|0,0:0|0:0,0:0:0:0:
269,159,80135,6,0,P|222:167|162:77,1,160,2|0,0:0|0:0,0:0:0:0:
170,40,80604,1,2,0:0:0:0:
170,40,80698,1,8,0:0:0:0:
80,1,80885,1,2,0:0:0:0:
20,105,81073,6,0,L|37:168,1,40,2|8,0:0|0:0,0:0:0:0:
55,227,81260,2,0,L|72:290,1,40,2|0,1:2|0:0,0:0:0:0:
106,347,81448,2,0,P|153:302|141:224,1,120,10|0,0:0|0:0,0:0:0:0:
137,199,81823,6,0,P|202:219|246:233,1,80,2|0,1:2|3:2,0:0:0:0:
252,239,82104,1,2,0:0:0:0:
252,239,82198,1,8,3:2:0:0:
334,188,82385,1,2,3:2:0:0:
247,124,82573,6,0,L|208:88,1,40,2|8,3:2|3:2,0:0:0:0:
326,87,82760,2,0,L|317:38,1,40,2|0,1:2|0:0,0:0:0:0:
411,113,82948,2,0,L|444:68,1,40,8|0,3:2|3:2,0:0:0:0:
467,192,83135,1,2,3:2:0:0:
467,192,83229,1,0,0:0:0:0:
467,192,83323,6,0,L|456:251,3,40,2|0|2|8,1:2|3:2|3:2|0:3,0:0:0:0:
383,286,83698,2,0,L|395:335,3,40,2|2|10|0,1:2|3:2|3:3|0:0,0:0:0:0:
295,300,84073,6,0,L|282:244,1,40,10|0,0:0|0:0,0:0:0:0:
202,285,84260,2,0,L|189:229,1,40,10|0,0:0|0:0,0:0:0:0:
110,197,84448,1,10,0:1:0:0:
116,167,84541,1,10,0:0:0:0:
124,133,84635,1,10,0:0:0:0:
132,98,84729,1,10,0:0:0:0:
141,62,84823,6,0,P|218:98|215:179,1,120.000004577637,6|2,1:1|0:0,0:0:0:0:
192,246,85198,1,10,1:2:0:0:
354,319,85385,2,0,P|265:335|181:366,1,180.000006866455,2|0,0:0|0:0,0:0:0:0:
141,344,85760,1,2,0:0:0:0:
290,241,85948,1,10,1:2:0:0:
122,117,86135,6,0,P|88:186|59:293,1,180.000006866455,2|0,0:0|0:0,0:0:0:0:
64,331,86510,1,2,0:0:0:0:
189,228,86698,1,10,1:2:0:0:
298,358,86885,2,0,P|351:378|440:282,1,180.000006866455,2|2,0:0|0:0,0:0:0:0:
425,256,87260,1,2,0:3:0:0:
501,88,87448,1,10,1:2:0:0:
512,192,87635,1,2,3:2:0:0:
369,63,87823,5,2,1:2:0:0:
325,229,88010,1,2,0:0:0:0:
412,152,88198,1,10,1:2:0:0:
226,260,88385,2,0,P|161:240|11:215,1,180.000006866455,2|0,0:0|0:0,0:0:0:0:
3,235,88760,1,2,0:0:0:0:
161,141,88948,1,10,1:2:0:0:
213,364,89135,6,0,P|292:342|326:245,1,180.000006866455,2|0,0:0|0:0,0:0:0:0:
310,208,89510,1,2,0:0:0:0:
131,316,89698,1,10,1:2:0:0:
51,218,89885,1,2,0:0:0:0:
228,269,90073,5,2,1:2:0:0:
280,104,90260,1,2,0:0:0:0:
419,246,90448,1,10,1:2:0:0:
419,246,90542,1,0,0:0:0:0:
419,246,90635,1,2,3:3:0:0:
224,179,90823,5,6,1:2:0:0:
401,143,91010,1,2,0:0:0:0:
213,188,91198,1,10,1:2:0:0:
182,0,91385,2,0,P|253:8|279:123,1,180.000006866455,2|0,0:0|0:0,0:0:0:0:
283,148,91760,1,2,0:0:0:0:
111,50,91948,1,10,1:2:0:0:
41,239,92135,6,0,P|122:205|227:186,1,180.000006866455,2|0,0:0|0:0,0:0:0:0:
248,219,92510,1,2,0:0:0:0:
339,359,92698,1,10,1:2:0:0:
464,231,92885,2,0,P|394:194|401:94,1,180.000006866455,2|2,0:0|0:0,0:0:0:0:
414,56,93260,1,2,0:3:0:0:
491,148,93448,1,10,1:2:0:0:
491,148,93541,1,0,0:0:0:0:
491,148,93635,1,2,3:2:0:0:
366,235,93823,5,2,1:2:0:0:
196,105,94010,1,2,3:2:0:0:
234,217,94198,1,10,1:2:0:0:
293,48,94385,2,0,P|235:0|106:35,1,180.000006866455,2|0,3:2|3:2,0:0:0:0:
97,40,94760,1,2,3:2:0:0:
67,220,94948,1,10,1:2:0:0:
34,368,95135,6,0,P|56:302|127:162,1,215.999993408203,2|0,1:2|3:2,0:0:0:0:
166,306,95510,6,0,B|193:370|277:351|277:351|287:301|231:277,1,215.999993408203,2|0,1:2|3:2,0:0:0:0:
192,214,95885,6,0,P|221:194|256:199,1,71.9999978027344,2|0,1:2|0:0,0:0:0:0:
351,59,96073,6,0,B|306:76|308:130|308:130|364:178|331:243,1,215.999993408203,10|0,1:1|0:0,0:0:0:0:
367,328,96448,1,2,1:1:0:0:
382,332,96541,1,2,0:0:0:0:
401,330,96635,1,2,3:2:0:0:
419,323,96729,1,2,3:2:0:0:
448,290,96823,6,0,P|464:228|492:155,1,120.000004577637,6|2,1:1|0:0,0:0:0:0:
371,17,97198,1,10,1:2:0:0:
510,68,97385,2,0,P|443:90|316:162,1,180.000006866455,2|0,0:0|0:0,0:0:0:0:
320,185,97760,1,2,0:0:0:0:
183,29,97948,1,10,1:2:0:0:
105,219,98135,6,0,P|197:200|229:107,1,180.000006866455,2|0,0:0|0:0,0:0:0:0:
265,93,98510,1,2,0:0:0:0:
132,129,98698,1,10,1:2:0:0:
227,303,98885,2,0,P|323:303|405:369,1,180.000006866455,2|2,0:0|0:0,0:0:0:0:
429,378,99260,1,2,0:3:0:0:
508,268,99448,1,10,1:2:0:0:
508,268,99541,1,0,0:0:0:0:
508,268,99635,1,2,3:2:0:0:
388,167,99823,5,2,1:2:0:0:
427,370,100010,1,2,0:0:0:0:
329,238,100198,1,10,1:2:0:0:
451,92,100385,2,0,P|368:61|236:32,1,180.000006866455,2|0,0:0|0:0,0:0:0:0:
238,70,100760,1,2,0:0:0:0:
176,224,100948,1,10,1:2:0:0:
29,72,101135,6,0,P|113:80|71:173,1,180.000006866455,2|0,0:0|0:0,0:0:0:0:
88,201,101510,1,2,0:0:0:0:
262,164,101698,1,10,1:2:0:0:
105,304,101885,2,0,P|187:277|300:258,1,180.000006866455,2|0,0:0|0:0,0:0:0:0:
310,291,102260,1,2,0:0:0:0:
211,371,102448,1,10,1:2:0:0:
211,371,102542,1,0,0:0:0:0:
211,371,102635,1,2,3:3:0:0:
181,198,102823,5,6,1:2:0:0:
303,377,103010,1,2,0:0:0:0:
411,201,103198,1,10,1:2:0:0:
492,346,103385,2,0,P|411:312|287:279,1,180.000006866455,2|0,0:0|0:0,0:0:0:0:
271,303,103760,1,2,0:0:0:0:
354,131,103948,1,10,1:2:0:0:
496,253,104135,6,0,P|512:178|442:108,1,180.000006866455,2|0,0:0|0:0,0:0:0:0:
414,66,104510,1,2,0:0:0:0:
293,201,104698,1,10,1:2:0:0:
148,49,104885,2,0,P|229:64|365:126,1,180.000006866455,2|2,0:0|0:0,0:0:0:0:
354,131,105260,1,2,0:3:0:0:
291,0,105448,1,10,1:2:0:0:
291,0,105541,1,0,0:0:0:0:
291,0,105635,1,2,3:2:0:0:
208,144,105823,5,2,1:2:0:0:
28,204,106010,1,2,3:2:0:0:
209,248,106198,1,10,1:2:0:0:
80,111,106385,2,0,P|107:178|141:307,1,180.000006866455,2|0,3:2|3:2,0:0:0:0:
104,322,106760,1,2,3:2:0:0:
261,373,106948,1,10,1:2:0:0:
209,248,107135,6,0,P|261:180|386:238,1,215.999993408203,2|0,1:2|3:2,0:0:0:0:
418,295,107510,6,0,P|461:324|449:224,1,215.999993408203,2|0,1:2|3:2,0:0:0:0:
324,285,107885,6,0,P|327:335|362:341,1,71.9999978027344,2|0,1:2|0:0,0:0:0:0:
435,133,108073,6,0,P|324:101|193:67,1,215.999993408203,10|0,1:1|0:0,0:0:0:0:
125,48,108448,1,2,1:1:0:0:
131,40,108541,1,2,0:0:0:0:
139,31,108635,1,2,3:2:0:0:
148,19,108729,1,2,3:2:0:0:
128,0,108823,6,0,L|146:100,1,80,6|10,1:1|0:3,0:0:0:0:
40,151,109198,1,8,1:2:0:0:
122,165,109385,1,10,0:3:0:0:
104,247,109573,1,0,1:2:0:0:
139,237,109666,1,8,0:3:0:0:
181,227,109760,1,10,0:0:0:0:
237,301,109948,1,8,1:3:0:0:
262,223,110135,1,10,0:3:0:0:
364,160,110323,6,0,L|447:183,1,80,10|10,1:3|0:3,0:0:0:0:
381,248,110698,1,8,1:2:0:0:
400,325,110885,1,10,0:3:0:0:
318,302,111073,1,8,1:3:0:0:
314,344,111166,1,8,0:3:0:0:
309,384,111260,1,10,0:0:0:0:
232,329,111448,1,8,1:3:0:0:
161,372,111635,1,10,0:3:0:0:
83,267,111823,6,0,L|103:177,1,80,10|10,1:3|0:3,0:0:0:0:
165,83,112198,1,8,1:2:0:0:
179,161,112385,1,10,0:3:0:0:
245,108,112573,1,8,1:3:0:0:
269,137,112666,1,8,0:3:0:0:
297,174,112760,1,10,0:0:0:0:
348,104,112948,1,8,1:3:0:0:
424,132,113135,1,10,0:3:0:0:
494,31,113323,6,0,L|405:53,1,80,10|10,1:3|0:3,0:0:0:0:
302,0,113698,1,8,1:2:0:0:
320,89,113885,2,0,L|237:68,1,80,10|0,0:0|1:2,0:0:0:0:
196,55,114166,1,8,0:3:0:0:
196,55,114260,1,10,0:0:0:0:
170,136,114448,1,10,1:3:0:0:
153,228,114635,1,10,0:3:0:0:
153,228,114729,1,8,0:3:0:0:
153,228,114823,6,0,L|237:213,1,80,6|10,1:2|0:3,0:0:0:0:
324,315,115198,1,8,1:2:0:0:
243,295,115385,1,10,0:3:0:0:
362,239,115573,1,0,1:2:0:0:
333,203,115666,1,8,0:3:0:0:
307,168,115760,1,10,0:0:0:0:
440,207,115948,1,8,1:3:0:0:
438,123,116135,1,10,0:3:0:0:
369,6,116323,6,0,L|355:93,1,80,10|10,1:3|0:3,0:0:0:0:
246,105,116698,1,8,1:2:0:0:
167,72,116885,1,10,0:3:0:0:
236,189,117073,1,8,1:3:0:0:
190,204,117166,1,8,0:3:0:0:
143,220,117260,1,10,0:0:0:0:
274,268,117448,1,8,1:3:0:0:
231,339,117635,1,10,0:3:0:0:
65,308,117823,6,0,L|154:325,1,80,10|10,1:3|3:3,0:0:0:0:
274,268,118198,1,8,1:2:0:0:
256,186,118385,1,10,3:3:0:0:
398,191,118573,1,8,1:3:0:0:
386,231,118667,1,8,3:3:0:0:
374,275,118760,1,10,3:2:0:0:
293,112,118948,1,8,1:3:0:0:
376,118,119135,1,10,3:3:0:0:
487,200,119323,5,8,3:3:0:0:
487,200,119416,1,8,3:3:0:0:
487,200,119510,2,0,L|470:258,1,40,10|8,3:3|0:3,0:0:0:0:
374,275,119698,2,0,L|385:330,1,40,8|0,3:3|3:2,0:0:0:0:
268,275,119885,1,10,3:2:0:0:
270,264,119979,1,8,0:0:0:0:
270,248,120073,6,0,B|244:229|244:229|231:253,3,60.0000022888184,0|8|0|0,1:2|0:0|1:2|0:0,0:0:0:0:
192,156,120448,1,10,0:0:0:0:
207,142,120541,1,10,0:0:0:0:
226,136,120635,1,10,0:0:0:0:
247,133,120729,1,10,0:0:0:0:
266,135,120823,5,6,1:2:0:0:
