osu file format v14

[General]
AudioFilename: audio.mp3
AudioLeadIn: 0
PreviewTime: 78605
Countdown: 0
SampleSet: None
StackLeniency: 0.7
Mode: 0
LetterboxInBreaks: 0
WidescreenStoryboard: 0

[Editor]
DistanceSpacing: 1
BeatDivisor: 4
GridSize: 4
TimelineZoom: 1

[Metadata]
Title:You in Me
TitleUnicode:You in Me
Artist:KARD
ArtistUnicode:KARD
Creator:DoAcre
Version:WASTAGE
Source:
Tags:
BeatmapID:1476499
BeatmapSetID:697041

[Difficulty]
HPDrainRate:6
CircleSize:4.2
OverallDifficulty:8
ApproachRate:9.2
SliderMultiplier:1.8
SliderTickRate:1

[Events]
//Background and Video events
0,0,"YL0syqdgQCy4-2DOGYDwNA.png",0,0
//Break Periods
//Storyboard Layer 0 (Background)
//Storyboard Layer 1 (Fail)
//Storyboard Layer 2 (Pass)
//Storyboard Layer 3 (Foreground)
//Storyboard Sound Samples

[TimingPoints]
1105,625,4,1,0,60,1,0
21105,-133.333333333333,4,1,0,40,0,0
26417,-133.333333333333,4,1,0,5,0,0
26730,-133.333333333333,4,1,0,40,0,0
31417,-133.333333333333,4,1,0,5,0,0
31730,-133.333333333333,4,1,0,40,0,0
40948,-133.333333333333,4,1,0,5,0,0
41105,-100,4,1,0,50,0,0

[Colours]
Combo1 : 204,153,0
Combo2 : 0,0,106
Combo3 : 79,0,79
Combo4 : 202,0,0

[HitObjects]
240,92,8605,5,0,0:0:0:0:
192,276,8761,1,0,0:0:0:0:
192,280,9073,1,0,0:0:0:0:
372,224,9230,1,0,0:0:0:0:
372,224,9542,1,0,0:0:0:0:
184,140,9855,1,0,0:0:0:0:
376,96,10011,1,0,0:0:0:0:
312,272,10167,1,0,0:0:0:0:
124,220,11105,6,0,L|108:88,1,90
100,60,11573,1,0,0:0:0:0:
248,224,11730,2,0,L|232:340,1,90
264,124,12355,1,0,0:0:0:0:
264,124,12667,1,0,0:0:0:0:
368,280,12823,1,0,0:0:0:0:
416,208,12980,2,0,P|348:200|296:224,1,90
200,244,13448,1,0,0:0:0:0:
268,44,13605,6,0,P|344:64|368:64,1,90
456,72,14073,1,0,0:0:0:0:
416,208,14230,2,0,B|408:264|408:264|424:312,1,90
204,200,14855,1,0,0:0:0:0:
392,128,15011,1,0,0:0:0:0:
200,88,15167,1,0,0:0:0:0:
344,224,15323,1,0,0:0:0:0:
308,40,15480,1,0,0:0:0:0:
308,40,15792,1,0,0:0:0:0:
204,200,15948,1,0,0:0:0:0:
112,36,16105,6,0,P|116:92|128:140,1,90
176,308,16573,1,0,0:0:0:0:
368,244,16730,2,0,P|304:236|256:264,1,90
92,368,17355,1,0,0:0:0:0:
92,368,17667,1,0,0:0:0:0:
180,192,17823,1,0,0:0:0:0:
328,320,17980,2,0,P|400:324|424:308,1,90
452,120,18448,1,0,0:0:0:0:
256,68,18605,5,0,0:0:0:0:
456,44,18761,1,0,0:0:0:0:
264,152,18917,1,0,0:0:0:0:
444,224,19073,1,0,0:0:0:0:
264,296,19230,2,0,P|207:302|152:320,1,90
400,344,19855,1,0,0:0:0:0:
372,152,20011,1,0,0:0:0:0:
184,172,20167,2,0,P|256:176|296:200,1,90
236,380,20636,1,0,0:0:0:0:
216,240,20792,1,0,0:0:0:0:
196,100,20948,1,0,0:0:0:0:
336,240,21105,6,0,B|332:308|332:308|328:312|328:312|332:316|332:316|328:376,1,135.000005149842
128,180,22355,1,0,0:0:0:0:
128,180,22667,1,0,0:0:0:0:
128,180,22980,2,0,P|180:168|212:180,1,67.5000025749208
168,312,23605,2,0,L|172:236,1,67.5000025749208
256,224,24073,1,0,0:0:0:0:
312,272,24230,2,0,P|328:240|316:184,1,67.5000025749208
380,52,24855,1,0,0:0:0:0:
232,104,25167,1,0,0:0:0:0:
84,156,25480,1,0,0:0:0:0:
84,156,25792,1,0,0:0:0:0:
263,218,26105,6,0,P|307:218|335:202,1,67.5000025749208
380,64,26730,2,0,L|376:160,1,67.5000025749208
380,296,27355,1,0,0:0:0:0:
380,296,27667,1,0,0:0:0:0:
380,296,27980,2,0,P|436:304|472:288,1,67.5000025749208
412,160,28605,6,0,L|404:227,1,67.5000025749208
304,232,29073,1,0,0:0:0:0:
344,168,29230,2,0,P|292:156|268:172,1,67.5000025749208
160,204,29855,1,0,0:0:0:0:
256,288,30011,1,0,0:0:0:0:
128,280,30167,2,0,P|108:272|84:228,1,67.5000025749208
76,76,30792,1,0,0:0:0:0:
76,76,31105,6,0,P|136:80|152:88,1,67.5000025749208
212,224,31730,2,0,L|208:128,1,67.5000025749208
292,292,32355,2,0,L|296:208,2,67.5000025749208
300,132,33292,1,0,0:0:0:0:
452,56,33605,6,0,B|408:40|360:56,1,67.5000025749208
408,124,34073,1,0,0:0:0:0:
456,188,34230,2,0,L|444:272,1,67.5000025749208
316,348,34855,1,0,0:0:0:0:
208,264,35011,1,0,0:0:0:0:
344,276,35167,2,0,P|384:312|388:352,1,67.5000025749208
276,176,35792,1,0,0:0:0:0:
276,176,36105,6,0,L|264:92,1,67.5000025749208
288,252,36730,1,0,0:0:0:0:
140,184,37042,1,0,0:0:0:0:
240,44,37355,2,0,P|288:44|316:56,1,67.5000025749208
156,108,37980,1,0,0:0:0:0:
80,252,38292,1,0,0:0:0:0:
204,344,38605,6,0,P|252:352|276:368,1,67.5000025749208
324,308,39073,1,0,0:0:0:0:
392,276,39230,2,0,P|396:332|392:344,1,67.5000025749208
256,192,39855,12,0,40948,0:0:0:0:
200,280,41105,6,0,P|144:280|100:256,1,90
192,128,41573,1,0,0:0:0:0:
192,128,42042,1,0,0:0:0:0:
380,164,42355,2,0,P|432:164|472:132,1,90
304,112,42823,1,0,0:0:0:0:
304,112,43292,1,0,0:0:0:0:
272,276,43605,6,0,P|276:320|272:372,1,90
152,264,44073,1,0,0:0:0:0:
312,196,44230,2,0,P|372:208|420:200,1,90
