osu file format v14

[General]
AudioFilename: audio.mp3
AudioLeadIn: 0
PreviewTime: 59736
Countdown: 1
SampleSet: Soft
StackLeniency: 0.3
Mode: 0
LetterboxInBreaks: 0
WidescreenStoryboard: 0

[Editor]
Bookmarks: 11065,21065,41065,61065,101065
DistanceSpacing: 1.2
BeatDivisor: 16
GridSize: 4
TimelineZoom: 1.8

[Metadata]
Title:You In Me
TitleUnicode:You In Me
Artist:KARD
ArtistUnicode:KARD
Creator:-M4x
Version:Insane
Source:
Tags:
BeatmapID:1495733
BeatmapSetID:707304

[Difficulty]
HPDrainRate:8
CircleSize:4.1
OverallDifficulty:8.5
ApproachRate:9
SliderMultiplier:1.69
SliderTickRate:1

[Events]
//Background and Video events
0,0,"eiRDXOi.png",0,0
//Break Periods
//Storyboard Layer 0 (Background)
//Storyboard Layer 1 (Fail)
//Storyboard Layer 2 (Pass)
//Storyboard Layer 3 (Foreground)
//Storyboard Sound Samples

[TimingPoints]
1065,625,4,2,0,100,1,0
10127,-142.857142857143,4,2,0,100,0,0
10986,-142.857142857143,4,2,0,5,0,0
11065,-80,4,2,0,100,0,0
15986,-80,4,2,0,5,0,0
16065,-80,4,2,0,100,0,0
23565,-142.857142857143,4,2,0,100,0,0
32236,-142.857142857143,4,2,0,5,0,0
32315,-142.857142857143,4,2,0,100,0,0
34971,-142.857142857143,4,2,0,5,0,0
35127,-142.857142857143,4,2,0,100,0,0
35283,-142.857142857143,4,2,0,5,0,0
35440,-142.857142857143,4,2,0,100,0,0
37315,-111.111111111111,4,2,0,100,0,0
41065,-100,4,2,0,100,0,0
41690,-66.6666666666667,4,2,0,100,0,0
43486,-66.6666666666667,4,2,0,5,0,0
43565,-66.6666666666667,4,2,0,100,0,0
47783,-58.8235294117647,4,2,0,100,0,0
48252,-66.6666666666667,4,2,0,100,0,0
49033,-66.6666666666667,4,2,0,100,0,0
54893,-66.6666666666667,4,2,0,5,0,0
54971,-66.6666666666667,4,2,0,100,0,0
55049,-66.6666666666667,4,2,0,5,0,0
55127,-66.6666666666667,4,2,0,100,0,0
55205,-66.6666666666667,4,2,0,5,0,0
55283,-66.6666666666667,4,2,0,100,0,0
55322,-66.6666666666667,4,2,0,5,0,0
55440,-66.6666666666667,4,2,0,100,0,0
55479,-66.6666666666667,4,2,0,5,0,0
55596,-66.6666666666667,4,2,0,100,0,0
55635,-66.6666666666667,4,2,0,5,0,0
55752,-200,4,2,0,100,0,0
55986,-200,4,2,0,5,0,0
56065,-66.6666666666667,4,2,0,100,0,0

[Colours]
Combo1 : 235,67,142
Combo2 : 138,138,255
Combo3 : 113,184,255
Combo4 : 252,105,69
Combo5 : 255,205,55
Combo6 : 252,120,166

[HitObjects]
256,192,3565,12,0,7940,0:0:0:0:
142,271,8565,5,4,0:3:0:0:
381,242,8721,1,4,0:3:0:0:
92,207,9033,5,2,3:0:0:0:
339,234,9190,1,2,3:0:0:0:
142,271,9502,1,2,3:0:0:0:
92,207,9815,5,2,3:0:0:0:
339,234,9971,1,2,3:0:0:0:
61,282,10127,6,0,B|92:207|92:207|147:278,1,162.662495035935,4|0,3:0|0:0,0:0:0:0:
216,330,11065,6,0,L|388:320,1,158.4375,4|0,3:1|3:0,0:0:0:0:
447,339,11690,2,0,P|415:313|409:243,1,105.625,4|0,3:0|1:0,0:0:0:0:
480,269,12315,1,4,3:0:0:0:
441,132,12627,5,0,3:0:0:0:
426,182,12783,1,2,3:0:0:0:
480,269,12940,1,4,1:3:0:0:
447,339,13252,5,2,3:0:0:0:
401,312,13408,1,0,3:0:0:0:
296,348,13565,6,0,B|276:270|333:268|303:184,1,158.4375,4|0,3:1|3:0,0:0:0:0:
123,236,14190,6,0,L|232:227,2,105.625,4|0|4,3:0|1:0|3:0,0:0:0:0:
74,303,14971,1,0,0:0:0:0:
86,318,15127,2,0,L|156:312,1,52.8125,0|2,3:0|3:0,0:0:0:0:
254,148,15440,2,0,L|184:154,1,52.8125,4|0,3:0|0:0,0:0:0:0:
280,129,15752,2,0,P|334:164|365:160,1,79.21875,0|0,1:0|0:0,0:0:0:0:
356,58,16065,6,0,L|345:167,1,105.625,4|0,3:1|3:0,0:0:0:0:
418,222,16533,1,0,3:0:0:0:
430,233,16690,2,0,L|437:168,1,52.8125,4|0,3:0|0:0,0:0:0:0:
356,58,17002,5,0,1:0:0:0:
123,15,17315,1,4,3:0:0:0:
280,44,17627,5,0,3:0:0:0:
236,61,17783,1,2,3:0:0:0:
123,15,17940,1,4,1:3:0:0:
137,154,18252,5,2,3:0:0:0:
135,102,18408,1,0,3:0:0:0:
67,206,18565,6,0,P|37:247|27:256,1,52.8125,4|0,1:3|3:0,0:0:0:0:
135,102,18877,2,0,P|138:152|136:166,1,52.8125,4|0,3:0|3:0,0:0:0:0:
35,248,19190,5,2,3:0:0:0:
123,15,19502,1,2,3:0:0:0:
280,207,19815,6,0,L|341:215,1,52.8125,4|0,1:3|0:0,0:0:0:0:
412,309,20127,1,0,3:0:0:0:
360,303,20440,5,0,3:0:0:0:
373,304,20596,1,4,3:0:0:0:
386,306,20752,1,0,3:0:0:0:
399,308,20908,1,2,3:0:0:0:
412,309,21065,5,4,3:1:0:0:
105,326,21690,1,0,0:0:0:0:
88,19,22315,5,0,3:0:0:0:
198,50,22627,1,0,3:0:0:0:
395,2,22940,1,2,0:3:0:0:
412,309,23565,6,0,P|366:333|322:324,1,88.724997292328,4|0,3:0|0:0,0:0:0:0:
362,200,24190,2,0,L|357:266,1,59.1499981948853,0|0,3:0|0:0,0:0:0:0:
105,326,24815,5,0,0:0:0:0:
223,264,25127,1,0,0:0:0:0:
357,258,25440,2,0,L|415:262,2,59.1499981948853,0|0|4,3:0|3:0|3:0,0:0:0:0:
95,121,26690,6,0,L|155:126,1,59.1499981948853
223,264,27315,1,0,3:0:0:0:
189,195,27627,1,0,3:0:0:0:
155,126,27940,1,2,0:3:0:0:
416,262,28565,5,4,3:0:0:0:
216,322,29033,1,0,0:0:0:0:
216,322,29190,2,0,L|224:254,1,59.1499981948853,0|0,3:0|0:0,0:0:0:0:
316,206,29815,2,0,L|324:138,3,59.1499981948853,2|0|0|0,0:3|0:0|3:0|3:0,0:0:0:0:
140,252,31065,5,4,3:0:0:0:
140,252,31690,6,0,P|186:254|242:278,1,103.512496841049
250,290,32315,1,2,3:0:0:0:
392,219,32627,1,0,3:0:0:0:
469,259,32940,6,0,P|491:272|474:227,1,118.299996389771,0|6,3:0|3:0,0:0:0:0:
404,297,34033,5,0,0:0:0:0:
404,297,34190,2,0,L|407:360,1,59.1499981948853,0|0,3:0|0:0,0:0:0:0:
347,185,34815,6,0,L|345:153,1,29.5749990974427,2|0,0:3|0:0,0:0:0:0:
405,102,35127,2,0,L|403:70,1,29.5749990974427,2|0,0:3|0:0,0:0:0:0:
347,185,35440,1,2,3:0:0:0:
405,102,35752,1,2,3:0:0:0:
410,237,36065,6,0,P|377:263|297:252,1,118.299996389771,4|0,3:0|3:0,0:0:0:0:
17,45,37315,6,0,L|99:38,1,76.0499976791383,0|0,3:0|3:0,0:0:0:0:
81,121,37940,2,0,L|163:114,1,76.0499976791383,0|0,3:0|3:0,0:0:0:0:
230,259,38565,6,0,P|278:194|242:122,1,152.099995358277,2|2,0:3|0:3,0:0:0:0:
156,114,39815,2,0,P|108:179|144:251,1,152.099995358277,2|2,0:3|0:3,0:0:0:0:
204,189,40752,2,0,L|180:185,2,25.3499992263794
210,315,41065,6,0,L|203:176,1,126.75,4|0,3:1|3:0,0:0:0:0:
130,240,41690,6,0,L|44:232,1,63.3750024175645,2|0,0:3|0:0,0:0:0:0:
210,315,42002,2,0,L|296:307,1,63.3750024175645,0|0,3:0|0:0,0:0:0:0:
399,297,42315,6,0,L|263:310,1,126.750004835129,4|2,3:0|0:3,0:0:0:0:
417,313,42783,1,0,3:0:0:0:
417,313,42940,2,0,P|388:274|392:235,1,63.3750024175645
468,157,43252,2,0,L|460:259,1,95.0625036263467,2|0,0:3|0:0,0:0:0:0:
272,309,43565,6,0,L|266:245,2,63.3750024175645,4|0|0,3:0|0:0|0:0,0:0:0:0:
468,157,44033,2,0,L|473:93,2,63.3750024175645,8|0|0,3:0|0:0|0:0,0:0:0:0:
266,245,44502,1,4,3:0:0:0:
367,201,44658,1,0,0:0:0:0:
165,289,44815,6,0,L|159:225,2,63.3750024175645,6|0|0,3:0|0:0|0:0,0:0:0:0:
468,157,45283,2,0,L|479:24,1,126.750004835129,8|0,3:0|0:0,0:0:0:0:
473,23,45752,1,8,3:0:0:0:
149,149,46065,6,0,P|189:153|221:188,1,63.3750024175645,4|0,3:0|0:0,0:0:0:0:
298,159,46377,2,0,P|258:155|226:120,1,63.3750024175645,0|0,0:0|3:0,0:0:0:0:
288,82,46690,6,0,L|294:18,1,63.3750024175645,0|0,3:0|0:0,0:0:0:0:
159,225,47002,2,0,L|153:289,1,63.3750024175645,0|0,3:0|0:0,0:0:0:0:
288,82,47315,5,4,3:0:0:0:
193,129,47471,1,0,0:0:0:0:
159,225,47627,1,0,0:0:0:0:
351,191,47783,6,0,B|357:167|357:167|323:164|292:197|292:197|265:192|234:206,1,143.650002739906,8|0,3:0|0:0,0:0:0:0:
270,331,48252,2,0,L|276:257,1,63.3750024175645,8|0,3:0|0:0,0:0:0:0:
435,305,48565,5,4,3:0:0:0:
357,344,48721,1,0,0:0:0:0:
270,331,48877,1,0,0:0:0:0:
424,126,49033,6,0,B|451:154|451:154|433:314,1,190.125007252693,8|0,3:0|3:0,0:0:0:0:
270,331,49658,1,0,0:0:0:0:
280,339,49815,5,4,3:0:0:0:
178,270,49971,1,0,0:0:0:0:
55,282,50127,1,0,0:0:0:0:
58,152,50283,6,0,B|37:126|37:126|54:281,1,190.125007252693,8|0,3:0|3:0,0:0:0:0:
178,270,50908,1,0,0:0:0:0:
280,339,51065,6,0,P|336:300|416:320,1,126.750004835129,4|0,3:0|0:0,0:0:0:0:
399,325,51533,2,0,P|339:306|305:254,1,126.750004835129,0|0,3:0|0:0,0:0:0:0:
319,139,52002,1,0,3:0:0:0:
474,198,52158,5,0,0:0:0:0:
474,198,52236,1,0,0:0:0:0:
474,198,52315,2,0,L|388:212,1,63.3750024175645,4|0,3:0|0:0,0:0:0:0:
512,104,52627,2,0,L|426:118,1,63.3750024175645,2|0,0:3|3:0,0:0:0:0:
332,13,52940,6,0,L|315:166,1,126.750004835129,2|0,0:3|3:0,0:0:0:0:
305,254,53408,1,0,0:0:0:0:
148,327,53565,6,0,P|102:321|73:301,2,63.3750024175645,4|0|0,3:0|0:0|0:0,0:0:0:0:
101,187,54033,6,0,L|84:340,1,126.750004835129,0|0,3:0|0:0,0:0:0:0:
305,254,54502,1,0,3:0:0:0:
195,282,54658,1,0,0:0:0:0:
310,222,54815,6,0,L|304:256,1,31.6875012087822,4|0,3:0|0:0,0:0:0:0:
282,122,54971,2,0,L|255:99,1,31.6875012087822
383,148,55127,2,0,L|415:136,1,31.6875012087822
312,206,55283,6,0,L|307:229,1,15.8437506043911,2|0,3:2|0:0,0:0:0:0:
294,132,55439,2,0,L|275:116,1,15.8437506043911,2|0,0:0|0:0,0:0:0:0:
368,153,55595,2,0,L|390:144,1,15.8437506043911,2|0,0:0|0:0,0:0:0:0:
304,253,55752,6,0,L|298:287,1,31.6875012087822,2|0,3:2|0:0,0:0:0:0:
226,313,56065,6,0,L|162:332,1,63.3750024175645,4|0,3:0|0:0,0:0:0:0:
