osu file format v14

[General]
AudioFilename: audio.mp3
AudioLeadIn: 0
PreviewTime: 44510
Countdown: 0
SampleSet: Soft
StackLeniency: 0.4
Mode: 0
LetterboxInBreaks: 0
WidescreenStoryboard: 0

[Editor]
Bookmarks: 8394,46840,65481,74802,84122,93442,102763,121404,130724,137714,149365,158685
DistanceSpacing: 1.3
BeatDivisor: 2
GridSize: 16
TimelineZoom: 0.6999998

[Metadata]
Title:Bomb Bomb
TitleUnicode:밤밤
Artist:KARD
ArtistUnicode:KARD
Creator:TmacBoris
Version:Normal
Source:
Tags:fenotrevosoo666 CharmCaster K.A.R.D 전지우 Jiwoo 전소민 Somin 매튜김 B.M 김태형 J.Seph DSP Media kpop k-pop korean
BeatmapID:1987844
BeatmapSetID:946913

[Difficulty]
HPDrainRate:4
CircleSize:3
OverallDifficulty:4
ApproachRate:5
SliderMultiplier:1.3
SliderTickRate:2

[Events]
//Background and Video events
0,0,"KARDBombBombGroup.jpg",0,0
Video,-840,"Kard - Bomb Bomb.avi"
//Break Periods
2,65680,73602
//Storyboard Layer 0 (Background)
//Storyboard Layer 1 (Fail)
//Storyboard Layer 2 (Pass)
//Storyboard Layer 3 (Foreground)
//Storyboard Sound Samples

[TimingPoints]
239,582.52427184466,4,2,1,60,1,0
28200,-111.111111111111,4,2,2,50,0,0
37520,-100,4,2,1,70,0,0
44510,-100,4,2,2,60,0,0
46840,-100,4,2,1,70,0,1
65481,-100,4,2,1,60,0,0
74802,-100,4,2,2,60,0,0
84122,-111.111111111111,4,2,2,60,0,0
93442,-100,4,2,1,70,0,0
100433,-100,4,2,1,60,0,0
102763,-100,4,2,1,70,0,1
121404,-100,4,2,1,60,0,0
130724,-100,4,2,1,70,0,0
137714,-100,4,2,2,60,0,0
148200,-100,4,2,1,70,0,0
149365,-100,4,2,1,80,0,1
158685,-100,4,2,1,50,0,0
161015,-100,4,2,1,30,0,0

[Colours]
Combo1 : 255,255,128
Combo2 : 255,145,34
Combo3 : 18,0,240
Combo4 : 255,11,17

[HitObjects]
132,102,239,6,0,B|109:134|109:134|109:195,1,97.5,0|8,3:1|0:1,0:0:0:0:
109,318,1112,1,8,0:1:0:0:
183,357,1404,2,0,P|229:375|310:356,1,130,0|8,3:1|0:1,0:0:0:0:
377,314,2277,1,0,3:1:0:0:
304,269,2569,6,0,B|277:233|277:233|279:180,1,97.5,0|8,3:1|0:1,0:0:0:0:
277,53,3442,1,8,0:1:0:0:
357,25,3734,2,0,B|401:17|401:17|462:28,1,97.5,0|8,3:1|0:1,0:0:0:0:
501,95,4462,1,0,3:1:0:0:
488,221,4899,6,0,B|473:264|473:264|424:297,1,97.5,0|8,3:1|0:1,0:0:0:0:
310,336,5772,2,0,P|269:348|229:347,2,65,0|0|0,3:1|3:1|0:1,0:0:0:0:
330,249,6646,2,0,P|297:210|271:201,1,65,0|8,3:1|0:1,0:0:0:0:
208,169,7229,6,0,B|219:124|219:124|271:76,2,97.5,0|8|8,3:1|0:1|0:1,0:0:0:0:
201,253,8394,2,0,B|180:290|140:312,1,65,8|8,0:1|0:1,0:0:0:0:
75,318,8976,1,4,3:1:0:0:
97,236,9268,1,4,3:1:0:0:
40,172,9559,5,6,0:0:0:0:
170,65,10141,2,0,P|210:68|253:79,1,65,2|0,0:0|3:0,0:0:0:0:
304,120,10724,1,2,0:0:0:0:
266,284,11306,2,0,P|226:281|183:270,1,65,2|0,0:0|3:0,0:0:0:0:
121,249,11889,5,2,0:0:0:0:
109,80,12472,2,0,P|166:65|239:80,1,130,2|2,0:0|0:0,0:0:0:0:
289,142,13345,1,0,3:0:0:0:
205,153,13637,1,2,0:0:0:0:
314,282,14219,5,2,0:0:0:0:
467,212,14802,2,0,P|464:172|453:129,1,65,2|0,0:0|3:0,0:0:0:0:
409,79,15384,1,2,0:0:0:0:
305,217,15966,2,0,P|308:257|319:300,1,65,2|0,0:0|3:0,0:0:0:0:
341,362,16549,5,2,0:0:0:0:
171,362,17132,2,0,P|132:367|91:353,1,65,2|0,0:0|3:0,0:0:0:0:
24,349,17714,1,8,0:1:0:0:
34,264,18005,1,8,0:1:0:0:
118,274,18297,2,0,L|194:278,1,65,4|4,3:1|3:1,0:0:0:0:
267,275,18879,6,0,B|301:267|301:267|336:245,1,65,6|0,0:0|3:0,0:0:0:0:
334,167,19462,1,2,0:0:0:0:
277,103,19753,1,0,3:0:0:0:
192,99,20044,2,0,B|165:75|165:75|146:38,1,65,2|0,0:0|3:0,0:0:0:0:
234,28,20627,1,2,0:0:0:0:
390,92,21209,6,0,L|454:97,1,65,2|0,0:0|3:0,0:0:0:0:
455,182,21792,2,0,L|390:176,1,65,2|0,0:0|3:0,0:0:0:0:
390,260,22374,2,0,L|454:265,1,65,2|0,0:0|3:0,0:0:0:0:
487,343,22957,1,2,0:0:0:0:
318,350,23539,6,0,B|302:350|283:359|248:354,1,65,2|0,0:0|3:0,0:0:0:0:
168,361,24122,1,0,0:0:0:0:
64,226,24705,2,0,B|80:226|99:217|134:222,1,65,2|0,0:0|3:0,0:0:0:0:
214,215,25288,1,0,0:0:0:0:
313,78,25870,5,6,0:0:0:0:
154,18,26453,2,0,P|115:12|74:26,1,65,2|0,0:0|3:0,0:0:0:0:
7,31,27035,1,8,0:1:0:0:
17,116,27326,1,8,0:1:0:0:
101,106,27618,2,0,L|177:102,1,65,4|4,0:1|0:1,0:0:0:0:
248,120,28200,6,0,B|231:168|191:184|191:184|171:225|220:275,1,175.499994644165,4|2,0:0|0:0,0:0:0:0:
418,354,29947,1,2,0:0:0:0:
470,211,30530,1,2,0:0:0:0:
343,296,31112,1,2,0:0:0:0:
495,301,31695,1,2,0:0:0:0:
377,208,32277,1,2,0:0:0:0:
418,354,32860,6,0,P|361:358|297:337,2,116.999996429443,2|0|0,0:0|0:0|0:0,0:0:0:0:
495,223,34607,1,2,0:0:0:0:
457,75,35190,6,0,P|425:32|394:15,1,77.999997619629,2|0,0:0|0:0,0:0:0:0:
354,19,35772,2,0,P|319:44|303:91,1,77.999997619629,2|0,0:0|0:0,0:0:0:0:
319,123,36355,2,0,P|323:175|257:187,1,116.999996429443,2|2,0:0|0:0,0:0:0:0:
221,32,37520,5,14,3:3:0:0:
108,158,38103,2,0,P|98:197|103:230,1,65,10|0,3:3|3:3,0:0:0:0:
152,287,38685,2,0,L|226:293,1,65,10|0,3:3|3:3,0:0:0:0:
301,296,39268,1,10,3:3:0:0:
339,131,39850,5,10,3:3:0:0:
169,131,40433,1,10,3:3:0:0:
316,216,41015,1,10,3:3:0:0:
231,68,41598,1,10,3:3:0:0:
256,192,42180,12,2,44510,0:0:0:0:
322,111,46840,6,0,B|302:81|302:81|262:66,1,65,6|8,0:0|0:0,0:0:0:0:
190,63,47423,1,2,0:0:0:0:
107,80,47714,1,0,3:0:0:0:
37,128,48005,2,0,P|17:161|17:201,1,65,2|8,0:0|0:0,0:0:0:0:
99,186,48588,2,0,P|119:219|119:259,1,65,2|0,0:0|3:0,0:0:0:0:
113,330,49171,5,2,0:0:0:0:
42,283,49462,2,0,P|28:319|30:350,2,65,8|2|0,0:0|0:0|3:0,0:0:0:0:
121,244,50336,2,0,P|157:256|180:277,1,65,2|8,0:0|0:0,0:0:0:0:
205,353,50918,2,0,P|229:373|260:382,1,65,8|8,0:1|0:1,0:0:0:0:
345,374,51501,6,0,B|375:354|375:354|390:314,1,65,6|8,0:0|0:0,0:0:0:0:
393,242,52084,1,2,0:0:0:0:
376,159,52375,1,0,3:0:0:0:
328,89,52666,2,0,P|295:69|255:69,1,65,2|8,0:0|0:0,0:0:0:0:
270,151,53249,2,0,P|237:171|197:171,1,65,2|0,0:0|3:0,0:0:0:0:
126,178,53831,6,0,B|111:164|115:136|87:107,1,65,2|8,0:0|0:0,0:0:0:0:
36,61,54413,2,0,P|64:39|117:37,1,65,2|0,0:0|3:0,0:0:0:0:
171,72,54996,1,2,0:3:0:0:
245,24,55287,1,8,0:1:0:0:
249,112,55578,2,0,L|256:196,1,65,4|4,3:1|3:1,0:0:0:0:
306,243,56161,5,14,0:3:0:0:
270,319,56452,1,0,0:0:0:0:
354,313,56743,2,0,P|378:286|390:245,1,65,10|0,0:3|3:0,0:0:0:0:
364,179,57326,5,10,0:3:0:0:
328,102,57617,1,0,0:3:0:0:
413,109,57908,2,0,P|437:135|449:176,1,65,10|0,0:3|3:3,0:0:0:0:
474,242,58491,6,0,B|481:273|481:273|476:317,1,65,10|0,0:3|0:3,0:0:0:0:
392,323,59073,2,0,B|385:292|385:292|390:248,1,65,10|0,0:3|3:3,0:0:0:0:
404,175,59656,5,10,0:3:0:0:
323,202,59947,1,0,0:3:0:0:
340,119,60238,2,0,P|335:88|313:52,1,65,8|8,0:1|0:1,0:0:0:0:
234,52,60821,5,14,0:3:0:0:
157,16,61112,1,0,0:3:0:0:
163,99,61403,2,0,P|189:123|230:135,1,65,10|0,0:3|3:3,0:0:0:0:
300,139,61986,5,10,0:3:0:0:
385,132,62277,1,0,0:3:0:0:
336,62,62568,2,0,P|300:54|259:63,1,65,10|0,0:3|3:3,0:0:0:0:
214,122,63151,6,0,B|207:153|207:153|212:197,1,65,10|0,0:3|0:3,0:0:0:0:
296,203,63733,2,0,B|303:172|303:172|298:128,1,65,10|0,0:3|3:3,0:0:0:0:
298,54,64316,5,8,0:3:0:0:
371,94,64607,1,8,0:1:0:0:
373,9,64898,2,0,B|414:12|437:38|437:38|461:54|511:54,1,130,4|2,0:1|0:3,0:0:0:0:
177,104,74802,5,4,0:3:0:0:
24,34,75384,2,0,P|9:97|20:163,1,130,2|0,3:3|0:3,0:0:0:0:
71,321,76549,1,2,3:3:0:0:
71,321,76743,2,0,L|123:316,1,43.3333333333333,0|0,0:3|0:3,0:0:0:0:
169,308,77132,6,0,P|207:266|215:219,1,86.6666666666667,0|0,0:3|0:3,0:0:0:0:
222,182,77714,2,0,L|229:101,1,65,2|0,3:3|0:3,0:0:0:0:
266,42,78297,2,0,P|304:83|312:130,1,86.6666666666667,0|0,0:3|0:3,0:0:0:0:
319,168,78879,2,0,L|326:248,1,65,2|0,0:3|0:3,0:0:0:0:
387,289,79462,5,4,0:3:0:0:
484,150,80044,2,0,P|508:85|492:8,1,130,2|0,3:3|0:3,0:0:0:0:
331,25,81209,2,0,L|282:29,2,43.3333333333333,2|0|0,3:3|0:3|0:3,0:0:0:0:
378,56,81792,6,0,P|376:112|348:151,1,86.6666666666667,0|0,0:3|0:3,0:0:0:0:
306,135,82374,2,0,P|279:184|283:232,1,86.6666666666667,2|0,3:3|0:3,0:0:0:0:
286,270,82957,2,0,B|315:303|315:303|363:310,1,86.6666666666667,0|0,0:3|0:3,0:0:0:0:
412,302,83539,2,0,L|417:236,1,65,2|0,0:3|0:3,0:0:0:0:
359,175,84122,6,0,P|397:154|462:163,2,87.7499973220826,4|0|0,0:0|0:0|0:0,0:0:0:0:
193,332,85870,1,2,0:0:0:0:
141,189,86452,5,2,0:0:0:0:
268,274,87035,1,2,0:0:0:0:
116,279,87618,1,2,0:0:0:0:
234,186,88200,1,2,0:0:0:0:
193,332,88782,6,0,P|240:366|325:349,1,116.999996429443,2|2,0:0|0:0,0:0:0:0:
425,281,89947,1,0,0:0:0:0:
288,210,90530,1,2,0:0:0:0:
349,71,91112,6,0,P|317:28|286:11,1,77.999997619629,2|0,0:0|0:0,0:0:0:0:
245,14,91694,2,0,P|210:39|194:86,1,77.999997619629,2|0,0:0|0:0,0:0:0:0:
210,119,92277,2,0,P|214:171|168:216,1,116.999996429443,2|2,0:0|0:0,0:0:0:0:
2,210,93442,5,14,3:3:0:0:
86,355,94025,2,0,P|125:365|158:360,1,65,10|0,3:3|3:3,0:0:0:0:
215,311,94607,2,0,L|221:237,1,65,10|0,3:3|3:3,0:0:0:0:
224,162,95190,1,10,3:3:0:0:
100,46,95772,5,10,3:3:0:0:
62,212,96355,1,10,3:3:0:0:
177,87,96937,1,10,3:3:0:0:
11,49,97520,1,10,3:3:0:0:
256,192,98102,12,2,100432,0:0:0:0:
71,67,102763,6,0,B|41:87|41:87|26:127,1,65,6|8,0:0|0:0,0:0:0:0:
23,199,103346,1,2,0:0:0:0:
40,282,103637,1,0,3:0:0:0:
88,352,103928,2,0,P|121:372|161:372,1,65,2|8,0:0|0:0,0:0:0:0:
146,290,104511,2,0,P|179:270|219:270,1,65,2|0,0:0|3:0,0:0:0:0:
290,275,105094,5,2,0:0:0:0:
243,346,105385,2,0,P|279:360|310:358,2,65,8|2|0,0:0|0:0|3:0,0:0:0:0:
204,267,106259,2,0,P|216:231|237:208,1,65,2|8,0:0|0:0,0:0:0:0:
313,183,106841,2,0,P|333:159|342:128,1,65,8|8,0:1|0:1,0:0:0:0:
317,45,107424,6,0,B|284:29|284:29|242:36,1,65,6|8,0:0|0:0,0:0:0:0:
179,69,108005,1,2,0:0:0:0:
115,126,108298,1,0,3:0:0:0:
79,202,108589,2,0,P|78:240|98:275,1,65,2|8,0:0|0:0,0:0:0:0:
161,221,109172,2,0,P|194:239|214:274,1,65,2|0,0:0|3:0,0:0:0:0:
243,338,109753,5,2,0:0:0:0:
323,362,110044,1,8,0:0:0:0:
406,351,110336,2,0,P|428:323|430:270,1,65,2|0,0:0|3:0,0:0:0:0:
395,216,110919,1,8,0:1:0:0:
440,145,111210,1,8,0:1:0:0:
355,138,111501,2,0,L|271:131,1,65,4|4,0:1|0:1,0:0:0:0:
206,121,112084,5,14,0:0:0:0:
130,85,112375,1,0,0:0:0:0:
136,169,112666,2,0,P|163:193|204:205,1,65,10|0,0:0|3:0,0:0:0:0:
274,206,113249,5,10,0:0:0:0:
351,170,113540,1,0,0:0:0:0:
344,255,113831,2,0,P|318:279|277:291,1,65,10|0,0:0|3:0,0:0:0:0:
205,287,114414,6,0,B|174:280|174:280|130:285,1,65,10|0,0:0|0:0,0:0:0:0:
124,369,114996,2,0,B|155:376|155:376|199:371,1,65,10|0,0:0|3:0,0:0:0:0:
268,343,115579,5,10,0:0:0:0:
205,287,115870,1,0,0:0:0:0:
285,259,116161,2,0,P|318:240|343:210,1,65,0|0,0:1|0:1,0:0:0:0:
359,139,116744,5,14,0:0:0:0:
366,54,117035,1,0,0:0:0:0:
435,101,117326,2,0,P|442:135|432:177,1,65,10|0,0:0|3:0,0:0:0:0:
413,245,117909,5,10,0:0:0:0:
376,322,118200,1,0,0:0:0:0:
461,315,118491,2,0,P|485:287|498:247,1,65,10|0,0:0|3:0,0:0:0:0:
491,177,119074,6,0,B|481:146|481:146|455:111,1,65,10|0,0:0|0:0,0:0:0:0:
379,148,119656,2,0,B|388:178|388:178|414:213,1,65,10|0,0:0|3:0,0:0:0:0:
450,278,120239,5,10,0:0:0:0:
407,349,120530,1,8,0:1:0:0:
363,276,120821,2,0,B|328:299|324:338,1,65,4|4,3:1|3:1,0:0:0:0:
248,361,121404,6,0,B|196:361|196:361|146:329,2,97.5,12|8|8,0:3|0:1|0:1,0:0:0:0:
257,276,122569,2,0,P|249:235|228:205,1,65,8|0,0:0|0:0,0:0:0:0:
179,153,123151,1,8,0:3:0:0:
94,160,123442,1,8,0:1:0:0:
44,228,123734,6,0,B|44:280|44:280|12:330,2,97.5,8|8|8,0:3|0:1|0:1,0:0:0:0:
11,149,124899,2,0,P|23:112|60:86,1,65,8|0,0:3|0:3,0:0:0:0:
118,60,125481,2,0,B|149:51|149:51|192:50,1,65,8|8,0:1|0:1,0:0:0:0:
265,63,126064,6,0,P|253:100|216:126,1,65,8|0,0:3|0:3,0:0:0:0:
153,140,126646,1,8,0:3:0:0:
101,206,126938,1,8,0:1:0:0:
184,218,127229,6,0,P|221:230|247:267,1,65,8|0,0:3|0:3,0:0:0:0:
261,330,127811,1,8,0:3:0:0:
327,382,128103,1,8,0:1:0:0:
342,298,128394,5,8,0:3:0:0:
439,160,128976,6,0,P|476:172|502:209,1,65,8|8,0:3|0:1,0:0:0:0:
505,274,129559,2,0,B|504:306|504:306|495:337,1,65,8|8,0:3|0:3,0:0:0:0:
417,370,130141,1,4,3:1:0:0:
352,314,130433,1,4,3:1:0:0:
327,233,130724,6,0,B|284:251|272:290|272:290|221:282,1,130,14|10,3:0|3:0,0:0:0:0:
139,277,131598,1,0,3:0:0:0:
56,260,131889,2,0,P|57:301|78:336,2,65,10|0|10,3:0|3:0|3:0,0:0:0:0:
113,197,132763,1,0,3:0:0:0:
94,114,133054,6,0,B|140:108|170:135|170:135|220:145,1,130,10|10,3:0|3:0,0:0:0:0:
301,150,133928,1,0,3:0:0:0:
384,133,134219,2,0,P|383:174|362:209,2,65,10|0|10,3:0|3:0|3:0,0:0:0:0:
327,70,135093,1,0,3:0:0:0:
256,192,135384,12,0,137714,0:0:0:0:
125,100,139462,5,4,0:0:0:0:
190,153,139753,1,4,0:0:0:0:
262,109,140044,6,0,L|336:115,1,65,4|0,0:0|0:0,0:0:0:0:
402,151,140627,2,0,P|411:199|403:233,1,65,0|0,0:0|0:0,0:0:0:0:
358,282,141209,2,0,P|406:302|441:293,2,65,2|0|0,3:3|0:3|0:3,0:0:0:0:
248,53,142666,6,0,P|172:52|105:84,1,130,0|0,0:0|0:0,0:0:0:0:
51,116,143539,2,0,B|36:152|58:180|58:180|75:213|54:260,1,130,2|2,3:0|3:0,0:0:0:0:
23,316,144413,1,2,3:0:0:0:
107,311,144705,5,4,0:0:0:0:
194,324,144996,2,0,P|180:354|159:378,2,65,0|0|0,0:0|0:0|0:0,0:0:0:0:
163,246,145870,2,0,B|221:233|249:263|249:263|299:273,1,130,2|0,3:0|0:0,0:0:0:0:
509,149,147326,6,0,P|510:73|478:6,1,130,2|0,0:0|0:0,0:0:0:0:
406,12,148200,2,0,B|374:13|374:13|343:22,1,65,8|8,0:1|0:1,0:0:0:0:
318,103,148782,2,0,L|234:96,1,65,4|4,3:1|3:1,0:0:0:0:
168,94,149365,5,14,0:0:0:0:
120,24,149656,1,0,0:0:0:0:
83,100,149947,2,0,P|94:134|123:165,1,65,10|0,0:0|3:0,0:0:0:0:
194,176,150530,5,10,0:0:0:0:
279,183,150821,1,0,0:0:0:0:
231,253,151112,2,0,P|196:260|154:250,1,65,10|0,0:0|3:0,0:0:0:0:
95,211,151695,6,0,B|88:180|88:180|93:136,1,65,10|0,0:0|0:0,0:0:0:0:
167,110,152277,2,0,B|174:141|174:141|169:185,1,65,10|0,0:0|3:0,0:0:0:0:
167,256,152860,5,10,0:0:0:0:
223,320,153151,1,0,0:0:0:0:
250,239,153442,2,0,P|269:214|306:194,1,65,8|8,0:1|0:1,0:0:0:0:
382,178,154025,5,14,0:0:0:0:
466,185,154316,1,0,0:0:0:0:
419,255,154607,2,0,P|383:262|342:252,1,65,10|0,0:0|3:0,0:0:0:0:
298,197,155190,5,10,0:0:0:0:
249,127,155481,1,0,0:0:0:0:
213,203,155772,2,0,P|223:236|253:267,1,65,10|0,0:0|3:0,0:0:0:0:
305,315,156355,6,0,B|328:336|328:336|368:354,1,65,10|0,0:0|0:0,0:0:0:0:
443,349,156938,1,10,0:0:0:0:
490,278,157229,1,0,3:0:0:0:
471,195,157520,6,0,B|464:164|464:164|468:120,1,65,10|0,0:0|0:0,0:0:0:0:
426,56,158103,1,4,3:1:0:0:
382,128,158394,1,4,3:1:0:0:
256,192,158685,12,0,161015,0:0:0:0:
