osu file format v14

[General]
AudioFilename: audio.mp3
AudioLeadIn: 0
PreviewTime: 44510
Countdown: 0
SampleSet: Soft
StackLeniency: 0.4
Mode: 0
LetterboxInBreaks: 0
WidescreenStoryboard: 0

[Editor]
DistanceSpacing: 0.1
BeatDivisor: 4
GridSize: 4
TimelineZoom: 1.3

[Metadata]
Title:Bomb Bomb
TitleUnicode:밤밤
Artist:KARD
ArtistUnicode:KARD
Creator:TmacBoris
Version:Charm's Insane
Source:
Tags:fenotrevosoo666 CharmCaster K.A.R.D 전지우 Jiwoo 전소민 Somin 매튜김 B.M 김태형 J.Seph DSP Media kpop k-pop korean
BeatmapID:2007604
BeatmapSetID:946913

[Difficulty]
HPDrainRate:5
CircleSize:3.8
OverallDifficulty:7
ApproachRate:9
SliderMultiplier:1.8
SliderTickRate:2

[Events]
//Background and Video events
0,0,"KARDBombBombGroup.jpg",0,0
Video,-840,"Kard - Bomb Bomb.avi"
//Break Periods
2,65681,74202
//Storyboard Layer 0 (Background)
//Storyboard Layer 1 (Fail)
//Storyboard Layer 2 (Pass)
//Storyboard Layer 3 (Foreground)
//Storyboard Sound Samples

[TimingPoints]
239,582.52427184466,4,2,1,50,1,0
8976,-50,4,2,1,70,0,0
9195,-50,4,2,1,5,0,0
9268,-50,4,2,1,70,0,0
9486,-50,4,2,1,5,0,0
9559,-100,4,2,1,70,0,0
18297,-50,4,2,1,70,0,0
18515,-50,4,2,1,5,0,0
18588,-50,4,2,1,70,0,0
18806,-50,4,2,1,5,0,0
18879,-100,4,2,1,70,0,0
19462,-66.6666666666667,4,2,1,70,0,0
20044,-100,4,2,1,70,0,0
20627,-133.333333333333,4,2,1,70,0,0
21209,-100,4,2,1,70,0,0
24122,-200,4,2,2,70,0,0
24632,-200,4,2,2,5,0,0
24705,-100,4,2,1,70,0,0
25287,-200,4,2,2,70,0,0
25797,-200,4,2,2,5,0,0
25870,-100,4,2,1,70,0,0
27617,-50,4,2,1,70,0,0
27836,-50,4,2,1,5,0,0
27908,-50,4,2,1,70,0,0
28127,-50,4,2,1,5,0,0
28200,-133.333333333333,4,2,2,60,0,0
37520,-100,4,2,1,70,0,0
44510,-200,4,2,2,60,0,0
45675,-100,4,2,2,60,0,0
45821,-100,4,2,2,5,0,0
45967,-100,4,2,2,60,0,0
46112,-100,4,2,2,5,0,0
46258,-100,4,2,2,60,0,0
46404,-100,4,2,2,5,0,0
46549,-50,4,2,2,60,0,0
46695,-50,4,2,2,5,0,0
46840,-66.6666666666667,4,2,1,70,0,1
55578,-40,4,2,1,70,0,1
55797,-40,4,2,1,5,0,1
55870,-40,4,2,1,70,0,1
56088,-40,4,2,1,5,0,1
56161,-66.6666666666667,4,2,1,80,0,1
64899,-40,4,2,1,80,0,1
65117,-40,4,2,1,5,0,1
65190,-40,4,2,1,80,0,1
65408,-40,4,2,1,5,0,1
65481,-133.333333333333,4,2,1,70,0,0
74802,-133.333333333333,4,2,2,60,0,0
93442,-100,4,2,1,70,0,0
100433,-200,4,2,2,60,0,0
101598,-100,4,2,2,60,0,0
101743,-100,4,2,2,5,0,0
101889,-100,4,2,2,60,0,0
102035,-100,4,2,2,5,0,0
102180,-100,4,2,2,60,0,0
102326,-100,4,2,2,5,0,0
102472,-50,4,2,1,60,0,0
102617,-50,4,2,1,5,0,0
102763,-66.6666666666667,4,2,1,70,0,1
111501,-40,4,2,1,70,0,1
111719,-40,4,2,1,5,0,1
111792,-40,4,2,1,70,0,1
112010,-40,4,2,1,5,0,1
112083,-66.6666666666667,4,2,1,80,0,1
120821,-40,4,2,1,80,0,1
121039,-40,4,2,1,5,0,1
121112,-40,4,2,1,80,0,1
121331,-40,4,2,1,5,0,1
121404,-111.111111111111,4,2,1,60,0,0
130141,-50,4,2,1,60,0,0
130360,-50,4,2,1,5,0,0
130433,-50,4,2,1,60,0,0
130651,-50,4,2,1,5,0,0
130724,-100,4,2,1,70,0,0
137714,-200,4,2,2,60,0,0
139607,-200,4,2,2,5,0,0
139753,-200,4,2,2,60,0,0
139899,-200,4,2,2,5,0,0
140044,-200,4,2,2,60,0,1
140117,-200,4,2,2,60,0,0
147035,-133.333333333333,4,2,1,60,0,0
148782,-40,4,2,1,70,0,0
149001,-40,4,2,1,5,0,0
149073,-40,4,2,1,70,0,0
149292,-40,4,2,1,5,0,0
149365,-66.6666666666667,4,2,1,80,0,1
158103,-40,4,2,1,80,0,1
158321,-40,4,2,1,5,0,1
158394,-40,4,2,1,80,0,1
158612,-40,4,2,1,5,0,1
158685,-90.9090909090909,4,2,1,50,0,0
161015,-90.9090909090909,4,2,1,30,0,0

[Colours]
Combo1 : 255,255,128
Combo2 : 255,145,34
Combo3 : 18,0,240
Combo4 : 255,11,17

[HitObjects]
160,128,239,6,0,L|256:120,1,90,0|0,3:1|0:1,0:0:0:0:
368,56,675,2,0,P|344:120|360:184,1,135,8|8,0:1|0:1,0:0:0:0:
288,336,1404,2,0,L|184:328,1,90,0|0,3:1|0:1,0:0:0:0:
120,280,1840,1,8,0:1:0:0:
192,224,1986,2,0,L|264:208,1,45,0|0,3:1|0:1,0:0:0:0:
72,200,2277,1,8,0:1:0:0:
160,16,2569,6,0,L|144:136,1,90,0|0,3:1|0:1,0:0:0:0:
264,24,3005,2,0,L|248:160,1,135,8|8,0:1|0:1,0:0:0:0:
416,272,3734,2,0,P|416:216|392:192,1,90,0|0,3:1|0:1,0:0:0:0:
408,288,4171,2,0,L|304:288,2,90,8|0|0,0:1|3:1|3:1,0:0:0:0:
464,128,4899,6,0,P|428:170|394:173,1,90,0|0,3:1|0:1,0:0:0:0:
296,120,5336,2,0,P|312:176|288:240,2,90,8|0|0,0:1|0:1|0:1,0:0:0:0:
208,72,6064,1,0,3:1:0:0:
80,264,6355,1,0,0:1:0:0:
112,240,6501,1,8,0:1:0:0:
144,216,6646,2,0,L|136:288,1,45,0|0,3:1|0:1,0:0:0:0:
216,160,6938,1,8,0:1:0:0:
272,320,7229,6,0,P|320:304|376:336,1,90,0|0,3:1|0:1,0:0:0:0:
456,248,7666,2,0,P|448:304|464:368,2,90,8|0|0,0:1|0:1|0:1,0:0:0:0:
496,104,8394,5,8,0:1:0:0:
328,112,8539,1,8,0:1:0:0:
448,40,8685,5,8,0:1:0:0:
368,188,8831,1,8,0:1:0:0:
368,188,8904,1,8,0:1:0:0:
368,188,8976,2,0,B|352:232|352:232|240:240,1,135,4|0,3:1|0:1,0:0:0:0:
256,244,9268,2,0,B|240:288|240:288|128:296,1,135,4|0,3:1|0:1,0:0:0:0:
144,300,9559,6,0,P|96:284|56:292,1,90,6|0,0:0|3:0,0:0:0:0:
92,372,9996,1,8,0:0:0:0:
24,208,10141,2,0,L|32:136,1,45,2|0,0:0|0:0,0:0:0:0:
128,56,10433,1,0,3:0:0:0:
120,76,10724,6,0,L|224:56,1,90,2|0,0:0|3:0,0:0:0:0:
304,80,11161,1,8,0:0:0:0:
264,208,11306,2,0,L|188:200,1,45,2|0,0:0|0:0,0:0:0:0:
336,260,11598,2,0,L|412:252,1,45,0|0,3:0|0:0,0:0:0:0:
448,100,11889,6,0,P|432:136|468:208,1,90,2|0,0:0|3:0,0:0:0:0:
508,144,12326,1,8,0:0:0:0:
468,276,12472,2,0,P|432:268|360:280,1,90,2|0,0:0|3:0,0:0:0:0:
304,332,12908,1,0,0:0:0:0:
168,280,13054,2,0,L|176:212,1,45,2|0,0:0|0:0,0:0:0:0:
280,104,13345,2,0,L|288:172,1,45,0|8,3:0|0:0,0:0:0:0:
168,140,13637,5,2,0:0:0:0:
272,260,13782,1,8,0:1:0:0:
184,120,13928,5,8,0:1:0:0:
288,240,14073,1,8,0:1:0:0:
224,44,14219,6,0,P|168:36|112:72,1,90,2|0,0:0|3:0,0:0:0:0:
52,24,14656,1,8,0:0:0:0:
96,180,14802,2,0,L|93:224,1,45,2|0,0:0|0:0,0:0:0:0:
180,132,15093,1,0,3:0:0:0:
196,160,15384,6,0,P|256:152|292:164,1,90,2|0,0:0|3:0,0:0:0:0:
372,104,15821,1,8,0:0:0:0:
276,244,15967,2,0,P|272:272|280:300,1,45,2|0,0:0|0:0,0:0:0:0:
416,220,16258,2,0,P|420:192|412:164,1,45,0|0,3:0|0:0,0:0:0:0:
344,352,16549,6,0,L|456:344,1,90,2|0,0:0|3:0,0:0:0:0:
512,288,16986,1,8,0:0:0:0:
416,175,17132,2,0,P|376:188|304:176,1,90,2|0,0:0|3:0,0:0:0:0:
264,108,17569,1,0,0:0:0:0:
144,236,17714,5,2,0:0:0:0:
308,192,17860,1,8,0:1:0:0:
100,168,18005,2,0,P|72:196|64:228,1,45,8|8,0:1|0:1,0:0:0:0:
69,200,18224,1,8,0:1:0:0:
69,200,18297,6,0,P|72:280|144:320,1,135,4|0,3:1|0:1,0:0:0:0:
112,324,18588,2,0,P|182:323|230:259,1,135,4|0,3:1|0:1,0:0:0:0:
228,268,18879,6,0,P|254:257|282:257,1,45,6|0,0:0|0:0,0:0:0:0:
456,224,19171,2,0,P|430:212|402:212,1,45,0|8,3:0|0:0,0:0:0:0:
232,108,19462,2,0,B|232:140|220:160|220:160|260:136|328:144,1,135.000005149842,2|0,0:0|3:0,0:0:0:0:
32,24,20044,6,0,P|40:76|36:84,1,45,2|0,0:0|0:0,0:0:0:0:
32,212,20336,2,0,P|24:160|28:152,1,45,0|8,3:0|0:0,0:0:0:0:
112,284,20627,2,0,P|97:303|97:292,1,67.5000025749208,2|0,0:0|3:0,0:0:0:0:
220,160,21209,6,0,L|276:152,1,45,2|0,0:0|0:0,0:0:0:0:
352,208,21501,1,0,3:0:0:0:
348,228,21646,1,8,0:0:0:0:
276,296,21792,2,0,P|240:300|220:292,1,45,2|0,0:0|0:0,0:0:0:0:
416,136,22083,2,0,P|452:132|472:140,1,45,0|0,3:3|0:0,0:0:0:0:
512,288,22374,6,0,L|504:224,1,45,2|0,0:0|0:0,0:0:0:0:
448,352,22666,1,0,3:0:0:0:
364,312,22811,2,0,P|320:320|312:316,1,45,8|2,0:0|0:0,0:0:0:0:
252,156,23103,1,8,0:1:0:0:
372,136,23248,1,8,0:1:0:0:
328,244,23394,1,8,0:1:0:0:
160,220,23539,6,0,L|156:168,1,45,2|0,0:0|0:0,0:0:0:0:
192,72,23831,1,0,3:0:0:0:
220,80,23976,1,8,0:0:0:0:
84,264,24122,6,0,L|80:180,1,78.75,2|0,0:0|0:0,0:0:0:0:
80,172,24705,6,0,L|76:111,1,45,2|0,0:0|0:0,0:0:0:0:
192,72,24996,1,0,3:0:0:0:
220,80,25141,1,8,0:0:0:0:
163,298,25287,6,0,L|159:214,1,78.75,2|0,0:0|0:0,0:0:0:0:
156,208,25870,6,0,B|201:217|201:217|261:193,1,90,14|0,0:0|3:0,0:0:0:0:
336,148,26306,1,8,0:0:0:0:
476,208,26452,2,0,L|480:268,1,45,2|0,0:0|0:0,0:0:0:0:
312,324,26743,2,0,L|308:264,1,45,0|0,3:0|0:0,0:0:0:0:
432,88,27035,5,2,0:0:0:0:
392,244,27180,1,8,0:1:0:0:
348,44,27326,1,8,0:1:0:0:
244,212,27472,1,8,0:1:0:0:
244,212,27544,1,8,0:1:0:0:
244,212,27617,6,0,B|148:224|148:224|164:164,1,135,4|0,3:1|0:1,0:0:0:0:
160,176,27908,2,0,B|170:140|170:140|74:152,1,135,4|0,3:1|0:1,0:0:0:0:
68,160,28200,6,0,P|77:118|65:58,1,101.250003862381,6|0,0:0|0:0,0:0:0:0:
168,32,28782,2,0,P|210:40|242:36,1,67.5000025749208,2|0,0:0|0:0,0:0:0:0:
420,148,29365,2,0,P|424:176|428:160,1,101.250003862381,2|0,0:0|0:0,0:0:0:0:
312,128,29947,1,2,0:0:0:0:
304,160,30093,2,0,P|308:204|340:248,1,84.3750032186509,0|0,0:0|0:0,0:0:0:0:
328,256,30530,6,0,B|284:259|284:259|232:299,1,101.250003862381,2|0,0:0|0:0,0:0:0:0:
92,252,31112,1,2,0:0:0:0:
136,256,31258,2,0,B|180:258|180:258|232:298,1,101.250003862381,0|2,0:0|0:0,0:0:0:0:
192,108,31840,2,0,B|167:145|167:145|107:170,1,101.250003862381,0|2,0:0|0:0,0:0:0:0:
288,224,32423,2,0,B|267:184|267:184|276:119,1,101.250003862381,0|2,0:0|0:0,0:0:0:0:
384,56,33078,6,0,L|440:52,1,50.6250019311906,0|0,0:0|0:0,0:0:0:0:
434,52,33442,1,2,0:0:0:0:
496,176,33661,1,0,0:0:0:0:
480,204,33879,1,0,0:0:0:0:
480,204,34025,6,0,L|424:208,1,50.6250019311906,2|0,0:0|0:0,0:0:0:0:
356,280,34462,1,0,0:0:0:0:
276,252,34607,2,0,P|268:288|284:328,1,67.5000025749208,2|0,0:0|0:0,0:0:0:0:
188,128,35190,6,0,L|201:72,2,45.0000017166138,2|0|0,0:0|0:0|0:0,0:0:0:0:
132,240,35772,2,0,L|145:296,2,45.0000017166138,2|0|0,0:0|0:0|0:0,0:0:0:0:
36,152,36355,2,0,P|24:128|22:90,2,45.0000017166138,2|0|0,0:0|0:0|0:0,0:0:0:0:
52,20,36938,2,0,B|84:32|84:32|128:28,1,67.5000025749208,2|2,0:0|0:0,0:0:0:0:
200,78,37374,1,0,0:0:0:0:
348,28,37520,6,0,P|336:104|352:128,1,90,14|0,3:3|3:3,0:0:0:0:
416,180,37957,1,0,3:3:0:0:
296,272,38103,2,0,P|248:268|204:292,1,90,10|0,3:3|3:3,0:0:0:0:
112,132,38685,2,0,L|104:72,2,45,10|0|0,3:3|3:3|3:3,0:0:0:0:
72,220,39122,1,0,3:3:0:0:
72,220,39268,2,0,L|24:256,1,45,10|0,3:3|3:3,0:0:0:0:
168,204,39559,1,0,3:3:0:0:
308,64,39850,5,10,3:3:0:0:
260,144,39996,2,0,P|316:156|364:140,1,90,0|0,3:3|3:3,0:0:0:0:
400,64,40433,1,10,3:3:0:0:
480,24,40578,2,0,P|488:80|460:124,1,90,0|0,3:3|3:3,0:0:0:0:
456,248,41015,5,10,3:3:0:0:
440,216,41161,1,0,3:3:0:0:
328,308,41306,1,0,3:3:0:0:
336,272,41452,1,0,3:3:0:0:
240,220,41598,2,0,P|204:236|140:216,1,90,10|0,3:3|3:3,0:0:0:0:
88,152,42035,1,0,3:3:0:0:
236,28,42180,5,10,3:3:0:0:
224,72,42326,1,0,3:3:0:0:
352,128,42472,2,0,L|408:120,1,45,10|0,3:3|3:3,0:0:0:0:
176,144,42763,1,10,3:3:0:0:
240,220,42908,1,0,3:3:0:0:
412,224,43054,2,0,L|449:181,1,45,10|0,3:3|3:3,0:0:0:0:
324,320,43345,5,10,3:3:0:0:
324,320,43418,1,8,3:3:0:0:
324,320,43491,1,8,3:3:0:0:
228,336,43637,1,10,3:3:0:0:
228,336,43709,1,8,3:3:0:0:
228,336,43782,1,8,3:3:0:0:
124,352,43928,6,0,L|128:320,6,22.5,10|8|8|8|10|8|8,3:3|3:3|3:3|3:3|3:3|3:3|3:3,0:0:0:0:
72,264,44510,6,0,L|76:240,2,22.5,2|2|0,0:0|0:0|0:0,0:0:0:0:
72,264,45093,2,0,L|76:240,2,22.5,2|2|0,0:0|0:0|0:0,0:0:0:0:
148,176,45675,6,0,L|208:168,1,45,2|0,0:0|0:0,0:0:0:0:
364,208,45967,2,0,L|304:216,1,45,2|0,0:0|0:0,0:0:0:0:
158,219,46258,2,0,L|146:167,1,45,0|0,0:0|0:0,0:0:0:0:
312,44,46549,2,0,L|332:144,1,90,2|0,0:1|0:0,0:0:0:0:
456,248,46840,6,0,B|420:228|420:228|324:236,1,135.000005149842,6|8,0:0|0:0,0:0:0:0:
284,332,47277,1,0,3:0:0:0:
148,244,47423,2,0,B|128:220|128:220|128:172,1,67.5000025749208,2|0,0:0|0:0,0:0:0:0:
220,80,47714,2,0,B|240:104|240:104|240:152,1,67.5000025749208,0|0,3:3|0:0,0:0:0:0:
152,264,48005,6,0,B|104:264|80:276|80:276|104:300,1,101.250003862381,2|0,0:0|0:0,0:0:0:0:
104,304,48297,2,0,L|93:373,1,67.5000025749208,8|0,0:0|3:0,0:0:0:0:
256,244,48588,2,0,P|240:200|216:180,1,67.5000025749208,2|0,0:0|0:0,0:0:0:0:
40,116,48879,2,0,P|86:124|115:113,1,67.5000025749208,0|0,3:3|0:0,0:0:0:0:
236,24,49171,6,0,B|232:64|232:64|336:44,1,135.000005149842,2|8,0:0|0:0,0:0:0:0:
424,80,49607,1,0,3:0:0:0:
488,220,49753,2,0,B|492:256|492:256|464:296,1,67.5000025749208,2|0,0:0|0:0,0:0:0:0:
392,340,50044,1,0,3:3:0:0:
328,200,50190,1,0,0:0:0:0:
304,232,50336,2,0,B|256:232|256:232|256:228|256:228|256:232|256:232|188:232,2,101.250003862381,2|0|0,0:0|0:0|0:0,0:0:0:0:
128,296,50918,5,2,0:0:0:0:
148,152,51064,1,8,0:1:0:0:
66,212,51209,1,8,3:1:0:0:
210,232,51355,1,8,0:1:0:0:
156,68,51501,6,0,B|68:64|68:64|28:100,1,135.000005149842,6|8,0:0|0:0,0:0:0:0:
40,196,51938,1,0,3:0:0:0:
192,252,52083,2,0,B|212:236|212:236|268:236,1,67.5000025749208,2|0,0:0|0:0,0:0:0:0:
340,320,52374,2,0,B|320:336|320:336|264:336,1,67.5000025749208,0|0,3:3|0:0,0:0:0:0:
404,188,52666,6,0,B|424:224|424:248|424:248|444:232|472:236,1,101.250003862381,2|0,0:0|0:0,0:0:0:0:
464,228,52957,2,0,P|486:189|518:177,1,67.5000025749208,8|0,0:0|3:0,0:0:0:0:
448,56,53248,2,0,L|352:72,1,67.5000025749208,2|0,0:0|0:0,0:0:0:0:
220,128,53539,2,0,L|316:144,1,67.5000025749208,0|0,3:3|0:0,0:0:0:0:
236,280,53831,5,2,0:0:0:0:
184,208,53977,1,0,0:0:0:0:
128,284,54122,2,0,L|140:372,1,67.5000025749208,8|0,0:0|3:0,0:0:0:0:
24,224,54413,2,0,P|16:188|36:136,1,67.5000025749208,2|0,0:0|0:0,0:0:0:0:
136,48,54705,2,0,L|124:136,1,67.5000025749208,0|0,3:3|0:0,0:0:0:0:
224,192,54996,5,2,0:0:0:0:
368,104,55141,1,8,0:1:0:0:
292,240,55287,5,8,0:1:0:0:
302,71,55432,1,8,0:1:0:0:
302,71,55505,1,8,0:1:0:0:
302,71,55578,6,0,P|272:128|280:60,1,168.75,4|0,3:1|0:1,0:0:0:0:
256,56,55870,6,0,P|196:84|244:34,1,168.75,4|0,3:1|0:1,0:0:0:0:
216,20,56161,6,0,P|163:26|123:14,1,67.5000025749208,14|0,0:3|0:0,0:0:0:0:
40,156,56452,1,8,0:0:0:0:
56,104,56598,1,0,3:0:0:0:
128,236,56743,2,0,B|140:264|140:264|128:320,1,67.5000025749208,10|0,0:3|0:0,0:0:0:0:
40,352,57035,1,0,3:0:0:0:
240,308,57326,6,0,P|276:308|316:320,1,67.5000025749208,10|0,0:3|0:0,0:0:0:0:
428,244,57617,1,8,0:0:0:0:
420,196,57763,1,0,3:0:0:0:
320,72,57908,2,0,B|308:92|308:92|312:148,1,67.5000025749208,10|0,0:3|0:0,0:0:0:0:
216,232,58200,2,0,B|228:212|228:212|224:156,1,67.5000025749208,0|0,3:0|0:0,0:0:0:0:
92,96,58491,5,10,0:3:0:0:
176,52,58637,1,0,0:3:0:0:
112,180,58782,2,0,P|52:176|28:156,1,67.5000025749208,8|0,0:0|3:3,0:0:0:0:
248,240,59073,2,0,L|240:320,1,67.5000025749208,10|0,0:3|0:3,0:0:0:0:
124,208,59365,2,0,P|64:204|40:184,1,67.5000025749208,0|0,3:3|0:3,0:0:0:0:
260,268,59656,2,0,L|252:348,1,67.5000025749208,10|0,0:3|0:3,0:0:0:0:
340,176,59947,2,0,B|356:152|356:152|356:96,1,67.5000025749208,8|0,0:0|3:3,0:0:0:0:
496,60,60238,5,10,0:3:0:0:
356,113,60384,1,8,0:1:0:0:
424,16,60530,1,8,3:1:0:0:
425,165,60676,1,8,0:1:0:0:
288,80,60821,6,0,P|240:84|216:92,1,67.5000025749208,14|0,0:3|0:3,0:0:0:0:
80,32,61112,1,8,0:0:0:0:
96,80,61258,1,0,3:3:0:0:
32,244,61404,2,0,B|16:216|16:216|24:156,1,67.5000025749208,10|0,0:3|0:3,0:0:0:0:
128,192,61695,1,0,3:3:0:0:
308,296,61986,6,0,P|256:288|228:296,1,67.5000025749208,10|0,0:3|0:3,0:0:0:0:
88,344,62277,1,8,0:0:0:0:
100,296,62423,1,0,3:3:0:0:
240,204,62569,2,0,B|256:224|256:224|248:288,1,67.5000025749208,10|0,0:3|0:3,0:0:0:0:
320,116,62860,2,0,B|304:96|304:96|312:32,1,67.5000025749208,0|0,3:3|0:3,0:0:0:0:
460,72,63151,5,10,0:3:0:0:
412,156,63297,1,0,0:3:0:0:
476,240,63442,2,0,P|484:276|480:316,1,67.5000025749208,8|0,0:0|3:3,0:0:0:0:
256,224,63734,2,0,L|332:220,1,67.5000025749208,10|0,0:3|0:3,0:0:0:0:
456,264,64025,2,0,P|464:300|460:340,1,67.5000025749208,0|0,3:3|0:3,0:0:0:0:
240,260,64316,5,10,0:3:0:0:
176,176,64462,2,0,L|172:100,1,67.5000025749208,8|8,0:3|0:3,0:0:0:0:
368,144,64753,1,8,0:1:0:0:
368,144,64826,1,8,0:1:0:0:
368,144,64899,6,0,B|264:152|264:152|296:68,1,168.75,4|0,3:1|0:1,0:0:0:0:
288,84,65190,6,0,B|266:24|266:24|370:32,1,168.75,4|0,3:1|0:1,0:0:0:0:
376,40,65481,5,2,0:3:0:0:
344,88,74802,5,4,0:3:0:0:
344,88,75384,2,0,L|340:160,1,67.5000025749208,2|4,3:3|0:3,0:0:0:0:
240,228,75967,2,0,L|176:224,1,50.6250019311906,0|0,0:3|0:3,0:0:0:0:
120,140,76404,1,0,0:3:0:0:
120,140,76549,2,0,L|184:136,1,50.6250019311906,2|0,3:3|0:3,0:0:0:0:
236,56,76986,1,0,0:3:0:0:
236,56,77132,6,0,L|256:112,2,50.6250019311906,0|0|0,0:3|0:3|0:3,0:0:0:0:
356,100,77714,2,0,L|336:176,1,67.5000025749208,2|0,3:3|0:3,0:0:0:0:
452,212,78297,2,0,L|472:268,2,50.6250019311906,0|0|0,0:3|0:3|0:3,0:0:0:0:
360,292,78879,2,0,L|336:368,1,67.5000025749208,2|0,0:3|0:3,0:0:0:0:
216,284,79462,2,0,P|184:276|148:284,1,67.5000025749208,4|0,0:3|0:3,0:0:0:0:
80,332,79899,1,4,0:3:0:0:
80,332,80044,6,0,L|68:276,1,50.6250019311906,2|0,3:3|0:3,0:0:0:0:
44,180,80481,1,0,0:3:0:0:
44,180,80627,2,0,L|98:197,1,50.6250019311906,0|0,0:3|0:3,0:0:0:0:
192,136,81064,1,0,0:3:0:0:
192,136,81210,2,0,L|137:118,1,50.6250019311906,2|0,3:3|0:3,0:0:0:0:
284,96,81646,1,0,0:3:0:0:
284,96,81792,6,0,L|296:152,1,50.6250019311906,0|0,0:3|0:3,0:0:0:0:
368,260,82229,1,0,0:3:0:0:
372,264,82374,2,0,L|384:208,1,50.6250019311906,2|0,3:3|0:3,0:0:0:0:
228,240,82811,1,0,0:3:0:0:
228,240,82957,2,0,B|216:248|216:248|216:296,1,50.6250019311906,0|0,0:3|0:3,0:0:0:0:
96,328,83394,1,0,0:3:0:0:
96,328,83539,2,0,L|76:248,1,67.5000025749208,2|0,0:3|0:3,0:0:0:0:
96,108,84122,6,0,P|164:120|204:104,1,101.250003862381,6|0,0:0|0:0,0:0:0:0:
296,76,84705,2,0,L|284:148,1,67.5000025749208,2|0,0:0|0:0,0:0:0:0:
192,284,85287,2,0,P|184:248|176:272,1,101.250003862381,2|0,0:0|0:0,0:0:0:0:
296,300,85870,1,2,0:0:0:0:
304,264,86015,2,0,P|296:224|264:180,1,84.3750032186509,0|0,0:0|0:0,0:0:0:0:
268,176,86452,6,0,B|316:133|316:133|316:85,1,101.250003862381,2|0,0:0|0:0,0:0:0:0:
224,20,87035,1,2,0:0:0:0:
192,40,87180,2,0,B|144:83|144:83|144:131,1,101.250003862381,0|2,0:0|0:0,0:0:0:0:
76,204,87763,2,0,B|137:223|137:223|179:199,1,101.250003862381,0|2,0:0|0:0,0:0:0:0:
280,224,88345,2,0,B|265:160|265:160|224:136,1,101.250003862381,0|2,0:0|0:0,0:0:0:0:
308,60,89001,6,0,L|372:60,1,50.6250019311906,0|0,0:0|0:0,0:0:0:0:
358,60,89365,1,2,0:0:0:0:
456,116,89583,1,0,0:0:0:0:
428,152,89802,1,0,0:0:0:0:
428,152,89947,2,0,P|420:192|428:212,1,50.6250019311906,2|0,0:0|0:0,0:0:0:0:
296,176,90384,1,0,0:0:0:0:
248,244,90530,2,0,P|212:200|212:180,1,67.5000025749208,2|0,0:0|0:0,0:0:0:0:
108,304,91112,6,0,L|64:312,2,45.0000017166138,2|0|0,0:0|0:0|0:0,0:0:0:0:
236,280,91695,2,0,L|280:288,2,45.0000017166138,2|0|0,0:0|0:0|0:0,0:0:0:0:
112,216,92277,2,0,P|100:188|104:164,2,45.0000017166138,2|0|0,0:0|0:0|0:0,0:0:0:0:
224,96,92860,2,0,B|228:132|228:132|212:168,1,67.5000025749208,2|2,0:0|0:0,0:0:0:0:
148,40,93297,1,0,0:0:0:0:
308,92,93442,6,0,L|408:80,1,90,14|0,3:3|3:3,0:0:0:0:
496,120,93879,1,0,3:3:0:0:
440,252,94025,2,0,L|350:241,1,90,10|0,3:3|3:3,0:0:0:0:
184,292,94607,1,10,3:3:0:0:
184,292,94753,2,0,P|164:316|160:344,2,45,0|0|0,3:3|3:3|3:3,0:0:0:0:
228,204,95190,2,0,P|217:174|194:157,1,45,10|0,3:3|3:3,0:0:0:0:
284,284,95481,1,0,3:3:0:0:
120,216,95772,5,10,3:3:0:0:
40,272,95918,2,0,L|32:176,1,90,0|0,3:3|3:3,0:0:0:0:
48,88,96355,1,10,3:3:0:0:
132,136,96501,2,0,L|228:128,1,90,0|0,3:3|3:3,0:0:0:0:
376,52,96938,5,10,3:3:0:0:
364,88,97083,1,0,3:3:0:0:
460,184,97229,1,0,3:3:0:0:
448,148,97374,1,0,3:3:0:0:
340,220,97520,2,0,P|336:264|356:324,1,90,10|0,3:3|3:3,0:0:0:0:
440,348,97957,1,0,3:3:0:0:
248,344,98103,5,10,3:3:0:0:
240,304,98248,1,0,3:3:0:0:
100,280,98394,2,0,L|36:292,1,45,10|0,3:3|3:3,0:0:0:0:
276,204,98685,1,10,3:3:0:0:
208,136,98831,1,0,3:3:0:0:
48,192,98976,2,0,L|-1:234,1,45,10|0,3:3|3:3,0:0:0:0:
32,96,99268,5,10,3:3:0:0:
32,96,99340,1,8,3:3:0:0:
32,96,99413,1,8,3:3:0:0:
128,72,99559,5,10,3:3:0:0:
128,72,99631,1,8,3:3:0:0:
128,72,99704,1,8,3:3:0:0:
220,48,99850,6,0,L|224:12,6,22.5,10|8|8|8|10|8|8,3:3|3:3|3:3|3:3|3:3|3:3|3:3,0:0:0:0:
300,96,100433,6,0,L|304:120,2,22.5,2|2|0,0:0|0:0|0:0,0:0:0:0:
300,96,101015,2,0,L|304:120,2,22.5,2|2|0,0:0|0:0|0:0,0:0:0:0:
272,272,101598,6,0,P|240:272|212:264,1,45,2|0,0:0|0:0,0:0:0:0:
48,244,101889,2,0,P|80:244|108:236,1,45,2|0,0:0|0:0,0:0:0:0:
296,196,102180,2,0,P|264:196|236:188,1,45,0|0,0:0|0:0,0:0:0:0:
16,168,102472,2,0,P|64:160|116:120,1,90,2|0,0:1|0:0,0:0:0:0:
232,20,102763,6,0,B|288:16|288:16|376:60,1,135.000005149842,6|8,0:0|0:0,0:0:0:0:
424,124,103200,1,0,3:0:0:0:
288,208,103345,2,0,P|280:164|288:132,1,67.5000025749208,2|0,0:0|0:0,0:0:0:0:
400,272,103637,2,0,P|408:316|400:348,1,67.5000025749208,0|0,3:3|0:0,0:0:0:0:
208,292,103928,6,0,B|181:298|181:298|197:226,1,101.250003862381,2|0,0:0|0:0,0:0:0:0:
188,220,104219,2,0,P|148:224|112:208,1,67.5000025749208,8|0,0:0|3:0,0:0:0:0:
16,100,104510,2,0,L|104:88,1,67.5000025749208,2|0,0:0|0:0,0:0:0:0:
268,36,104802,2,0,L|180:24,1,67.5000025749208,0|0,3:3|0:0,0:0:0:0:
208,136,105093,6,0,P|260:172|268:248,1,135.000005149842,2|8,0:0|0:0,0:0:0:0:
236,336,105530,1,0,3:0:0:0:
380,264,105675,2,0,B|412:252|412:252|472:256,1,67.5000025749208,2|0,0:0|0:0,0:0:0:0:
504,168,105967,1,0,3:3:0:0:
400,48,106112,1,0,0:0:0:0:
376,84,106258,6,0,B|364:104|364:128|364:128|360:128|360:128|364:128|364:128|364:152|376:176,2,101.250003862381,2|0|0,0:0|0:0|0:0,0:0:0:0:
220,212,106840,5,2,0:0:0:0:
368,188,106986,1,8,0:1:0:0:
280,128,107132,1,8,3:1:0:0:
304,276,107278,1,8,0:1:0:0:
152,284,107423,6,0,B|108:304|108:304|4:276,1,135.000005149842,6|8,0:0|0:0,0:0:0:0:
4,180,107860,1,0,3:0:0:0:
120,72,108005,2,0,P|152:62|185:62,1,67.5000025749208,2|0,0:0|0:0,0:0:0:0:
284,152,108297,2,0,P|251:161|218:161,1,67.5000025749208,0|0,3:3|0:0,0:0:0:0:
380,96,108588,6,0,B|380:124|404:148|404:148|372:196,1,101.250003862381,2|0,0:0|0:0,0:0:0:0:
368,188,108879,2,0,P|404:188|436:204,1,67.5000025749208,8|0,0:0|3:0,0:0:0:0:
324,324,109171,2,0,L|297:246,1,67.5000025749208,2|0,0:0|0:0,0:0:0:0:
460,288,109462,2,0,L|406:349,1,67.5000025749208,0|0,3:3|0:0,0:0:0:0:
232,336,109753,5,2,0:0:0:0:
204,248,109899,1,0,0:0:0:0:
140,312,110044,2,0,L|44:308,1,67.5000025749208,8|0,0:0|3:0,0:0:0:0:
0,196,110336,2,0,B|28:176|28:176|72:172,1,67.5000025749208,2|0,0:0|0:0,0:0:0:0:
168,56,110627,2,0,L|72:52,1,67.5000025749208,0|0,3:3|0:0,0:0:0:0:
184,188,110918,5,2,0:0:0:0:
344,132,111064,1,8,0:1:0:0:
275,89,111209,5,8,0:1:0:0:
244,256,111355,1,8,0:1:0:0:
244,256,111428,1,8,0:1:0:0:
248,260,111501,6,0,P|296:296|352:220,1,168.75,4|0,3:1|0:1,0:0:0:0:
364,232,111792,6,0,P|423:228|417:134,1,168.75,4|0,3:1|0:1,0:0:0:0:
436,128,112083,6,0,P|444:92|440:48,1,67.5000025749208,14|0,0:3|0:3,0:0:0:0:
320,16,112374,1,8,0:0:0:0:
328,60,112520,1,0,3:3:0:0:
232,180,112666,2,0,P|224:144|228:100,1,67.5000025749208,10|0,0:3|0:3,0:0:0:0:
336,236,112957,1,0,3:3:0:0:
176,352,113248,6,0,P|212:328|264:320,1,67.5000025749208,10|0,0:3|0:3,0:0:0:0:
84,264,113539,1,8,0:0:0:0:
88,308,113685,1,0,3:3:0:0:
32,172,113831,2,0,B|64:160|64:160|112:164,1,67.5000025749208,10|0,0:3|0:3,0:0:0:0:
164,64,114122,2,0,B|132:76|132:76|84:72,1,67.5000025749208,0|0,3:3|0:3,0:0:0:0:
260,24,114413,5,10,0:3:0:0:
312,104,114559,1,0,0:3:0:0:
408,48,114705,2,0,L|492:36,1,67.5000025749208,8|0,0:0|3:3,0:0:0:0:
368,180,114996,2,0,P|340:196|284:192,1,67.5000025749208,10|0,0:3|0:3,0:0:0:0:
424,64,115287,2,0,L|508:52,1,67.5000025749208,0|0,3:3|0:3,0:0:0:0:
384,196,115578,2,0,P|356:212|300:208,1,67.5000025749208,10|0,0:3|0:3,0:0:0:0:
176,188,115870,2,0,P|203:204|228:254,1,67.5000025749208,8|0,0:0|3:3,0:0:0:0:
96,308,116161,5,10,0:3:0:0:
223,232,116306,1,8,0:1:0:0:
108,232,116452,1,8,0:1:0:0:
237,303,116597,1,8,0:1:0:0:
368,236,116743,6,0,P|388:192|384:144,1,67.5000025749208,14|0,0:3|0:3,0:0:0:0:
312,68,117035,1,8,0:0:0:0:
352,76,117180,1,0,3:3:0:0:
216,28,117326,2,0,L|212:96,1,67.5000025749208,10|0,0:3|0:3,0:0:0:0:
148,172,117617,1,0,3:3:0:0:
40,300,117908,6,0,P|84:288|120:292,1,67.5000025749208,10|0,0:3|0:3,0:0:0:0:
224,268,118200,1,8,0:0:0:0:
208,308,118345,1,0,3:3:0:0:
336,272,118491,2,0,B|348:240|348:240|336:184,1,67.5000025749208,10|0,0:3|0:3,0:0:0:0:
228,124,118782,2,0,B|216:156|216:156|228:212,1,67.5000025749208,0|0,3:3|0:3,0:0:0:0:
328,96,119073,5,10,0:3:0:0:
420,136,119219,1,0,0:3:0:0:
492,68,119365,2,0,P|468:48|408:44,1,67.5000025749208,8|0,0:0|3:3,0:0:0:0:
312,124,119656,2,0,L|320:196,1,67.5000025749208,10|0,0:3|0:3,0:0:0:0:
480,88,119947,2,0,P|456:68|396:64,1,67.5000025749208,0|0,3:3|0:3,0:0:0:0:
284,136,120238,5,10,0:3:0:0:
272,272,120384,2,0,L|280:344,1,67.5000025749208,8|8,0:3|0:3,0:0:0:0:
172,252,120675,1,8,0:1:0:0:
172,252,120748,1,8,0:1:0:0:
172,252,120821,6,0,P|104:196|24:208,1,168.75,4|0,3:1|0:1,0:0:0:0:
20,208,121112,6,0,P|102:177|132:101,1,168.75,4|0,3:1|0:1,0:0:0:0:
128,96,121404,6,0,P|172:108|252:72,1,121.499996292114,12|8,0:3|0:1,0:0:0:0:
320,32,121986,2,0,P|296:72|296:112,1,80.9999975280763,8|8,0:3|0:1,0:0:0:0:
408,216,122569,2,0,P|372:188|284:200,1,121.499996292114,8|8,0:3|0:1,0:0:0:0:
236,252,123151,2,0,L|240:300,1,40.4999987640381,8|0,0:3|0:3,0:0:0:0:
160,352,123442,1,8,0:1:0:0:
128,336,123588,1,0,0:3:0:0:
96,320,123734,6,0,L|84:188,1,121.499996292114,8|8,0:3|0:1,0:0:0:0:
32,116,124316,2,0,L|124:104,1,80.9999975280763,8|8,0:3|0:1,0:0:0:0:
248,28,124899,2,0,L|240:160,1,121.499996292114,8|8,0:3|0:1,0:0:0:0:
316,216,125481,1,8,0:3:0:0:
332,184,125627,1,8,0:1:0:0:
424,144,125772,1,8,0:1:0:0:
440,176,125918,1,8,0:1:0:0:
400,272,126064,6,0,B|392:316|392:316|304:340,1,121.499996292114,8|8,0:3|0:1,0:0:0:0:
236,292,126646,2,0,B|192:296|192:296|160:336,1,80.9999975280763,8|8,0:3|0:1,0:0:0:0:
56,220,127229,2,0,B|124:216|124:216|164:176,1,121.499996292114,8|8,0:3|0:1,0:0:0:0:
196,88,127811,2,0,B|224:108|224:108|280:108,1,80.9999975280763,8|8,0:3|0:1,0:0:0:0:
408,52,128394,6,0,L|424:176,1,121.499996292114,8|8,0:3|0:1,0:0:0:0:
360,240,128976,2,0,P|404:204|432:204,1,80.9999975280763,8|8,0:3|0:1,0:0:0:0:
316,328,129559,1,8,0:3:0:0:
280,344,129705,1,8,0:1:0:0:
204,292,129850,1,8,0:1:0:0:
240,276,129996,1,8,0:1:0:0:
240,276,130069,1,8,0:1:0:0:
240,276,130141,6,0,L|208:120,1,135,4|0,3:1|0:1,0:0:0:0:
208,136,130433,2,0,L|100:256,1,135,4|0,3:1|0:1,0:0:0:0:
108,248,130724,6,0,P|52:228|32:152,1,135,6|8,3:3|3:1,0:0:0:0:
64,80,131306,2,0,P|104:96|152:84,1,90,10|8,3:3|3:1,0:0:0:0:
284,24,131889,2,0,P|304:60|304:80,1,45,10|0,3:3|3:3,0:0:0:0:
392,64,132180,2,0,P|384:104|371:119,1,45,0|8,3:3|3:1,0:0:0:0:
456,160,132472,2,0,P|424:185|404:189,1,45,10|0,3:3|3:3,0:0:0:0:
436,280,132763,1,8,3:1:0:0:
392,288,132908,1,0,3:3:0:0:
344,296,133054,6,0,L|204:280,1,135,10|8,3:3|3:1,0:0:0:0:
112,248,133637,2,0,L|204:236,1,90,10|8,3:3|3:1,0:0:0:0:
256,88,134219,2,0,B|248:60|248:60|232:52,1,45,10|0,3:3|3:3,0:0:0:0:
160,100,134510,2,0,B|168:128|168:128|184:136,1,45,0|8,3:3|3:1,0:0:0:0:
272,184,134802,1,10,3:3:0:0:
320,164,134947,1,8,3:1:0:0:
404,216,135093,1,8,3:1:0:0:
397,267,135238,1,8,3:1:0:0:
292,288,135384,5,10,3:3:0:0:
280,316,135530,1,0,3:3:0:0:
116,296,135675,2,0,L|96:236,1,45,10|0,3:3|3:3,0:0:0:0:
216,240,135967,1,10,3:3:0:0:
192,328,136112,1,0,3:3:0:0:
64,228,136258,2,0,L|76:166,1,45,10|0,3:3|3:3,0:0:0:0:
200,120,136549,5,10,3:3:0:0:
200,120,136622,1,8,3:3:0:0:
200,120,136695,1,8,3:3:0:0:
292,104,136840,5,10,3:3:0:0:
292,104,136913,1,8,3:3:0:0:
292,104,136986,1,8,3:3:0:0:
376,84,137132,6,0,L|380:60,6,22.5,10|8|8|8|10|8|8,3:3|3:3|3:3|3:3|3:3|3:3|3:3,0:0:0:0:
440,148,137714,6,0,L|436:172,2,22.5,2|0|2,0:0|0:0|0:0,0:0:0:0:
440,148,138297,6,0,L|436:172,2,22.5,2|0|2,0:0|0:0|0:0,0:0:0:0:
368,224,138879,6,0,L|364:248,3,22.5,2|0|2|0,0:0|0:0|0:0|0:0,0:0:0:0:
344,328,139462,6,0,L|320:324,1,22.5,4|0,0:0|0:0,0:0:0:0:
108,280,139753,2,0,L|132:276,1,22.5,4|0,0:0|0:0,0:0:0:0:
332,116,140044,6,0,B|276:128|276:128|236:172|236:172|168:184,1,180,4|2,0:0|3:3,0:0:0:0:
332,116,143539,6,0,L|416:112,1,78.75,2|0,3:3|0:3,0:0:0:0:
424,108,144122,5,0,3:3:0:0:
400,256,144268,1,0,3:3:0:0:
460,96,144413,5,0,3:3:0:0:
436,244,144559,1,0,3:3:0:0:
496,84,144705,6,0,B|500:16|500:16|388:24,1,180,4|2,0:0|3:3,0:0:0:0:
376,48,147035,5,0,0:3:0:0:
364,72,147180,1,0,0:3:0:0:
352,96,147326,2,0,L|268:100,1,67.5000025749208,0|0,0:3|0:3,0:0:0:0:
192,164,147908,2,0,L|108:168,1,67.5000025749208,0|8,0:3|3:1,0:0:0:0:
32,104,148345,1,8,0:1:0:0:
104,192,148491,1,8,0:1:0:0:
52,296,148637,1,8,0:1:0:0:
52,296,148709,1,8,0:1:0:0:
52,296,148782,6,0,P|128:296|208:368,1,168.75,4|0,3:1|0:1,0:0:0:0:
212,352,149073,6,0,P|280:292|400:280,1,168.75,4|0,3:1|0:1,0:0:0:0:
368,276,149365,6,0,L|356:204,1,67.5000025749208,14|0,0:3|0:3,0:0:0:0:
256,108,149656,1,8,0:0:0:0:
244,148,149802,1,0,3:3:0:0:
136,252,149947,2,0,L|124:185,1,67.5000025749208,10|0,0:3|0:3,0:0:0:0:
52,112,150238,1,0,3:3:0:0:
208,32,150530,6,0,P|244:16|296:28,1,67.5000025749208,10|0,0:3|0:3,0:0:0:0:
392,76,150821,1,8,0:0:0:0:
344,104,150967,1,0,3:3:0:0:
428,248,151112,2,0,B|428:208|428:208|404:168,1,67.5000025749208,10|0,0:3|0:3,0:0:0:0:
328,292,151404,2,0,B|328:332|328:332|352:372,1,67.5000025749208,0|0,3:3|0:3,0:0:0:0:
236,220,151695,5,10,0:3:0:0:
148,180,151840,1,0,0:3:0:0:
172,80,151986,2,0,P|132:76|80:100,1,67.5000025749208,8|0,0:0|3:3,0:0:0:0:
292,116,152277,2,0,L|376:108,1,67.5000025749208,10|0,0:3|0:3,0:0:0:0:
160,56,152569,2,0,P|120:56|68:76,1,67.5000025749208,0|0,3:3|0:3,0:0:0:0:
276,144,152860,2,0,L|360:136,1,67.5000025749208,10|0,0:3|0:3,0:0:0:0:
152,24,153151,2,0,P|112:24|60:44,1,67.5000025749208,8|0,0:0|3:3,0:0:0:0:
256,176,153442,5,10,0:3:0:0:
280,12,153588,1,8,0:1:0:0:
184,116,153734,1,8,3:1:0:0:
352,72,153880,1,8,0:1:0:0:
336,232,154025,6,0,P|304:264|256:272,1,67.5000025749208,14|0,0:3|0:3,0:0:0:0:
148,232,154316,1,8,0:0:0:0:
156,272,154462,1,0,3:3:0:0:
44,184,154607,2,0,L|48:112,1,67.5000025749208,10|0,0:3|0:3,0:0:0:0:
120,28,154899,1,0,3:3:0:0:
288,80,155190,6,0,L|291:147,1,67.5000025749208,10|0,0:3|0:3,0:0:0:0:
420,176,155481,1,8,0:0:0:0:
412,216,155627,1,0,3:3:0:0:
280,296,155772,2,0,B|316:288|316:288|376:300,1,67.5000025749208,10|0,0:3|0:3,0:0:0:0:
184,328,156064,2,0,B|148:336|148:336|88:324,1,67.5000025749208,0|0,3:3|0:3,0:0:0:0:
48,212,156355,5,10,0:3:0:0:
108,132,156501,1,0,0:3:0:0:
188,184,156646,2,0,L|268:172,1,67.5000025749208,8|0,0:0|3:3,0:0:0:0:
368,68,156938,2,0,B|344:56|344:56|284:68,1,67.5000025749208,10|0,0:3|0:3,0:0:0:0:
212,212,157229,2,0,L|292:200,1,67.5000025749208,0|0,3:3|0:3,0:0:0:0:
396,48,157520,5,10,0:3:0:0:
496,136,157666,2,0,L|488:208,1,67.5000025749208,8|8,0:3|0:3,0:0:0:0:
396,300,157957,1,8,0:1:0:0:
396,300,158030,1,8,0:1:0:0:
396,300,158103,6,0,B|304:280|304:280|204:300,1,168.75,4|0,3:1|0:1,0:0:0:0:
216,296,158394,2,0,B|146:232|146:232|49:200,1,168.75,4|0,3:1|0:1,0:0:0:0:
256,192,158685,12,0,161015,0:0:0:0:
