osu file format v14

[General]
AudioFilename: audio.mp3
AudioLeadIn: 0
PreviewTime: 44526
Countdown: 0
SampleSet: Soft
StackLeniency: 0.4
Mode: 0
LetterboxInBreaks: 0
WidescreenStoryboard: 0

[Editor]
Bookmarks: 317,9637,18957,28278,37598,46918,56239,65559,74880,84200,93520,102841,112161,121482,130802,140122,149443,158617
DistanceSpacing: 1.8
BeatDivisor: 8
GridSize: 32
TimelineZoom: 2.3

[Metadata]
Title:Bomb Bomb
TitleUnicode:밤밤
Artist:KARD
ArtistUnicode:KARD
Creator:DeRandom Otaku
Version:Xenon's Insane
Source:
Tags:kpop k-pop K.A.R.D 전지우 Jiwoo 전소민 Somin 매튜김 B.M 김태형 J.Seph DSP Media xenon- xehn kowari agatsu deppyforce Ren
BeatmapID:2087405
BeatmapSetID:950639

[Difficulty]
HPDrainRate:5
CircleSize:4.2
OverallDifficulty:7.5
ApproachRate:9
SliderMultiplier:2
SliderTickRate:1

[Events]
//Background and Video events
0,0,"bg.jpg",0,0
//Break Periods
2,65697,74218
//Storyboard Layer 0 (Background)
//Storyboard Layer 1 (Fail)
//Storyboard Layer 2 (Pass)
//Storyboard Layer 3 (Foreground)
//Storyboard Layer 4 (Overlay)
//Storyboard Sound Samples

[TimingPoints]
255,582.52427184466,4,1,0,40,1,0
255,-125,4,1,0,40,0,0
4915,-125,4,2,0,50,0,0
7245,-125,4,2,0,55,0,0
8410,-100,4,2,0,68,0,0
8992,-71.4285714285714,4,2,0,68,0,0
9575,-83.3333333333333,4,2,0,70,0,0
18313,-62.5,4,2,0,70,0,0
18895,-71.4285714285714,4,2,0,70,0,0
27633,-62.5,4,2,0,70,0,0
28216,-100,4,2,0,50,0,0
36953,-86.9565217391304,4,2,0,50,0,0
37245,-76.9230769230769,4,2,0,50,0,0
37536,-71.4285714285714,4,2,0,50,0,0
42196,-71.4285714285714,4,2,0,65,0,0
44526,-83.3333333333333,4,2,0,25,0,0
46856,-62.5,4,2,0,80,0,1
51662,-62.5,4,2,0,5,0,1
51808,-62.5,4,2,0,80,0,1
56177,-62.5,4,2,0,85,0,1
65497,-100,4,2,0,52,0,0
74818,-83.3333333333333,4,2,0,52,0,0
84138,-100,4,2,0,50,0,0
92876,-86.9565217391304,4,2,0,50,0,0
93167,-76.9230769230769,4,2,0,50,0,0
93458,-71.4285714285714,4,2,0,50,0,0
98118,-71.4285714285714,4,2,0,65,0,0
100448,-71.4285714285714,4,2,0,25,0,0
100449,-83.3333333333333,4,2,0,25,0,0
102778,-83.3333333333333,4,2,0,80,0,0
102779,-62.5,4,2,0,80,0,1
107584,-62.5,4,2,0,5,0,1
107730,-62.5,4,2,0,80,0,1
112099,-62.5,4,2,0,85,0,1
121420,-83.3333333333333,4,2,0,60,0,0
130157,-71.4285714285714,4,2,0,60,0,0
130740,-71.4285714285714,4,2,0,65,0,0
137730,-83.3333333333333,4,2,0,25,0,0
139478,-83.3333333333333,4,2,0,60,0,0
140060,-83.3333333333333,4,2,0,75,0,0
140352,-83.3333333333333,4,2,0,55,0,0
144866,-83.3333333333333,4,2,0,5,0,0
145012,-83.3333333333333,4,2,0,55,0,0
148216,-83.3333333333333,4,2,0,65,0,0
148798,-62.5,4,2,0,65,0,0
149381,-62.5,4,2,0,85,0,1
158119,-55.5555555555556,4,2,0,85,0,1
158410,-71.4285714285714,4,2,0,52,0,0

[Colours]
Combo1 : 145,72,72
Combo2 : 255,128,64
Combo3 : 255,128,128
Combo4 : 255,45,45

[HitObjects]
45,64,255,6,0,B|82:87|82:87|73:162,2,120,2|8|2,0:2|0:2|0:2,0:0:0:0:
127,226,1420,6,0,L|206:216,1,80,2|0,0:2|0:2,0:0:0:0:
273,166,1856,1,8,0:2:0:0:
273,166,2002,2,0,P|288:202|284:241,1,80,8|8,0:2|0:2,0:0:0:0:
352,384,2585,6,0,B|359:325|359:325|357:323|357:323|364:265,2,120,2|8|0,0:2|0:2|0:2,0:0:0:0:
441,241,3750,6,0,L|431:162,1,80,2|0,0:2|0:2,0:0:0:0:
381,95,4187,2,0,P|417:80|456:84,2,80,8|2|2,0:2|0:2|0:2,0:0:0:0:
349,171,4915,6,0,B|356:112|356:112|354:110|354:110|361:52,2,120,2|2|2,0:2|0:2|0:2,0:0:0:0:
286,22,6080,6,0,L|207:32,1,80,2|0,0:2|0:2,0:0:0:0:
129,6,6516,1,8,0:2:0:0:
129,6,6662,2,0,P|124:45|140:82,1,80,2|8,0:2|0:2,0:0:0:0:
244,211,7245,6,0,B|207:188|207:188|216:113,2,120,2|2|0,0:2|0:2|0:2,0:0:0:0:
279,64,8410,5,8,0:2:0:0:
399,119,8555,1,8,0:2:0:0:
329,5,8701,1,8,0:2:0:0:
319,136,8847,1,8,0:2:0:0:
320,149,8920,1,8,0:2:0:0:
322,163,8992,6,0,P|244:196|255:259,1,139.999995727539,4|4,1:3|1:3,0:0:0:0:
33,288,9575,6,0,B|89:263|89:263|132:306,1,119.999996337891,2|0,1:2|0:2,0:0:0:0:
71,357,10012,1,0,0:2:0:0:
142,303,10157,2,0,L|201:310,2,59.9999981689454,2|2|0,1:2|0:0|0:2,0:0:0:0:
39,198,10740,6,0,L|23:70,1,119.999996337891,2|0,1:2|0:2,0:0:0:0:
87,29,11177,1,0,0:2:0:0:
145,137,11322,2,0,L|152:77,2,59.9999981689454,2|2|0,1:2|0:0|1:2,0:0:0:0:
317,32,11905,6,0,P|259:36|231:87,1,119.999996337891,2|0,1:2|0:2,0:0:0:0:
295,136,12342,1,0,0:2:0:0:
404,134,12488,2,0,B|346:141|346:141|344:139|344:139|285:146,1,119.999996337891,2|2,1:2|0:2,0:0:0:0:
223,249,12924,1,2,0:2:0:0:
299,224,13070,5,2,1:2:0:0:
306,231,13361,2,0,L|298:294,1,59.9999981689454,2|0,0:2|0:2,0:0:0:0:
394,384,13653,1,2,1:2:0:0:
376,306,13798,1,8,0:2:0:0:
512,274,13944,1,0,0:2:0:0:
453,328,14089,1,8,0:2:0:0:
436,250,14235,6,0,B|399:227|399:227|408:152,1,120,2|0,1:2|0:2,0:0:0:0:
482,185,14672,1,0,0:2:0:0:
453,86,14818,2,0,P|448:56|461:30,2,59.9999981689454,2|2|0,1:2|0:0|0:2,0:0:0:0:
323,215,15400,6,0,B|267:190|267:190|224:233,1,119.999996337891,2|0,1:2|0:2,0:0:0:0:
285,284,15837,1,0,0:2:0:0:
216,365,15983,2,0,P|220:335|207:309,2,59.9999981689454,2|2|0,1:2|0:0|1:2,0:0:0:0:
26,227,16565,6,0,P|82:215|106:162,1,119.999996337891,2|0,1:2|0:2,0:0:0:0:
174,120,17002,1,0,0:2:0:0:
69,91,17148,2,0,B|125:66|125:66|167:108,1,119.999996337891,2|2,1:2|0:2,0:0:0:0:
185,185,17585,1,2,0:2:0:0:
216,48,17730,5,10,1:2:0:0:
263,169,17876,1,8,0:2:0:0:
224,35,18021,1,10,0:2:0:0:
327,122,18167,1,8,0:2:0:0:
340,121,18240,1,8,0:2:0:0:
354,119,18313,6,0,B|453:105|400:172|500:158,1,160,4|4,1:3|1:3,0:0:0:0:
266,72,18895,6,0,P|202:94|182:159,1,139.999995727539,2|2,1:2|0:2,0:0:0:0:
255,192,19332,1,0,0:2:0:0:
131,240,19478,2,0,P|165:234|197:255,1,69.9999978637696,2|0,1:2|0:2,0:0:0:0:
178,331,19769,2,0,P|143:336|112:316,1,69.9999978637696,2|0,0:2|0:2,0:0:0:0:
257,307,20060,6,0,B|344:294|297:353|385:341,1,139.999995727539,2|2,1:2|0:2,0:0:0:0:
458,374,20497,1,0,0:2:0:0:
424,272,20643,2,0,L|434:184,1,69.9999978637696,2|0,1:2|0:0,0:0:0:0:
489,145,20934,1,0,1:2:0:0:
497,153,21225,6,0,P|440:121|372:147,1,139.999995727539,2|2,1:2|0:2,0:0:0:0:
365,224,21662,1,0,0:2:0:0:
298,128,21808,2,0,B|268:109|268:109|234:120,1,69.9999978637696,2|0,1:2|0:2,0:0:0:0:
225,200,22099,2,0,B|254:218|254:218|288:207,1,69.9999978637696,2|0,0:2|0:2,0:0:0:0:
154,122,22390,6,0,P|218:100|238:35,1,139.999995727539,2|2,1:2|0:2,0:0:0:0:
165,2,22827,1,0,0:2:0:0:
26,14,22973,1,2,1:2:0:0:
99,48,23119,1,8,0:2:0:0:
34,95,23264,2,0,L|43:174,1,69.9999978637696,0|8,0:2|0:2,0:0:0:0:
168,200,23555,5,2,1:2:0:0:
33,246,23701,2,0,B|120:258|73:199|161:211,1,139.999995727539,2|0,0:2|0:2,0:0:0:0:
221,263,24138,1,2,0:2:0:0:
344,29,24721,5,2,1:2:0:0:
479,75,24867,2,0,B|392:87|439:28|351:40,1,139.999995727539,2|0,0:2|0:2,0:0:0:0:
291,92,25304,1,2,0:2:0:0:
512,275,25886,6,0,P|448:253|428:188,1,139.999995727539,10|0,0:2|0:2,0:0:0:0:
501,155,26323,1,0,0:2:0:0:
390,119,26468,2,0,L|320:126,1,69.9999978637696,2|2,1:2|0:2,0:0:0:0:
308,48,26759,2,0,L|377:40,1,69.9999978637696,2|2,0:2|0:2,0:0:0:0:
312,135,27051,5,10,0:2:0:0:
238,12,27196,1,10,0:2:0:0:
382,31,27342,1,10,0:2:0:0:
244,91,27488,1,8,0:2:0:0:
231,90,27561,1,8,0:2:0:0:
217,88,27633,6,0,P|157:108|161:185,1,120,4|0,1:3|0:0,0:0:0:0:
141,169,27924,1,4,1:3:0:0:
388,289,28216,6,0,B|379:215|379:215|382:212|382:212|373:139,1,150,6|2,0:2|0:2,0:0:0:0:
415,73,28798,1,2,0:2:0:0:
115,351,29963,5,2,0:2:0:0:
166,289,30109,2,0,B|124:262|124:262|76:277,1,100,2|0,0:2|0:2,0:0:0:0:
36,347,30546,6,0,P|46:276|54:198,1,150,2|0,0:2|0:2,0:0:0:0:
92,128,31128,5,2,0:2:0:0:
138,193,31274,2,0,L|124:86,1,100,2|0,0:2|0:2,0:0:0:0:
205,97,31711,5,2,0:2:0:0:
166,23,31857,2,0,B|214:8|214:8|256:35,1,100,2|0,0:2|0:2,0:0:0:0:
289,107,32293,5,2,0:2:0:0:
335,42,32439,2,0,L|321:149,1,100,2|0,0:2|0:2,0:0:0:0:
262,195,32876,6,0,P|298:177|331:180,2,75,2|2|2,0:2|0:2|0:2,0:0:0:0:
231,269,33458,2,0,P|198:246|184:216,2,75,2|2|2,0:2|0:2|0:2,0:0:0:0:
311,259,34041,2,0,P|307:299|288:326,2,75,2|2|2,0:2|0:2|0:2,0:0:0:0:
262,195,34623,2,0,L|276:88,1,100,2|0,0:2|3:2,0:0:0:0:
116,211,35206,6,0,P|152:228|185:225,2,75,2|2|2,0:2|0:2|0:2,0:0:0:0:
85,137,35788,2,0,P|52:160|38:189,2,75,2|2|2,0:2|0:2|0:2,0:0:0:0:
165,147,36371,2,0,P|161:106|142:79,2,75,2|2|2,0:2|0:2|0:2,0:0:0:0:
116,211,36954,6,0,L|125:280,1,57.5000010967255,2|0,0:2|0:0,0:0:0:0:
192,310,37245,2,0,L|182:379,1,64.9999970245363,2|0,0:2|0:0,0:0:0:0:
261,269,37536,6,0,B|348:257|301:316|389:304,1,139.999995727539,14|0,0:2|0:2,0:0:0:0:
465,322,37973,1,2,0:2:0:0:
378,226,38119,2,0,L|385:156,1,69.9999978637696,10|0,0:2|0:0,0:0:0:0:
424,87,38410,2,0,B|394:68|394:68|360:79,1,69.9999978637696,0|0,0:2|0:0,0:0:0:0:
299,29,38701,6,0,P|326:92|269:142,1,139.999995727539,8|0,0:2|0:2,0:0:0:0:
226,84,39138,1,0,0:2:0:0:
248,212,39284,2,0,B|239:144|239:144|242:142|242:142|234:74,1,139.999995727539,10|0,0:2|0:2,0:0:0:0:
180,254,39866,5,10,0:2:0:0:
306,297,40012,2,0,B|273:286|273:286|243:305,2,69.9999978637696,2|0|0,0:2|0:2|0:2,0:0:0:0:
287,374,40449,5,10,0:2:0:0:
147,371,40594,2,0,B|179:360|179:360|209:379,2,69.9999978637696,2|0|0,0:2|0:2|0:2,0:0:0:0:
92,313,41031,5,10,0:2:0:0:
158,211,41177,2,0,L|166:280,2,69.9999978637696,2|0|0,0:2|0:2|0:2,0:0:0:0:
98,158,41614,5,10,0:2:0:0:
230,183,41759,2,0,P|249:155|246:121,1,69.9999978637696,2|0,0:2|0:2,0:0:0:0:
195,60,42051,1,2,0:2:0:0:
318,82,42196,6,0,P|362:137|357:205,1,139.999995727539,10|10,0:2|0:2,0:0:0:0:
287,240,42633,1,2,0:2:0:0:
423,255,42779,6,0,L|414:324,1,69.9999978637696,10|2,0:2|0:2,0:0:0:0:
281,384,43070,1,10,0:2:0:0:
339,301,43216,1,2,0:2:0:0:
216,297,43361,6,0,L|220:331,2,34.9999989318848,10|2|2,0:2|0:2|0:2,0:0:0:0:
155,244,43653,1,10,0:2:0:0:
157,231,43725,1,2,0:2:0:0:
158,217,43798,1,2,0:2:0:0:
218,165,43944,6,0,L|213:130,3,34.9999989318848,10|2|10|2,0:2|0:2|0:2|0:2,0:0:0:0:
206,123,44235,2,0,L|171:118,1,34.9999989318848,10|2,0:2|0:2,0:0:0:0:
114,51,44381,2,0,L|148:46,1,34.9999989318848,10|2,0:2|0:2,0:0:0:0:
226,48,44526,6,0,B|252:31|252:31|279:41,2,59.9999981689454,2|2|2,0:2|0:2|0:2,0:0:0:0:
387,108,45109,2,0,B|362:92|362:92|334:101,2,59.9999981689454,2|2|2,0:2|0:2|0:2,0:0:0:0:
500,172,45691,6,0,B|463:149|463:149|472:74,2,119.999996337891,2|2|2,0:2|0:2|0:2,0:0:0:0:
333,101,46565,1,2,0:2:0:0:
444,231,46856,6,0,B|344:216|398:283|298:269,1,160,4|10,1:2|0:2,0:0:0:0:
176,334,47293,1,10,0:2:0:0:
253,201,47439,2,0,P|221:178|182:183,1,80,2|0,1:2|0:2,0:0:0:0:
75,276,47730,2,0,P|106:253|145:258,1,80,10|0,0:2|0:2,0:0:0:0:
93,93,48021,6,0,L|104:188,1,80,2|0,1:2|0:2,0:0:0:0:
169,66,48313,1,10,0:2:0:0:
27,46,48458,1,10,0:2:0:0:
169,80,48604,2,0,P|244:89|255:168,1,160,2|10,1:2|1:2,0:0:0:0:
444,28,49187,6,0,P|369:17|338:90,1,160,0|10,1:2|0:2,0:0:0:0:
421,201,49623,1,10,0:2:0:0:
277,178,49769,2,0,B|310:157|310:157|350:169,1,80,2|0,1:2|0:2,0:0:0:0:
452,301,50060,2,0,B|418:280|418:280|378:292,1,80,10|0,0:2|0:2,0:0:0:0:
223,290,50352,5,2,1:2:0:0:
316,347,50497,1,0,0:0:0:0:
296,256,50643,2,0,L|307:351,1,80,10|10,0:2|0:2,0:0:0:0:
360,203,50934,5,10,0:2:0:0:
222,274,51080,1,10,0:2:0:0:
362,216,51225,1,10,0:2:0:0:
236,197,51371,1,10,0:2:0:0:
364,226,51517,6,0,B|408:195|408:195|394:85,1,160,4|10,1:2|0:2,0:0:0:0:
457,0,51954,1,10,0:2:0:0:
328,42,52099,2,0,P|289:37|257:60,1,80,2|0,1:2|0:2,0:0:0:0:
417,113,52390,2,0,P|455:108|487:131,1,80,10|0,0:2|0:2,0:0:0:0:
345,202,52682,6,0,L|335:122,1,80,2|0,1:2|0:0,0:0:0:0:
246,52,52973,1,10,0:2:0:0:
366,49,53119,1,10,0:2:0:0:
259,133,53264,2,0,P|184:142|173:221,1,160,2|10,1:2|1:2,0:0:0:0:
99,68,53847,6,0,B|132:47|132:47|172:59,1,80,2|2,1:2|0:2,0:0:0:0:
79,145,54138,2,0,L|88:224,1,80,10|8,0:2|0:2,0:0:0:0:
226,291,54429,6,0,P|194:268|155:273,1,80,2|0,1:2|0:2,0:0:0:0:
2,174,54721,2,0,P|33:151|72:156,1,80,10|0,0:2|0:0,0:0:0:0:
79,298,55012,5,10,1:2:0:0:
148,190,55157,1,8,0:2:0:0:
141,350,55303,1,10,0:2:0:0:
216,234,55449,1,8,0:2:0:0:
217,248,55522,1,8,0:2:0:0:
219,261,55594,6,0,P|279:281|275:358,1,120,4|0,1:3|0:0,0:0:0:0:
295,342,55885,1,4,1:3:0:0:
437,235,56177,6,0,B|394:191|394:191|337:211,1,120,6|0,1:2|0:0,0:0:0:0:
334,224,56468,1,10,0:2:0:0:
382,115,56614,1,8,0:2:0:0:
262,183,56759,2,0,L|274:79,1,80,2|0,1:2|0:0,0:0:0:0:
378,24,57051,2,0,L|387:103,1,80,8|0,0:2|0:2,0:0:0:0:
200,66,57342,5,2,1:2:0:0:
300,29,57488,1,2,0:2:0:0:
209,78,57633,2,0,B|176:57|176:57|136:69,1,80,10|8,0:2|0:2,0:0:0:0:
24,36,57924,2,0,P|99:44|120:117,1,160,2|8,1:2|1:2,0:0:0:0:
199,304,58507,6,0,B|191:246|191:246|193:244|193:244|187:186,1,120,0|0,1:2|0:0,0:0:0:0:
178,177,58798,1,10,0:2:0:0:
115,272,58944,1,8,0:2:0:0:
264,188,59089,6,0,P|295:211|334:206,1,80,2|0,1:2|0:2,0:0:0:0:
393,263,59381,2,0,P|429:250|447:215,1,80,10|0,0:2|0:2,0:0:0:0:
352,127,59672,6,0,P|321:104|282:109,1,80,2|0,1:2|0:0,0:0:0:0:
278,1,59963,2,0,P|241:13|223:48,1,80,10|10,0:2|0:2,0:0:0:0:
112,161,60254,5,10,0:2:0:0:
204,127,60400,1,8,0:2:0:0:
100,148,60546,1,8,0:2:0:0:
213,141,60691,1,8,0:2:0:0:
183,261,60837,6,0,P|232:261|259:180,1,120,6|0,1:2|0:0,0:0:0:0:
271,193,61128,1,10,0:2:0:0:
318,293,61274,1,8,0:2:0:0:
425,229,61420,2,0,L|345:219,1,80,2|0,1:2|0:0,0:0:0:0:
285,375,61711,2,0,L|364:365,1,80,8|0,0:2|0:2,0:0:0:0:
494,274,62002,5,2,1:2:0:0:
441,383,62148,1,2,0:2:0:0:
420,239,62293,2,0,P|414:200|437:168,1,80,10|8,0:2|0:2,0:0:0:0:
300,122,62585,2,0,B|400:107|346:174|446:160,1,160,2|8,1:2|1:2,0:0:0:0:
233,314,63167,6,0,B|241:256|241:256|239:254|239:254|245:196,1,120,0|0,1:2|0:0,0:0:0:0:
254,187,63458,1,10,0:2:0:0:
317,282,63604,1,8,0:2:0:0:
401,215,63750,6,0,P|362:220|330:197,1,80,2|0,1:2|0:2,0:0:0:0:
355,74,64041,2,0,P|393:68|425:91,1,80,10|0,0:2|0:2,0:0:0:0:
288,132,64332,5,10,1:2:0:0:
247,0,64478,1,8,0:2:0:0:
293,122,64623,1,10,0:2:0:0:
171,28,64769,1,8,0:2:0:0:
170,42,64842,1,8,0:2:0:0:
168,55,64915,6,0,P|108:75|112:152,1,120,4|0,1:3|0:0,0:0:0:0:
92,136,65206,1,4,1:3:0:0:
236,9,65497,5,4,1:3:0:0:
85,85,74818,6,0,P|141:91|160:145,1,119.999996337891,4|0,1:2|0:0,0:0:0:0:
206,209,75254,1,0,1:2:0:0:
239,106,75400,2,0,B|297:112|297:112|298:110|298:110|355:117,1,119.999996337891,10|2,0:2|1:2,0:0:0:0:
321,275,75983,6,0,P|344:237|332:195,2,89.9999972534181,2|0|0,0:2|0:0|0:0,0:0:0:0:
242,265,76565,2,0,P|230:222|253:186,2,89.9999972534181,10|0|0,0:2|0:0|0:0,0:0:0:0:
272,341,77148,6,0,L|167:353,2,89.9999972534181,2|2|0,0:2|0:2|0:0,0:0:0:0:
321,275,77730,2,0,P|368:285|393:353,1,119.999996337891,10|2,0:2|0:2,0:0:0:0:
273,202,78313,6,0,L|377:189,2,89.9999972534181,2|0|0,0:2|0:0|0:0,0:0:0:0:
209,149,78895,2,0,P|165:170|158:242,1,119.999996337891,10|2,0:2|0:2,0:0:0:0:
356,147,79478,6,0,P|300:141|281:87,1,119.999996337891,0|0,1:2|0:0,0:0:0:0:
235,23,79914,1,0,1:2:0:0:
201,120,80060,2,0,B|178:83|178:83|116:93,2,89.9999972534181,10|2|2,0:2|0:2|0:0,0:0:0:0:
231,196,80643,6,0,P|243:239|220:275,2,89.9999972534181,2|2|2,0:2|0:0|0:0,0:0:0:0:
152,186,81225,2,0,P|129:224|141:266,2,89.9999972534181,10|2|2,0:2|0:0|0:2,0:0:0:0:
201,120,81808,6,0,L|306:108,2,89.9999972534181,2|0|0,0:2|0:0|0:0,0:0:0:0:
152,186,82390,2,0,L|47:174,2,89.9999972534181,10|0|0,0:2|0:0|0:0,0:0:0:0:
206,250,82973,6,0,P|194:292|217:329,2,89.9999972534181,2|0|0,0:2|0:0|0:0,0:0:0:0:
284,280,83555,2,0,B|343:272|343:272|344:274|344:274|402:268,1,119.999996337891,10|2,0:2|0:2,0:0:0:0:
206,250,84138,6,0,B|165:221|165:221|178:118,1,150,6|2,0:2|0:2,0:0:0:0:
242,74,84720,1,2,0:2:0:0:
446,322,85886,5,2,0:2:0:0:
497,260,86032,2,0,B|455:233|455:233|407:248,1,100,2|0,0:2|0:2,0:0:0:0:
354,189,86468,2,0,P|286:196|269:268,1,150,2|0,0:2|0:2,0:0:0:0:
238,341,87051,5,2,0:2:0:0:
187,279,87197,2,0,L|87:291,1,100,2|0,0:2|0:2,0:0:0:0:
49,221,87634,5,2,0:2:0:0:
14,149,87780,2,0,B|62:134|62:134|104:161,1,100,2|0,0:2|0:2,0:0:0:0:
171,203,88216,5,2,0:2:0:0:
235,156,88362,2,0,L|334:168,1,100,2|0,0:2|0:2,0:0:0:0:
401,212,88799,6,0,P|419:248|416:281,2,75,2|2|2,0:2|0:2|0:2,0:0:0:0:
405,132,89381,2,0,P|428:99|458:85,2,75,2|2|2,0:2|0:2|0:2,0:0:0:0:
334,168,89963,2,0,P|293:165|266:146,2,75,2|2|2,0:2|0:2|0:2,0:0:0:0:
401,212,90546,2,0,L|388:311,1,100,2|0,0:2|3:2,0:0:0:0:
214,202,91128,6,0,P|232:238|229:271,2,75,2|2|2,0:2|0:2|0:2,0:0:0:0:
218,122,91711,2,0,P|241:89|271:75,2,75,2|2|2,0:2|0:2|0:2,0:0:0:0:
147,158,92293,2,0,P|106:155|79:136,2,75,2|2|2,0:2|0:2|0:2,0:0:0:0:
214,202,92876,6,0,B|237:216|237:216|266:208,1,57.5000010967255,2|0,0:2|0:0,0:0:0:0:
324,264,93167,2,0,L|314:333,1,64.9999970245363,2|0,0:2|0:0,0:0:0:0:
379,374,93458,6,0,B|292:386|339:327|251:339,1,139.999995727539,14|0,0:2|0:2,0:0:0:0:
180,374,93895,1,2,0:2:0:0:
225,266,94041,2,0,L|218:196,1,69.9999978637696,10|0,0:2|0:0,0:0:0:0:
179,127,94332,2,0,B|209:108|209:108|243:119,1,69.9999978637696,0|0,0:2|0:0,0:0:0:0:
363,98,94623,6,0,P|300:71|250:128,1,139.999995727539,8|0,0:2|0:2,0:0:0:0:
308,171,95060,1,0,0:2:0:0:
326,297,95206,2,0,B|317:229|317:229|320:227|320:227|312:159,1,139.999995727539,10|0,0:2|0:2,0:0:0:0:
0,168,95788,5,10,0:2:0:0:
126,211,95934,2,0,B|93:200|93:200|63:219,2,69.9999978637696,2|0|0,0:2|0:2|0:2,0:0:0:0:
102,285,96371,5,10,0:2:0:0:
203,231,96516,2,0,B|214:199|214:199|195:169,2,69.9999978637696,2|0|0,0:2|0:2|0:2,0:0:0:0:
178,305,96953,5,10,0:2:0:0:
292,361,97099,2,0,L|223:369,2,69.9999978637696,2|0|0,0:2|0:2|0:2,0:0:0:0:
343,301,97536,5,10,0:2:0:0:
258,195,97681,2,0,P|254:229|273:257,1,69.9999978637696,2|0,0:2|0:2,0:0:0:0:
346,288,97973,1,2,0:2:0:0:
444,217,98119,6,0,P|379:216|347:279,1,139.999995727539,10|10,0:2|0:2,0:0:0:0:
389,341,98555,1,2,0:2:0:0:
273,257,98701,6,0,L|204:266,1,69.9999978637696,10|2,0:2|0:2,0:0:0:0:
91,170,98992,1,10,0:2:0:0:
60,287,99138,1,2,0:2:0:0:
166,197,99283,6,0,L|170:163,2,34.9999989318848,10|2|2,0:2|0:2|0:2,0:0:0:0:
237,114,99575,1,10,0:2:0:0:
235,101,99647,1,2,0:2:0:0:
234,87,99720,1,2,0:2:0:0:
300,166,99866,6,0,L|305:201,3,34.9999989318848,10|2|10|2,0:2|0:2|0:2|0:2,0:0:0:0:
312,208,100157,2,0,L|347:212,1,34.9999989318848,10|2,0:2|0:2,0:0:0:0:
402,279,100303,2,0,L|367:283,1,34.9999989318848,10|2,0:2|0:2,0:0:0:0:
313,337,100449,6,0,B|286:347|286:347|259:330,2,59.9999981689454,2|2|2,0:2|0:2|0:2,0:0:0:0:
134,373,101031,2,0,B|159:357|159:357|187:366,2,59.9999981689454,2|2|2,0:2|0:2|0:2,0:0:0:0:
296,262,101614,6,0,B|304:203|304:203|302:201|302:201|309:143,2,119.999996337891,2|2|2,0:2|0:2|0:2,0:0:0:0:
190,366,102488,1,2,0:2:0:0:
224,158,102779,6,0,B|124:143|178:210|78:196,1,160,4|10,1:2|0:2,0:0:0:0:
5,295,103216,1,10,0:2:0:0:
156,282,103362,2,0,P|117:277|85:300,1,80,2|0,1:2|0:2,0:0:0:0:
2,168,103653,2,0,P|33:190|72:186,1,80,10|0,0:2|0:2,0:0:0:0:
142,47,103944,6,0,L|131:142,1,80,2|0,1:2|0:2,0:0:0:0:
240,245,104236,1,10,0:2:0:0:
212,135,104381,1,10,0:2:0:0:
225,256,104527,2,0,P|150:265|139:344,1,160,2|10,1:2|1:2,0:0:0:0:
291,204,105109,6,0,B|281:124|281:124|284:120|284:120|274:42,1,160,0|10,1:2|0:2,0:0:0:0:
377,0,105546,1,10,0:2:0:0:
437,126,105692,2,0,B|404:105|404:105|364:117,1,80,2|0,1:2|0:2,0:0:0:0:
195,47,105983,2,0,B|229:26|229:26|269:38,1,80,10|0,0:2|0:2,0:0:0:0:
107,182,106275,5,2,1:2:0:0:
200,125,106420,1,0,0:0:0:0:
180,216,106566,2,0,L|191:121,1,80,10|10,0:2|0:2,0:0:0:0:
369,78,106857,5,10,0:2:0:0:
231,7,107003,1,10,0:2:0:0:
372,65,107148,1,10,0:2:0:0:
245,84,107294,1,10,0:2:0:0:
373,55,107440,6,0,B|417:86|417:86|403:196,1,160,4|0,1:2|0:0,0:0:0:0:
458,323,107877,1,10,0:2:0:0:
358,258,108022,2,0,P|319:253|287:276,1,80,2|0,1:2|0:2,0:0:0:0:
176,178,108313,2,0,P|214:173|246:196,1,80,10|0,0:2|0:2,0:0:0:0:
216,351,108605,6,0,L|206:271,1,80,2|0,1:2|0:0,0:0:0:0:
99,165,108896,1,10,0:2:0:0:
128,285,109041,1,10,0:2:0:0:
87,176,109187,2,0,P|91:116|1:82,1,160,2|10,1:2|1:2,0:0:0:0:
179,351,109770,6,0,B|212:372|212:372|252:360,1,80,2|2,1:2|0:2,0:0:0:0:
159,274,110061,2,0,L|168:195,1,80,10|8,0:2|0:2,0:0:0:0:
306,128,110352,6,0,P|274:151|235:146,1,80,2|0,1:2|0:2,0:0:0:0:
82,245,110644,2,0,P|113:268|152:263,1,80,10|0,0:2|0:0,0:0:0:0:
159,121,110935,5,10,1:2:0:0:
228,229,111080,1,8,0:2:0:0:
221,69,111226,1,10,0:2:0:0:
296,185,111372,1,8,0:2:0:0:
297,171,111445,1,8,0:2:0:0:
299,158,111517,6,0,P|359:138|355:61,1,120,4|0,1:3|0:0,0:0:0:0:
375,77,111808,1,4,1:3:0:0:
127,188,112099,6,0,B|170:232|170:232|227:212,1,120,6|0,1:2|0:0,0:0:0:0:
230,199,112390,1,10,0:2:0:0:
182,308,112536,1,8,0:2:0:0:
299,249,112681,2,0,L|403:261,1,80,2|0,1:2|0:0,0:0:0:0:
317,113,112973,2,0,L|238:122,1,80,8|0,0:2|0:2,0:0:0:0:
94,157,113264,5,2,1:2:0:0:
194,194,113410,1,2,0:2:0:0:
103,145,113555,2,0,B|70:166|70:166|30:154,1,80,10|8,0:2|0:2,0:0:0:0:
124,65,113847,2,0,B|224:80|170:13|270:27,1,160,2|8,1:2|1:2,0:0:0:0:
320,204,114429,6,0,B|328:146|328:146|326:144|326:144|332:86,1,120,0|0,1:2|0:0,0:0:0:0:
341,77,114720,1,10,0:2:0:0:
404,172,114866,1,8,0:2:0:0:
245,244,115011,6,0,P|214:221|175:226,1,80,2|0,1:2|0:2,0:0:0:0:
165,122,115303,2,0,P|129:135|111:170,1,80,10|0,0:2|0:2,0:0:0:0:
312,131,115594,6,0,P|300:167|319:202,1,80,2|0,1:2|0:0,0:0:0:0:
457,152,115886,2,0,P|420:164|402:199,1,80,10|10,0:2|0:2,0:0:0:0:
318,282,116176,5,10,0:2:0:0:
410,316,116322,1,8,0:2:0:0:
306,295,116468,1,8,0:2:0:0:
419,302,116613,1,8,0:2:0:0:
251,350,116759,6,0,P|202:350|175:269,1,120,6|0,1:2|0:0,0:0:0:0:
163,282,117050,1,10,0:2:0:0:
116,382,117196,1,8,0:2:0:0:
17,299,117342,2,0,B|57:287|57:287|90:308,1,80,2|0,1:2|0:0,0:0:0:0:
186,204,117633,2,0,B|146:192|146:192|113:213,1,80,8|0,0:2|0:2,0:0:0:0:
243,263,117924,5,2,1:2:0:0:
217,131,118070,1,2,0:2:0:0:
344,166,118215,2,0,P|350:205|327:237,1,80,10|8,0:2|0:2,0:0:0:0:
464,283,118507,2,0,B|364:298|418:231|318:245,1,160,2|8,1:2|1:2,0:0:0:0:
276,68,119089,6,0,B|268:126|268:126|270:128|270:128|264:186,1,120,0|0,1:2|0:0,0:0:0:0:
255,195,119380,1,10,0:2:0:0:
192,100,119526,1,8,0:2:0:0:
108,167,119672,6,0,P|147:162|179:185,1,80,2|0,1:2|0:2,0:0:0:0:
154,308,119963,2,0,P|116:314|84:291,1,80,10|0,0:2|0:2,0:0:0:0:
221,250,120254,5,10,1:2:0:0:
262,382,120400,1,8,0:2:0:0:
216,260,120545,1,10,0:2:0:0:
338,354,120691,1,8,0:2:0:0:
339,340,120764,1,8,0:2:0:0:
341,327,120837,6,0,P|401:307|397:230,1,120,4|0,1:3|0:0,0:0:0:0:
417,246,121128,1,4,1:3:0:0:
273,373,121420,6,0,L|145:357,1,119.999996337891,8|0,0:2|0:2,0:0:0:0:
102,297,121856,1,2,0:2:0:0:
160,242,122002,2,0,P|169:186|223:168,1,119.999996337891,8|0,0:2|0:2,0:0:0:0:
448,341,122585,6,0,B|392:359|392:359|341:326,1,119.999996337891,8|0,0:2|0:2,0:0:0:0:
402,274,123021,1,0,0:2:0:0:
360,205,123167,1,8,0:2:0:0:
351,213,123458,2,0,L|358:149,1,59.9999981689454,2|2,0:2|0:2,0:0:0:0:
432,122,123750,6,0,L|304:137,1,119.999996337891,10|0,0:2|0:2,0:0:0:0:
247,90,124186,1,2,0:2:0:0:
199,154,124332,2,0,P|131:194|140:246,1,119.999996337891,8|0,0:2|0:2,0:0:0:0:
291,308,124915,6,0,B|254:285|254:285|263:210,1,119.999996337891,8|0,0:2|0:2,0:0:0:0:
326,160,125352,1,0,0:2:0:0:
241,49,125497,1,8,0:2:0:0:
252,129,125643,1,8,0:2:0:0:
389,111,125788,1,10,0:2:0:0:
315,80,125934,1,8,0:2:0:0:
252,129,126080,6,0,B|194:122|194:122|192:124|192:124|133:117,1,120,10|2,0:2|0:2,0:0:0:0:
73,64,126517,2,0,B|45:55|45:55|19:71,1,59.9999981689454,2|8,0:2|0:2,0:0:0:0:
58,141,126808,2,0,P|66:200|72:260,1,119.999996337891,2|0,0:2|0:2,0:0:0:0:
133,311,127245,5,10,0:2:0:0:
125,323,127536,2,0,B|150:339|150:339|178:330,1,59.9999981689454,2|2,0:2|0:2,0:0:0:0:
233,272,127827,1,8,0:2:0:0:
259,347,127973,2,0,B|287:338|287:338|312:354,2,59.9999981689454,2|0|2,0:2|0:2|0:2,0:0:0:0:
233,272,128410,6,0,L|248:144,1,119.999996337891,8|0,0:2|0:2,0:0:0:0:
309,102,128847,1,0,0:2:0:0:
235,72,128992,2,0,B|179:54|179:54|128:87,1,119.999996337891,8|0,0:2|0:2,0:0:0:0:
359,96,129575,5,8,0:2:0:0:
239,151,129720,1,8,0:2:0:0:
309,37,129866,1,8,0:2:0:0:
319,168,130012,1,8,0:2:0:0:
317,181,130085,1,8,0:2:0:0:
316,195,130157,6,0,P|394:228|383:291,1,139.999995727539,4|4,1:3|1:3,0:0:0:0:
252,124,130740,6,0,B|164:110|211:169|124:157,1,139.999995727539,14|0,0:2|0:2,0:0:0:0:
56,198,131177,1,2,0:2:0:0:
170,246,131322,2,0,B|137:235|137:235|107:254,1,69.9999978637696,8|0,0:2|0:0,0:0:0:0:
151,322,131614,1,0,0:2:0:0:
317,140,131905,6,0,B|249:121|249:121|199:168,1,139.999995727539,8|0,0:2|0:2,0:0:0:0:
271,209,132342,1,0,0:2:0:0:
188,166,132488,2,0,L|118:174,1,69.9999978637696,8|0,0:2|0:2,0:0:0:0:
15,127,132779,1,2,0:2:0:0:
52,216,132924,1,2,0:2:0:0:
90,100,133070,6,0,B|158:91|158:91|161:94|161:94|228:86,1,139.999995727539,10|0,0:2|0:2,0:0:0:0:
279,25,133507,1,2,0:2:0:0:
381,84,133653,2,0,P|305:112|304:172,1,139.999995727539,10|10,0:2|0:2,0:0:0:0:
170,212,134235,6,0,B|258:198|210:257|298:245,1,139.999995727539,8|0,0:2|0:2,0:0:0:0:
356,299,134672,1,0,0:2:0:0:
451,196,134818,1,8,0:2:0:0:
374,220,134964,1,8,0:2:0:0:
415,353,135109,1,8,0:2:0:0:
433,275,135254,1,8,0:2:0:0:
374,220,135400,6,0,P|357:155|292:141,1,139.999995727539,10|10,0:2|0:2,0:0:0:0:
244,204,135837,1,2,0:2:0:0:
252,75,135983,2,0,B|163:88|211:29|123:41,1,139.999995727539,10|10,0:2|0:2,0:0:0:0:
77,105,136420,1,2,0:2:0:0:
127,202,136565,6,0,L|123:168,2,34.9999989318848,10|2|2,0:2|0:2|0:2,0:0:0:0:
73,261,136857,1,10,0:2:0:0:
71,274,136929,1,2,0:2:0:0:
70,287,137002,1,2,0:2:0:0:
198,242,137148,6,0,L|233:237,3,34.9999989318848,10|2|10|2,0:2|0:2|0:2|0:2,0:0:0:0:
240,230,137439,2,0,L|244:195,1,34.9999989318848,10|2,0:2|0:2,0:0:0:0:
300,278,137585,2,0,L|304:313,1,34.9999989318848,10|2,0:2|0:2,0:0:0:0:
360,227,137730,6,0,B|387:217|387:217|412:233,2,59.9999981689454,2|2|2,0:2|0:2|0:2,0:0:0:0:
496,148,138313,2,0,B|469:138|469:138|444:154,2,59.9999981689454,2|2|2,0:2|0:2|0:2,0:0:0:0:
273,67,138895,6,0,B|300:57|300:57|325:73,1,59.9999981689454,2|2,0:2|0:2,0:0:0:0:
318,153,139187,2,0,B|291:163|291:163|266:147,1,59.9999981689454,2|2,0:2|0:2,0:0:0:0:
200,100,139478,5,8,0:3:0:0:
392,123,139769,1,8,0:3:0:0:
277,278,140060,5,4,0:2:0:0:
269,269,140352,2,0,L|276:332,1,59.9999981689454,2|2,0:2|0:2,0:0:0:0:
345,367,140643,2,0,P|299:345|245:383,1,119.999996337891,2|2,0:2|0:2,0:0:0:0:
422,349,141225,6,0,L|437:221,1,119.999996337891,10|2,0:2|0:2,0:0:0:0:
494,175,141662,1,2,0:2:0:0:
439,114,141808,2,0,P|384:128|367:183,1,119.999996337891,2|0,0:2|0:2,0:0:0:0:
232,343,142682,6,0,L|239:280,1,59.9999981689454,2|2,0:2|0:2,0:0:0:0:
308,245,142973,2,0,P|262:267|208:229,1,119.999996337891,2|2,0:2|0:2,0:0:0:0:
84,101,143555,6,0,L|77:164,1,59.9999981689454,10|0,0:2|0:2,0:0:0:0:
163,111,143846,2,0,L|156:174,1,59.9999981689454,2|2,0:2|0:2,0:0:0:0:
141,309,144138,1,10,0:2:0:0:
108,235,144284,1,8,0:2:0:0:
221,318,144429,1,10,0:2:0:0:
174,383,144575,1,8,0:2:0:0:
141,309,144721,5,8,0:3:0:0:
149,300,145012,2,0,L|212:307,1,59.9999981689454,2|2,0:2|0:2,0:0:0:0:
247,376,145303,2,0,P|225:330|263:276,1,119.999996337891,2|2,0:2|0:2,0:0:0:0:
425,221,145885,6,0,L|297:206,1,119.999996337891,10|2,0:2|0:2,0:0:0:0:
251,149,146322,1,2,0:2:0:0:
191,204,146468,2,0,P|133:222|120:283,1,119.999996337891,2|0,0:2|0:0,0:0:0:0:
46,49,147051,6,0,L|53:112,1,59.9999981689454,2|2,0:2|0:2,0:0:0:0:
5,170,147342,2,0,B|28:133|28:133|103:142,1,120,2|2,0:2|0:2,0:0:0:0:
196,322,147924,2,0,L|188:262,1,59.9999981689454,2|0,0:2|0:2,0:0:0:0:
178,111,148216,5,8,0:2:0:0:
118,221,148361,1,8,0:2:0:0:
252,153,148507,1,8,0:2:0:0:
268,277,148653,1,8,0:2:0:0:
269,264,148725,1,8,0:2:0:0:
271,250,148798,6,0,B|371:235|317:302|417:288,1,160,4|4,1:3|1:3,0:0:0:0:
124,129,149381,6,0,P|185:146|201:207,1,120,6|0,1:2|0:0,0:0:0:0:
198,207,149672,1,10,0:2:0:0:
74,194,149818,1,8,0:2:0:0:
162,276,149963,2,0,L|152:357,1,80,2|0,1:2|0:0,0:0:0:0:
287,235,150254,2,0,L|278:155,1,80,8|0,0:2|0:2,0:0:0:0:
237,302,150546,5,2,1:2:0:0:
369,256,150691,1,2,0:2:0:0:
301,353,150837,2,0,B|359:361|359:361|361:359|361:359|419:365,1,120,10|0,0:2|0:0,0:0:0:0:
429,371,151128,2,0,B|417:331|417:331|438:298,1,80,2|0,1:2|0:0,0:0:0:0:
353,174,151420,2,0,B|374:207|374:207|362:247,1,80,8|0,1:2|0:2,0:0:0:0:
399,93,151711,6,0,B|341:99|341:99|339:97|339:97|281:105,1,120,0|0,1:2|0:0,0:0:0:0:
270,96,152002,1,10,0:2:0:0:
349,17,152148,1,8,0:2:0:0:
203,49,152293,6,0,P|172:26|133:31,1,80,2|0,1:2|0:2,0:0:0:0:
15,117,152585,2,0,P|46:94|85:99,1,80,10|0,0:2|0:2,0:0:0:0:
54,252,152876,6,0,P|18:236|3:200,1,80,2|0,1:2|0:0,0:0:0:0:
152,151,153167,2,0,P|156:189|132:220,1,80,10|10,0:2|0:2,0:0:0:0:
210,336,153458,5,10,0:2:0:0:
118,302,153604,1,8,0:2:0:0:
222,323,153750,1,8,0:2:0:0:
109,316,153895,1,8,0:2:0:0:
269,260,154041,6,0,P|330:243|346:182,1,120,6|0,1:2|0:0,0:0:0:0:
343,182,154332,1,10,0:2:0:0:
395,289,154478,1,8,0:2:0:0:
411,143,154623,2,0,B|451:131|451:131|484:152,1,80,2|0,1:2|0:0,0:0:0:0:
316,37,154915,2,0,B|276:25|276:25|243:46,1,80,8|0,0:2|0:2,0:0:0:0:
347,194,155206,5,2,1:2:0:0:
394,64,155351,1,2,0:2:0:0:
335,185,155497,2,0,B|343:243|343:243|341:245|341:245|347:303,1,120,10|0,0:2|0:0,0:0:0:0:
355,312,155788,2,0,L|366:216,1,80,2|0,1:2|0:0,0:0:0:0:
254,159,156080,2,0,L|263:238,1,80,8|0,1:2|0:2,0:0:0:0:
417,79,156371,6,0,B|394:116|394:116|319:107,1,120,0|0,1:2|0:0,0:0:0:0:
309,99,156662,1,10,0:2:0:0:
177,142,156808,1,8,0:2:0:0:
240,16,156953,6,0,P|201:12|170:37,1,80,2|0,1:2|0:2,0:0:0:0:
230,203,157245,2,0,P|268:206|299:181,1,80,10|0,0:2|0:2,0:0:0:0:
167,132,157536,5,10,1:2:0:0:
214,283,157682,1,8,0:2:0:0:
94,172,157827,1,10,0:2:0:0:
114,337,157973,1,8,0:2:0:0:
127,338,158046,1,8,0:2:0:0:
141,340,158119,6,0,B|225:352|179:295|264:307,1,134.999995880127,4|0,1:3|0:0,0:0:0:0:
273,315,158410,2,0,B|283:280|283:280|265:251,1,69.9999978637696,4|0,1:3|0:0,0:0:0:0:
