osu file format v14

[General]
AudioFilename: audio.mp3
AudioLeadIn: 0
PreviewTime: 44526
Countdown: 0
SampleSet: Soft
StackLeniency: 0.4
Mode: 0
LetterboxInBreaks: 0
WidescreenStoryboard: 0

[Editor]
Bookmarks: 317,9637,18957,28278,37598,46918,56239,65559,74880,84200,93520,102841,112161,121482,130802,140122,149443,158617
DistanceSpacing: 1.8
BeatDivisor: 8
GridSize: 32
TimelineZoom: 2.3

[Metadata]
Title:Bomb Bomb
TitleUnicode:밤밤
Artist:KARD
ArtistUnicode:KARD
Creator:DeRandom Otaku
Version:Kowari's Hard
Source:
Tags:kpop k-pop K.A.R.D 전지우 Jiwoo 전소민 Somin 매튜김 B.M 김태형 J.Seph DSP Media xenon- xehn kowari agatsu deppyforce Ren
BeatmapID:2091134
BeatmapSetID:950639

[Difficulty]
HPDrainRate:4
CircleSize:3.5
OverallDifficulty:7
ApproachRate:8
SliderMultiplier:2.2
SliderTickRate:1

[Events]
//Background and Video events
0,0,"bg.jpg",0,0
//Break Periods
2,65697,73485
//Storyboard Layer 0 (Background)
//Storyboard Layer 1 (Fail)
//Storyboard Layer 2 (Pass)
//Storyboard Layer 3 (Foreground)
//Storyboard Layer 4 (Overlay)
//Storyboard Sound Samples

[TimingPoints]
255,582.52427184466,4,1,0,40,1,0
9575,-111.111111111111,4,2,0,70,0,0
28216,-111.111111111111,4,2,0,50,0,0
42196,-111.111111111111,4,2,0,65,0,0
44526,-111.111111111111,4,2,0,25,0,0
46856,-90.9090909090909,4,2,0,80,0,1
51662,-90.9090909090909,4,2,0,5,0,1
51808,-90.9090909090909,4,2,0,80,0,1
56177,-90.9090909090909,4,2,0,85,0,1
65497,-111.111111111111,4,2,0,52,0,0
84138,-111.111111111111,4,2,0,50,0,0
98118,-111.111111111111,4,2,0,65,0,0
100448,-111.111111111111,4,2,0,25,0,0
102778,-111.111111111111,4,2,0,80,0,0
102779,-90.9090909090909,4,2,0,80,0,1
107584,-90.9090909090909,4,2,0,5,0,1
107730,-90.9090909090909,4,2,0,80,0,1
112099,-90.9090909090909,4,2,0,85,0,1
121420,-100,4,2,0,60,0,0
130740,-100,4,2,0,65,0,0
137730,-100,4,2,0,25,0,0
139478,-100,4,2,0,60,0,0
140060,-100,4,2,0,75,0,0
140352,-100,4,2,0,48,0,0
144866,-100,4,2,0,5,0,0
145012,-100,4,2,0,48,0,0
148216,-100,4,2,0,65,0,0
149381,-90.9090909090909,4,2,0,85,0,1
158410,-90.9090909090909,4,2,0,52,0,0

[Colours]
Combo1 : 145,72,72
Combo2 : 255,128,64
Combo3 : 255,128,128
Combo4 : 255,45,45

[HitObjects]
108,58,8410,6,0,L|38:48,2,55,8|8|8,0:2|0:2|0:2,0:0:0:0:
173,125,8847,1,8,0:2:0:0:
173,125,8920,1,8,0:2:0:0:
173,125,8992,2,0,L|286:117,1,110,4|4,1:3|1:3,0:0:0:0:
460,99,9575,6,0,P|490:144|488:201,1,98.9999969787599,2|0,1:2|0:2,0:0:0:0:
442,261,10012,1,0,0:2:0:0:
442,261,10157,2,0,L|334:255,1,98.9999969787599,2|0,1:2|0:2,0:0:0:0:
174,195,10740,2,0,P|126:236|124:285,1,98.9999969787599,2|0,1:2|0:2,0:0:0:0:
147,353,11177,1,0,0:2:0:0:
147,353,11322,2,0,P|91:359|60:386,1,98.9999969787599,2|0,1:2|1:2,0:0:0:0:
35,213,11905,6,0,P|71:149|109:126,1,98.9999969787599,2|0,1:2|0:2,0:0:0:0:
177,114,12342,1,0,0:2:0:0:
177,114,12488,2,0,L|296:129,1,98.9999969787599,2|2,1:2|0:2,0:0:0:0:
362,142,12924,1,2,0:2:0:0:
362,142,13070,2,0,L|422:132,1,49.4999984893799,2|0,1:2|0:2,0:0:0:0:
496,158,13361,2,0,L|506:218,1,49.4999984893799,2|0,0:2|0:2,0:0:0:0:
498,295,13653,2,0,P|458:293|438:281,1,49.4999984893799,2|8,1:2|0:2,0:0:0:0:
395,360,13944,2,0,P|368:330|362:307,1,49.4999984893799,0|8,0:2|0:2,0:0:0:0:
377,233,14235,6,0,P|315:242|282:286,1,98.9999969787599,2|0,1:2|0:2,0:0:0:0:
239,339,14672,1,0,0:2:0:0:
239,339,14818,2,0,P|235:281|207:245,1,98.9999969787599,2|0,1:2|0:2,0:0:0:0:
60,343,15400,2,0,L|51:238,1,98.9999969787599,2|0,1:2|0:2,0:0:0:0:
23,159,15837,1,0,0:2:0:0:
23,159,15983,2,0,P|81:160|119:190,1,98.9999969787599,2|0,1:2|1:2,0:0:0:0:
132,32,16565,6,0,P|193:15|241:33,1,98.9999969787599,2|0,1:2|0:2,0:0:0:0:
274,99,17002,1,0,0:2:0:0:
274,99,17148,2,0,L|255:209,1,98.9999969787599,2|2,1:2|0:2,0:0:0:0:
261,285,17585,1,2,0:2:0:0:
261,285,17730,2,0,P|286:311|319:323,1,49.4999984893799,10|8,1:2|0:2,0:0:0:0:
338,237,18021,2,0,P|374:237|405:222,1,49.4999984893799,10|8,0:2|0:2,0:0:0:0:
360,147,18313,2,0,P|386:121|408:57,1,98.9999969787599,4|4,1:3|1:3,0:0:0:0:
239,4,18895,6,0,L|118:17,1,98.9999969787599,2|2,1:2|0:2,0:0:0:0:
59,51,19332,1,0,0:2:0:0:
59,51,19478,2,0,P|46:108|66:157,1,98.9999969787599,2|2,1:2|0:2,0:0:0:0:
227,199,20060,2,0,L|239:95,2,98.9999969787599,2|2|2,1:2|0:2|1:2,0:0:0:0:
159,364,20934,1,0,1:2:0:0:
53,220,21225,6,0,P|104:199|156:206,1,98.9999969787599,2|2,1:2|0:2,0:0:0:0:
204,270,21662,1,0,0:2:0:0:
204,270,21808,2,0,P|258:286|306:268,1,98.9999969787599,2|2,1:2|0:2,0:0:0:0:
455,192,22390,2,0,L|470:289,2,98.9999969787599,2|2|2,1:2|0:2|1:2,0:0:0:0:
471,103,23119,1,8,0:2:0:0:
471,103,23264,2,0,L|479:31,1,49.4999984893799,0|8,0:2|0:2,0:0:0:0:
398,10,23555,6,0,P|335:3|292:26,1,98.9999969787599,2|0,1:2|0:0,0:0:0:0:
256,192,24138,1,2,0:2:0:0:
71,104,24721,6,0,P|162:79|182:86,1,98.9999969787599,2|0,1:2|0:0,0:0:0:0:
256,192,25303,1,2,0:2:0:0:
209,360,25886,6,0,L|94:350,1,98.9999969787599,10|0,0:2|0:2,0:0:0:0:
40,297,26322,1,0,0:2:0:0:
40,297,26468,2,0,L|53:228,1,49.4999984893799,2|2,1:2|0:2,0:0:0:0:
120,194,26759,2,0,L|107:125,1,49.4999984893799,2|2,0:2|0:2,0:0:0:0:
117,55,27051,2,0,P|82:60|54:82,2,49.4999984893799,10|10|10,0:2|0:2|0:2,0:0:0:0:
190,105,27488,1,8,0:2:0:0:
190,105,27560,1,8,0:2:0:0:
190,105,27633,2,0,P|246:119|291:110,1,98.9999969787599,4|4,1:3|1:3,0:0:0:0:
439,20,28216,6,0,L|435:178,1,148.49999546814,6|2,0:2|0:2,0:0:0:0:
393,247,28798,1,2,0:2:0:0:
177,219,29963,1,2,0:2:0:0:
124,146,30109,2,0,P|201:130|236:149,1,98.9999969787599,2|0,0:2|0:2,0:0:0:0:
281,198,30546,6,0,L|265:350,1,148.49999546814,2|0,0:2|0:2,0:0:0:0:
354,340,31128,1,2,0:2:0:0:
354,340,31274,2,0,L|368:212,1,98.9999969787599,2|0,0:2|0:2,0:0:0:0:
445,279,31711,1,2,0:2:0:0:
445,279,31856,2,0,L|437:346,2,49.4999984893799,2|0|0,0:2|0:0|0:2,0:0:0:0:
495,205,32293,1,2,0:2:0:0:
495,205,32439,2,0,L|474:97,1,98.9999969787599,2|0,0:2|0:2,0:0:0:0:
403,52,32876,6,0,P|351:99|345:173,1,148.49999546814,2|2,0:2|0:2,0:0:0:0:
360,261,33458,2,0,B|451:251,2,74.2499977340699,2|2|2,0:2|0:2|0:2,0:0:0:0:
274,288,34041,2,0,L|113:284,1,148.49999546814,2|2,0:2|0:2,0:0:0:0:
64,218,34623,1,2,0:2:0:0:
162,68,34915,1,0,3:2:0:0:
296,186,35206,6,0,L|147:177,1,148.49999546814,2|2,0:2|0:2,0:0:0:0:
74,125,35788,2,0,P|69:72|78:41,2,74.2499977340699,2|2|2,0:2|0:2|0:2,0:0:0:0:
147,177,36371,2,0,P|176:225|151:319,1,148.49999546814,2|2,0:2|0:2,0:0:0:0:
100,381,36954,2,0,L|156:385,1,49.4999984893799,2|0,0:2|0:0,0:0:0:0:
236,365,37245,2,0,L|285:361,1,49.4999984893799,2|0,0:2|0:0,0:0:0:0:
365,320,37536,6,0,P|384:276|337:178,1,148.49999546814,14|2,0:2|0:2,0:0:0:0:
286,122,38119,2,0,L|398:102,2,98.9999969787599,10|0|8,0:2|0:2|0:2,0:0:0:0:
211,171,38847,1,0,0:2:0:0:
211,171,38992,2,0,L|155:162,1,49.4999984893799,0|0,0:2|0:2,0:0:0:0:
74,144,39284,2,0,P|62:93|122:10,1,148.49999546814,10|0,0:2|0:2,0:0:0:0:
198,29,39866,5,10,0:2:0:0:
198,29,40012,2,0,L|317:42,1,98.9999969787599,2|0,0:2|0:2,0:0:0:0:
365,96,40449,1,10,0:2:0:0:
365,96,40594,2,0,L|449:83,2,49.4999984893799,2|0|0,0:2|0:2|0:2,0:0:0:0:
306,163,41031,1,10,0:2:0:0:
306,163,41177,1,2,0:2:0:0:
223,130,41322,2,0,L|155:118,1,49.4999984893799,0|0,0:2|0:2,0:0:0:0:
108,211,41614,2,0,L|156:202,1,49.4999984893799,10|2,0:2|0:2,0:0:0:0:
205,276,41905,2,0,L|253:284,1,49.4999984893799,0|2,0:2|0:2,0:0:0:0:
340,264,42196,6,0,P|375:213|369:164,1,98.9999969787599,10|10,0:2|0:2,0:0:0:0:
323,104,42633,1,2,0:2:0:0:
323,104,42779,2,0,L|274:92,1,49.4999984893799,10|2,0:2|0:2,0:0:0:0:
359,29,43070,2,0,L|407:17,1,49.4999984893799,10|2,0:2|0:2,0:0:0:0:
476,72,43361,2,0,L|468:110,2,24.74999924469,10|2|2,0:2|0:2|0:2,0:0:0:0:
406,129,43653,2,0,L|414:167,2,24.74999924469,10|2|2,0:2|0:2|0:2,0:0:0:0:
484,171,43944,6,0,L|476:212,6,24.74999924469,10|2|10|2|10|2|10,0:2|0:2|0:2|0:2|0:2|0:2|0:2,0:0:0:0:
410,231,44526,6,0,L|426:308,2,49.4999984893799,2|2|2,0:2|0:2|0:2,0:0:0:0:
318,119,45109,2,0,L|328:70,2,49.4999984893799,2|2|2,0:2|0:2|0:2,0:0:0:0:
230,221,45691,2,0,L|248:333,2,98.9999969787599,2|2|2,0:2|0:2|0:2,0:0:0:0:
195,45,46565,1,2,0:2:0:0:
26,182,46856,6,0,P|89:208|148:193,1,121.000003692627,4|10,1:2|0:2,0:0:0:0:
222,126,47293,1,10,0:2:0:0:
222,126,47439,2,0,L|303:138,1,60.5000018463135,2|0,1:2|0:2,0:0:0:0:
362,208,47730,2,0,L|421:199,1,60.5000018463135,10|0,0:2|0:2,0:0:0:0:
509,133,48021,2,0,P|508:67|443:29,1,121.000003692627,2|10,1:2|0:2,0:0:0:0:
368,75,48458,1,10,0:2:0:0:
368,75,48604,1,2,1:2:0:0:
157,20,48895,1,10,1:2:0:0:
265,209,49187,6,0,P|287:273|257:335,1,121.000003692627,0|10,1:2|0:2,0:0:0:0:
171,366,49623,1,10,0:2:0:0:
171,366,49769,2,0,L|46:358,1,121.000003692627,2|10,1:2|0:2,0:0:0:0:
12,255,50206,1,0,0:2:0:0:
12,255,50352,2,0,P|19:216|39:190,1,60.5000018463135,2|0,1:2|0:0,0:0:0:0:
11,91,50643,2,0,P|43:69|76:64,1,60.5000018463135,10|10,0:2|0:2,0:0:0:0:
151,129,50934,1,10,0:2:0:0:
151,129,51080,1,10,0:2:0:0:
255,100,51225,1,10,0:2:0:0:
255,100,51371,1,10,0:2:0:0:
335,25,51517,6,0,L|337:163,1,121.000003692627,4|10,1:2|0:2,0:0:0:0:
376,247,51954,1,10,0:2:0:0:
376,247,52099,2,0,P|435:256|462:244,1,60.5000018463135,2|0,1:2|0:2,0:0:0:0:
332,165,52390,2,0,P|301:163|273:174,1,60.5000018463135,10|0,0:2|0:2,0:0:0:0:
229,274,52682,2,0,L|245:358,1,60.5000018463135,2|0,1:2|0:0,0:0:0:0:
132,350,52973,2,0,L|116:266,1,60.5000018463135,10|10,0:2|0:2,0:0:0:0:
167,191,53264,1,2,1:2:0:0:
34,18,53555,1,10,1:2:0:0:
39,236,53847,6,0,P|86:187|148:183,1,121.000003692627,2|10,1:2|0:2,0:0:0:0:
237,222,54284,1,8,0:2:0:0:
237,222,54429,2,0,L|226:302,1,60.5000018463135,2|0,1:2|0:2,0:0:0:0:
307,358,54721,1,10,0:2:0:0:
493,246,55012,2,0,L|515:311,2,60.5000018463135,10|8|10,1:2|0:2|0:2,0:0:0:0:
438,151,55449,1,8,0:2:0:0:
438,151,55521,1,8,0:2:0:0:
438,151,55594,2,0,L|460:26,1,121.000003692627,4|4,1:3|1:3,0:0:0:0:
241,10,56177,6,0,L|250:90,1,60.5000018463135,6|2,1:2|0:2,0:0:0:0:
341,126,56468,2,0,L|332:206,1,60.5000018463135,10|8,0:2|0:2,0:0:0:0:
293,287,56759,2,0,P|229:294|177:252,1,121.000003692627,2|8,1:2|0:2,0:0:0:0:
105,59,57342,2,0,P|58:77|45:92,1,60.5000018463135,2|2,1:2|0:2,0:0:0:0:
70,190,57633,2,0,P|49:235|50:255,1,60.5000018463135,10|8,0:2|0:2,0:0:0:0:
121,327,57924,1,2,1:2:0:0:
292,192,58216,1,8,1:2:0:0:
131,44,58507,6,0,L|138:118,1,60.5000018463135,0|2,1:2|0:2,0:0:0:0:
208,186,58798,2,0,L|201:260,1,60.5000018463135,10|8,0:2|0:2,0:0:0:0:
258,339,59089,2,0,P|325:333|365:293,1,121.000003692627,2|10,1:2|0:2,0:0:0:0:
441,372,59526,1,0,0:2:0:0:
441,372,59672,2,0,P|484:320|484:263,1,121.000003692627,2|10,1:2|0:2,0:0:0:0:
433,172,60109,1,10,0:2:0:0:
433,172,60254,2,0,L|357:184,1,60.5000018463135,10|8,0:2|0:2,0:0:0:0:
263,190,60546,1,8,0:2:0:0:
217,91,60691,1,8,0:2:0:0:
292,11,60837,6,0,P|325:14|371:35,1,60.5000018463135,6|2,1:2|0:2,0:0:0:0:
459,22,61128,2,0,P|479:48|497:94,1,60.5000018463135,10|8,0:2|0:2,0:0:0:0:
465,179,61420,2,0,L|445:316,1,121.000003692627,2|8,1:2|0:2,0:0:0:0:
238,357,62002,2,0,L|250:271,1,60.5000018463135,2|2,1:2|0:2,0:0:0:0:
315,212,62293,2,0,L|303:126,1,60.5000018463135,10|8,0:2|0:2,0:0:0:0:
246,60,62585,1,2,1:2:0:0:
63,178,62876,1,8,1:2:0:0:
237,307,63167,6,0,P|264:278|270:243,1,60.5000018463135,0|2,1:2|0:2,0:0:0:0:
189,184,63458,2,0,P|187:144|167:115,1,60.5000018463135,10|8,0:2|0:2,0:0:0:0:
99,49,63750,2,0,L|232:33,1,121.000003692627,2|10,1:2|0:2,0:0:0:0:
304,102,64187,1,0,0:2:0:0:
304,102,64332,2,0,L|382:111,1,60.5000018463135,10|8,1:2|0:2,0:0:0:0:
471,127,64623,1,10,0:2:0:0:
487,234,64769,2,0,L|473:284,2,30.2500009231568,8|8|4,0:2|0:2|1:3,0:0:0:0:
270,208,65206,1,4,1:3:0:0:
360,361,65497,5,4,1:3:0:0:
122,92,74235,6,0,L|108:7,2,65.9999979858399,8|0|0,0:0|0:0|0:0,0:0:0:0:
222,155,74818,6,0,L|207:267,1,98.9999969787599,4|0,1:2|0:0,0:0:0:0:
252,330,75254,1,0,1:2:0:0:
252,330,75400,2,0,P|281:338|351:328,1,98.9999969787599,10|2,0:2|1:2,0:0:0:0:
139,289,75983,2,0,P|106:285|64:303,2,74.2499977340699,2|0|0,0:2|0:0|0:0,0:0:0:0:
189,215,76565,2,0,L|179:119,2,74.2499977340699,10|0|0,0:2|0:0|0:0,0:0:0:0:
276,236,77148,6,0,L|267:317,2,74.2499977340699,2|2|0,0:2|0:2|0:0,0:0:0:0:
351,188,77730,2,0,L|333:68,1,98.9999969787599,10|2,0:2|0:2,0:0:0:0:
161,13,78313,2,0,P|135:36|115:90,2,74.2499977340699,2|0|0,0:2|0:0|0:0,0:0:0:0:
235,62,78895,1,10,0:2:0:0:
206,238,79187,1,2,0:2:0:0:
370,170,79478,6,0,P|416:160|478:193,1,98.9999969787599,0|0,1:2|0:0,0:0:0:0:
488,263,79915,1,0,1:2:0:0:
488,263,80060,2,0,L|484:349,2,74.2499977340699,10|0|2,0:2|0:0|0:2,0:0:0:0:
463,178,80643,2,0,L|459:92,2,74.2499977340699,2|0|0,0:2|0:0|0:0,0:0:0:0:
410,250,81225,2,0,P|378:263|334:264,1,74.2499977340699,10|2,0:2|0:0,0:0:0:0:
230,185,81662,1,2,0:2:0:0:
282,112,81808,6,0,L|273:25,2,74.2499977340699,2|0|0,0:2|0:0|0:0,0:0:0:0:
242,192,82390,2,0,P|190:211|159:209,1,74.2499977340699,10|0,0:2|0:0,0:0:0:0:
71,122,82827,1,0,0:0:0:0:
19,194,82973,2,0,L|34:273,2,74.2499977340699,2|0|0,0:2|0:0|0:0,0:0:0:0:
58,114,83555,1,10,0:2:0:0:
182,241,83847,1,2,0:2:0:0:
270,86,84138,6,0,P|314:70|420:97,1,148.49999546814,6|2,0:2|0:2,0:0:0:0:
450,170,84721,1,2,0:2:0:0:
258,359,85886,1,2,0:2:0:0:
305,284,86031,2,0,L|296:165,1,98.9999969787599,2|0,0:2|0:2,0:0:0:0:
251,109,86468,6,0,P|196:104|130:179,1,148.49999546814,2|0,0:2|0:2,0:0:0:0:
45,144,87051,1,2,0:2:0:0:
45,144,87196,2,0,P|56:213|86:244,1,98.9999969787599,2|0,0:2|0:2,0:0:0:0:
49,320,87633,1,2,0:2:0:0:
49,320,87779,2,0,P|101:324|127:314,2,49.4999984893799,2|0|0,0:2|0:0|0:2,0:0:0:0:
152,260,88216,2,0,L|217:268,1,49.4999984893799,2|2,0:2|0:2,0:0:0:0:
266,327,88507,2,0,L|315:320,1,49.4999984893799,0|0,0:0|0:2,0:0:0:0:
357,242,88798,6,0,P|365:190|352:155,2,74.2499977340699,2|2|2,0:2|0:2|0:2,0:0:0:0:
405,317,89381,2,0,L|489:316,2,74.2499977340699,2|2|2,0:2|0:2|0:2,0:0:0:0:
329,364,89963,2,0,L|245:363,2,74.2499977340699,2|2|2,0:2|0:2|0:2,0:0:0:0:
335,274,90546,2,0,P|299:253|230:269,1,98.9999969787599,2|0,0:2|3:2,0:0:0:0:
72,307,91128,6,0,L|87:389,2,74.2499977340699,2|2|2,0:2|0:2|0:2,0:0:0:0:
106,223,91711,2,0,P|58:216|19:237,2,74.2499977340699,2|2|2,0:2|0:2|0:2,0:0:0:0:
180,272,92293,2,0,P|228:279|267:258,2,74.2499977340699,2|2|2,0:2|0:2|0:2,0:0:0:0:
187,182,92876,2,0,L|193:116,1,49.4999984893799,2|0,0:2|0:0,0:0:0:0:
117,82,93167,2,0,L|111:16,1,49.4999984893799,2|0,0:2|0:0,0:0:0:0:
196,2,93458,6,0,P|241:-2|312:76,1,148.49999546814,14|2,0:2|0:2,0:0:0:0:
298,154,94041,2,0,L|181:147,2,98.9999969787599,10|0|8,0:2|0:2|0:2,0:0:0:0:
370,205,94769,1,0,0:2:0:0:
370,205,94915,2,0,L|436:196,1,49.4999984893799,0|0,0:2|0:2,0:0:0:0:
493,246,95206,2,0,P|506:296|452:373,1,148.49999546814,10|0,0:2|0:2,0:0:0:0:
366,358,95788,5,10,0:2:0:0:
366,358,95934,2,0,L|248:344,1,98.9999969787599,2|0,0:2|0:2,0:0:0:0:
201,286,96371,1,10,0:2:0:0:
201,286,96517,2,0,L|134:292,2,49.4999984893799,2|0|0,0:2|0:2|0:2,0:0:0:0:
282,249,96954,1,10,0:2:0:0:
282,249,97099,1,2,0:2:0:0:
364,214,97245,2,0,P|369:177|362:157,1,49.4999984893799,0|0,0:2|0:2,0:0:0:0:
448,132,97536,2,0,P|425:102|406:93,1,49.4999984893799,10|2,0:2|0:2,0:0:0:0:
445,12,97827,2,0,P|407:7|387:14,1,49.4999984893799,0|2,0:2|0:2,0:0:0:0:
327,67,98119,6,0,P|285:80|229:68,1,98.9999969787599,10|10,0:2|0:2,0:0:0:0:
162,14,98555,1,2,0:2:0:0:
162,14,98701,2,0,L|143:68,1,49.4999984893799,10|2,0:2|0:2,0:0:0:0:
79,121,98992,2,0,L|98:175,1,49.4999984893799,10|2,0:2|0:2,0:0:0:0:
129,250,99284,2,0,L|118:285,2,24.74999924469,10|2|2,0:2|0:2|0:2,0:0:0:0:
202,199,99575,2,0,L|191:164,2,24.74999924469,10|2|2,0:2|0:2|0:2,0:0:0:0:
262,264,99866,6,0,L|254:287,6,24.74999924469,10|2|10|2|10|2|10,0:2|0:2|0:2|0:2|0:2|0:2|0:2,0:0:0:0:
320,195,100449,6,0,P|294:181|264:181,2,49.4999984893799,2|2|2,0:2|0:2|0:2,0:0:0:0:
423,273,101031,2,0,P|447:269|468:257,2,49.4999984893799,2|2|2,0:2|0:2|0:2,0:0:0:0:
245,294,101614,2,0,P|219:323|199:394,2,98.9999969787599,2|2|2,0:2|0:2|0:2,0:0:0:0:
397,200,102488,1,2,0:2:0:0:
288,11,102779,6,0,L|161:25,1,121.000003692627,4|10,1:2|0:2,0:0:0:0:
66,64,103216,1,10,0:2:0:0:
66,64,103361,2,0,P|48:113|58:142,1,60.5000018463135,2|0,1:2|0:2,0:0:0:0:
133,189,103653,2,0,P|151:238|141:267,1,60.5000018463135,10|0,0:2|0:2,0:0:0:0:
95,338,103944,2,0,P|159:351|212:332,1,121.000003692627,2|10,1:2|0:2,0:0:0:0:
256,234,104381,1,10,0:2:0:0:
256,234,104526,1,2,1:2:0:0:
456,319,104818,1,10,1:2:0:0:
424,103,105109,6,0,P|361:95|303:132,1,121.000003692627,0|10,1:2|0:2,0:0:0:0:
263,219,105546,1,10,0:2:0:0:
263,219,105691,2,0,L|277:301,1,60.5000018463135,2|0,1:2|0:2,0:0:0:0:
189,349,105983,2,0,L|178:289,1,60.5000018463135,10|0,0:2|0:2,0:0:0:0:
98,215,106274,6,0,P|121:181|148:166,1,60.5000018463135,2|0,1:2|0:0,0:0:0:0:
104,66,106565,2,0,P|144:58|174:66,1,60.5000018463135,10|10,0:2|0:2,0:0:0:0:
242,137,106856,1,10,0:2:0:0:
242,137,107002,1,10,0:2:0:0:
230,245,107148,1,10,0:2:0:0:
230,245,107293,1,10,0:2:0:0:
316,312,107439,6,0,P|392:300|430:256,1,121.000003692627,4|10,1:2|0:2,0:0:0:0:
443,163,107876,1,10,0:2:0:0:
443,163,108021,2,0,L|421:37,1,121.000003692627,2|10,1:2|0:2,0:0:0:0:
314,26,108458,1,0,0:2:0:0:
314,26,108604,2,0,P|284:50|271:82,1,60.5000018463135,2|0,1:2|0:0,0:0:0:0:
165,63,108895,2,0,P|160:101|174:133,1,60.5000018463135,10|10,0:2|0:2,0:0:0:0:
251,192,109187,1,2,1:2:0:0:
463,143,109478,1,10,1:2:0:0:
425,357,109769,6,0,L|302:347,1,121.000003692627,2|10,1:2|0:2,0:0:0:0:
221,276,110206,1,8,0:2:0:0:
221,276,110352,2,0,L|141:302,1,60.5000018463135,2|0,1:2|0:2,0:0:0:0:
65,247,110643,1,10,0:2:0:0:
106,33,110934,2,0,L|16:51,2,60.5000018463135,10|8|10,1:2|0:2|0:2,0:0:0:0:
194,97,111371,1,8,0:2:0:0:
194,97,111444,1,8,0:2:0:0:
194,97,111517,2,0,P|236:118|314:103,1,121.000003692627,4|4,1:3|1:3,0:0:0:0:
499,4,112099,6,0,L|489:108,1,60.5000018463135,6|2,1:2|0:2,0:0:0:0:
402,125,112390,2,0,L|412:229,1,60.5000018463135,10|8,0:2|0:2,0:0:0:0:
421,294,112682,2,0,P|363:336|308:325,1,121.000003692627,2|8,1:2|0:2,0:0:0:0:
269,117,113264,2,0,P|245:98|204:88,1,60.5000018463135,2|2,1:2|0:2,0:0:0:0:
139,12,113555,2,0,P|108:15|72:37,1,60.5000018463135,10|8,0:2|0:2,0:0:0:0:
43,131,113847,1,2,1:2:0:0:
232,237,114138,1,8,1:2:0:0:
50,357,114429,6,0,L|135:343,1,60.5000018463135,0|2,1:2|0:2,0:0:0:0:
214,315,114721,2,0,L|273:324,1,60.5000018463135,10|8,0:2|0:2,0:0:0:0:
368,270,115012,2,0,P|354:195|279:159,1,121.000003692627,2|10,1:2|0:2,0:0:0:0:
374,72,115449,1,0,0:2:0:0:
374,72,115594,2,0,P|298:68|251:97,1,121.000003692627,2|10,1:2|0:2,0:0:0:0:
197,178,116031,1,10,0:2:0:0:
197,178,116177,2,0,L|205:251,1,60.5000018463135,10|8,0:2|0:2,0:0:0:0:
147,331,116468,1,8,0:2:0:0:
42,297,116614,1,8,0:2:0:0:
41,188,116759,6,0,L|59:99,1,60.5000018463135,6|2,1:2|0:2,0:0:0:0:
120,42,117051,2,0,L|131:101,1,60.5000018463135,10|8,0:2|0:2,0:0:0:0:
157,207,117342,2,0,P|221:244|296:235,1,121.000003692627,2|8,1:2|0:2,0:0:0:0:
323,34,117924,2,0,P|366:13|404:10,1,60.5000018463135,2|2,1:2|0:2,0:0:0:0:
414,114,118216,2,0,P|459:129|488:154,1,60.5000018463135,10|8,0:2|0:2,0:0:0:0:
488,243,118507,1,2,1:2:0:0:
296,139,118798,1,8,1:2:0:0:
259,353,119089,6,0,L|332:342,1,60.5000018463135,0|2,1:2|0:2,0:0:0:0:
204,277,119381,2,0,L|131:266,1,60.5000018463135,10|8,0:2|0:2,0:0:0:0:
67,189,119672,2,0,P|102:126|156:105,1,121.000003692627,2|10,1:2|0:2,0:0:0:0:
155,11,120109,1,0,0:2:0:0:
155,11,120254,2,0,P|219:42|232:63,1,60.5000018463135,10|8,1:2|0:2,0:0:0:0:
246,136,120546,1,10,0:2:0:0:
201,234,120691,2,0,L|151:232,2,30.2500009231568,8|8|4,0:2|0:2|1:3,0:0:0:0:
322,52,121128,1,4,1:3:0:0:
416,226,121420,6,0,P|356:264|296:249,1,110,8|0,0:2|0:2,0:0:0:0:
263,179,121856,1,2,0:2:0:0:
263,179,122002,1,8,0:2:0:0:
130,325,122293,2,0,L|140:389,1,55,0|0,0:2|0:2,0:0:0:0:
40,360,122585,6,0,L|35:234,1,110,8|0,0:2|0:2,0:0:0:0:
87,165,123021,1,0,0:2:0:0:
87,165,123167,1,8,0:2:0:0:
257,265,123458,2,0,L|251:332,1,55,2|2,0:2|0:2,0:0:0:0:
347,350,123750,6,0,L|355:224,1,110,10|0,0:2|0:2,0:0:0:0:
431,178,124187,1,2,0:2:0:0:
431,178,124332,1,8,0:2:0:0:
240,123,124623,2,0,L|249:196,1,55,0|0,0:2|0:2,0:0:0:0:
161,230,124915,6,0,L|145:103,1,110,8|0,0:2|0:2,0:0:0:0:
181,27,125352,1,0,0:2:0:0:
181,27,125497,2,0,P|220:47|247:52,1,55,8|8,0:2|0:2,0:0:0:0:
258,144,125788,2,0,P|299:130|322:115,1,55,10|8,0:2|0:2,0:0:0:0:
394,72,126080,6,0,P|411:131|378:215,1,110,10|2,0:2|0:2,0:0:0:0:
340,255,126517,1,2,0:2:0:0:
340,255,126662,1,8,0:2:0:0:
182,134,126954,2,0,P|222:157|241:176,1,55,0|0,0:0|0:2,0:0:0:0:
181,245,127245,6,0,P|132:202|75:191,1,110,10|2,0:2|0:2,0:0:0:0:
15,256,127682,1,2,0:2:0:0:
15,256,127827,1,8,0:2:0:0:
194,341,128119,2,0,P|234:329|257:308,1,55,0|2,0:2|0:2,0:0:0:0:
276,227,128410,6,0,P|341:210|406:243,1,110,8|0,0:2|0:2,0:0:0:0:
434,305,128847,1,0,0:2:0:0:
434,305,128992,1,8,0:2:0:0:
512,127,129284,2,0,P|484:108|429:105,1,55,0|0,0:2|0:2,0:0:0:0:
382,159,129575,6,0,P|317:192|301:190,1,55,8|8,0:2|0:2,0:0:0:0:
241,166,129866,1,8,0:2:0:0:
214,70,130012,2,0,L|223:28,2,27.5,8|8|4,0:2|0:2|1:3,0:0:0:0:
185,266,130449,1,4,1:3:0:0:
14,166,130740,6,0,L|38:292,1,110,14|0,0:2|0:2,0:0:0:0:
93,353,131177,1,2,0:2:0:0:
93,353,131322,2,0,P|145:373|219:358,1,110,8|0,0:2|0:2,0:0:0:0:
257,178,131905,2,0,L|266:57,1,110,8|0,0:2|0:2,0:0:0:0:
343,7,132342,1,0,0:2:0:0:
343,7,132488,2,0,P|408:10|462:52,1,110,8|2,0:2|0:2,0:0:0:0:
448,131,132924,1,2,0:2:0:0:
448,131,133070,6,0,L|442:247,1,110,10|0,0:2|0:2,0:0:0:0:
350,278,133507,1,2,0:2:0:0:
350,278,133653,2,0,L|355:168,1,110,10|10,0:2|0:2,0:0:0:0:
211,32,134235,2,0,P|146:54|118:92,1,110,8|0,0:2|0:2,0:0:0:0:
22,91,134672,1,0,0:2:0:0:
22,91,134818,2,0,P|31:144|51:164,1,55,8|8,0:2|0:2,0:0:0:0:
2,238,135109,2,0,P|53:256|79:249,1,55,8|8,0:2|0:2,0:0:0:0:
139,208,135400,6,0,P|204:181|263:195,1,110,10|10,0:2|0:2,0:0:0:0:
316,250,135837,1,2,0:2:0:0:
316,250,135983,2,0,L|305:317,1,55,10|2,0:2|0:2,0:0:0:0:
404,203,136274,2,0,L|395:148,1,55,10|2,0:2|0:2,0:0:0:0:
337,67,136565,2,0,L|350:17,2,27.5,10|2|2,0:2|0:2|0:2,0:0:0:0:
270,140,136856,2,0,L|276:166,2,27.5,10|2|2,0:2|0:2|0:2,0:0:0:0:
212,58,137148,6,0,L|225:17,6,27.5,10|2|10|2|10|2|10,0:2|0:2|0:2|0:2|0:2|0:2|0:2,0:0:0:0:
141,127,137730,6,0,L|153:196,1,55,2|2,0:2|0:2,0:0:0:0:
171,278,138021,1,2,0:2:0:0:
296,350,138313,2,0,L|308:281,1,55,2|2,0:2|0:2,0:0:0:0:
326,199,138604,1,2,0:2:0:0:
445,94,138895,2,0,L|457:156,1,55,2|2,0:2|0:2,0:0:0:0:
359,61,139186,2,0,L|369:7,1,55,2|2,0:2|0:2,0:0:0:0:
272,87,139478,5,8,0:3:0:0:
415,223,139769,1,8,0:3:0:0:
249,330,140060,5,4,0:2:0:0:
358,164,140352,2,0,L|350:93,2,55,2|2|2,0:2|0:2|0:2,0:0:0:0:
162,134,140934,1,2,0:2:0:0:
241,315,141225,2,0,L|318:312,1,55,10|0,0:2|0:2,0:0:0:0:
364,239,141517,2,0,L|287:236,1,55,2|2,0:2|0:2,0:0:0:0:
209,234,141808,2,0,P|225:177|271:155,1,110,2|0,0:2|0:2,0:0:0:0:
99,51,142390,5,0,0:0:0:0:
209,234,142682,2,0,L|197:302,2,55,2|2|2,0:2|0:2|0:2,0:0:0:0:
288,52,143264,1,2,0:2:0:0:
427,191,143555,6,0,P|447:221|454:247,1,55,10|0,0:2|0:2,0:0:0:0:
363,283,143847,2,0,P|355:318|342:341,1,55,2|2,0:2|0:2,0:0:0:0:
248,329,144138,2,0,L|175:323,1,55,10|8,0:2|0:2,0:0:0:0:
140,240,144429,2,0,L|85:244,1,55,10|8,0:2|0:2,0:0:0:0:
23,323,144721,5,8,0:3:0:0:
135,160,145012,2,0,L|199:162,1,55,2|2,0:2|0:2,0:0:0:0:
153,254,145303,1,2,0:2:0:0:
62,78,145594,1,2,0:2:0:0:
260,78,145886,6,0,P|278:101|287:133,1,55,10|0,0:2|0:2,0:0:0:0:
384,114,146177,2,0,P|380:142|364:171,1,55,2|2,0:2|0:2,0:0:0:0:
301,238,146468,2,0,P|361:262|387:314,1,110,2|0,0:2|0:0,0:0:0:0:
462,118,147051,6,0,L|454:43,1,55,2|2,0:2|0:2,0:0:0:0:
366,20,147342,1,2,0:2:0:0:
295,204,147633,2,0,P|351:223|414:198,1,110,2|2,0:2|0:2,0:0:0:0:
226,109,148216,2,0,P|204:138|192:166,1,55,8|8,0:2|0:2,0:0:0:0:
201,253,148507,1,8,0:2:0:0:
287,302,148653,2,0,L|291:345,2,27.5,8|8|4,0:2|0:2|1:3,0:0:0:0:
320,107,149089,1,4,1:3:0:0:
105,65,149381,6,0,L|112:134,1,60.5000018463135,6|2,1:2|0:2,0:0:0:0:
198,190,149672,2,0,L|191:259,1,60.5000018463135,10|8,0:2|0:2,0:0:0:0:
190,359,149963,2,0,P|242:374|312:349,1,121.000003692627,2|8,1:2|0:2,0:0:0:0:
349,141,150546,2,0,P|321:123|285:113,1,60.5000018463135,2|2,1:2|0:2,0:0:0:0:
280,6,150837,2,0,P|247:13|214:31,1,60.5000018463135,10|8,0:2|0:2,0:0:0:0:
185,127,151128,1,2,1:2:0:0:
395,69,151420,1,8,1:2:0:0:
349,281,151711,6,0,L|424:299,1,60.5000018463135,0|2,1:2|0:2,0:0:0:0:
308,197,152002,2,0,L|233:215,1,60.5000018463135,10|8,0:2|0:2,0:0:0:0:
145,246,152293,2,0,P|92:199|93:130,1,121.000003692627,2|10,1:2|0:2,0:0:0:0:
0,157,152730,1,0,0:2:0:0:
0,156,152876,2,0,P|18:89|74:52,1,121.000003692627,2|10,1:2|0:2,0:0:0:0:
164,75,153313,1,10,0:2:0:0:
164,75,153458,2,0,L|239:91,1,60.5000018463135,10|8,0:2|0:2,0:0:0:0:
331,106,153750,1,8,0:2:0:0:
360,210,153895,1,8,0:2:0:0:
284,288,154041,6,0,L|206:273,1,60.5000018463135,6|2,1:2|0:2,0:0:0:0:
342,365,154332,2,0,L|420:350,1,60.5000018463135,10|8,0:2|0:2,0:0:0:0:
480,277,154623,2,0,P|501:210|476:153,1,121.000003692627,2|8,1:2|0:2,0:0:0:0:
282,81,155206,2,0,P|256:108|243:143,1,60.5000018463135,2|2,1:2|0:2,0:0:0:0:
137,129,155497,2,0,P|137:166|153:200,1,60.5000018463135,10|8,0:2|0:2,0:0:0:0:
234,250,155788,1,2,1:2:0:0:
182,37,156080,1,8,1:2:0:0:
68,222,156371,6,0,L|86:305,1,60.5000018463135,0|2,1:2|0:2,0:0:0:0:
160,355,156662,2,0,L|172:295,1,60.5000018463135,10|8,0:2|0:2,0:0:0:0:
237,206,156954,2,0,P|308:187|357:207,1,121.000003692627,2|10,1:2|0:2,0:0:0:0:
435,269,157390,1,0,0:2:0:0:
435,269,157536,2,0,L|458:185,1,60.5000018463135,10|8,1:2|0:2,0:0:0:0:
451,101,157827,1,10,0:2:0:0:
351,57,157973,2,0,L|342:13,2,30.2500009231568,8|8|4,0:2|0:2|1:3,0:0:0:0:
295,268,158410,1,4,1:3:0:0:
