osu file format v14

[General]
AudioFilename: audio.mp3
AudioLeadIn: 0
PreviewTime: 44526
Countdown: 0
SampleSet: Soft
StackLeniency: 0.5
Mode: 0
LetterboxInBreaks: 0
WidescreenStoryboard: 0

[Editor]
DistanceSpacing: 1.1
BeatDivisor: 4
GridSize: 4
TimelineZoom: 1.7

[Metadata]
Title:Bomb Bomb
TitleUnicode:밤밤
Artist:KARD
ArtistUnicode:KARD
Creator:DeRandom Otaku
Version:Deppy's Normal
Source:
Tags:kpop k-pop K.A.R.D 전지우 Jiwoo 전소민 Somin 매튜김 B.M 김태형 J.Seph DSP Media xenon- xehn kowari agatsu deppyforce Ren
BeatmapID:2090046
BeatmapSetID:950639

[Difficulty]
HPDrainRate:3
CircleSize:3.5
OverallDifficulty:4
ApproachRate:5
SliderMultiplier:1.6
SliderTickRate:1

[Events]
//Background and Video events
0,0,"bg.jpg",0,0
//Break Periods
2,28415,36336
2,65697,73618
2,84338,92258
2,140260,147016
//Storyboard Layer 0 (Background)
//Storyboard Layer 1 (Fail)
//Storyboard Layer 2 (Pass)
//Storyboard Layer 3 (Foreground)
//Storyboard Layer 4 (Overlay)
//Storyboard Sound Samples

[TimingPoints]
255,582.52427184466,4,1,0,40,1,0
255,-100,4,1,0,40,0,0
4915,-100,4,2,0,50,0,0
7245,-100,4,2,0,55,0,0
8410,-100,4,2,0,68,0,0
9575,-100,4,2,0,70,0,0
18895,-100,4,2,0,70,0,0
24138,-100,4,2,0,70,0,0
24721,-100,4,2,0,70,0,0
25303,-100,4,2,0,70,0,0
25886,-100,4,2,0,70,0,0
28216,-100,4,2,0,50,0,0
31274,-100,4,2,0,50,0,0
32876,-100,4,2,0,50,0,0
37536,-100,4,2,0,50,0,0
42196,-100,4,2,0,65,0,0
44526,-100,4,2,0,25,0,0
46856,-100,4,2,0,80,0,0
47148,-100,4,2,0,80,0,0
47439,-100,4,2,0,80,0,0
48021,-100,4,2,0,80,0,0
48313,-100,4,2,0,80,0,0
48604,-100,4,2,0,80,0,0
49478,-100,4,2,0,80,0,0
49769,-100,4,2,0,80,0,0
50352,-100,4,2,0,80,0,0
50643,-100,4,2,0,80,0,0
51517,-100,4,2,0,80,0,0
51662,-100,4,2,0,5,0,0
51808,-100,4,2,0,80,0,0
52099,-100,4,2,0,80,0,0
52682,-100,4,2,0,80,0,0
52973,-100,4,2,0,80,0,0
53264,-100,4,2,0,80,0,0
56177,-100,4,2,0,85,0,1
60837,-100,4,2,0,85,0,1
61128,-100,4,2,0,85,0,1
65497,-100,4,2,0,52,0,0
84138,-100,4,2,0,50,0,0
87196,-100,4,2,0,50,0,0
88798,-100,4,2,0,50,0,0
93458,-100,4,2,0,50,0,0
98118,-100,4,2,0,65,0,0
100448,-100,4,2,0,25,0,0
102778,-100,4,2,0,80,0,0
103070,-100,4,2,0,80,0,0
103361,-100,4,2,0,80,0,0
103943,-100,4,2,0,80,0,0
104235,-100,4,2,0,80,0,0
104526,-100,4,2,0,80,0,0
105400,-100,4,2,0,80,0,0
105691,-100,4,2,0,80,0,0
106274,-100,4,2,0,80,0,0
106565,-100,4,2,0,80,0,0
107439,-100,4,2,0,80,0,0
107584,-100,4,2,0,5,0,0
107730,-100,4,2,0,80,0,0
108021,-100,4,2,0,80,0,0
108604,-100,4,2,0,80,0,0
108895,-100,4,2,0,80,0,0
109186,-100,4,2,0,80,0,0
112099,-100,4,2,0,85,0,1
116759,-100,4,2,0,85,0,1
117050,-100,4,2,0,85,0,1
121420,-100,4,2,0,60,0,0
130740,-100,4,2,0,65,0,0
137730,-100,4,2,0,25,0,0
139478,-100,4,2,0,60,0,0
140060,-100,4,2,0,75,0,0
140352,-100,4,2,0,48,0,0
144721,-100,4,2,0,48,0,0
144866,-100,4,2,0,5,0,0
145012,-100,4,2,0,48,0,0
148216,-100,4,2,0,65,0,0
149381,-100,4,2,0,85,0,1
154041,-100,4,2,0,85,0,1
154332,-100,4,2,0,85,0,1
158410,-100,4,2,0,52,0,0

[Colours]
Combo1 : 145,72,72
Combo2 : 255,128,64
Combo3 : 255,128,128
Combo4 : 255,45,45

[HitObjects]
256,192,4915,12,8,8410,0:2:0:0:
256,78,9575,6,0,P|334:72|401:113,1,160,2|2,1:2|1:2,0:0:0:0:
386,200,10449,1,0,0:2:0:0:
306,237,10740,2,0,P|287:203|288:155,1,80,2|0,1:2|0:2,0:0:0:0:
199,145,11322,2,0,L|176:233,1,80,2|0,1:2|1:2,0:0:0:0:
93,246,11905,6,0,B|72:187|72:187|82:153|82:153|62:94,2,160,2|2|2,1:2|1:2|1:2,0:0:0:0:
155,308,13361,1,2,0:2:0:0:
223,252,13653,2,0,B|235:215|235:215|233:175,1,80,2|0,1:2|0:2,0:0:0:0:
224,86,14235,6,0,P|301:75|366:118,1,160,2|2,1:2|1:2,0:0:0:0:
399,200,15109,1,0,0:2:0:0:
369,282,15400,2,0,P|334:300|294:303,1,80,2|0,1:2|0:2,0:0:0:0:
223,252,15983,2,0,P|216:155|216:155,1,80,2|0,1:2|1:2,0:0:0:0:
131,157,16565,6,0,L|118:344,2,160,2|2|10,1:2|1:2|1:2,0:0:0:0:
187,89,18021,1,10,0:2:0:0:
273,109,18313,2,0,B|300:141|300:141|302:180,1,80,4|4,1:3|1:3,0:0:0:0:
301,266,18895,6,0,P|336:214|415:253,1,160,2|2,1:2|1:2,0:0:0:0:
448,327,19769,1,2,0:2:0:0:
501,256,20060,2,0,P|508:214|510:170,2,80,2|2|2,1:2|0:2|1:2,0:0:0:0:
413,247,20934,1,0,1:2:0:0:
358,177,21225,6,0,L|351:98,1,80,2|2,1:2|0:2,0:0:0:0:
276,49,21808,2,0,L|211:94,1,80,2|2,1:2|0:2,0:0:0:0:
206,184,22391,2,0,L|277:217,2,80,2|2|2,1:2|0:2|1:2,0:0:0:0:
129,226,23264,1,0,0:2:0:0:
59,172,23555,6,0,P|35:102|58:21,1,160,2|2,1:2|0:2,0:0:0:0:
225,74,24721,2,0,P|249:144|226:225,1,160,2|2,1:2|0:2,0:0:0:0:
58,171,25886,6,0,B|37:139|37:139|35:98,1,80,10|0,0:2|0:2,0:0:0:0:
110,53,26468,2,0,B|131:85|131:85|133:126,1,80,2|2,1:2|0:2,0:0:0:0:
136,214,27051,2,0,L|227:223,2,80,10|10|4,0:2|0:2|1:3,0:0:0:0:
92,290,27924,2,0,P|54:298|14:293,1,80,4|6,1:3|0:2,0:0:0:0:
22,302,37536,6,0,B|54:306|84:301|84:301|97:316|117:324|117:324|140:318|175:321,1,160,14|10,0:2|0:2,0:0:0:0:
256,355,38410,1,0,0:2:0:0:
338,321,38701,2,0,B|371:317|394:323|394:323|414:315|427:300|427:300|457:305|489:301,1,160,8|10,0:2|0:2,0:0:0:0:
507,215,39575,1,0,0:2:0:0:
447,151,39866,2,0,B|366:157|366:157|343:237,2,160,10|10|10,0:2|0:2|0:2,0:0:0:0:
496,78,41323,1,0,0:2:0:0:
434,16,41614,2,0,P|353:22|353:22,1,80,10|0,0:2|0:2,0:0:0:0:
256,192,42196,12,2,44526,0:2:0:0:
256,28,46856,6,0,P|217:24|178:32,1,80,4|10,1:2|0:2,0:0:0:0:
132,108,47439,2,0,L|127:201,2,80,2|10|2,1:2|0:2|1:2,0:0:0:0:
45,90,48313,1,10,0:2:0:0:
1,166,48604,2,0,L|6:259,1,80,2|10,1:2|1:2,0:0:0:0:
9,333,49187,6,0,P|88:336|167:324,1,160,0|2,1:2|1:2,0:0:0:0:
231,263,50060,1,10,0:2:0:0:
314,292,50352,2,0,L|320:379,1,80,2|10,1:2|0:2,0:0:0:0:
407,364,50934,2,0,L|412:284,1,80,10|10,0:2|0:2,0:0:0:0:
357,215,51517,6,0,P|432:198|493:246,2,160,4|2|2,1:2|1:2|1:2,0:0:0:0:
314,292,52973,1,10,0:2:0:0:
231,263,53264,2,0,B|216:226|216:226|216:185,1,80,2|10,1:2|1:2,0:0:0:0:
239,100,53847,2,0,L|330:95,1,80,2|10,1:2|0:2,0:0:0:0:
339,10,54429,2,0,L|151:20,2,160,2|10|4,1:2|1:2|1:3,0:0:0:0:
402,71,55886,1,4,1:3:0:0:
370,152,56177,6,0,P|337:129|318:95,2,80,6|10|2,1:2|0:2|1:2,0:0:0:0:
457,140,57051,1,8,0:2:0:0:
490,58,57342,2,0,P|475:21|446:-5,2,80,2|10|2,1:2|0:2|1:2,0:0:0:0:
457,140,58216,1,8,1:2:0:0:
370,152,58507,6,0,P|337:129|318:95,1,80,0|10,1:2|0:2,0:0:0:0:
236,127,59089,2,0,B|229:223|266:185|262:283,2,160,2|2|10,1:2|1:2|0:2,0:0:0:0:
160,81,60546,1,8,0:2:0:0:
123,161,60837,6,0,L|36:169,2,80,6|10|2,1:2|0:2|1:2,0:0:0:0:
160,81,61711,1,8,0:2:0:0:
236,127,62002,2,0,L|323:135,2,80,2|10|2,1:2|0:2|1:2,0:0:0:0:
160,81,62876,1,8,1:2:0:0:
123,161,63167,6,0,L|36:169,1,80,0|10,1:2|0:2,0:0:0:0:
5,247,63750,2,0,B|-2:295|12:328|12:328|44:353|84:352,2,160,2|10|4,1:2|1:2|1:3,0:0:0:0:
43,168,65206,1,4,1:3:0:0:
130,166,65497,5,4,1:3:0:0:
256,237,74818,6,0,B|306:173|306:173|382:190,1,160,4|10,1:2|0:2,0:0:0:0:
440,257,75691,1,2,1:2:0:0:
305,370,76274,2,0,P|272:350|232:346,2,80,0|10|0,0:0|0:2|0:0,0:0:0:0:
440,257,77439,2,0,P|439:296|455:332,2,80,0|10|2,0:0|0:2|0:2,0:0:0:0:
274,197,78605,2,0,P|308:177|332:145,2,80,0|0|2,0:0|0:0|0:2,0:0:0:0:
187,179,79478,6,0,B|154:107|154:107|185:31,1,160,0|10,1:2|0:2,0:0:0:0:
272,25,80352,1,2,0:2:0:0:
363,176,80934,2,0,P|321:194|301:220,2,80,0|10|2,0:0|0:2|0:2,0:0:0:0:
187,178,82099,2,0,P|193:139|179:102,2,80,0|10|0,0:0|0:2|0:0,0:0:0:0:
272,25,83264,2,0,P|302:49|341:56,2,80,0|10|2,0:0|0:2|0:2,0:0:0:0:
184,14,84138,5,6,0:2:0:0:
422,274,93458,6,0,B|381:292|359:325|359:325|327:303|284:311,1,160,14|10,0:2|0:2,0:0:0:0:
225,377,94332,1,0,0:2:0:0:
146,337,94623,2,0,B|128:296|95:274|95:274|117:242|108:199,1,160,8|10,0:2|0:2,0:0:0:0:
43,140,95497,1,0,0:2:0:0:
83,61,95788,2,0,B|124:43|146:10|146:10|178:32|220:23,2,160,10|10|10,0:2|0:2|0:2,0:0:0:0:
43,140,97245,1,0,0:2:0:0:
108,199,97536,2,0,L|198:190,1,80,10|0,0:2|0:2,0:0:0:0:
256,192,98118,12,2,100448,0:2:0:0:
256,28,102779,6,0,P|295:24|334:32,1,80,4|10,1:2|0:2,0:0:0:0:
397,93,103361,2,0,L|408:185,2,80,2|10|2,1:2|0:2|1:2,0:0:0:0:
312,118,104235,1,10,0:2:0:0:
256,186,104526,2,0,L|267:278,1,80,2|10,1:2|1:2,0:0:0:0:
194,317,105109,6,0,P|165:244|170:165,1,160,0|2,1:2|1:2,0:0:0:0:
225,96,105983,1,10,0:2:0:0:
180,20,106274,2,0,B|140:14|140:14|102:32,1,80,2|10,1:2|0:2,0:0:0:0:
63,109,106856,2,0,B|57:148|57:148|75:186,1,80,10|10,0:2|0:2,0:0:0:0:
123,258,107439,6,0,B|207:239|203:281|281:263,2,160,4|2|2,1:2|1:2|1:2,0:0:0:0:
87,338,108895,1,10,0:2:0:0:
1,317,109187,2,0,L|4:238,1,80,2|10,1:2|1:2,0:0:0:0:
74,184,109769,2,0,B|81:145|81:145|71:105,1,80,2|10,1:2|0:2,0:0:0:0:
148,63,110352,2,0,B|167:142|167:142|153:219,2,160,2|10|4,1:2|1:2|1:3,0:0:0:0:
80,6,111808,1,4,1:3:0:0:
3,49,112099,6,0,P|-6:88|-10:133,2,80,6|10|2,1:2|0:2|1:2,0:0:0:0:
80,6,112973,1,8,0:2:0:0:
148,63,113264,2,0,P|160:101|168:145,2,80,2|10|2,1:2|0:2|1:2,0:0:0:0:
80,6,114138,1,8,1:2:0:0:
3,49,114429,6,0,P|-6:88|-10:133,1,80,0|10,1:2|0:2,0:0:0:0:
20,209,115012,2,0,P|97:203|155:255,2,160,2|2|10,1:2|1:2|0:2,0:0:0:0:
3,296,116468,1,8,0:2:0:0:
62,360,116759,6,0,L|142:355,2,80,6|10|2,1:2|0:2|1:2,0:0:0:0:
3,296,117633,1,8,0:2:0:0:
20,209,117924,2,0,L|100:204,2,80,2|10|2,1:2|0:2|1:2,0:0:0:0:
3,296,118798,1,8,1:2:0:0:
62,360,119089,6,0,L|142:355,1,80,0|10,1:2|0:2,0:0:0:0:
161,268,119672,2,0,B|224:273|224:273|233:299|233:299|302:304,2,160,2|10|4,1:2|1:2|1:3,0:0:0:0:
99,204,121128,1,4,1:3:0:0:
126,120,121420,6,0,P|202:100|257:43,3,160,8|8|8|8,0:2|0:2|0:2|0:2,0:0:0:0:
416,118,123750,2,0,P|394:194|416:269,3,160,10|8|8|8,0:2|0:2|0:2|0:2,0:0:0:0:
346,322,125788,1,10,0:2:0:0:
273,371,126080,2,0,P|217:314|141:295,3,160,10|8|10|8,0:2|0:2|0:2|0:2,0:0:0:0:
126,120,128410,2,0,P|202:100|257:43,3,160,8|8|8|4,0:2|0:2|0:2|1:3,0:0:0:0:
343,27,130449,1,4,1:3:0:0:
404,90,130740,6,0,B|410:142|410:142|386:190|386:190|394:244,1,160,14|8,0:2|0:2,0:0:0:0:
324,298,131614,1,0,0:2:0:0:
243,261,131905,2,0,P|217:214|243:106,1,160,8|8,0:2|0:2,0:0:0:0:
316,75,132779,1,2,0:2:0:0:
404,90,133070,6,0,B|410:142|410:142|386:190|386:190|394:244,1,160,10|10,0:2|0:2,0:0:0:0:
324,298,133944,1,10,0:2:0:0:
243,261,134235,2,0,P|217:214|216:157,1,80,8|0,0:2|0:2,0:0:0:0:
213,100,134818,2,0,L|133:109,1,80,8|8,0:2|0:2,0:0:0:0:
256,192,135400,12,2,137730,0:2:0:0:
37,260,139478,6,0,L|27:339,2,80,8|8|4,0:3|0:3|0:2,0:0:0:0:
37,260,148216,6,0,L|27:339,1,80,8|8,0:2|0:2,0:0:0:0:
112,361,148798,2,0,L|121:281,1,80,4|4,1:3|1:3,0:0:0:0:
194,231,149381,6,0,P|244:248|279:248,2,80,6|10|2,1:2|0:2|1:2,0:0:0:0:
179,144,150254,1,8,0:2:0:0:
235,76,150546,2,0,P|286:86|317:103,2,80,2|10|2,1:2|0:2|1:2,0:0:0:0:
179,144,151420,1,8,1:2:0:0:
194,231,151711,6,0,P|244:248|279:248,1,80,0|10,1:2|0:2,0:0:0:0:
314,324,152293,2,0,P|357:260|333:187,2,160,2|2|10,1:2|1:2|0:2,0:0:0:0:
228,345,153750,1,8,0:2:0:0:
149,304,154041,6,0,L|144:223,2,80,6|10|2,1:2|0:2|1:2,0:0:0:0:
84,363,154914,1,8,0:2:0:0:
4,323,155206,2,0,L|-1:242,2,80,2|10|2,1:2|0:2|1:2,0:0:0:0:
84,363,156080,1,8,1:2:0:0:
149,304,156371,6,0,L|144:223,1,80,0|10,1:2|0:2,0:0:0:0:
229,202,156954,2,0,L|240:382,2,160,2|10|4,1:2|1:2|1:3,0:0:0:0:
222,114,158410,1,4,1:3:0:0:
