osu file format v14

[General]
AudioFilename: audio.mp3
AudioLeadIn: 0
PreviewTime: 44526
Countdown: 0
SampleSet: Normal
StackLeniency: 0.4
Mode: 0
LetterboxInBreaks: 0
WidescreenStoryboard: 0

[Editor]
DistanceSpacing: 1.8
BeatDivisor: 8
GridSize: 4
TimelineZoom: 2.3

[Metadata]
Title:Bomb Bomb
TitleUnicode:밤밤
Artist:KARD
ArtistUnicode:KARD
Creator:DeRandom Otaku
Version:Burn
Source:
Tags:kpop k-pop K.A.R.D 전지우 Jiwoo 전소민 Somin 매튜김 B.M 김태형 J.Seph DSP Media xenon- xehn kowari agatsu deppyforce Ren
BeatmapID:1985303
BeatmapSetID:950639

[Difficulty]
HPDrainRate:5
CircleSize:3.6
OverallDifficulty:8.5
ApproachRate:9.3
SliderMultiplier:2.2
SliderTickRate:1

[Events]
//Background and Video events
0,0,"bg.jpg",0,0
//Break Periods
2,66142,73980
//Storyboard Layer 0 (Background)
//Storyboard Layer 1 (Fail)
//Storyboard Layer 2 (Pass)
//Storyboard Layer 3 (Foreground)
//Storyboard Layer 4 (Overlay)
//Storyboard Sound Samples

[TimingPoints]
255,582.52427184466,4,1,0,40,1,0
255,-133.333333333333,4,2,0,40,0,0
4915,-111.111111111111,4,2,0,50,0,0
7245,-111.111111111111,4,2,0,55,0,0
8410,-111.111111111111,4,2,0,68,0,0
9575,-90.9090909090909,4,2,0,70,0,0
18895,-74.0740740740741,4,2,0,70,0,0
24138,-166.666666666667,4,2,0,70,0,0
24721,-74.0740740740741,4,2,0,70,0,0
25303,-166.666666666667,4,2,0,70,0,0
25886,-55.5555555555556,4,2,0,70,0,0
28216,-111.111111111111,4,2,0,50,0,0
28798,-128.205128205128,4,2,0,50,0,0
29818,-111.111111111111,4,2,0,50,0,0
31274,-166.666666666667,4,2,0,50,0,0
32876,-111.111111111111,4,2,0,50,0,0
37536,-71.4285714285714,4,2,0,50,0,0
42196,-71.4285714285714,4,2,0,65,0,0
44526,-125,4,2,0,25,0,0
46856,-54.054054054054,4,2,0,80,0,0
47148,-45.4545454545455,4,2,0,80,0,0
47439,-62.5,4,2,0,80,0,0
48021,-54.054054054054,4,2,0,80,0,0
48313,-45.4545454545455,4,2,0,80,0,0
48604,-60.6060606060606,4,2,0,80,0,0
49478,-43.4782608695652,4,2,0,80,0,0
49769,-60.6060606060606,4,2,0,80,0,0
50352,-52.6315789473684,4,2,0,80,0,0
50643,-40,4,2,0,80,0,0
51517,-28.5714285714286,4,2,0,80,0,0
51662,-28.5714285714286,4,2,0,5,0,0
51808,-52.6315789473684,4,2,0,80,0,0
52099,-62.5,4,2,0,80,0,0
52682,-50,4,2,0,80,0,0
52973,-54.054054054054,4,2,0,80,0,0
53264,-62.5,4,2,0,80,0,0
56177,-54.054054054054,4,2,0,85,0,1
60837,-33.3333333333333,4,2,0,85,0,1
61128,-55.5555555555556,4,2,0,85,0,1
65497,-100,4,2,0,52,0,0
84138,-111.111111111111,4,2,0,50,0,0
84721,-128.205128205128,4,2,0,50,0,0
85740,-111.111111111111,4,2,0,50,0,0
87196,-166.666666666667,4,2,0,50,0,0
88798,-111.111111111111,4,2,0,50,0,0
93458,-71.4285714285714,4,2,0,50,0,0
98118,-71.4285714285714,4,2,0,65,0,0
100448,-125,4,2,0,25,0,0
102778,-54.054054054054,4,2,0,80,0,0
103070,-45.4545454545455,4,2,0,80,0,0
103361,-62.5,4,2,0,80,0,0
103943,-54.054054054054,4,2,0,80,0,0
104235,-45.4545454545455,4,2,0,80,0,0
104526,-60.6060606060606,4,2,0,80,0,0
105400,-43.4782608695652,4,2,0,80,0,0
105691,-60.6060606060606,4,2,0,80,0,0
106274,-52.6315789473684,4,2,0,80,0,0
106565,-40,4,2,0,80,0,0
107439,-28.5714285714286,4,2,0,80,0,0
107584,-28.5714285714286,4,2,0,5,0,0
107730,-52.6315789473684,4,2,0,80,0,0
108021,-62.5,4,2,0,80,0,0
108604,-50,4,2,0,80,0,0
108895,-54.054054054054,4,2,0,80,0,0
109186,-62.5,4,2,0,80,0,0
112099,-54.054054054054,4,2,0,85,0,1
116759,-33.3333333333333,4,2,0,85,0,1
117050,-55.5555555555556,4,2,0,85,0,1
121420,-92.5925925925926,4,2,0,60,0,0
130740,-84.7457627118644,4,2,0,65,0,0
137730,-125,4,2,0,25,0,0
139478,-55.5555555555556,4,2,0,60,0,0
140060,-64.5161290322581,4,2,0,75,0,0
140352,-64.5161290322581,4,2,0,48,0,0
144721,-41.6666666666667,4,2,0,48,0,0
144866,-41.6666666666667,4,2,0,5,0,0
145012,-64.5161290322581,4,2,0,48,0,0
148216,-64.5161290322581,4,2,0,65,0,0
149381,-54.054054054054,4,2,0,85,0,1
154041,-33.3333333333333,4,2,0,85,0,1
154332,-55.5555555555556,4,2,0,85,0,1
158410,-100,4,2,0,52,0,0

[Colours]
Combo1 : 145,72,72
Combo2 : 255,128,64
Combo3 : 255,128,128
Combo4 : 255,45,45

[HitObjects]
408,147,255,6,0,P|412:88|426:7,2,123.750004720688,2|8|2,0:2|0:2|0:2,0:0:0:0:
337,303,1420,2,0,P|332:268|316:221,1,82.5000031471254,2|0,0:2|0:2,0:0:0:0:
304,196,1784,1,0,0:2:0:0:
304,196,1856,1,8,0:2:0:0:
435,287,2002,1,8,0:2:0:0:
435,287,2293,1,8,0:2:0:0:
278,103,2585,6,0,P|338:104|393:158,2,123.750004720688,2|8|0,0:2|0:2|0:2,0:0:0:0:
153,220,3750,2,0,P|141:181|117:138,1,82.5000031471254,2|0,0:2|0:2,0:0:0:0:
97,118,4114,1,0,0:2:0:0:
97,118,4187,2,0,P|127:101|184:90,2,82.5000031471254,8|2|2,0:2|0:2|0:2,0:0:0:0:
24,252,4915,6,0,L|122:240,1,98.9999969787599,2|0,0:2|0:2,0:0:0:0:
232,229,5352,2,0,L|224:180,1,49.4999984893799,2|0,0:2|0:2,0:0:0:0:
293,286,5643,2,0,L|285:335,1,49.4999984893799,0|2,0:2|0:2,0:0:0:0:
367,245,5934,1,0,0:2:0:0:
407,318,6080,1,2,0:2:0:0:
471,264,6225,2,0,L|478:214,1,49.4999984893799,0|0,0:2|0:2,0:0:0:0:
487,184,6444,1,0,0:2:0:0:
487,184,6517,1,8,0:2:0:0:
437,116,6662,2,0,L|381:122,1,49.4999984893799,2|0,0:2|0:2,0:0:0:0:
280,27,6954,1,8,0:2:0:0:
370,36,7099,1,0,0:2:0:0:
295,165,7245,6,0,P|255:160|192:143,1,98.9999969787599,2|0,0:2|0:2,0:0:0:0:
107,105,7682,1,2,0:2:0:0:
113,203,7827,1,0,0:2:0:0:
118,90,7973,2,0,L|113:31,1,49.4999984893799,0|0,0:2|0:2,0:0:0:0:
27,151,8264,1,2,0:2:0:0:
198,145,8410,5,8,0:2:0:0:
51,291,8555,1,8,0:2:0:0:
211,157,8701,1,8,0:2:0:0:
321,352,8847,1,8,0:2:0:0:
344,343,8920,1,8,0:2:0:0:
366,334,8992,5,4,1:3:0:0:
37,294,9284,1,4,1:3:0:0:
357,156,9575,6,0,P|412:178|462:226,1,121.000003692627,2|0,1:2|0:2,0:0:0:0:
506,288,10012,1,0,0:2:0:0:
299,211,10157,2,0,L|309:87,1,121.000003692627,2|0,1:2|0:2,0:0:0:0:
293,81,10740,6,0,L|283:201,1,121.000003692627,2|0,1:2|0:2,0:0:0:0:
222,261,11177,1,0,0:2:0:0:
172,81,11322,2,0,L|162:201,1,121.000003692627,2|0,1:2|1:2,0:0:0:0:
160,220,11905,6,0,P|99:227|43:284,1,121.000003692627,2|0,1:2|0:2,0:0:0:0:
18,340,12342,1,0,0:2:0:0:
90,186,12488,2,0,P|86:146|79:113,1,60.5000018463135,2|0,1:2|0:2,0:0:0:0:
54,263,12779,1,2,0:2:0:0:
109,326,12924,1,2,0:2:0:0:
184,225,13070,6,0,L|265:236,1,60.5000018463135,2|0,1:2|0:2,0:0:0:0:
388,264,13361,1,2,0:2:0:0:
388,264,13507,1,0,0:2:0:0:
228,335,13653,1,2,1:2:0:0:
324,178,13798,1,8,0:2:0:0:
147,76,13944,1,0,0:2:0:0:
243,233,14089,1,8,0:2:0:0:
289,25,14235,6,0,P|350:40|426:49,1,121.000003692627,2|0,1:2|0:2,0:0:0:0:
491,57,14672,1,0,0:2:0:0:
399,168,14818,2,0,L|408:40,1,121.000003692627,2|0,1:2|0:2,0:0:0:0:
391,39,15400,6,0,L|382:159,1,121.000003692627,2|0,1:2|0:2,0:0:0:0:
372,243,15837,1,0,0:2:0:0:
262,152,15983,2,0,L|382:160,1,121.000003692627,2|0,1:2|1:2,0:0:0:0:
390,144,16565,6,0,L|269:135,1,121.000003692627,2|0,1:2|0:2,0:0:0:0:
209,75,17002,1,0,0:2:0:0:
160,220,17148,2,0,P|170:260|173:300,1,60.5000018463135,2|0,1:2|0:2,0:0:0:0:
165,363,17439,1,2,0:2:0:0:
242,329,17585,1,2,0:2:0:0:
59,276,17730,5,10,1:2:0:0:
308,247,17876,1,8,0:2:0:0:
51,290,18021,1,10,0:2:0:0:
209,75,18167,1,8,0:2:0:0:
205,105,18240,1,8,0:2:0:0:
201,135,18313,5,4,1:3:0:0:
483,36,18604,1,4,1:3:0:0:
415,360,18895,6,0,P|419:328|431:279,1,74.2500002832413,2|0,1:2|0:2,0:0:0:0:
457,201,19187,1,2,0:2:0:0:
457,201,19332,1,0,0:2:0:0:
308,247,19478,2,0,P|316:283|321:319,1,74.2500002832413,2|0,1:2|0:2,0:0:0:0:
457,201,19769,2,0,P|461:164|470:128,1,74.2500002832413,2|0,0:2|0:2,0:0:0:0:
326,24,20060,6,0,P|291:41|237:56,1,74.2500002832413,2|0,1:2|0:2,0:0:0:0:
129,145,20352,1,2,0:2:0:0:
129,145,20497,1,0,0:2:0:0:
308,247,20643,2,0,P|234:271|164:305,1,148.500000566483,2|0,1:2|1:2,0:0:0:0:
170,302,21225,6,0,P|134:297|94:282,1,74.2500002832413,2|0,1:2|0:2,0:0:0:0:
195,201,21517,1,2,0:2:0:0:
195,201,21662,1,0,0:2:0:0:
262,358,21808,2,0,P|298:353|338:338,1,74.2500002832413,2|0,1:2|0:2,0:0:0:0:
166,322,22099,2,0,P|129:316|94:304,1,74.2500002832413,2|0,0:2|0:2,0:0:0:0:
383,275,22390,6,0,P|407:305|416:351,1,74.2500002832413,2|0,1:2|0:2,0:0:0:0:
304,221,22682,1,2,0:2:0:0:
304,221,22827,1,0,0:2:0:0:
333,340,22973,1,2,1:2:0:0:
408,171,23119,1,8,0:2:0:0:
229,52,23264,1,0,0:2:0:0:
304,221,23410,1,8,0:2:0:0:
414,45,23555,5,2,1:2:0:0:
220,153,23701,2,0,P|142:143|56:139,1,148.500000566483,2|0,0:2|0:2,0:0:0:0:
229,52,24138,6,0,P|282:45|335:42,1,98.9999969787599,2|0,0:2|0:2,0:0:0:0:
495,192,24721,5,2,1:2:0:0:
302,172,24866,2,0,P|314:245|318:323,1,148.500000566483,2|0,0:2|0:2,0:0:0:0:
484,290,25303,6,0,P|487:240|495:192,1,98.9999969787599,2|0,0:2|0:2,0:0:0:0:
327,42,25886,6,0,B|279:23|279:23|223:52,1,98.9999969787599,10|0,0:2|0:2,0:0:0:0:
135,142,26177,1,0,0:2:0:0:
135,142,26322,1,0,0:2:0:0:
284,116,26468,1,2,1:2:0:0:
78,67,26614,1,2,0:2:0:0:
175,252,26759,1,2,0:2:0:0:
236,45,26905,1,2,0:2:0:0:
26,204,27051,5,10,0:2:0:0:
292,229,27196,1,10,0:2:0:0:
21,190,27342,1,10,0:2:0:0:
269,333,27488,1,8,0:2:0:0:
303,329,27560,1,8,0:2:0:0:
337,325,27633,5,4,1:3:0:0:
78,67,27924,1,4,1:3:0:0:
78,67,28216,6,0,L|186:80,1,98.9999969787599,6|0,0:2|0:2,0:0:0:0:
235,138,28653,1,2,0:2:0:0:
235,138,28798,2,0,B|334:129|334:129|309:333,1,300.300010080872,2|0,0:2|0:2,0:0:0:0:
407,264,29963,1,2,0:2:0:0:
287,228,30109,2,0,L|179:241,1,98.9999969787599,2|0,0:2|0:2,0:0:0:0:
67,124,30546,6,0,P|89:155|88:218,1,98.9999969787599,2|0,0:2|0:2,0:0:0:0:
64,294,30983,1,0,0:2:0:0:
180,366,31128,5,2,0:2:0:0:
180,366,31274,2,0,P|223:358|252:357,1,65.9999979858399,2|0,0:2|0:2,0:0:0:0:
333,273,31711,5,2,0:2:0:0:
333,273,31857,2,0,P|300:270|267:263,1,65.9999979858399,2|0,0:2|0:2,0:0:0:0:
154,252,32293,5,2,0:2:0:0:
154,252,32439,2,0,P|121:254|88:261,1,65.9999979858399,2|0,0:2|0:2,0:0:0:0:
170,163,32876,6,0,P|138:152|88:144,2,74.2499977340699,2|2|2,0:2|0:2|0:2,0:0:0:0:
240,233,33458,2,0,P|272:222|322:214,2,74.2499977340699,2|2|2,0:2|0:2|0:2,0:0:0:0:
169,303,34041,2,0,P|137:292|87:284,2,74.2499977340699,2|2|2,0:2|0:2|0:2,0:0:0:0:
239,373,34623,2,0,P|294:364|353:335,1,98.9999969787599,2|0,0:2|3:2,0:0:0:0:
430,85,35206,6,0,L|504:78,2,74.2499977340699,2|2|2,0:2|0:2|0:2,0:0:0:0:
338,176,35788,2,0,L|412:183,2,74.2499977340699,2|2|2,0:2|0:2|0:2,0:0:0:0:
246,84,36371,2,0,L|320:77,2,74.2499977340699,2|2|2,0:2|0:2|0:2,0:0:0:0:
154,175,36954,2,0,P|145:143|147:114,1,49.4999984893799,2|0,0:2|0:0,0:0:0:0:
187,0,37245,2,0,P|185:24|177:48,1,49.4999984893799,2|0,0:2|0:0,0:0:0:0:
61,141,37536,6,0,P|73:202|75:302,1,153.999995300293,14|0,0:2|0:2,0:0:0:0:
152,370,37973,1,2,0:2:0:0:
223,289,38119,2,0,P|282:308|375:329,2,153.999995300293,10|0|8,0:2|0:2|0:2,0:0:0:0:
293,207,38847,5,0,0:2:0:0:
287,353,38992,1,0,0:2:0:0:
314,200,39138,1,0,0:2:0:0:
386,339,39284,2,0,P|426:330|494:326,1,76.9999976501466,10|0,0:2|0:2,0:0:0:0:
223,289,39575,2,0,P|184:284|147:276,1,76.9999976501466,0|0,0:2|0:2,0:0:0:0:
407,226,39866,5,10,0:2:0:0:
205,180,40012,2,0,L|216:90,2,76.9999976501466,2|0|0,0:2|0:2|0:2,0:0:0:0:
419,239,40449,1,10,0:2:0:0:
182,171,40595,2,0,L|194:70,2,76.9999976501466,2|0|0,0:2|0:2|0:2,0:0:0:0:
287,353,41031,5,10,0:2:0:0:
362,174,41177,2,0,P|406:156|444:156,2,76.9999976501466,2|0|0,0:2|0:2|0:2,0:0:0:0:
287,365,41614,1,10,0:2:0:0:
182,171,41760,2,0,P|138:153|100:153,1,76.9999976501466,2|0,0:2|0:2,0:0:0:0:
354,277,42051,1,2,0:2:0:0:
121,249,42196,5,10,0:2:0:0:
347,184,42342,1,2,0:2:0:0:
109,151,42488,5,10,0:2:0:0:
188,365,42633,1,2,0:2:0:0:
267,64,42779,5,10,0:2:0:0:
188,278,42924,1,2,0:2:0:0:
114,62,43070,5,10,0:2:0:0:
347,184,43216,1,2,0:2:0:0:
75,225,43361,5,10,0:2:0:0:
49,222,43434,1,2,0:2:0:0:
24,219,43507,1,2,0:2:0:0:
270,319,43653,5,10,0:2:0:0:
296,316,43726,1,2,0:2:0:0:
321,313,43799,1,2,0:2:0:0:
214,156,43944,5,10,0:2:0:0:
213,127,44016,1,2,0:2:0:0:
223,100,44089,1,10,0:2:0:0:
242,78,44162,1,2,0:2:0:0:
267,64,44235,1,10,0:2:0:0:
295,59,44308,1,2,0:2:0:0:
323,64,44380,1,10,0:2:0:0:
348,79,44453,1,2,0:2:0:0:
366,101,44526,6,0,L|372:46,2,44,2|2|2,0:2|0:2|0:2,0:0:0:0:
214,156,45109,2,0,L|209:199,2,44,2|2|2,0:2|0:2|0:2,0:0:0:0:
477,214,45691,5,2,0:2:0:0:
459,218,45983,1,2,0:2:0:0:
442,222,46274,1,2,0:2:0:0:
487,19,46565,1,2,0:2:0:0:
214,156,46856,6,0,B|244:199|244:199|229:320,1,152.624999417782,4|0,1:2|0:2,0:0:0:0:
227,329,47148,2,0,P|258:326|306:325,1,60.5000018463135,10|0,0:2|0:2,0:0:0:0:
145,223,47293,2,0,P|114:220|61:220,1,60.5000018463135,10|0,0:2|0:2,0:0:0:0:
179,65,47439,2,0,P|225:59|279:85,1,88,2|0,1:2|0:2,0:0:0:0:
58,217,47730,2,0,P|45:177|71:124,1,88,10|0,0:2|0:2,0:0:0:0:
287,324,48021,6,0,P|237:327|161:338,1,101.749999611855,2|0,1:2|0:2,0:0:0:0:
405,222,48313,2,0,P|415:253|423:306,1,60.5000018463135,10|0,0:2|0:2,0:0:0:0:
271,150,48458,2,0,P|277:120|286:91,1,60.5000018463135,10|0,0:2|0:2,0:0:0:0:
482,43,48604,2,0,P|468:82|456:151,1,90.7500008654595,2|0,1:2|0:2,0:0:0:0:
511,293,48895,2,0,B|402:304|450:371|316:371,1,181.500001730919,10|0,1:2|1:2,0:0:0:0:
351,369,49478,6,0,P|343:330|328:293,1,63.250001206398,10|0,0:2|0:2,0:0:0:0:
436,219,49623,2,0,P|425:248|420:279,1,63.250001206398,10|0,0:2|0:2,0:0:0:0:
231,174,49769,2,0,P|274:161|315:141,1,90.7500008654595,2|0,1:2|0:2,0:0:0:0:
155,334,50060,2,0,P|115:314|72:301,1,90.7500008654595,10|0,0:2|0:2,0:0:0:0:
328,275,50352,6,0,B|417:290|377:337|485:355,1,156.749995814324,2|0,1:2|0:2,0:0:0:0:
487,364,50643,2,0,P|497:313|510:279,1,68.75,10|0,0:2|0:2,0:0:0:0:
420,118,50788,2,0,P|429:150|435:184,1,68.75,10|0,0:2|0:2,0:0:0:0:
328,363,50934,1,10,0:2:0:0:
340,171,51080,1,10,0:2:0:0:
169,347,51225,1,10,0:2:0:0:
421,278,51371,1,10,0:2:0:0:
157,173,51517,6,0,B|86:142|28:182|28:182|57:189|95:216,1,192.500001835823,4|0,1:2|0:2,0:0:0:0:
169,347,51808,2,0,P|169:320|179:279,1,52.2499986047745,10|0,0:2|0:2,0:0:0:0:
246,153,51954,2,0,P|246:126|236:85,1,52.2499986047745,10|0,0:2|0:2,0:0:0:0:
69,26,52099,2,0,L|77:136,1,88,2|0,1:2|0:2,0:0:0:0:
239,240,52390,2,0,L|246:153,1,88,10|0,0:2|0:2,0:0:0:0:
487,28,52682,6,0,B|403:31|429:96|330:98,1,165,2|0,1:2|0:2,0:0:0:0:
315,86,52973,2,0,P|316:46|309:11,1,50.8749998059273,10|0,0:2|0:2,0:0:0:0:
491,125,53119,2,0,P|488:150|490:175,1,50.8749998059273,10|0,0:2|0:2,0:0:0:0:
299,201,53264,2,0,P|259:181|217:170,1,88,2|0,1:2|0:2,0:0:0:0:
418,311,53555,2,0,P|457:291|499:280,1,88,10|0,1:2|0:2,0:0:0:0:
224,278,53847,5,2,1:2:0:0:
224,278,53992,1,2,0:2:0:0:
429,224,54138,2,0,P|419:267|418:311,1,88,10|8,0:2|0:2,0:0:0:0:
299,201,54429,2,0,P|297:157|287:114,1,88,2|0,1:2|0:2,0:0:0:0:
28,242,54721,2,0,B|103:265|56:294|146:330,1,132,10|0,0:2|0:2,0:0:0:0:
156,329,55012,5,10,1:2:0:0:
141,112,55157,1,8,0:2:0:0:
9,324,55303,1,10,0:2:0:0:
32,80,55449,1,8,0:2:0:0:
33,56,55521,1,8,0:2:0:0:
35,32,55594,5,4,1:3:0:0:
163,347,55886,1,4,1:3:0:0:
163,347,56177,5,6,1:2:0:0:
258,144,56322,1,2,0:2:0:0:
67,367,56468,2,0,P|56:325|50:262,1,101.749999611855,10|8,0:2|0:2,0:0:0:0:
237,58,56759,2,0,B|336:59|290:101|390:101,1,152.624999417782,2|0,1:2|0:2,0:0:0:0:
461,135,57051,2,0,P|413:125|358:132,1,101.749999611855,8|0,0:2|0:2,0:0:0:0:
140,244,57342,5,2,1:2:0:0:
215,38,57488,1,2,0:2:0:0:
239,295,57633,1,10,0:2:0:0:
239,295,57706,1,0,0:2:0:0:
239,295,57779,1,8,0:2:0:0:
15,116,57924,2,0,B|95:141|49:183|126:227,1,152.624999417782,2|0,1:2|0:2,0:0:0:0:
140,244,58216,2,0,P|92:261|41:311,1,101.749999611855,8|0,1:2|0:2,0:0:0:0:
347,237,58507,5,0,1:2:0:0:
160,140,58653,1,2,0:2:0:0:
379,100,58798,2,0,P|424:118|478:135,1,101.749999611855,10|8,0:2|0:2,0:0:0:0:
152,25,59089,2,0,P|164:69|172:127,1,101.749999611855,2|0,1:2|0:2,0:0:0:0:
315,351,59381,2,0,P|321:300|334:251,1,101.749999611855,10|0,0:2|0:2,0:0:0:0:
63,162,59672,6,0,P|81:230|94:320,1,152.624999417782,2|0,1:2|0:2,0:0:0:0:
99,341,59963,1,10,0:2:0:0:
171,124,60109,1,10,0:2:0:0:
347,263,60254,1,10,0:2:0:0:
119,232,60400,1,8,0:2:0:0:
367,170,60546,1,8,0:2:0:0:
102,234,60692,1,8,0:2:0:0:
355,78,60837,6,0,B|453:75|419:145|513:141,1,165.000006294251,6|2,1:2|0:2,0:0:0:0:
160,140,61128,2,0,P|103:140|47:107,1,98.9999969787599,10|8,0:2|0:2,0:0:0:0:
367,170,61420,2,0,P|346:229|335:338,1,148.49999546814,2|0,1:2|0:2,0:0:0:0:
324,352,61711,2,0,P|310:303|278:251,1,98.9999969787599,8|0,0:2|0:2,0:0:0:0:
125,60,62002,5,2,1:2:0:0:
192,287,62148,1,2,0:2:0:0:
257,30,62293,1,10,0:2:0:0:
257,30,62366,1,0,0:2:0:0:
257,30,62439,1,8,0:2:0:0:
101,234,62585,2,0,P|31:225|3:160,1,148.49999546814,2|0,1:2|0:2,0:0:0:0:
4,125,62876,2,0,P|54:113|109:125,1,98.9999969787599,8|0,1:2|0:2,0:0:0:0:
364,189,63167,5,0,1:2:0:0:
137,45,63313,1,2,0:2:0:0:
393,47,63458,2,0,P|444:41|494:28,1,98.9999969787599,10|8,0:2|0:2,0:0:0:0:
217,210,63750,2,0,P|166:216|116:229,1,98.9999969787599,2|0,1:2|0:2,0:0:0:0:
275,23,64041,2,0,P|326:29|376:42,1,98.9999969787599,10|0,0:2|0:2,0:0:0:0:
100,121,64332,5,10,1:2:0:0:
376,209,64478,1,8,0:2:0:0:
159,24,64623,1,10,0:2:0:0:
234,311,64769,1,8,0:2:0:0:
230,345,64842,1,8,0:2:0:0:
226,379,64915,5,4,1:3:0:0:
372,40,65206,1,4,1:3:0:0:
379,227,65497,5,4,1:3:0:0:
379,227,74818,6,0,P|304:227|277:305,1,165,4|0,1:2|1:2,0:0:0:0:
420,297,75400,2,0,P|425:252|450:187,1,110,10|2,0:2|1:2,0:0:0:0:
302,36,75983,2,0,L|202:48,2,82.5,2|0|0,0:2|0:0|0:0,0:0:0:0:
421,84,76565,2,0,L|519:97,2,82.5,10|0|0,0:2|0:0|0:0,0:0:0:0:
302,132,77148,5,2,0:2:0:0:
447,191,77366,1,2,0:2:0:0:
288,225,77585,1,0,0:0:0:0:
452,326,77730,2,0,P|448:263|447:187,1,110,10|2,0:2|0:2,0:0:0:0:
439,49,78313,2,0,P|473:34|525:26,2,82.5,2|0|0,0:2|0:0|0:0,0:0:0:0:
302,132,78895,2,0,P|246:113|183:104,1,110,10|2,0:2|0:2,0:0:0:0:
18,316,79478,6,0,P|83:317|122:220,1,165,0|0,1:2|1:2,0:0:0:0:
59,147,80060,2,0,P|67:106|84:69,2,82.5,10|2|2,0:2|0:0|0:0,0:0:0:0:
198,86,80643,2,0,P|192:51|174:8,2,82.5,2|2|0,0:2|0:0|0:0,0:0:0:0:
302,132,81225,2,0,P|310:79|330:33,2,82.5,10|2|2,0:2|0:2|0:0,0:0:0:0:
259,285,81808,6,0,L|153:273,2,82.5,2|0|0,0:2|0:0|0:0,0:0:0:0:
367,353,82390,2,0,L|453:343,2,82.5,10|0|0,0:2|0:0|0:0,0:0:0:0:
255,264,82973,2,0,L|153:252,2,82.5,2|0|0,0:2|0:0|0:0,0:0:0:0:
371,332,83555,2,0,L|479:319,1,110,10|2,0:2|0:2,0:0:0:0:
331,174,84138,6,0,P|330:118|363:67,1,98.9999969787599,6|0,0:2|0:2,0:0:0:0:
429,21,84575,1,2,0:2:0:0:
429,21,84721,2,0,B|241:38|354:110|165:146,1,300.300010080872,2|0,0:2|0:2,0:0:0:0:
196,26,85886,1,2,0:2:0:0:
273,148,86031,2,0,P|281:199|287:250,1,98.9999969787599,2|0,0:2|0:2,0:0:0:0:
399,375,86468,6,0,P|404:325|412:276,1,98.9999969787599,2|0,0:2|0:2,0:0:0:0:
440,161,86905,1,0,0:2:0:0:
291,278,87051,5,2,0:2:0:0:
291,278,87196,2,0,P|242:260|201:251,1,65.9999979858399,2|0,0:2|0:2,0:0:0:0:
120,163,87633,1,2,0:2:0:0:
120,163,87779,2,0,P|128:214|141:254,1,65.9999979858399,2|0,0:2|0:2,0:0:0:0:
105,368,88216,1,2,0:2:0:0:
105,368,88361,2,0,P|145:334|173:303,1,65.9999979858399,2|0,0:2|0:2,0:0:0:0:
249,169,88798,6,0,P|288:180|327:195,2,74.2499977340699,2|2|2,0:2|0:2|0:2,0:0:0:0:
131,228,89381,2,0,P|101:256|68:282,2,74.2499977340699,2|2|2,0:2|0:2|0:2,0:0:0:0:
138,96,89963,2,0,P|128:55|122:14,2,74.2499977340699,2|2|2,0:2|0:2|0:2,0:0:0:0:
22,195,90546,2,0,P|31:158|42:91,1,98.9999969787599,2|0,0:2|3:2,0:0:0:0:
285,75,91128,6,0,P|266:118|258:159,2,74.2499977340699,2|2|2,0:2|0:2|0:2,0:0:0:0:
190,253,91711,2,0,P|180:217|164:183,2,74.2499977340699,2|2|2,0:2|0:2|0:2,0:0:0:0:
311,87,92293,2,0,P|292:130|284:171,2,74.2499977340699,2|2|2,0:2|0:2|0:2,0:0:0:0:
163,264,92876,2,0,P|153:228|140:199,1,49.4999984893799,2|0,0:2|0:0,0:0:0:0:
302,256,93167,2,0,P|293:279|287:303,1,49.4999984893799,2|0,0:2|0:0,0:0:0:0:
128,172,93458,6,0,P|77:172|32:74,1,153.999995300293,14|0,0:2|0:2,0:0:0:0:
196,57,93895,1,2,0:2:0:0:
240,239,94041,2,0,P|291:239|336:141,2,153.999995300293,10|0|8,0:2|0:2|0:2,0:0:0:0:
153,167,94769,5,0,0:2:0:0:
174,342,94915,1,0,0:2:0:0:
175,160,95060,1,0,0:2:0:0:
93,291,95206,2,0,P|55:283|10:275,1,76.9999976501466,10|0,0:2|0:2,0:0:0:0:
240,239,95497,2,0,P|277:231|323:223,1,76.9999976501466,0|0,0:2|0:2,0:0:0:0:
483,339,95788,5,10,0:2:0:0:
390,181,95934,2,0,L|401:90,2,76.9999976501466,2|0|0,0:2|0:2|0:2,0:0:0:0:
485,354,96371,1,10,0:2:0:0:
370,165,96517,2,0,L|381:74,2,76.9999976501466,2|0|0,0:2|0:2|0:2,0:0:0:0:
256,361,96954,5,10,0:2:0:0:
155,189,97099,2,0,P|117:205|85:238,2,76.9999976501466,2|0|0,0:2|0:2|0:2,0:0:0:0:
258,344,97536,1,10,0:2:0:0:
357,189,97682,2,0,P|395:205|427:238,2,76.9999976501466,2|0|2,0:2|0:2|0:2,0:0:0:0:
173,101,98119,5,10,0:2:0:0:
111,326,98264,1,2,0:2:0:0:
77,80,98410,5,10,0:2:0:0:
15,305,98555,1,2,0:2:0:0:
248,201,98701,5,10,0:2:0:0:
11,166,98847,1,2,0:2:0:0:
317,68,98992,5,10,0:2:0:0:
80,103,99138,1,2,0:2:0:0:
240,308,99284,5,10,0:2:0:0:
237,334,99357,1,2,0:2:0:0:
234,359,99430,1,2,0:2:0:0:
171,125,99575,5,10,0:2:0:0:
168,99,99648,1,2,0:2:0:0:
165,74,99721,1,2,0:2:0:0:
309,244,99866,5,10,0:2:0:0:
336,250,99939,1,2,0:2:0:0:
364,244,100012,1,10,0:2:0:0:
386,225,100085,1,2,0:2:0:0:
397,199,100158,1,10,0:2:0:0:
408,172,100230,1,2,0:2:0:0:
429,154,100303,1,10,0:2:0:0:
457,147,100376,1,2,0:2:0:0:
485,154,100449,6,0,L|494:94,2,44,2|2|2,0:2|0:2|0:2,0:0:0:0:
309,244,101031,2,0,L|315:287,2,44,2|2|2,0:2|0:2|0:2,0:0:0:0:
315,41,101614,5,2,0:2:0:0:
297,45,101906,1,2,0:2:0:0:
280,49,102197,1,2,0:2:0:0:
309,244,102488,1,2,0:2:0:0:
25,192,102779,6,0,B|99:160|105:224|181:208,1,152.624999417782,4|0,1:2|0:2,0:0:0:0:
207,213,103070,2,0,P|201:246|194:311,1,60.5000018463135,10|0,0:2|0:2,0:0:0:0:
166,84,103216,2,0,P|161:54|156:24,1,60.5000018463135,10|0,0:2|0:2,0:0:0:0:
305,136,103361,2,0,P|351:128|400:104,1,88,2|0,1:2|0:2,0:0:0:0:
108,167,103653,2,0,P|65:174|25:192,1,88,10|0,0:2|0:2,0:0:0:0:
281,367,103944,6,0,P|288:320|275:258,1,101.749999611855,2|0,1:2|0:2,0:0:0:0:
244,67,104235,2,0,P|215:81|175:89,1,60.5000018463135,10|0,0:2|0:2,0:0:0:0:
388,111,104381,2,0,P|417:118|444:131,1,60.5000018463135,10|0,0:2|0:2,0:0:0:0:
207,213,104526,2,0,P|168:223|119:248,1,90.7500008654595,2|0,1:2|0:2,0:0:0:0:
339,364,104818,2,0,B|447:321|366:298|497:240,1,181.500001730919,10|0,1:2|1:2,0:0:0:0:
475,250,105400,6,0,P|479:217|486:180,1,63.250001206398,10|0,0:2|0:2,0:0:0:0:
321,213,105546,2,0,P|327:244|330:276,1,63.250001206398,10|0,0:2|0:2,0:0:0:0:
388,111,105691,2,0,P|380:60|367:18,1,90.7500008654595,2|0,1:2|0:2,0:0:0:0:
219,142,105983,2,0,P|206:185|199:230,1,90.7500008654595,10|0,0:2|0:2,0:0:0:0:
133,28,106274,6,0,P|57:31|35:114,1,156.749995814324,2|0,1:2|0:2,0:0:0:0:
49,131,106565,2,0,P|52:168|51:219,1,68.75,10|0,0:2|0:2,0:0:0:0:
127,362,106711,2,0,P|127:327|130:293,1,68.75,10|0,0:2|0:2,0:0:0:0:
232,121,106856,1,10,0:2:0:0:
50,285,107002,1,10,0:2:0:0:
300,294,107148,1,10,0:2:0:0:
27,273,107293,1,10,0:2:0:0:
321,184,107439,6,0,B|438:193|375:256|495:262,1,192.500001835823,4|0,1:2|0:2,0:0:0:0:
215,49,107730,2,0,P|228:85|235:139,1,52.2499986047745,10|0,0:2|0:2,0:0:0:0:
214,287,107876,2,0,P|220:261|230:237,1,52.2499986047745,10|0,0:2|0:2,0:0:0:0:
355,103,108021,2,0,P|333:141|321:184,1,88,2|0,1:2|0:2,0:0:0:0:
363,366,108313,2,0,P|350:324|329:286,1,88,10|0,0:2|0:2,0:0:0:0:
138,107,108604,6,0,P|120:177|108:279,1,165,2|0,1:2|0:2,0:0:0:0:
108,309,108895,2,0,P|80:290|48:277,1,50.8749998059273,10|0,0:2|0:2,0:0:0:0:
258,220,109041,2,0,P|278:205|301:193,1,50.8749998059273,10|0,0:2|0:2,0:0:0:0:
151,78,109187,2,0,P|119:55|70:33,1,88,2|0,1:2|0:2,0:0:0:0:
257,255,109478,2,0,P|288:232|338:210,1,88,10|0,1:2|0:2,0:0:0:0:
481,359,109769,5,2,1:2:0:0:
481,359,109915,1,2,0:2:0:0:
414,210,110060,2,0,P|422:164|436:104,1,88,10|8,0:2|0:2,0:0:0:0:
244,279,110352,2,0,P|253:321|260:365,1,88,2|0,1:2|0:2,0:0:0:0:
151,78,110643,2,0,P|126:142|117:230,1,132,10|0,0:2|0:2,0:0:0:0:
116,237,110934,5,10,1:2:0:0:
390,53,111080,1,8,0:2:0:0:
159,58,111225,1,10,0:2:0:0:
347,232,111371,1,8,0:2:0:0:
377,227,111444,1,8,0:2:0:0:
407,222,111517,5,4,1:3:0:0:
19,141,111808,1,4,1:3:0:0:
19,141,112099,5,6,1:2:0:0:
84,361,112245,1,2,0:2:0:0:
219,143,112390,2,0,P|233:88|251:39,1,101.749999611855,10|8,0:2|0:2,0:0:0:0:
355,327,112682,2,0,B|265:331|298:284|199:291,1,152.624999417782,2|0,1:2|0:2,0:0:0:0:
178,312,112973,2,0,P|124:311|80:355,1,101.749999611855,8|0,0:2|0:2,0:0:0:0:
344,215,113264,5,2,1:2:0:0:
110,97,113410,1,2,0:2:0:0:
382,63,113555,1,10,0:2:0:0:
382,63,113628,1,0,0:2:0:0:
382,63,113701,1,8,0:2:0:0:
156,200,113847,2,0,P|96:220|19:273,1,152.624999417782,2|0,1:2|0:2,0:0:0:0:
9,303,114138,2,0,P|51:314|113:351,1,101.749999611855,8|0,1:2|0:2,0:0:0:0:
367,215,114429,5,0,1:2:0:0:
129,362,114575,1,2,0:2:0:0:
227,154,114721,2,0,P|223:103|216:30,1,101.749999611855,10|8,0:2|0:2,0:0:0:0:
385,232,115012,2,0,P|388:181|393:130,1,101.749999611855,2|0,1:2|0:2,0:0:0:0:
243,365,115303,2,0,P|239:314|232:241,1,101.749999611855,10|0,0:2|0:2,0:0:0:0:
152,14,115594,6,0,B|245:4|199:57|317:57,1,152.624999417782,2|0,1:2|0:2,0:0:0:0:
331,60,115886,1,10,0:2:0:0:
157,229,116031,1,10,0:2:0:0:
432,125,116177,1,10,0:2:0:0:
169,110,116322,1,8,0:2:0:0:
420,244,116468,1,8,0:2:0:0:
157,229,116613,1,8,0:2:0:0:
479,190,116759,6,0,P|461:272|452:370,1,165.000006294251,6|2,1:2|0:2,0:0:0:0:
341,158,117051,2,0,P|337:109|330:60,1,98.9999969787599,10|8,0:2|0:2,0:0:0:0:
170,262,117342,2,0,P|177:175|189:88,1,148.49999546814,2|0,1:2|0:2,0:0:0:0:
192,84,117633,2,0,P|146:101|90:113,1,98.9999969787599,8|0,0:2|0:2,0:0:0:0:
307,242,117924,5,2,1:2:0:0:
247,17,118070,1,2,0:2:0:0:
191,296,118216,1,10,0:2:0:0:
191,296,118288,1,0,0:2:0:0:
191,296,118361,1,8,0:2:0:0:
338,106,118507,2,0,B|427:118|386:166|477:182,1,148.49999546814,2|0,1:2|0:2,0:0:0:0:
500,156,118798,2,0,P|488:217|487:273,1,98.9999969787599,8|0,1:2|0:2,0:0:0:0:
408,25,119089,5,0,1:2:0:0:
304,264,119235,1,2,0:2:0:0:
282,14,119381,2,0,P|296:69|305:147,1,98.9999969787599,10|8,0:2|0:2,0:0:0:0:
280,366,119672,2,0,P|306:310|397:310,1,148.49999546814,2|0,1:2|0:0,0:0:0:0:
412,338,119963,2,0,P|419:289|432:241,1,98.9999969787599,10|0,0:2|0:2,0:0:0:0:
201,79,120254,5,10,1:2:0:0:
463,138,120400,1,8,0:2:0:0:
184,68,120546,1,10,0:2:0:0:
310,287,120692,1,8,0:2:0:0:
303,320,120764,1,8,0:2:0:0:
296,354,120837,5,4,1:3:0:0:
496,16,121128,1,4,1:3:0:0:
496,16,121420,6,0,P|466:66|388:79,1,118.800002900391,8|0,0:2|0:2,0:0:0:0:
305,35,121856,1,2,0:2:0:0:
305,35,122002,2,0,P|249:52|219:102,1,118.800002900391,8|0,0:2|0:2,0:0:0:0:
205,220,122439,1,0,0:2:0:0:
300,171,122585,2,0,P|328:180|355:191,1,59.4000014501954,8|0,0:2|0:2,0:0:0:0:
448,264,122876,1,0,0:2:0:0:
448,264,122949,1,0,0:2:0:0:
448,264,123021,1,0,0:2:0:0:
338,310,123167,1,8,0:2:0:0:
433,180,123313,1,0,0:2:0:0:
351,320,123458,1,2,0:2:0:0:
349,151,123604,1,2,0:2:0:0:
222,230,123750,6,0,P|153:244|100:266,1,118.800002900391,10|0,0:2|0:2,0:0:0:0:
22,361,124187,1,2,0:2:0:0:
22,361,124332,2,0,P|29:300|26:223,1,118.800002900391,8|0,0:2|0:2,0:0:0:0:
95,144,124769,1,0,0:2:0:0:
128,282,124915,2,0,P|134:318|146:357,1,59.4000014501954,8|0,0:2|0:2,0:0:0:0:
249,230,125206,1,0,0:2:0:0:
249,230,125279,1,0,0:2:0:0:
249,230,125352,1,0,0:2:0:0:
70,138,125497,1,8,0:2:0:0:
286,115,125643,1,8,0:2:0:0:
54,156,125788,1,10,0:2:0:0:
302,97,125934,1,8,0:2:0:0:
323,354,126080,5,10,0:2:0:0:
323,354,126371,1,2,0:2:0:0:
401,275,126517,2,0,P|441:284|474:302,1,59.4000014501954,2|8,0:2|0:2,0:0:0:0:
321,209,126808,2,0,P|268:228|196:240,1,118.800002900391,2|0,0:2|0:2,0:0:0:0:
421,145,127245,2,0,P|461:154|494:172,1,59.4000014501954,10|0,0:2|0:2,0:0:0:0:
242,133,127536,1,2,0:2:0:0:
242,133,127609,1,0,0:2:0:0:
242,133,127682,1,2,0:2:0:0:
383,276,127827,1,8,0:2:0:0:
366,85,127973,1,2,0:2:0:0:
475,300,128119,1,0,0:2:0:0:
492,109,128265,1,2,0:2:0:0:
368,292,128410,6,0,P|320:278|242:264,1,118.800002900391,8|0,0:2|0:2,0:0:0:0:
138,328,128847,1,0,0:2:0:0:
156,157,128992,2,0,P|165:187|169:240,1,59.4000014501954,8|0,0:2|0:2,0:0:0:0:
262,347,129284,2,0,P|266:317|274:289,1,59.4000014501954,0|0,0:2|0:2,0:0:0:0:
348,81,129575,5,8,0:2:0:0:
404,359,129721,1,8,0:2:0:0:
485,126,129866,1,8,0:2:0:0:
279,271,130012,1,8,0:2:0:0:
253,266,130085,1,8,0:2:0:0:
228,262,130157,5,4,1:3:0:0:
496,16,130449,1,4,1:3:0:0:
496,16,130740,6,0,P|486:65|474:159,1,129.799995444641,14|0,0:2|0:2,0:0:0:0:
469,308,131177,1,2,0:2:0:0:
362,107,131322,2,0,P|374:170|382:235,1,129.799995444641,8|0,0:2|0:2,0:0:0:0:
395,366,131759,1,0,0:2:0:0:
279,188,131905,2,0,P|238:200|204:213,1,64.8999977223206,8|0,0:2|0:2,0:0:0:0:
165,353,132196,1,0,0:2:0:0:
165,353,132269,1,0,0:2:0:0:
165,353,132342,1,0,0:2:0:0:
87,173,132488,2,0,P|99:209|106:256,1,64.8999977223206,8|0,0:2|0:2,0:0:0:0:
223,110,132779,1,2,0:2:0:0:
272,279,132924,1,2,0:2:0:0:
301,52,133070,6,0,P|364:56|449:71,1,129.799995444641,10|0,0:2|0:2,0:0:0:0:
211,114,133507,1,2,0:2:0:0:
356,175,133653,2,0,P|391:175|444:166,1,64.8999977223206,10|2,0:2|0:2,0:0:0:0:
211,114,133944,2,0,P|176:114|123:123,1,64.8999977223206,10|0,0:2|0:2,0:0:0:0:
254,220,134235,1,8,0:2:0:0:
281,36,134381,1,0,0:2:0:0:
347,191,134526,1,0,0:2:0:0:
347,191,134599,1,0,0:2:0:0:
347,191,134672,1,0,0:2:0:0:
211,114,134818,1,8,0:2:0:0:
150,303,134963,1,8,0:2:0:0:
139,59,135109,1,8,0:2:0:0:
222,248,135254,1,8,0:2:0:0:
28,143,135400,5,10,0:2:0:0:
322,106,135546,1,2,0:2:0:0:
68,278,135691,5,10,0:2:0:0:
120,29,135837,1,2,0:2:0:0:
313,201,135983,5,10,0:2:0:0:
19,164,136129,1,2,0:2:0:0:
243,31,136274,5,10,0:2:0:0:
186,301,136420,1,2,0:2:0:0:
124,53,136565,5,10,0:2:0:0:
99,56,136638,1,2,0:2:0:0:
73,59,136711,1,2,0:2:0:0:
267,178,136856,5,10,0:2:0:0:
292,181,136929,1,2,0:2:0:0:
318,184,137002,1,2,0:2:0:0:
119,348,137148,5,10,0:2:0:0:
100,332,137220,1,2,0:2:0:0:
86,312,137293,1,10,0:2:0:0:
78,289,137366,1,2,0:2:0:0:
76,265,137439,1,10,0:2:0:0:
80,241,137512,1,2,0:2:0:0:
91,220,137584,1,10,0:2:0:0:
107,202,137657,1,2,0:2:0:0:
128,188,137730,6,0,P|136:154|146:130,2,44,2|2|2,0:2|0:2|0:2,0:0:0:0:
276,320,138313,2,0,P|282:340|287:362,2,44,2|2|2,0:2|0:2|0:2,0:0:0:0:
110,183,138895,2,0,P|118:149|128:125,1,44,2|2,0:2|0:2,0:0:0:0:
215,27,139187,2,0,P|221:47|226:69,1,44,2|2,0:2|0:2,0:0:0:0:
230,207,139478,2,0,B|290:241|358:202|358:202|327:199|294:165,1,197.99999395752,8|8,0:3|0:3,0:0:0:0:
35,29,140060,5,4,0:2:0:0:
35,29,140352,2,0,P|43:84|45:142,1,85.2500006504059,2|2,0:2|0:2,0:0:0:0:
9,235,140643,2,0,B|101:237|62:299|164:304,1,170.500001300812,2|2,0:2|0:2,0:0:0:0:
159,304,141225,2,0,P|206:287|246:281,1,85.2500006504059,10|0,0:2|0:2,0:0:0:0:
421,335,141517,1,2,0:2:0:0:
312,364,141662,1,2,0:2:0:0:
445,371,141808,2,0,P|457:284|482:197,1,170.500001300812,2|0,0:2|0:2,0:0:0:0:
479,204,142682,5,2,0:2:0:0:
446,84,142827,1,2,0:2:0:0:
384,227,142973,2,0,P|316:209|214:197,1,170.500001300812,2|2,0:2|0:2,0:0:0:0:
216,197,143555,2,0,P|220:152|231:102,1,85.2500006504059,10|0,0:2|0:2,0:0:0:0:
303,16,143847,1,2,0:2:0:0:
176,40,143992,1,2,0:2:0:0:
375,98,144138,1,10,0:2:0:0:
133,143,144283,1,8,0:2:0:0:
357,188,144429,1,10,0:2:0:0:
115,143,144574,1,8,0:2:0:0:
399,101,144721,6,0,B|490:106|490:106|457:164,1,131.99999597168,8|0,0:3|0:2,0:0:0:0:
359,283,145012,1,2,0:2:0:0:
359,283,145157,1,2,0:2:0:0:
291,128,145303,2,0,B|206:163|242:204|158:234,1,170.500001300812,2|2,0:2|0:2,0:0:0:0:
161,233,145886,2,0,P|197:264|215:306,1,85.2500006504059,10|0,0:2|0:2,0:0:0:0:
197,142,146177,1,2,0:2:0:0:
127,314,146322,1,2,0:2:0:0:
304,230,146468,2,0,B|459:248|362:349|508:366,1,255.750001951218,2|0,0:2|0:2,0:0:0:0:
317,332,147051,5,2,0:2:0:0:
317,332,147196,1,2,0:2:0:0:
490,270,147342,2,0,P|481:224|462:165,1,85.2500006504059,2|0,0:2|0:2,0:0:0:0:
332,61,147633,2,0,P|320:101|312:143,1,85.2500006504059,2|0,0:2|0:2,0:0:0:0:
317,332,147924,2,0,P|309:290|297:249,1,85.2500006504059,2|0,0:2|0:2,0:0:0:0:
229,46,148216,5,8,0:2:0:0:
463,165,148361,1,8,0:2:0:0:
197,142,148507,1,8,0:2:0:0:
495,69,148653,1,8,0:2:0:0:
479,43,148725,1,8,0:2:0:0:
463,17,148798,5,4,1:3:0:0:
317,332,149089,1,4,1:3:0:0:
317,332,149381,5,6,1:2:0:0:
186,130,149526,1,2,0:2:0:0:
341,359,149672,2,0,P|348:317|366:255,1,101.749999611855,10|8,0:2|0:2,0:0:0:0:
204,52,149963,2,0,P|218:125|228:224,1,152.624999417782,2|0,1:2|0:2,0:0:0:0:
229,231,150254,2,0,P|255:195|303:149,1,101.749999611855,8|0,0:2|0:2,0:0:0:0:
21,118,150546,5,2,1:2:0:0:
57,336,150691,1,2,0:2:0:0:
112,79,150837,1,10,0:2:0:0:
112,79,150910,1,0,0:2:0:0:
112,79,150983,1,8,0:2:0:0:
204,310,151128,2,0,P|256:311|313:223,1,152.624999417782,2|0,1:2|0:2,0:0:0:0:
303,208,151420,2,0,P|310:161|306:97,1,101.749999611855,8|0,1:2|0:2,0:0:0:0:
341,359,151711,5,0,1:2:0:0:
215,151,151856,1,2,0:2:0:0:
407,286,152002,2,0,P|458:270|523:262,1,101.749999611855,10|8,0:2|0:2,0:0:0:0:
229,142,152293,2,0,P|178:126|113:118,1,101.749999611855,2|0,1:2|0:2,0:0:0:0:
407,304,152585,2,0,P|458:288|523:280,1,101.749999611855,10|0,0:2|0:2,0:0:0:0:
155,227,152876,6,0,B|74:264|131:296|16:351,1,152.624999417782,2|0,1:2|0:2,0:0:0:0:
22,354,153167,1,10,0:2:0:0:
201,328,153313,1,10,0:2:0:0:
30,162,153458,1,10,0:2:0:0:
297,202,153604,1,8,0:2:0:0:
98,283,153750,1,8,0:2:0:0:
368,272,153896,1,8,0:2:0:0:
186,54,154041,6,0,B|228:24|228:24|215:147,1,165.000006294251,6|2,1:2|0:2,0:0:0:0:
306,349,154332,2,0,P|334:314|386:286,1,98.9999969787599,10|8,0:2|0:2,0:0:0:0:
155,227,154623,2,0,P|105:196|76:108,1,148.49999546814,2|0,1:2|0:2,0:0:0:0:
37,41,154915,2,0,P|49:82|37:145,1,98.9999969787599,8|0,0:2|0:2,0:0:0:0:
125,361,155206,5,2,1:2:0:0:
188,119,155352,1,2,0:2:0:0:
20,277,155497,1,10,0:2:0:0:
20,277,155570,1,0,0:2:0:0:
20,277,155643,1,8,0:2:0:0:
278,210,155788,2,0,P|345:211|418:276,1,148.49999546814,2|0,1:2|0:2,0:0:0:0:
415,294,156080,2,0,P|446:245|490:214,1,98.9999969787599,8|0,1:2|0:2,0:0:0:0:
182,236,156371,5,0,1:2:0:0:
420,144,156517,1,2,0:2:0:0:
170,258,156662,2,0,P|162:218|143:147,1,98.9999969787599,10|8,0:2|0:2,0:0:0:0:
432,166,156954,2,0,P|440:126|459:55,1,98.9999969787599,2|0,1:2|0:2,0:0:0:0:
303,328,157245,2,0,P|295:288|276:217,1,98.9999969787599,10|0,0:2|0:2,0:0:0:0:
176,21,157536,5,10,1:2:0:0:
163,284,157682,1,8,0:2:0:0:
44,14,157827,1,10,0:2:0:0:
31,277,157973,1,8,0:2:0:0:
36,311,158046,1,8,0:2:0:0:
41,345,158119,5,4,1:3:0:0:
471,345,158410,2,0,L|478:277,1,55,4|0,1:3|0:0,0:0:0:0:
