osu file format v14

[General]
AudioFilename: audio.mp3
AudioLeadIn: 0
PreviewTime: 44526
Countdown: 0
SampleSet: Soft
StackLeniency: 0.4
Mode: 0
LetterboxInBreaks: 0
WidescreenStoryboard: 0

[Editor]
DistanceSpacing: 1.8
BeatDivisor: 8
GridSize: 4
TimelineZoom: 2.3

[Metadata]
Title:Bomb Bomb
TitleUnicode:밤밤
Artist:KARD
ArtistUnicode:KARD
Creator:DeRandom Otaku
Version:Agatsu's Extra
Source:
Tags:kpop k-pop K.A.R.D 전지우 Jiwoo 전소민 Somin 매튜김 B.M 김태형 J.Seph DSP Media xenon- xehn kowari agatsu deppyforce Ren
BeatmapID:2087893
BeatmapSetID:950639

[Difficulty]
HPDrainRate:5
CircleSize:3.6
OverallDifficulty:8.5
ApproachRate:9.3
SliderMultiplier:2
SliderTickRate:1

[Events]
//Background and Video events
0,0,"bg.jpg",0,0
//Break Periods
2,65697,74264
2,140260,147662
//Storyboard Layer 0 (Background)
//Storyboard Layer 1 (Fail)
//Storyboard Layer 2 (Pass)
//Storyboard Layer 3 (Foreground)
//Storyboard Layer 4 (Overlay)
//Storyboard Sound Samples

[TimingPoints]
255,582.52427184466,4,1,0,40,1,0
255,-125,4,1,0,40,0,0
4915,-125,4,2,0,50,0,0
7245,-125,4,2,0,55,0,0
8410,-100,4,2,0,68,0,0
9575,-100,4,2,0,70,0,0
28216,-125,4,2,0,50,0,0
37536,-100,4,2,0,50,0,0
42196,-100,4,2,0,65,0,0
44526,-100,4,2,0,25,0,0
46856,-58.8235294117647,4,2,0,80,0,0
51662,-58.8235294117647,4,2,0,5,0,0
51808,-58.8235294117647,4,2,0,80,0,0
56177,-58.8235294117647,4,2,0,85,0,0
65497,-58.8235294117647,4,2,0,52,0,0
74818,-100,4,2,0,52,0,0
84138,-125,4,2,0,50,0,0
93458,-100,4,2,0,50,0,0
98118,-100,4,2,0,65,0,0
100448,-100,4,2,0,25,0,0
102778,-100,4,2,0,80,0,0
102779,-58.8235294117647,4,2,0,80,0,0
107584,-58.8235294117647,4,2,0,5,0,0
107730,-58.8235294117647,4,2,0,80,0,0
112099,-58.8235294117647,4,2,0,85,0,0
121420,-100,4,2,0,60,0,0
130740,-100,4,2,0,65,0,0
137730,-100,4,2,0,25,0,0
139478,-100,4,2,0,60,0,0
140060,-100,4,2,0,75,0,0
140352,-100,4,2,0,48,0,0
144866,-100,4,2,0,5,0,0
145012,-100,4,2,0,48,0,0
148216,-100,4,2,0,65,0,0
148798,-58.8235294117647,4,2,0,65,0,0
149381,-58.8235294117647,4,2,0,85,0,0
158410,-58.8235294117647,4,2,0,52,0,0

[Colours]
Combo1 : 145,72,72
Combo2 : 255,128,64
Combo3 : 255,128,128
Combo4 : 255,45,45

[HitObjects]
75,65,255,6,0,L|94:190,2,120,2|8|2,0:2|0:2|0:2,0:0:0:0:
203,233,1420,2,0,P|240:251|290:251,1,80,2|0,0:2|0:2,0:0:0:0:
296,237,1784,1,0,0:2:0:0:
296,237,1856,1,8,0:2:0:0:
406,350,2002,2,0,L|424:264,1,80,8|8,0:2|0:2,0:0:0:0:
503,372,2439,1,0,0:0:0:0:
453,253,2585,6,0,L|429:122,2,120,2|8|0,0:2|0:2|0:2,0:0:0:0:
311,131,3750,2,0,P|268:110|227:109,1,80,2|0,0:2|0:2,0:0:0:0:
223,119,4114,1,0,0:2:0:0:
223,119,4187,2,0,L|218:68,1,40,8|0,0:2|0:0,0:0:0:0:
144,190,4478,2,0,L|126:282,1,80,2|2,0:2|0:2,0:0:0:0:
65,108,4915,5,2,0:2:0:0:
8,253,5060,2,0,L|19:300,1,40,0|0,0:0|0:2,0:0:0:0:
144,190,5352,2,0,B|194:181|197:177,1,40,2|0,0:2|0:2,0:0:0:0:
303,63,5643,2,0,P|297:83|282:154,1,80,0|0,0:2|0:2,0:0:0:0:
308,247,6080,2,0,P|312:262|319:303,2,40,2|0|0,0:2|0:2|0:0,0:0:0:0:
302,225,6444,1,0,0:2:0:0:
302,225,6517,1,8,0:2:0:0:
214,291,6662,1,2,0:2:0:0:
355,357,6808,2,0,L|434:376,1,80,0|0,0:2|0:2,0:0:0:0:
505,321,7245,6,0,P|500:299|495:264,1,40,2|0,0:2|0:0,0:0:0:0:
415,173,7536,1,0,0:2:0:0:
411,255,7682,2,0,P|385:264|354:269,1,40,2|0,0:2|0:2,0:0:0:0:
259,190,7973,2,0,P|246:186|168:169,1,80,0|2,0:2|0:2,0:0:0:0:
359,157,8410,1,8,0:2:0:0:
278,308,8555,1,8,0:2:0:0:
387,181,8701,1,8,0:2:0:0:
389,360,8847,1,8,0:2:0:0:
389,360,8920,1,8,0:2:0:0:
389,360,8992,1,4,1:3:0:0:
256,124,9284,1,4,1:3:0:0:
163,384,9575,6,0,P|103:371|63:277,1,150,2|0,1:2|0:2,0:0:0:0:
265,262,10157,1,2,1:2:0:0:
193,204,10303,2,0,P|147:188|88:181,1,100,2|0,0:0|0:0,0:0:0:0:
280,28,10740,2,0,B|245:111|314:81|269:191,1,150,2|0,1:2|0:2,0:0:0:0:
413,23,11322,1,2,1:2:0:0:
449,124,11468,2,0,P|462:167|466:228,1,100,2|0,0:0|0:0,0:0:0:0:
356,358,11905,6,0,B|259:349|316:305|199:303,1,150,2|0,1:2|0:2,0:0:0:0:
369,243,12488,2,0,P|414:226|476:222,1,100,2|2,1:2|0:2,0:0:0:0:
465,221,12924,1,2,0:2:0:0:
317,95,13070,2,0,P|329:143|330:164,1,50,2|0,1:2|0:2,0:0:0:0:
467,58,13361,2,0,P|471:33|479:9,1,50,2|0,0:2|0:2,0:0:0:0:
294,73,13653,1,2,1:2:0:0:
434,166,13798,1,8,0:2:0:0:
347,0,13944,1,0,0:2:0:0:
242,161,14089,1,8,0:2:0:0:
101,15,14235,6,0,P|121:87|129:178,1,150,2|0,1:2|0:2,0:0:0:0:
54,338,14818,1,2,1:2:0:0:
131,286,14963,2,0,L|231:314,1,100,2|0,0:0|0:0,0:0:0:0:
352,384,15400,2,0,P|415:345|420:261,1,150,2|0,1:2|0:2,0:0:0:0:
307,162,15983,1,2,1:2:0:0:
236,223,16128,2,0,P|185:200|127:199,1,100,2|0,0:0|0:0,0:0:0:0:
39,327,16565,6,0,B|72:238|4:274|41:165,1,150,2|0,1:2|0:2,0:0:0:0:
183,51,17148,2,0,P|170:91|166:122,1,50,2|0,1:2|0:2,0:0:0:0:
17,156,17439,2,0,P|11:131|2:108,1,50,2|2,0:2|0:2,0:0:0:0:
179,235,17730,1,10,1:2:0:0:
0,272,17876,1,8,0:2:0:0:
186,198,18021,1,10,0:2:0:0:
70,371,18167,1,8,0:2:0:0:
70,371,18240,1,8,0:2:0:0:
70,371,18313,1,4,1:3:0:0:
187,110,18604,1,4,1:3:0:0:
314,368,18895,6,0,P|351:376|382:385,1,50,2|0,1:2|0:2,0:0:0:0:
220,288,19187,2,0,P|183:296|152:305,1,50,2|0,0:2|0:2,0:0:0:0:
316,193,19478,2,0,L|331:76,1,100,2|2,1:2|0:2,0:0:0:0:
80,186,20060,2,0,P|41:180|17:168,1,50,2|0,1:2|0:2,0:0:0:0:
145,44,20352,2,0,P|168:36|193:34,1,50,2|0,0:2|0:2,0:0:0:0:
105,209,20643,2,0,P|76:267|74:314,1,100,2|0,1:2|1:2,0:0:0:0:
246,204,21225,6,0,P|259:249|259:274,1,50,2|0,1:2|0:2,0:0:0:0:
422,155,21517,2,0,P|409:200|409:225,1,50,2|0,0:2|0:2,0:0:0:0:
270,91,21808,2,0,L|212:75,1,50,2|0,1:2|0:2,0:0:0:0:
411,31,22099,2,0,L|466:14,1,50,2|0,0:2|0:2,0:0:0:0:
246,204,22390,2,0,L|136:244,1,100,2|2,1:2|0:2,0:0:0:0:
152,238,22827,1,0,0:2:0:0:
346,306,22973,1,2,1:2:0:0:
170,377,23119,1,8,0:2:0:0:
362,269,23264,1,0,0:2:0:0:
156,145,23410,1,8,0:2:0:0:
356,33,23555,5,2,1:2:0:0:
277,88,23701,2,0,P|294:134|299:184,1,100,2|0,0:2|0:2,0:0:0:0:
392,15,24138,1,2,0:2:0:0:
340,323,24721,1,2,1:2:0:0:
258,273,24866,2,0,L|157:313,1,100,2|0,0:2|0:2,0:0:0:0:
366,338,25303,1,2,0:2:0:0:
138,162,25886,6,0,P|161:265|165:327,1,150,10|0,0:2|0:2,0:0:0:0:
234,131,26468,2,0,P|253:109|286:100,1,50,2|2,1:2|0:2,0:0:0:0:
379,225,26759,2,0,P|360:247|327:256,1,50,2|2,0:2|0:2,0:0:0:0:
387,86,27051,1,10,0:2:0:0:
299,329,27196,1,10,0:2:0:0:
496,218,27342,1,10,0:2:0:0:
271,101,27488,1,8,0:2:0:0:
271,101,27560,1,8,0:2:0:0:
271,101,27633,1,4,1:3:0:0:
451,357,27924,1,4,1:3:0:0:
223,188,28216,6,0,P|174:172|134:171,1,80,6|0,0:2|0:2,0:0:0:0:
49,236,28653,1,2,0:2:0:0:
49,236,28798,2,0,B|100:163|155:143|190:273|253:299|303:257|326:217,1,320,2|2,0:2|0:2,0:0:0:0:
406,211,30109,2,0,L|424:133,1,80,2|0,0:2|0:2,0:0:0:0:
296,326,30546,6,0,L|260:204,1,120,2|0,0:2|0:2,0:0:0:0:
205,371,31128,1,2,0:2:0:0:
126,332,31274,2,0,L|144:254,1,80,2|0,0:2|0:2,0:0:0:0:
14,140,31711,1,2,0:2:0:0:
47,120,31856,2,0,P|37:80|-3:55,1,80,2|0,0:2|0:2,0:0:0:0:
147,114,32293,1,2,0:2:0:0:
154,127,32439,2,0,P|198:140|236:132,1,80,2|0,0:2|0:2,0:0:0:0:
449,84,32876,5,2,0:2:0:0:
328,59,33094,1,2,0:2:0:0:
439,112,33313,1,2,0:2:0:0:
321,188,33458,6,0,P|344:245|344:260,1,60,2|2,0:2|0:2,0:0:0:0:
221,161,33895,1,2,0:2:0:0:
167,347,34041,5,2,0:2:0:0:
50,331,34259,1,2,0:2:0:0:
5,224,34478,1,2,0:2:0:0:
63,120,34623,6,0,L|82:26,1,80,2|0,0:2|3:2,0:0:0:0:
217,208,35206,5,2,0:2:0:0:
332,161,35424,1,2,0:2:0:0:
411,249,35643,1,2,0:2:0:0:
325,123,35788,5,2,0:2:0:0:
314,291,36007,1,2,0:2:0:0:
422,162,36225,1,2,0:2:0:0:
234,204,36371,6,0,P|195:181|168:171,1,60,2|2,0:2|0:2,0:0:0:0:
331,19,36808,1,2,0:2:0:0:
389,95,36954,6,0,P|380:128|380:149,1,40,2|0,0:2|0:0,0:0:0:0:
233,50,37245,2,0,P|230:30|223:11,1,40,2|0,0:2|0:0,0:0:0:0:
143,177,37536,6,0,B|41:171|92:215|-11:216,1,150,14|2,0:2|0:2,0:0:0:0:
173,295,38119,2,0,P|233:316|270:346,1,100,10|0,0:2|0:2,0:0:0:0:
476,144,38701,1,8,0:2:0:0:
411,269,38847,1,0,0:2:0:0:
446,132,38992,2,0,P|440:93|439:62,1,50,0|0,0:2|0:2,0:0:0:0:
327,233,39284,2,0,P|275:228|238:130,1,150,10|0,0:2|0:2,0:0:0:0:
403,72,39866,5,10,0:2:0:0:
449,194,40012,2,0,P|431:253|426:309,1,100,2|0,0:2|0:2,0:0:0:0:
348,178,40449,1,10,0:2:0:0:
308,331,40594,2,0,P|245:311|221:266,1,100,2|0,0:2|0:2,0:0:0:0:
178,150,41031,1,10,0:2:0:0:
90,239,41177,2,0,P|97:298|98:353,1,100,2|0,0:2|0:2,0:0:0:0:
186,187,41614,1,10,0:2:0:0:
240,316,41759,1,2,0:2:0:0:
90,239,41905,2,0,P|48:218|25:218,1,50,0|2,0:2|0:2,0:0:0:0:
221,178,42196,5,10,0:2:0:0:
123,335,42342,1,2,0:2:0:0:
152,134,42488,1,10,0:2:0:0:
279,330,42633,1,2,0:2:0:0:
237,64,42779,1,10,0:2:0:0:
90,239,42924,1,2,0:2:0:0:
335,157,43070,1,10,0:2:0:0:
84,53,43216,1,2,0:2:0:0:
266,208,43361,6,0,L|276:253,2,25,10|2|2,0:2|0:2|0:2,0:0:0:0:
466,112,43653,2,0,L|456:157,2,25,10|2|2,0:2|0:2|0:2,0:0:0:0:
246,64,43944,1,10,0:2:0:0:
246,64,44017,1,2,0:2:0:0:
246,64,44089,2,0,L|203:50,1,25,10|2,0:2|0:2,0:0:0:0:
358,13,44235,2,0,L|401:-1,1,25,10|2,0:2|0:2,0:0:0:0:
204,166,44381,2,0,L|161:152,1,25,10|2,0:2|0:2,0:0:0:0:
363,280,44526,5,2,0:2:0:0:
41,183,46565,6,0,P|91:162|105:166,1,50,2|0,0:2|0:0,0:0:0:0:
246,22,46856,6,0,P|223:133|224:143,1,85.0000016212464,4|0,1:2|0:0,0:0:0:0:
326,230,47148,2,0,P|307:218|272:213,1,42.5000008106232,10|0,0:2|0:2,0:0:0:0:
196,325,47293,1,10,0:2:0:0:
84,161,47439,2,0,P|104:242|107:289,1,85.0000016212464,2|0,1:2|0:2,0:0:0:0:
252,86,47730,2,0,P|302:64|356:66,1,85.0000016212464,10|0,0:2|0:2,0:0:0:0:
490,255,48021,6,0,B|383:242|450:194|310:190,1,170.000003242493,2|10,1:2|0:2,0:0:0:0:
507,68,48458,2,0,P|494:103|490:143,1,42.5000008106232,10|0,0:2|0:2,0:0:0:0:
326,295,48604,2,0,P|219:250|242:109,1,255.000004863739,2|0,1:2|0:0,0:0:0:0:
448,180,49187,6,0,P|433:248|430:280,1,85.0000016212464,0|0,1:2|0:0,0:0:0:0:
320,95,49478,2,0,P|292:69|258:64,1,42.5000008106232,10|0,0:2|0:2,0:0:0:0:
374,320,49623,1,10,0:2:0:0:
249,156,49769,2,0,P|186:133|154:142,1,85.0000016212464,2|0,1:2|0:2,0:0:0:0:
331,234,50060,1,10,0:2:0:0:
129,214,50206,6,0,P|123:93|107:10,2,170.000003242493,0|0|10,0:2|0:0|0:2,0:0:0:0:
264,82,50934,1,10,0:2:0:0:
39,158,51080,1,10,0:2:0:0:
272,267,51225,1,10,0:2:0:0:
107,86,51371,2,0,L|119:19,1,42.5000008106232,10|0,0:2|0:0,0:0:0:0:
301,185,51517,6,0,B|424:176|333:124|485:120,1,170.000003242493,4|10,1:2|0:2,0:0:0:0:
288,80,51954,2,0,P|228:67|208:68,1,42.5000008106232,10|0,0:2|0:2,0:0:0:0:
393,204,52099,2,0,P|422:276|421:315,1,85.0000016212464,2|0,1:2|0:2,0:0:0:0:
239,370,52390,2,0,P|210:298|211:259,1,85.0000016212464,10|0,0:2|0:2,0:0:0:0:
363,100,52682,6,0,P|339:257|339:298,1,170.000003242493,2|10,1:2|0:2,0:0:0:0:
240,102,53119,2,0,P|195:80|163:78,1,42.5000008106232,10|0,0:2|0:2,0:0:0:0:
6,141,53264,2,0,B|191:152|27:237|240:246,1,255.000004863739,2|0,1:2|0:2,0:0:0:0:
93,313,53847,5,2,1:2:0:0:
219,142,53992,1,2,0:2:0:0:
290,343,54138,2,0,P|341:318|406:316,1,85.0000016212464,10|8,0:2|0:2,0:0:0:0:
224,183,54429,2,0,P|182:174|145:153,1,85.0000016212464,2|0,1:2|0:2,0:0:0:0:
281,382,54721,2,0,P|332:357|397:355,1,85.0000016212464,10|0,0:2|0:0,0:0:0:0:
309,137,55012,5,10,1:2:0:0:
185,312,55157,1,8,0:2:0:0:
409,137,55303,1,10,0:2:0:0:
175,42,55449,1,8,0:2:0:0:
175,42,55521,1,8,0:2:0:0:
175,42,55594,2,0,P|191:191|192:241,1,170.000003242493,4|4,1:3|1:3,0:0:0:0:
406,58,56177,6,0,P|348:40|289:40,1,85.0000016212464,6|2,1:2|0:2,0:0:0:0:
312,258,56468,2,0,P|354:252|393:237,1,85.0000016212464,10|8,0:2|0:2,0:0:0:0:
292,44,56759,2,0,B|166:46|247:96|102:109,1,170.000003242493,2|8,1:2|0:2,0:0:0:0:
422,219,57342,5,2,1:2:0:0:
250,269,57488,1,2,0:2:0:0:
427,336,57633,2,0,P|481:311|523:302,1,85.0000016212464,10|8,0:2|0:2,0:0:0:0:
321,190,57924,2,0,B|209:184|280:238|139:240,1,170.000003242493,2|8,1:2|1:2,0:0:0:0:
330,342,58507,5,0,1:2:0:0:
266,111,58653,1,2,0:2:0:0:
227,348,58798,2,0,P|174:316|130:308,1,85.0000016212464,10|8,0:2|0:2,0:0:0:0:
316,200,59089,2,0,P|356:186|390:162,1,85.0000016212464,2|0,1:2|0:2,0:0:0:0:
195,38,59381,2,0,P|214:113|213:153,1,85.0000016212464,10|0,0:2|0:2,0:0:0:0:
368,291,59672,6,0,P|373:248|387:208,1,85.0000016212464,2|0,1:2|0:0,0:0:0:0:
254,323,59963,1,10,0:2:0:0:
320,108,60109,1,10,0:2:0:0:
356,370,60254,1,10,0:2:0:0:
236,142,60400,1,8,0:2:0:0:
141,367,60546,1,8,0:2:0:0:
363,242,60691,1,8,0:2:0:0:
128,154,60837,6,0,P|89:136|39:145,1,85.0000016212464,6|2,1:2|0:2,0:0:0:0:
14,350,61128,2,0,P|53:368|103:359,1,85.0000016212464,10|8,0:2|0:2,0:0:0:0:
170,165,61420,2,0,B|132:62|212:109|166:-4,1,170.000003242493,2|8,1:2|0:2,0:0:0:0:
316,277,62002,5,2,1:2:0:0:
373,93,62148,1,2,0:2:0:0:
421,325,62293,2,0,P|406:244|404:218,1,85.0000016212464,10|8,0:2|0:2,0:0:0:0:
274,76,62585,2,0,P|175:115|178:205,1,170.000003242493,2|8,1:2|1:2,0:0:0:0:
323,365,63167,5,0,1:2:0:0:
132,300,63313,1,2,0:2:0:0:
344,256,63458,2,0,P|404:241|453:244,1,85.0000016212464,10|8,0:2|0:2,0:0:0:0:
243,359,63750,2,0,P|200:356|160:343,1,85.0000016212464,2|0,1:2|0:2,0:0:0:0:
326,160,64041,2,0,P|304:246|302:279,1,85.0000016212464,10|0,0:2|0:2,0:0:0:0:
161,111,64332,6,0,P|152:69|139:29,1,85.0000016212464,10|8,1:2|0:2,0:0:0:0:
317,129,64623,1,10,0:2:0:0:
121,246,64769,1,8,0:2:0:0:
121,246,64842,1,8,0:2:0:0:
121,246,64915,1,4,1:3:0:0:
432,349,65206,1,4,1:3:0:0:
99,377,65497,5,4,1:3:0:0:
447,48,74818,6,0,B|342:60|415:91|300:111,1,150,4|0,1:2|1:2,0:0:0:0:
188,211,75400,2,0,P|207:132|209:110,1,100,10|2,0:2|1:2,0:0:0:0:
409,354,75983,5,2,0:2:0:0:
343,280,76201,1,0,0:0:0:0:
405,200,76420,1,0,0:0:0:0:
334,248,76565,5,10,0:2:0:0:
400,174,76784,1,0,0:0:0:0:
338,94,77002,1,0,0:0:0:0:
154,258,77148,6,0,P|169:197|170:165,1,75,2|2,0:2|0:2,0:0:0:0:
221,325,77585,1,0,0:0:0:0:
249,151,77730,2,0,P|234:90|231:35,1,100,10|2,0:2|0:2,0:0:0:0:
404,259,78313,6,0,L|492:297,1,75,2|0,0:2|0:0,0:0:0:0:
379,167,78750,1,0,0:0:0:0:
303,308,78895,2,0,L|195:347,1,100,10|2,0:2|0:2,0:0:0:0:
10,238,79478,6,0,P|34:126|35:70,1,150,0|0,1:2|1:2,0:0:0:0:
156,24,80060,5,10,0:2:0:0:
243,87,80279,1,2,0:0:0:0:
337,33,80497,1,2,0:2:0:0:
507,116,80643,5,2,0:2:0:0:
420,179,80861,1,2,0:0:0:0:
326,125,81080,1,2,0:0:0:0:
226,309,81225,6,0,P|237:253|239:218,2,75,10|2|2,0:2|0:0|0:2,0:0:0:0:
112,158,81808,5,2,0:2:0:0:
22,213,82026,1,0,0:0:0:0:
48,109,82245,1,0,0:0:0:0:
113,262,82390,6,0,P|107:320|104:351,1,75,10|0,0:2|0:0,0:0:0:0:
194,213,82827,1,0,0:0:0:0:
276,370,82973,5,2,0:2:0:0:
328,271,83191,1,0,0:0:0:0:
398,358,83410,1,0,0:0:0:0:
435,173,83555,6,0,P|426:230|428:255,1,50,10|0,0:2|0:0,0:0:0:0:
366,65,83847,1,2,0:2:0:0:
203,237,84138,6,0,P|128:208|123:153,1,120,6|2,0:2|0:2,0:0:0:0:
191,47,84721,2,0,B|320:50|249:91|366:101,1,160,2|0,0:2|0:0,0:0:0:0:
154,233,85886,1,2,0:2:0:0:
226,298,86031,2,0,P|268:282|332:279,1,80,2|0,0:2|0:2,0:0:0:0:
472,188,86468,6,0,P|386:179|372:169,1,80,2|0,0:2|0:2,0:0:0:0:
188,20,87051,1,2,0:2:0:0:
124,104,87196,2,0,L|27:79,1,80,2|0,0:2|0:2,0:0:0:0:
161,198,87633,1,2,0:2:0:0:
91,274,87779,2,0,P|63:329|70:374,1,80,2|0,0:2|0:2,0:0:0:0:
181,229,88216,1,2,0:2:0:0:
264,285,88361,2,0,L|377:311,1,80,2|0,0:2|0:2,0:0:0:0:
488,226,88798,5,2,0:2:0:0:
403,161,89017,1,2,0:2:0:0:
496,124,89235,1,2,0:2:0:0:
253,13,89381,5,2,0:2:0:0:
346,50,89599,1,2,0:2:0:0:
261,115,89818,1,2,0:2:0:0:
385,237,89963,6,0,P|397:274|403:305,2,60,2|2|2,0:2|0:2|0:2,0:0:0:0:
218,371,90546,2,0,P|236:307|235:266,1,80,2|0,0:2|3:2,0:0:0:0:
422,67,91128,5,2,0:2:0:0:
329,114,91347,1,2,0:2:0:0:
244,44,91565,1,2,0:2:0:0:
302,117,91711,5,2,0:2:0:0:
217,47,91929,1,2,0:2:0:0:
124,94,92148,1,2,0:2:0:0:
234,240,92293,6,0,P|189:225|162:222,1,60,2|2,0:2|0:2,0:0:0:0:
253,330,92730,1,2,0:2:0:0:
59,369,92876,6,0,P|69:313|69:300,1,40,2|0,0:2|0:0,0:0:0:0:
175,202,93167,2,0,P|165:146|165:139,1,40,2|0,0:2|0:0,0:0:0:0:
50,5,93458,6,0,B|174:28|114:59|221:71,1,150,14|2,0:2|0:2,0:0:0:0:
276,36,94041,2,0,P|342:18|394:19,1,100,10|0,0:2|0:2,0:0:0:0:
477,254,94623,1,8,0:2:0:0:
461,144,94769,1,0,0:2:0:0:
387,295,94915,1,0,0:2:0:0:
426,149,95060,1,0,0:2:0:0:
284,258,95206,2,0,P|230:218|132:228,1,150,10|0,0:2|0:2,0:0:0:0:
13,369,95788,5,10,0:2:0:0:
132,246,95934,2,0,P|120:311|119:344,1,100,2|0,0:2|0:2,0:0:0:0:
69,175,96371,1,10,0:2:0:0:
145,94,96517,2,0,P|95:53|50:53,1,100,2|0,0:2|0:2,0:0:0:0:
252,82,96954,1,10,0:2:0:0:
312,169,97099,2,0,P|300:251|310:295,1,100,2|0,0:2|0:2,0:0:0:0:
391,88,97536,1,10,0:2:0:0:
498,113,97682,2,0,P|487:42|485:-11,1,100,2|2,0:2|0:2,0:0:0:0:
412,226,98119,5,10,0:2:0:0:
209,87,98264,1,2,0:2:0:0:
199,362,98410,1,10,0:2:0:0:
325,148,98555,1,2,0:2:0:0:
387,363,98701,1,10,0:2:0:0:
193,214,98847,1,2,0:2:0:0:
430,106,98993,1,10,0:2:0:0:
296,309,99139,1,2,0:2:0:0:
171,65,99284,6,0,L|127:60,2,25,10|2|2,0:2|0:2|0:2,0:0:0:0:
52,236,99575,2,0,L|96:231,2,25,10|2|2,0:2|0:2|0:2,0:0:0:0:
283,124,99866,1,10,0:2:0:0:
283,124,99939,1,2,0:2:0:0:
283,124,100012,2,0,L|277:170,1,25,10|2,0:2|0:2,0:0:0:0:
419,249,100157,2,0,L|415:224,1,25,10|2,0:2|0:2,0:0:0:0:
238,340,100303,2,0,L|232:386,1,25,10|2,0:2|0:2,0:0:0:0:
430,189,100449,5,2,0:2:0:0:
62,322,102488,6,0,P|98:307|132:306,1,50,2|0,0:2|0:0,0:0:0:0:
302,249,102779,6,0,B|187:236|272:189|142:189,1,170.000003242493,4|10,1:2|0:2,0:0:0:0:
359,131,103216,1,10,0:2:0:0:
185,38,103361,2,0,P|137:18|79:31,1,85.0000016212464,2|0,1:2|0:2,0:0:0:0:
39,237,103653,2,0,P|87:257|145:244,1,85.0000016212464,10|0,0:2|0:2,0:0:0:0:
329,118,103944,6,0,P|339:49|354:4,1,85.0000016212464,2|0,1:2|0:2,0:0:0:0:
220,241,104235,2,0,L|224:310,1,42.5000008106232,10|0,0:2|0:2,0:0:0:0:
386,363,104381,2,0,L|388:320,1,42.5000008106232,10|0,0:2|0:2,0:0:0:0:
214,203,104526,2,0,P|101:216|77:346,1,255.000004863739,2|0,1:2|0:0,0:0:0:0:
185,378,105109,6,0,P|241:357|303:358,1,85.0000016212464,0|0,1:2|0:0,0:0:0:0:
435,182,105400,2,0,L|370:166,1,42.5000008106232,10|0,0:2|0:2,0:0:0:0:
465,306,105546,1,10,0:2:0:0:
283,102,105691,2,0,P|298:201|294:220,1,85.0000016212464,2|0,1:2|0:2,0:0:0:0:
423,55,105983,1,10,0:2:0:0:
292,294,106128,6,0,P|207:282|156:192,2,170.000003242493,0|0|10,0:2|0:0|0:2,0:0:0:0:
173,93,106856,1,10,0:2:0:0:
118,338,107002,1,10,0:2:0:0:
221,104,107148,1,10,0:2:0:0:
288,339,107293,1,10,0:2:0:0:
122,29,107439,6,0,P|138:137|143:235,1,170.000003242493,4|10,1:2|0:2,0:0:0:0:
319,53,107876,2,0,P|343:40|383:40,1,42.5000008106232,10|0,0:2|0:2,0:0:0:0:
421,231,108021,2,0,P|351:222|323:188,1,85.0000016212464,2|0,1:2|0:2,0:0:0:0:
490,11,108313,2,0,P|477:89|477:134,1,85.0000016212464,10|0,0:2|0:2,0:0:0:0:
306,245,108604,6,0,B|194:237|269:180|141:188,1,170.000003242493,2|10,1:2|0:2,0:0:0:0:
332,111,109041,2,0,P|365:97|394:100,1,42.5000008106232,10|0,0:2|0:2,0:0:0:0:
230,328,109187,2,0,P|181:322|141:297,1,85.0000016212464,2|0,1:2|0:2,0:0:0:0:
354,148,109478,2,0,P|365:228|356:255,1,85.0000016212464,10|0,1:2|0:2,0:0:0:0:
163,100,109769,5,2,1:2:0:0:
310,289,109915,1,2,0:2:0:0:
163,100,110060,2,0,L|61:130,1,85.0000016212464,10|8,0:2|0:2,0:0:0:0:
323,14,110352,2,0,L|310:115,1,85.0000016212464,2|0,1:2|0:2,0:0:0:0:
160,344,110643,2,0,L|141:223,1,85.0000016212464,10|0,0:2|0:0,0:0:0:0:
377,296,110934,5,10,1:2:0:0:
125,178,111080,1,8,0:2:0:0:
380,73,111225,1,10,0:2:0:0:
276,348,111371,1,8,0:2:0:0:
276,348,111444,1,8,0:2:0:0:
276,348,111517,1,4,1:3:0:0:
125,13,111808,1,4,1:3:0:0:
296,223,112099,5,6,1:2:0:0:
103,138,112245,1,2,0:2:0:0:
341,142,112390,2,0,P|383:122|446:124,1,85.0000016212464,10|8,0:2|0:2,0:0:0:0:
303,325,112682,2,0,P|230:308|194:203,1,170.000003242493,2|8,1:2|0:2,0:0:0:0:
464,148,113264,5,2,1:2:0:0:
405,371,113410,1,2,0:2:0:0:
364,147,113555,2,0,P|307:120|249:124,1,85.0000016212464,10|8,0:2|0:2,0:0:0:0:
157,320,113847,2,0,B|257:311|217:272|339:272,1,170.000003242493,2|8,1:2|1:2,0:0:0:0:
72,131,114429,5,0,1:2:0:0:
263,233,114575,1,2,0:2:0:0:
42,148,114721,2,0,P|54:206|56:262,1,85.0000016212464,10|8,0:2|0:2,0:0:0:0:
248,128,115012,2,0,P|255:67|267:28,1,85.0000016212464,2|0,1:2|0:2,0:0:0:0:
83,253,115303,2,0,P|138:277|186:265,1,85.0000016212464,10|0,0:2|0:2,0:0:0:0:
227,34,115594,2,0,P|172:10|124:22,1,85.0000016212464,2|0,1:2|0:0,0:0:0:0:
238,176,115886,5,10,0:2:0:0:
68,345,116031,1,10,0:2:0:0:
173,119,116177,1,10,0:2:0:0:
273,334,116322,1,8,0:2:0:0:
312,93,116468,1,8,0:2:0:0:
103,202,116614,1,8,0:2:0:0:
341,282,116759,6,0,P|393:268|443:262,1,85.0000016212464,6|2,1:2|0:2,0:0:0:0:
428,29,117051,2,0,P|376:43|326:49,1,85.0000016212464,10|8,0:2|0:2,0:0:0:0:
235,255,117342,2,0,P|146:230|126:139,1,170.000003242493,2|8,1:2|0:2,0:0:0:0:
318,352,117924,5,2,1:2:0:0:
250,151,118070,1,2,0:2:0:0:
187,355,118216,2,0,P|139:336|88:331,1,85.0000016212464,10|8,0:2|0:2,0:0:0:0:
311,245,118507,2,0,P|395:217|494:209,1,170.000003242493,2|8,1:2|1:2,0:0:0:0:
114,74,119089,5,0,1:2:0:0:
242,269,119235,1,2,0:2:0:0:
155,70,119381,1,10,0:2:0:0:
89,318,119526,1,8,0:2:0:0:
306,175,119672,2,0,P|306:111|288:73,1,85.0000016212464,2|0,1:2|0:2,0:0:0:0:
100,182,119963,2,0,P|100:246|118:284,1,85.0000016212464,10|0,0:2|0:2,0:0:0:0:
329,338,120254,5,10,1:2:0:0:
208,124,120400,1,8,0:2:0:0:
165,367,120546,1,10,0:2:0:0:
298,92,120691,1,8,0:2:0:0:
298,92,120764,1,8,0:2:0:0:
298,92,120837,2,0,B|402:106|357:153|455:174,1,170.000003242493,4|4,1:3|1:3,0:0:0:0:
221,309,121420,6,0,P|135:293|112:291,1,100,8|0,0:2|0:2,0:0:0:0:
281,206,121856,1,2,0:2:0:0:
123,128,122002,2,0,P|162:117|245:112,1,100,8|0,0:2|0:2,0:0:0:0:
343,22,122585,6,0,L|333:84,1,50,8|0,0:2|0:2,0:0:0:0:
223,49,122876,2,0,L|215:0,1,50,0|0,0:2|0:2,0:0:0:0:
120,117,123167,1,8,0:2:0:0:
290,299,123458,1,2,0:2:0:0:
252,194,123604,1,2,0:2:0:0:
139,310,123750,6,0,B|73:311|110:285|31:288,1,100,10|0,0:2|0:2,0:0:0:0:
221,376,124187,1,2,0:2:0:0:
140,185,124332,2,0,P|144:112|153:70,1,100,8|0,0:2|0:2,0:0:0:0:
219,265,124915,6,0,P|259:260|279:245,1,50,8|0,0:2|0:2,0:0:0:0:
427,251,125206,2,0,L|433:202,1,50,0|0,0:2|0:2,0:0:0:0:
353,126,125496,1,8,0:2:0:0:
353,126,125642,1,8,0:2:0:0:
422,279,125788,1,10,0:2:0:0:
504,136,125934,1,8,0:2:0:0:
312,262,126080,6,0,P|248:249|203:247,1,100,10|2,0:2|0:2,0:0:0:0:
43,174,126517,2,0,P|86:163|113:154,1,50,2|8,0:2|0:2,0:0:0:0:
208,3,126808,2,0,P|183:58|174:107,1,100,2|0,0:2|0:2,0:0:0:0:
222,175,127245,6,0,P|285:163|339:162,1,100,10|2,0:2|0:2,0:0:0:0:
483,236,127682,2,0,P|479:280|479:297,1,50,2|8,0:2|0:2,0:0:0:0:
414,84,127973,2,0,P|421:129|421:153,1,50,2|0,0:2|0:2,0:0:0:0:
504,24,128264,1,2,0:2:0:0:
309,88,128410,6,0,P|248:74|190:69,1,100,8|0,0:2|0:2,0:0:0:0:
92,136,128847,2,0,P|99:104|99:73,1,50,0|8,0:2|0:2,0:0:0:0:
185,188,129138,2,0,P|223:184|246:171,1,50,0|0,0:2|0:2,0:0:0:0:
124,278,129429,1,0,0:2:0:0:
281,115,129575,5,8,0:2:0:0:
317,315,129721,1,8,0:2:0:0:
196,78,129866,1,8,0:2:0:0:
215,344,130012,1,8,0:2:0:0:
215,344,130085,1,8,0:2:0:0:
215,344,130157,1,4,1:3:0:0:
404,29,130449,1,4,1:3:0:0:
139,233,130740,6,0,P|125:178|123:129,1,100,14|0,0:2|0:2,0:0:0:0:
294,68,131177,1,2,0:2:0:0:
244,265,131322,2,0,P|237:326|239:337,1,50,8|0,0:2|0:0,0:0:0:0:
337,184,131614,1,0,0:2:0:0:
337,184,131759,1,0,0:2:0:0:
434,284,131905,6,0,P|486:278|514:234,1,100,8|0,0:2|0:2,0:0:0:0:
446,148,132342,1,0,0:2:0:0:
302,287,132488,2,0,P|250:281|222:237,1,100,8|2,0:2|0:2,0:0:0:0:
274,80,132924,1,2,0:2:0:0:
126,223,133070,6,0,P|120:142|112:107,1,100,10|0,0:2|0:2,0:0:0:0:
253,220,133507,1,2,0:2:0:0:
89,348,133653,2,0,P|59:339|21:334,1,50,10|2,0:2|0:2,0:0:0:0:
204,300,133944,1,10,0:2:0:0:
204,300,134089,1,0,0:2:0:0:
63,178,134235,6,0,P|54:133|55:109,1,50,8|0,0:2|0:2,0:0:0:0:
194,33,134526,1,0,0:2:0:0:
194,33,134672,1,0,0:2:0:0:
123,250,134818,1,8,0:2:0:0:
94,26,134963,1,8,0:2:0:0:
273,132,135109,1,8,0:2:0:0:
47,211,135254,1,8,0:2:0:0:
47,211,135327,1,0,0:0:0:0:
47,211,135400,6,0,P|14:206|-13:205,1,50,10|2,0:2|0:2,0:0:0:0:
176,122,135691,1,10,0:2:0:0:
103,358,135837,1,2,0:2:0:0:
249,181,135983,2,0,P|291:171|316:169,1,50,10|2,0:2|0:2,0:0:0:0:
56,104,136274,1,10,0:2:0:0:
265,275,136420,1,2,0:2:0:0:
128,49,136565,6,0,L|123:14,2,25,10|2|2,0:2|0:2|0:2,0:0:0:0:
364,196,136856,2,0,L|369:161,2,25,10|2|2,0:2|0:2|0:2,0:0:0:0:
66,316,137148,1,10,0:2:0:0:
87,290,137221,1,2,0:2:0:0:
98,252,137293,1,10,0:2:0:0:
90,214,137366,1,2,0:2:0:0:
58,185,137439,2,0,L|54:225,1,25,10|2,0:2|0:2,0:0:0:0:
239,320,137585,2,0,L|243:360,1,25,10|2,0:2|0:2,0:0:0:0:
122,120,137730,5,2,0:2:0:0:
465,368,139478,6,0,P|471:337|472:315,1,50,8|0,0:3|0:0,0:0:0:0:
359,61,139769,2,0,P|360:85|366:110,1,50,8|0,0:3|0:0,0:0:0:0:
505,303,140060,5,4,0:2:0:0:
356,322,148216,5,8,0:2:0:0:
139,156,148361,1,8,0:2:0:0:
399,241,148507,1,8,0:2:0:0:
131,351,148653,1,8,0:2:0:0:
131,351,148725,1,8,0:2:0:0:
131,351,148798,2,0,P|77:340|30:338,1,85.0000016212464,4|0,1:3|0:0,0:0:0:0:
166,80,149089,2,0,P|220:91|267:93,1,85.0000016212464,4|0,1:3|0:0,0:0:0:0:
72,215,149381,5,6,1:2:0:0:
292,93,149526,1,2,0:2:0:0:
161,273,149672,2,0,P|151:317|154:367,1,85.0000016212464,10|8,0:2|0:2,0:0:0:0:
357,216,149963,2,0,B|462:231|415:272|511:298,1,170.000003242493,2|8,1:2|0:2,0:0:0:0:
245,151,150546,5,2,1:2:0:0:
387,333,150691,1,2,0:2:0:0:
245,151,150837,2,0,L|256:247,1,85.0000016212464,10|8,0:2|0:2,0:0:0:0:
423,58,151128,2,0,L|395:248,1,170.000003242493,2|8,1:2|1:2,0:0:0:0:
107,108,151711,5,0,1:2:0:0:
298,45,151856,1,2,0:2:0:0:
107,108,152002,2,0,P|165:89|211:92,1,85.0000016212464,10|8,0:2|0:2,0:0:0:0:
231,288,152293,2,0,P|173:307|127:304,1,85.0000016212464,2|0,1:2|0:2,0:0:0:0:
305,76,152585,2,0,P|297:148|301:184,1,85.0000016212464,10|0,0:2|0:2,0:0:0:0:
89,227,152876,2,0,P|89:184|81:142,1,85.0000016212464,2|0,1:2|0:0,0:0:0:0:
240,288,153167,5,10,0:2:0:0:
61,337,153313,1,10,0:2:0:0:
222,177,153458,1,10,0:2:0:0:
301,368,153604,1,8,0:2:0:0:
135,227,153750,1,8,0:2:0:0:
361,158,153895,1,8,0:2:0:0:
188,333,154041,6,0,P|132:348|99:338,1,85.0000016212464,6|2,1:2|0:2,0:0:0:0:
84,121,154332,2,0,P|140:106|173:116,1,85.0000016212464,10|8,0:2|0:2,0:0:0:0:
301,285,154623,2,0,B|399:281|365:226|477:234,1,170.000003242493,2|8,1:2|0:2,0:0:0:0:
210,188,155206,5,2,1:2:0:0:
395,315,155352,1,2,0:2:0:0:
190,208,155497,2,0,P|204:259|203:306,1,85.0000016212464,10|8,0:2|0:2,0:0:0:0:
391,140,155788,2,0,P|347:100|236:88,1,170.000003242493,2|8,1:2|1:2,0:0:0:0:
57,289,156371,5,0,1:2:0:0:
150,89,156517,1,2,0:2:0:0:
156,328,156662,2,0,L|170:229,1,85.0000016212464,10|8,0:2|0:2,0:0:0:0:
45,51,156954,2,0,L|56:135,1,85.0000016212464,2|0,1:2|0:2,0:0:0:0:
271,205,157245,2,0,P|333:202|365:175,1,85.0000016212464,10|0,0:2|0:2,0:0:0:0:
194,87,157536,5,10,1:2:0:0:
235,331,157682,1,8,0:2:0:0:
379,113,157827,1,10,0:2:0:0:
344,358,157973,1,8,0:2:0:0:
344,358,158046,1,8,0:2:0:0:
344,358,158119,1,4,1:3:0:0:
286,5,158410,6,0,B|269:135|304:31|274:198,1,170.000003242493,4|0,1:3|0:0,0:0:0:0:
