osu file format v14

[General]
AudioFilename: audio.mp3
AudioLeadIn: 0
PreviewTime: 69768
Countdown: 1
SampleSet: Soft
StackLeniency: 0.7
Mode: 0
LetterboxInBreaks: 0
WidescreenStoryboard: 0

[Editor]
DistanceSpacing: 2
BeatDivisor: 4
GridSize: 4
TimelineZoom: 2.8

[Metadata]
Title:Tears Infection
TitleUnicode:Tears Infection
Artist:KAORI
ArtistUnicode:KAORI
Creator:miradzin
Version:Yourself
Source:Myself;Yourself
Tags:
BeatmapID:1116767
BeatmapSetID:526280

[Difficulty]
HPDrainRate:6
CircleSize:4
OverallDifficulty:7.5
ApproachRate:9.1
SliderMultiplier:1.7
SliderTickRate:1

[Events]
//Background and Video events
0,0,"50865c2d95c023f_0.jpg",0,0
//Break Periods
//Storyboard Layer 0 (Background)
//Storyboard Layer 1 (Fail)
//Storyboard Layer 2 (Pass)
//Storyboard Layer 3 (Foreground)
//Storyboard Sound Samples

[TimingPoints]
475,326.086956521739,4,2,2,50,1,0
10420,-100,4,2,1,50,0,0
10909,-90.9090909090909,4,2,1,65,0,0
23953,-133.333333333333,4,2,1,30,0,0
34388,-133.333333333333,4,2,1,40,0,0
44822,-100,4,2,1,55,0,0
65692,-100,4,2,1,60,0,0
70909,-86.9565217391304,4,2,1,70,0,1
91779,-86.9565217391304,4,2,1,60,0,0
96996,-86.9565217391304,4,2,1,65,0,1
98301,-86.9565217391304,4,2,1,65,0,0
99605,-100,4,2,1,70,0,1
110040,-100,4,2,1,50,0,0
113953,-100,4,2,1,30,0,0
115420,-100,4,2,1,15,0,0

[Colours]
Combo1 : 111,244,255
Combo2 : 255,145,227
Combo3 : 203,203,203
Combo4 : 252,255,128

[HitObjects]
68,264,475,6,0,L|164:256,1,85,2|0,0:0|0:0,0:0:0:0:
332,212,801,2,0,P|308:168|196:140,1,170,2|2,0:0|0:0,0:0:0:0:
72,73,1290,2,0,L|87:163,1,85,2|0,0:0|0:0,0:0:0:0:
240,269,1616,6,0,L|409:248,1,170,2|2,0:0|0:0,0:0:0:0:
475,144,2105,1,0,0:0:0:0:
331,161,2268,1,2,0:0:0:0:
401,35,2431,1,0,0:0:0:0:
269,94,2594,2,0,L|172:82,1,85,2|0,0:0|0:0,0:0:0:0:
53,23,2920,1,2,0:0:0:0:
53,23,3083,6,0,L|76:202,1,170,2|2,0:0|0:0,0:0:0:0:
32,311,3572,1,0,0:0:0:0:
191,306,3735,2,0,P|234:273|255:231,1,85,2|2,0:0|0:0,0:0:0:0:
253,104,4061,1,0,0:0:0:0:
158,213,4224,6,0,L|151:106,1,85,2|0,0:0|0:0,0:0:0:0:
282,12,4551,2,0,P|326:41|346:80,1,85,2|0,0:0|0:0,0:0:0:0:
395,212,4877,2,0,P|336:193|243:261,1,170,2|2,0:0|0:0,0:0:0:0:
345,319,5366,1,0,0:0:0:0:
203,349,5529,1,2,0:0:0:0:
203,349,5692,6,0,L|218:163,1,170,2|2,0:0|0:0,0:0:0:0:
271,42,6181,1,0,0:0:0:0:
141,106,6344,1,2,0:0:0:0:
305,209,6507,2,0,L|315:118,1,85,2|0,0:0|0:0,0:0:0:0:
452,81,6833,5,2,0:0:0:0:
351,6,6996,1,0,0:0:0:0:
392,144,7159,2,0,L|382:228,1,85,2|0,0:0|0:0,0:0:0:0:
489,326,7485,2,0,B|441:345|441:345|292:325,1,170,2|2,0:0|0:0,0:0:0:0:
177,355,7974,1,0,0:0:0:0:
279,218,8138,1,2,0:0:0:0:
279,218,8301,6,0,P|248:182|122:177,1,170,2|2,0:0|0:0,0:0:0:0:
38,91,8790,1,0,0:0:0:0:
180,68,8953,1,2,0:0:0:0:
55,187,9116,2,0,L|69:285,1,85,2|0,0:0|0:0,0:0:0:0:
193,356,9442,6,0,P|204:298|177:246,1,85,2|0,0:0|0:0,0:0:0:0:
339,297,9768,2,0,P|377:252|380:193,1,85,2|0,0:0|0:0,0:0:0:0:
488,129,10094,2,0,P|443:90|384:87,1,85,2|0,0:0|0:0,0:0:0:0:
227,45,10420,1,10,0:0:0:0:
270,216,10583,1,8,0:0:0:0:
343,126,10746,1,0,0:0:0:0:
167,202,10909,6,0,L|61:191,1,93.5000028533936,4|0,0:0|0:0,0:0:0:0:
133,349,11235,1,8,0:0:0:0:
270,216,11398,1,0,0:0:0:0:
111,272,11561,1,2,0:0:0:0:
272,319,11724,1,0,0:0:0:0:
162,149,11888,1,8,0:0:0:0:
194,288,12051,1,0,0:0:0:0:
302,77,12214,5,2,0:0:0:0:
270,216,12377,1,0,0:0:0:0:
196,64,12540,1,8,0:0:0:0:
333,160,12703,1,0,0:0:0:0:
172,209,12866,1,2,0:0:0:0:
93,60,13029,1,0,0:0:0:0:
65,225,13192,1,8,0:0:0:0:
196,64,13355,1,0,0:0:0:0:
196,64,13518,6,0,L|315:52,1,93.5000028533936,4|0,0:0|0:0,0:0:0:0:
439,129,13844,1,8,0:0:0:0:
274,162,14007,1,0,0:0:0:0:
396,47,14170,1,2,0:0:0:0:
355,210,14333,1,0,0:0:0:0:
195,155,14496,1,8,0:0:0:0:
360,126,14659,1,0,0:0:0:0:
206,56,14822,5,2,0:0:0:0:
360,126,14985,1,0,0:0:0:0:
281,310,15148,1,8,0:0:0:0:
275,141,15311,1,0,0:0:0:0:
165,268,15474,1,2,0:0:0:0:
93,103,15638,1,0,0:0:0:0:
223,71,15801,1,8,0:0:0:0:
58,205,15964,1,0,0:0:0:0:
58,205,16127,6,0,L|69:301,1,93.5000028533936,4|0,0:0|0:0,0:0:0:0:
221,199,16453,1,8,0:0:0:0:
157,354,16616,1,0,0:0:0:0:
133,153,16779,1,2,0:0:0:0:
222,295,16942,1,0,0:0:0:0:
259,108,17105,1,8,0:0:0:0:
143,250,17268,1,0,0:0:0:0:
308,221,17431,5,2,0:0:0:0:
257,30,17594,1,0,0:0:0:0:
223,194,17757,1,8,0:0:0:0:
372,117,17920,1,0,0:0:0:0:
173,90,18083,1,2,0:0:0:0:
343,30,18246,1,0,0:0:0:0:
308,221,18409,1,8,0:0:0:0:
173,90,18572,1,0,0:0:0:0:
173,90,18735,6,0,L|66:108,1,93.5000028533936,4|0,0:0|0:0,0:0:0:0:
42,269,19061,1,8,0:0:0:0:
200,211,19224,1,0,0:0:0:0:
23,168,19388,1,2,0:0:0:0:
109,336,19551,1,0,0:0:0:0:
123,168,19714,1,8,0:0:0:0:
11,294,19877,1,0,0:0:0:0:
54,100,20040,5,2,0:0:0:0:
227,131,20203,1,0,0:0:0:0:
122,250,20366,1,8,0:0:0:0:
165,55,20529,1,0,0:0:0:0:
232,230,20692,1,2,0:0:0:0:
275,35,20855,1,8,0:0:0:0:
129,148,21018,1,8,0:0:0:0:
317,183,21181,1,0,0:0:0:0:
165,55,21344,6,0,L|185:240,1,187.000005706787,4|2,0:1|0:0,0:0:0:0:
359,94,21996,6,0,L|339:279,1,187.000005706787,4|2,0:1|0:0,0:0:0:0:
103,180,22648,6,0,L|123:365,1,187.000005706787,4|2,0:1|0:0,0:0:0:0:
420,222,23301,6,0,L|404:271,1,46.7500014266968,4|0,0:1|0:0,0:0:0:0:
366,360,23464,1,8,0:3:0:0:
328,357,23545,1,8,0:3:0:0:
293,333,23627,1,2,0:0:0:0:
270,292,23708,1,2,0:0:0:0:
270,240,23790,1,2,0:0:0:0:
301,193,23871,1,2,0:0:0:0:
353,161,23953,1,4,0:0:0:0:
126,99,24279,6,0,P|176:174|222:183,1,127.500004863739,2|2,0:0|0:0,0:0:0:0:
357,112,24931,1,2,0:0:0:0:
272,254,25257,1,2,0:0:0:0:
208,73,25583,1,2,0:0:0:0:
114,275,25909,1,2,0:0:0:0:
15,141,26235,2,0,L|94:134,1,63.7500024318696,2|0,0:0|0:0,0:0:0:0:
147,180,26561,6,0,P|121:142|154:44,1,127.500004863739,2|2,0:0|0:0,0:0:0:0:
265,165,27214,1,2,0:0:0:0:
374,40,27540,1,2,0:0:0:0:
481,222,27866,1,2,0:0:0:0:
476,56,28192,1,2,0:0:0:0:
360,201,28518,1,2,0:0:0:0:
267,58,28844,1,2,0:0:0:0:
147,180,29170,6,0,P|204:187|257:247,1,127.500004863739,2|2,0:0|0:0,0:0:0:0:
133,350,29822,1,2,0:0:0:0:
312,296,30148,1,2,0:0:0:0:
107,240,30474,1,2,0:0:0:0:
344,157,30801,1,2,0:0:0:0:
135,38,31127,1,2,0:0:0:0:
214,240,31453,1,2,0:0:0:0:
309,45,31779,6,0,P|360:80|441:67,1,127.500004863739,2|2,0:0|0:0,0:0:0:0:
482,18,32268,1,0,0:0:0:0:
482,18,32431,2,0,L|457:160,1,127.500004863739,2|0,0:0|0:0,0:0:0:0:
476,296,33083,2,0,P|436:261|347:267,1,127.500004863739,2|2,0:0|0:0,0:0:0:0:
187,199,33735,1,2,0:0:0:0:
285,299,33898,1,8,0:0:0:0:
249,111,34061,1,8,0:0:0:0:
142,291,34224,1,8,0:0:0:0:
59,109,34388,6,0,P|97:74|195:68,1,127.500004863739,4|2,0:0|0:0,0:0:0:0:
280,31,34877,1,0,0:0:0:0:
234,136,35040,2,0,P|245:188|261:217,1,63.7500024318696,2|0,0:0|0:0,0:0:0:0:
361,223,35366,2,0,P|350:275|334:304,1,63.7500024318696,2|0,0:0|0:0,0:0:0:0:
192,301,35692,6,0,P|201:242|250:196,1,127.500004863739,2|2,0:0|0:0,0:0:0:0:
361,223,36181,1,0,0:0:0:0:
306,114,36344,2,0,P|259:94|226:91,1,63.7500024318696,2|0,0:0|0:0,0:0:0:0:
113,134,36670,2,0,P|160:154|193:157,1,63.7500024318696,2|0,0:0|0:0,0:0:0:0:
108,38,36996,6,0,P|41:69|18:125,1,127.500004863739,2|2,0:0|0:0,0:0:0:0:
74,215,37485,1,0,0:0:0:0:
172,155,37648,2,0,L|256:161,1,63.7500024318696,2|0,0:0|0:0,0:0:0:0:
341,115,37974,2,0,P|298:77|272:69,1,63.7500024318696,2|0,0:0|0:0,0:0:0:0:
265,242,38301,6,0,P|327:270|407:251,1,127.500004863739,2|2,0:0|0:0,0:0:0:0:
471,188,38790,1,0,0:0:0:0:
371,109,38953,2,0,L|388:184,1,63.7500024318696,2|0,0:0|0:0,0:0:0:0:
465,294,39279,2,0,P|432:337|398:347,1,63.7500024318696,2|0,0:0|0:0,0:0:0:0:
256,286,39605,6,0,P|255:222|315:174,1,127.500004863739,2|2,0:0|0:0,0:0:0:0:
384,262,40094,1,0,0:0:0:0:
319,364,40257,2,0,L|245:358,1,63.7500024318696,2|0,0:0|0:0,0:0:0:0:
134,306,40583,2,0,P|152:252|168:233,1,63.7500024318696,2|0,0:0|0:0,0:0:0:0:
297,179,40909,6,0,P|270:127|188:102,1,127.500004863739,2|2,0:0|0:0,0:0:0:0:
74,124,41398,1,0,0:0:0:0:
155,246,41561,2,0,L|154:167,1,63.7500024318696,2|0,0:0|0:0,0:0:0:0:
74,60,41888,2,0,L|73:139,1,63.7500024318696,2|0,0:0|0:0,0:0:0:0:
51,284,42214,6,0,P|76:326|161:356,1,127.500004863739,2|2,0:0|0:0,0:0:0:0:
239,290,42703,2,0,B|288:282|288:282|371:299,1,127.500004863739
459,362,43192,2,0,L|454:278,1,63.7500024318696,2|0,0:0|0:0,0:0:0:0:
448,118,43518,5,2,0:3:0:0:
454,107,43844,1,2,0:3:0:0:
470,79,44170,1,2,0:0:0:0:
332,200,44333,2,0,P|265:148|183:160,1,159.375006079674,8|0,0:0|0:0,0:0:0:0:
127,116,44822,6,0,L|121:217,1,85,4|0,0:0|0:0,0:0:0:0:
219,318,45148,1,8,0:0:0:0:
67,298,45311,1,0,0:0:0:0:
205,233,45474,1,2,0:0:0:0:
123,363,45638,1,0,0:0:0:0:
31,200,45801,2,0,L|36:115,1,85,8|0,0:0|0:0,0:0:0:0:
185,148,46127,6,0,P|272:133|312:59,1,170,4|8,0:0|0:0,0:0:0:0:
367,209,46616,1,0,0:0:0:0:
404,60,46779,1,2,0:0:0:0:
468,198,46942,1,0,0:0:0:0:
492,25,47105,2,0,L|486:116,1,85,8|0,0:0|0:0,0:0:0:0:
305,145,47431,6,0,P|266:108|137:106,1,170,4|8,0:0|0:0,0:0:0:0:
46,206,47920,1,0,0:0:0:0:
46,206,48002,1,0,0:0:0:0:
46,206,48083,1,2,0:0:0:0:
197,226,48246,1,0,0:0:0:0:
67,106,48409,1,8,0:0:0:0:
106,281,48572,1,0,0:0:0:0:
207,111,48735,6,0,L|393:83,1,170,4|8,0:0|0:0,0:0:0:0:
481,195,49224,1,0,0:0:0:0:
481,195,49306,1,0,0:0:0:0:
481,195,49388,1,2,0:0:0:0:
295,199,49551,1,0,0:0:0:0:
453,59,49714,1,8,0:0:0:0:
397,259,49877,1,0,0:0:0:0:
314,98,50040,6,0,L|134:68,1,170,4|8,0:0|0:0,0:0:0:0:
24,146,50529,1,0,0:0:0:0:
168,266,50692,2,0,L|279:242,1,85,2|0,0:0|0:0,0:0:0:0:
107,142,51018,1,8,0:0:0:0:
85,346,51181,1,0,0:0:0:0:
85,346,51263,1,0,0:0:0:0:
85,346,51344,6,0,L|280:355,1,170,4|8,0:0|0:0,0:0:0:0:
384,300,51833,1,0,0:0:0:0:
244,163,51996,2,0,L|251:255,1,85,2|0,0:0|0:0,0:0:0:0:
404,109,52322,2,0,L|397:201,1,85,8|0,0:0|0:0,0:0:0:0:
267,347,52648,6,0,P|206:339|148:241,1,170,4|8,0:0|0:0,0:0:0:0:
69,119,53138,1,0,0:0:0:0:
69,119,53219,1,0,0:0:0:0:
69,119,53301,1,2,0:0:0:0:
244,163,53464,1,0,0:0:0:0:
151,18,53627,2,0,L|163:109,1,85,8|0,0:0|0:0,0:0:0:0:
201,250,53953,5,2,0:0:0:0:
367,186,54116,1,0,0:0:0:0:
250,44,54279,1,8,0:0:0:0:
289,251,54442,1,8,0:0:0:0:
447,111,54605,2,0,P|400:85|359:81,1,85,8|0,0:0|0:0,0:0:0:0:
198,172,54931,2,0,L|288:157,1,85,8|0,0:0|0:0,0:0:0:0:
481,290,55257,6,0,L|305:271,1,170,4|8,0:0|0:0,0:0:0:0:
179,303,55746,1,0,0:0:0:0:
321,187,55909,2,0,L|311:277,1,85,2|0,0:0|0:0,0:0:0:0:
188,87,56235,2,0,L|198:177,1,85,8|0,0:0|0:0,0:0:0:0:
262,352,56561,6,0,P|336:360|403:287,1,170,4|8,0:0|0:0,0:0:0:0:
447,159,57051,1,0,0:0:0:0:
290,212,57214,1,2,0:0:0:0:
358,64,57377,1,0,0:0:0:0:
398,226,57540,1,8,0:0:0:0:
260,95,57703,1,0,0:0:0:0:
260,95,57784,1,0,0:0:0:0:
260,95,57866,6,0,P|186:87|119:160,1,170,4|8,0:0|0:0,0:0:0:0:
168,295,58355,1,0,0:0:0:0:
168,295,58436,1,0,0:0:0:0:
168,295,58518,2,0,L|277:268,1,85,2|0,0:0|0:0,0:0:0:0:
398,226,58844,2,0,P|376:176|342:145,1,85,8|0,0:0|0:0,0:0:0:0:
177,107,59170,6,0,L|346:58,1,170,4|8,0:0|0:0,0:0:0:0:
472,149,59659,1,0,0:0:0:0:
472,149,59741,1,0,0:0:0:0:
472,149,59822,1,2,0:0:0:0:
305,235,59985,1,0,0:0:0:0:
243,48,60148,1,8,0:0:0:0:
162,192,60311,1,0,0:0:0:0:
370,138,60474,6,0,P|327:71|227:53,1,170,4|8,0:0|0:0,0:0:0:0:
100,104,60964,1,0,0:0:0:0:
260,160,61127,1,2,0:0:0:0:
260,160,61290,1,0,0:0:0:0:
50,188,61453,2,0,L|69:276,1,85,8|0,0:0|0:0,0:0:0:0:
84,344,61697,1,0,0:0:0:0:
84,344,61779,1,2,0:0:0:0:
224,283,61942,1,0,0:0:0:0:
144,108,62105,6,0,L|163:196,1,85,8|0,0:0|0:0,0:0:0:0:
345,151,62431,1,2,0:0:0:0:
224,283,62594,1,0,0:0:0:0:
243,123,62757,1,8,0:0:0:0:
345,236,62920,1,0,0:0:0:0:
237,26,63083,6,0,P|167:62|153:157,1,170,4|8,0:0|0:0,0:0:0:0:
278,228,63572,1,0,0:0:0:0:
278,228,63654,1,0,0:0:0:0:
278,228,63735,2,0,P|320:186|333:138,1,85,2|0,0:0|0:0,0:0:0:0:
143,233,64061,1,8,0:0:0:0:
234,142,64224,1,0,0:0:0:0:
81,121,64388,5,2,0:0:0:0:
56,271,64551,1,0,0:0:0:0:
158,90,64714,1,8,0:0:0:0:
228,262,64877,1,0,0:0:0:0:
57,348,65040,1,2,0:0:0:0:
138,189,65203,1,0,0:0:0:0:
198,357,65366,2,0,L|326:340,1,127.5,8|0,0:0|0:0,0:0:0:0:
408,354,65692,5,12,0:0:0:0:
363,154,65855,1,2,0:0:0:0:
363,154,66018,1,2,0:0:0:0:
123,304,66181,5,12,0:0:0:0:
421,253,66344,1,2,0:0:0:0:
421,253,66507,1,2,0:0:0:0:
239,52,66670,5,12,0:0:0:0:
259,343,66833,1,2,0:0:0:0:
259,343,66996,1,2,0:0:0:0:
35,219,67159,5,12,0:0:0:0:
310,172,67322,2,0,L|219:162,1,85,8|0,0:0|0:0,0:0:0:0:
16,20,67648,2,0,L|30:105,1,85,8|0,0:0|0:0,0:0:0:0:
49,346,67974,2,0,L|177:329,1,127.5,8|0,0:0|0:0,0:0:0:0:
259,343,68301,5,8,0:0:0:0:
146,171,68464,1,0,0:0:0:0:
338,279,68627,5,8,0:0:0:0:
67,254,68790,1,8,0:0:0:0:
67,254,68871,1,8,0:0:0:0:
67,254,68953,5,8,0:0:0:0:
160,16,69116,1,8,0:0:0:0:
293,212,69279,1,8,0:0:0:0:
0,145,69442,1,4,0:0:0:0:
361,338,70746,5,8,0:0:0:0:
349,296,70828,1,8,0:0:0:0:
363,256,70909,6,0,P|371:198|361:159,1,97.7500018644333,4|0,0:0|0:0,0:0:0:0:
197,222,71235,1,8,0:0:0:0:
296,76,71398,1,0,0:0:0:0:
286,251,71561,1,2,0:0:0:0:
183,107,71724,1,0,0:0:0:0:
362,160,71888,1,8,0:0:0:0:
219,24,72051,1,0,0:0:0:0:
61,177,72214,6,0,P|39:128|41:82,1,97.7500018644333,4|0,0:0|0:0,0:0:0:0:
265,173,72540,2,0,L|369:159,1,97.7500018644333,8|0,0:0|0:0,0:0:0:0:
426,319,72866,1,2,0:0:0:0:
451,144,73029,1,0,0:0:0:0:
320,271,73192,1,8,0:0:0:0:
292,69,73355,1,0,0:0:0:0:
183,212,73518,6,0,P|176:144|51:95,1,195.500003728867,4|8,0:0|0:0,0:0:0:0:
80,265,74007,1,0,0:0:0:0:
265,154,74170,1,2,0:0:0:0:
225,326,74333,1,0,0:0:0:0:
45,174,74496,2,0,L|148:164,1,97.7500018644333,8|0,0:0|0:0,0:0:0:0:
377,155,74822,6,0,P|354:83|238:45,1,195.500003728867,4|8,0:0|0:0,0:0:0:0:
142,164,75311,1,0,0:0:0:0:
276,262,75474,2,0,L|383:249,1,97.7500018644333,2|0,0:0|0:0,0:0:0:0:
460,236,75719,1,0,0:0:0:0:
460,236,75801,1,8,0:0:0:0:
420,36,75964,1,0,0:0:0:0:
250,149,76127,6,0,L|45:134,1,195.500003728867,4|8,0:0|0:0,0:0:0:0:
139,251,76616,1,0,0:0:0:0:
274,56,76779,2,0,P|325:89|342:128,1,97.7500018644333,2|0,0:0|0:0,0:0:0:0:
256,275,77105,1,8,0:0:0:0:
424,225,77268,1,0,0:0:0:0:
180,110,77431,6,0,L|167:218,1,97.7500018644333,4|0,0:0|0:0,0:0:0:0:
345,308,77757,2,0,L|332:200,1,97.7500018644333,8|0,0:0|0:0,0:0:0:0:
315,35,78083,1,2,0:0:0:0:
254,200,78246,1,0,0:0:0:0:
403,107,78409,1,8,0:0:0:0:
204,34,78572,1,0,0:0:0:0:
386,237,78735,6,0,P|341:306|235:337,1,195.500003728867,4|8,0:0|0:0,0:0:0:0:
157,180,79224,1,0,0:0:0:0:
157,180,79306,1,0,0:0:0:0:
157,180,79388,1,2,0:0:0:0:
49,318,79551,1,0,0:0:0:0:
66,115,79714,1,8,0:0:0:0:
149,293,79877,1,0,0:0:0:0:
242,104,80040,6,0,L|367:105,1,97.7500018644333,4|0,0:0|0:0,0:0:0:0:
450,237,80366,2,0,P|448:301|430:353,1,97.7500018644333,8|0,0:0|0:0,0:0:0:0:
247,215,80692,1,2,0:0:0:0:
444,93,80855,1,8,0:0:0:0:
444,93,80936,1,8,0:0:0:0:
444,93,81018,1,8,0:0:0:0:
286,307,81181,5,8,0:0:0:0:
244,319,81263,1,8,0:0:0:0:
204,305,81344,6,0,P|146:296|107:306,1,97.7500018644333,4|0,0:0|0:0,0:0:0:0:
12,158,81670,1,8,0:0:0:0:
182,200,81833,1,0,0:0:0:0:
13,248,81996,1,2,0:0:0:0:
135,122,82159,1,0,0:0:0:0:
24,333,82322,1,8,0:0:0:0:
92,195,82485,1,0,0:0:0:0:
173,376,82648,6,0,L|299:360,1,97.7500018644333,4|0,0:0|0:0,0:0:0:0:
373,221,82974,1,8,0:0:0:0:
203,272,83138,1,0,0:0:0:0:
369,330,83301,1,2,0:0:0:0:
332,104,83464,1,0,0:0:0:0:
285,294,83627,1,8,0:0:0:0:
244,104,83790,1,0,0:0:0:0:
138,202,83953,6,0,B|211:194|211:194|255:208|255:208|355:195,1,195.500003728867,4|8,0:0|0:0,0:0:0:0:
469,90,84442,1,0,0:0:0:0:
396,250,84605,1,2,0:0:0:0:
297,104,84768,1,0,0:0:0:0:
474,185,84931,1,8,0:0:0:0:
371,17,85094,1,0,0:0:0:0:
254,223,85257,6,0,B|182:194|174:135|174:135|143:168|89:172,1,195.500003728867,4|8,0:0|0:0,0:0:0:0:
12,284,85746,1,0,0:0:0:0:
181,329,85909,1,2,0:0:0:0:
26,127,86072,1,0,0:0:0:0:
26,127,86154,1,0,0:0:0:0:
26,127,86235,1,8,0:0:0:0:
101,286,86398,1,0,0:0:0:0:
261,135,86561,6,0,B|319:125|319:125|345:132|345:132|418:120|418:120|376:157,1,195.500003728867,4|8,0:0|0:0,0:0:0:0:
261,264,87051,1,0,0:0:0:0:
435,238,87214,1,2,0:0:0:0:
195,192,87377,1,0,0:0:0:0:
333,321,87540,1,8,0:0:0:0:
160,336,87703,1,0,0:0:0:0:
344,223,87866,6,0,L|331:332,1,97.7500018644333,4|0,0:0|0:0,0:0:0:0:
195,192,88192,2,0,L|208:83,1,97.7500018644333,8|0,0:0|0:0,0:0:0:0:
358,133,88518,1,2,0:0:0:0:
116,27,88681,1,0,0:0:0:0:
116,27,88763,1,0,0:0:0:0:
116,27,88844,1,8,0:0:0:0:
42,213,89007,1,0,0:0:0:0:
269,182,89170,6,0,B|288:122|248:52|248:52|204:97,1,195.500003728867,4|8,0:0|0:0,0:0:0:0:
138,257,89659,1,0,0:0:0:0:
138,257,89741,1,0,0:0:0:0:
138,257,89822,1,2,0:0:0:0:
40,116,89985,1,2,0:0:0:0:
21,316,90148,1,8,0:0:0:0:
256,256,90311,1,0,0:0:0:0:
139,71,90474,6,0,B|131:107|131:107|139:139|139:139|127:163|127:163|147:211|147:211|131:291,1,195.500003728867,4|8,0:0|0:0,0:0:0:0:
324,352,90964,1,0,0:0:0:0:
324,352,91045,1,0,0:0:0:0:
324,352,91127,1,2,0:0:0:0:
256,256,91290,1,2,0:0:0:0:
292,144,91453,1,2,0:0:0:0:
384,72,91616,1,2,0:0:0:0:
451,263,91779,6,0,L|247:255,1,195.500003728867,4|0,0:0|0:0,0:0:0:0:
196,252,92186,1,0,0:0:0:0:
196,252,92268,1,0,0:0:0:0:
300,56,92431,6,0,L|119:151,1,195.500003728867,12|0,0:0|0:0,0:0:0:0:
80,184,92839,1,0,0:0:0:0:
80,184,92920,1,0,0:0:0:0:
196,364,93083,6,0,P|280:328|300:220,1,195.500003728867,4|0,0:0|0:0,0:0:0:0:
288,176,93491,1,0,0:0:0:0:
288,176,93572,1,0,0:0:0:0:
188,53,93735,6,0,P|104:89|84:197,1,195.500003728867,12|0,0:0|0:0,0:0:0:0:
88,240,94143,1,0,0:0:0:0:
88,240,94224,1,0,0:0:0:0:
284,324,94388,6,0,B|388:332|356:260|468:260,1,195.500003728867,4|0,0:0|0:0,0:0:0:0:
512,292,94795,1,0,0:0:0:0:
512,292,94877,1,0,0:0:0:0:
368,104,95040,6,0,B|264:96|296:168|184:168,1,195.500003728867,12|0,0:0|0:0,0:0:0:0:
140,136,95447,1,0,0:0:0:0:
140,136,95529,1,0,0:0:0:0:
152,324,95692,6,0,L|352:308,1,195.500003728867,4|0,0:0|0:0,0:0:0:0:
404,304,96099,1,0,0:0:0:0:
404,304,96181,1,0,0:0:0:0:
472,120,96344,2,0,P|408:108|368:116,1,97.7500018644333,8|0,0:0|0:0,0:0:0:0:
240,224,96670,2,0,P|304:236|344:228,1,97.7500018644333,8|0,0:0|0:0,0:0:0:0:
196,64,96996,6,0,B|152:108|152:108|136:256,1,195.500003728867,4|8,0:0|0:0,0:0:0:0:
360,164,97485,1,0,0:0:0:0:
328,348,97648,1,2,0:0:0:0:
244,156,97811,1,0,0:0:0:0:
224,352,97974,1,8,0:0:0:0:
432,244,98138,1,0,0:0:0:0:
432,244,98219,1,0,0:0:0:0:
432,244,98301,5,8,0:0:0:0:
72,160,98627,5,8,0:0:0:0:
456,104,98953,5,8,0:0:0:0:
420,92,99034,1,8,0:3:0:0:
384,108,99116,1,8,0:3:0:0:
336,124,99197,1,8,0:3:0:0:
288,112,99279,2,0,P|252:104|224:92,1,48.8750009322167,0|0,0:3|0:3,0:0:0:0:
80,48,99442,1,2,0:0:0:0:
60,104,99523,1,2,0:0:0:0:
72,160,99605,6,0,P|104:224|132:248,1,85,6|0,0:0|0:0,0:0:0:0:
284,236,99931,1,8,0:0:0:0:
132,308,100094,1,0,0:0:0:0:
376,256,100257,1,2,0:0:0:0:
208,288,100420,1,0,0:0:0:0:
288,136,100583,1,8,0:0:0:0:
352,344,100746,1,0,0:0:0:0:
400,148,100909,5,0,0:0:0:0:
284,288,101072,1,0,0:0:0:0:
476,180,101235,1,8,0:0:0:0:
308,212,101398,1,0,0:0:0:0:
376,56,101561,1,2,0:0:0:0:
408,240,101724,1,0,0:0:0:0:
252,88,101888,1,8,0:0:0:0:
220,272,102051,1,0,0:0:0:0:
220,272,102214,6,0,L|100:264,1,85,4|0,0:0|0:0,0:0:0:0:
8,156,102540,1,8,0:0:0:0:
176,184,102703,1,0,0:0:0:0:
24,256,102866,1,2,0:0:0:0:
96,104,103029,1,0,0:0:0:0:
135,266,103192,1,8,0:0:0:0:
252,88,103355,1,0,0:0:0:0:
392,252,103518,5,0,0:0:0:0:
260,180,103681,1,0,0:0:0:0:
440,164,103844,1,8,0:0:0:0:
296,264,104007,1,0,0:0:0:0:
424,64,104170,1,2,0:0:0:0:
400,252,104333,1,0,0:0:0:0:
252,88,104496,1,8,0:0:0:0:
228,276,104659,1,0,0:0:0:0:
228,276,104822,6,0,L|116:256,1,85,4|0,0:0|0:0,0:0:0:0:
76,104,105148,1,8,0:0:0:0:
228,176,105311,1,0,0:0:0:0:
180,12,105474,1,2,0:0:0:0:
120,188,105638,1,0,0:0:0:0:
252,88,105801,1,8,0:0:0:0:
256,292,105964,1,0,0:0:0:0:
120,188,106127,5,0,0:0:0:0:
336,208,106290,1,0,0:0:0:0:
144,280,106453,1,8,0:0:0:0:
172,112,106616,1,0,0:0:0:0:
228,272,106779,1,2,0:0:0:0:
264,108,106942,1,0,0:0:0:0:
92,188,107105,1,8,0:0:0:0:
176,16,107268,1,0,0:0:0:0:
176,16,107431,6,0,L|272:24,1,85,4|0,0:0|0:0,0:0:0:0:
424,68,107757,1,8,0:0:0:0:
276,184,107920,1,0,0:0:0:0:
480,160,108083,1,2,0:0:0:0:
480,160,108246,2,0,L|464:272,1,85,8|0,0:0|0:0,0:0:0:0:
324,332,108572,1,0,0:0:0:0:
376,172,108735,5,8,0:0:0:0:
448,324,108898,1,2,0:0:0:0:
232,272,109061,1,8,0:0:0:0:
336,80,109224,1,0,0:0:0:0:
336,80,109306,1,8,0:0:0:0:
336,80,109388,1,8,0:0:0:0:
356,256,109551,1,8,0:0:0:0:
240,132,109714,1,8,0:0:0:0:
148,276,109877,1,0,0:0:0:0:
480,160,110040,1,4,0:0:0:0:
256,192,110203,12,0,116235,0:0:0:0:
