osu file format v14

[General]
AudioFilename: audio.mp3
AudioLeadIn: 0
PreviewTime: 70868
Countdown: 0
SampleSet: Soft
StackLeniency: 0.2
Mode: 0
LetterboxInBreaks: 0
WidescreenStoryboard: 1

[Editor]
Bookmarks: 78368,143900,231780
DistanceSpacing: 2.5
BeatDivisor: 4
GridSize: 8
TimelineZoom: 2.32

[Metadata]
Title:Tears Infection
TitleUnicode:Tears Infection
Artist:KAORI
ArtistUnicode:KAORI
Creator:abcd452
Version:test
Source:Myself;Yourself
Tags:
BeatmapID:2012377
BeatmapSetID:468156

[Difficulty]
HPDrainRate:6
CircleSize:4
OverallDifficulty:7
ApproachRate:8
SliderMultiplier:2.00000000596047
SliderTickRate:1

[Events]
//Background and Video events
0,0,"myself yourself.jpg",0,0
//Break Periods
//Storyboard Layer 0 (Background)
//Storyboard Layer 1 (Fail)
//Storyboard Layer 2 (Pass)
//Storyboard Layer 3 (Foreground)
//Storyboard Layer 4 (Overlay)
//Storyboard Sound Samples

[TimingPoints]
434,326.086956521739,4,2,0,40,1,0
10868,-100,4,1,0,45,0,0
21303,-133.333333333333,4,1,0,40,0,0
21629,-100,4,1,0,40,0,0
21955,-133.333333333333,4,1,0,40,0,0
23912,-200,4,1,0,40,0,0
34020,-133.333333333333,4,1,0,45,0,0
42173,-100,4,1,0,50,0,0
44129,-333.333333333333,4,1,0,50,0,0
44781,-100,4,1,0,50,0,0
69890,-100,4,1,0,30,0,0
70705,-100,4,1,0,60,0,0
70868,-80,4,1,0,60,0,1
91086,-133.333333333333,4,2,0,40,0,0
99564,-100,4,1,0,45,0,0
109841,-100,4,1,0,50,0,0
112608,-111.111111111111,4,1,0,30,0,0
123042,-100,4,1,0,40,0,0
133477,-100,4,1,0,45,0,0
154346,-100,4,1,0,50,0,0
158423,-133.333333333333,4,2,0,30,0,0
159564,-66.6666666666667,4,1,0,60,0,1
179455,-100,4,1,0,40,0,0
188912,-100,4,1,0,45,0,0
193477,-58.8235294117647,4,1,0,45,0,0
193803,-100,4,1,0,45,0,0
214346,-133.333333333333,4,2,0,30,0,0
223477,-100,4,1,0,50,0,0
224781,-66.6666666666667,4,1,0,60,0,1
234238,-100,4,2,0,45,0,0
243042,-100,4,1,0,50,0,0
263912,-200,4,2,0,20,0,0

[HitObjects]
64,331,434,5,0,0:0:0:0:
128,203,760,1,0,0:0:0:0:
192,75,1086,1,0,0:0:0:0:
128,203,1249,5,0,0:0:0:0:
256,267,1575,1,0,0:0:0:0:
384,331,1901,1,0,0:0:0:0:
376,189,2227,1,0,0:0:0:0:
368,47,2553,1,0,0:0:0:0:
250,125,2879,1,0,0:0:0:0:
368,47,3042,5,0,0:0:0:0:
376,189,3368,1,0,0:0:0:0:
384,331,3694,1,0,0:0:0:0:
376,189,3857,5,0,0:0:0:0:
234,197,4183,1,0,0:0:0:0:
92,205,4510,1,0,0:0:0:0:
84,63,4836,1,0,0:0:0:0:
226,55,5162,1,0,0:0:0:0:
234,197,5488,1,0,0:0:0:0:
226,55,5651,5,0,0:0:0:0:
352,119,5977,1,0,0:0:0:0:
234,197,6303,1,0,0:0:0:0:
352,119,6466,5,0,0:0:0:0:
430,237,6792,1,0,0:0:0:0:
298,188,7118,1,0,0:0:0:0:
434,151,7444,1,0,0:0:0:0:
346,261,7770,1,0,0:0:0:0:
352,119,8097,1,0,0:0:0:0:
346,261,8260,5,0,0:0:0:0:
204,255,8586,1,0,0:0:0:0:
62,249,8912,1,0,0:0:0:0:
204,255,9075,5,0,0:0:0:0:
210,113,9401,1,0,0:0:0:0:
352,119,9727,1,0,0:0:0:0:
346,261,10053,1,0,0:0:0:0:
204,255,10379,1,8,0:0:0:0:
210,113,10542,1,8,0:0:0:0:
210,113,10705,1,0,0:0:0:0:
139,110,10868,6,0,L|23:104,1,100.000000298023
172,183,11194,2,0,L|288:189,1,100.000000298023
265,287,11520,1,8,0:0:0:0:
271,188,11683,1,0,0:0:0:0:
172,183,11847,2,0,L|166:299,1,100.000000298023
191,283,12091,1,0,0:0:0:0:
215,284,12173,1,8,0:0:0:0:
438,237,12336,2,0,L|433:331,2,50.0000001490117,8|0|0,0:0|0:0|0:0,0:0:0:0:
358,178,12662,2,0,L|353:272,2,50.0000001490117,8|0|0,0:0|0:0|0:0,0:0:0:0:
278,119,12988,1,8,0:0:0:0:
276,147,13069,1,0,0:0:0:0:
274,175,13151,1,0,0:0:0:0:
272,203,13232,1,0,0:0:0:0:
270,231,13314,1,4,0:0:0:0:
268,260,13395,1,0,0:0:0:0:
265,287,13477,6,0,P|189:315|172:313,1,100.000000298023,4|0,0:0|0:0,0:0:0:0:
156,214,13803,2,0,P|75:199|61:189,1,100.000000298023
117,106,14129,1,0,0:0:0:0:
216,86,14292,1,0,0:0:0:0:
301,142,14455,1,0,0:0:0:0:
386,70,14618,2,0,L|279:64,1,100.000000298023
154,149,14944,2,0,L|261:143,1,100.000000298023
386,228,15270,2,0,L|279:222,1,100.000000298023
188,211,15597,1,0,0:0:0:0:
155,230,15678,1,0,0:0:0:0:
139,262,15759,1,0,0:0:0:0:
147,299,15841,1,0,0:0:0:0:
177,322,15922,1,4,0:0:0:0:
213,323,16004,1,0,0:0:0:0:
243,302,16086,6,0,P|291:291|339:301,1,100.000000298023,4|0,0:0|0:0,0:0:0:0:
427,352,16412,2,0,P|437:303|427:255,1,100.000000298023
318,184,16738,1,0,0:0:0:0:
194,200,16901,1,0,0:0:0:0:
84,128,17064,2,0,P|74:80|85:32,1,100.000000298023
101,23,17308,1,0,0:0:0:0:
127,17,17390,1,8,0:0:0:0:
240,48,17553,2,0,L|334:53,2,50.0000001490117,8|0|0,0:0|0:0|0:0,0:0:0:0:
181,128,17879,2,0,L|275:133,2,50.0000001490117,8|0|0,0:0|0:0|0:0,0:0:0:0:
122,208,18205,1,8,0:0:0:0:
128,210,18287,1,0,0:0:0:0:
134,212,18368,1,0,0:0:0:0:
171,215,18449,1,0,0:0:0:0:
206,202,18531,1,4,0:0:0:0:
233,177,18612,1,0,0:0:0:0:
248,143,18694,6,0,P|264:92|250:36,1,100.000000298023,4|0,0:0|0:0,0:0:0:0:
126,108,19020,2,0,L|121:207,1,100.000000298023
180,290,19347,1,0,0:0:0:0:
279,308,19510,1,0,0:0:0:0:
361,251,19673,1,0,0:0:0:0:
377,152,19836,2,0,L|391:49,1,100.000000298023
282,189,20162,2,0,L|363:253,1,100.000000298023
297,88,20488,2,0,L|200:126,1,100.000000298023
155,235,20814,1,4,0:0:0:0:
93,86,20977,2,0,P|82:134|92:182,1,100.000000298023,4|0,0:0|0:0,0:0:0:0:
155,235,21303,5,4,0:0:0:0:
182,246,21384,1,0,0:0:0:0:
217,241,21466,1,0,0:0:0:0:
244,225,21547,1,0,0:0:0:0:
269,202,21629,1,0,0:0:0:0:
280,169,21711,1,0,0:0:0:0:
273,135,21792,1,0,0:0:0:0:
250,109,21874,1,0,0:0:0:0:
229,97,21955,5,4,0:0:0:0:
248,95,22037,1,0,0:0:0:0:
266,93,22118,1,0,0:0:0:0:
285,91,22200,1,0,0:0:0:0:
303,90,22281,1,4,0:0:0:0:
322,88,22363,1,0,0:0:0:0:
341,87,22444,1,0,0:0:0:0:
359,86,22526,1,0,0:0:0:0:
378,84,22607,5,4,0:0:0:0:
415,80,22688,1,0,0:0:0:0:
450,92,22770,1,0,0:0:0:0:
477,117,22851,1,0,0:0:0:0:
492,151,22933,1,4,0:0:0:0:
491,189,23014,1,0,0:0:0:0:
475,222,23096,1,0,0:0:0:0:
446,246,23177,1,0,0:0:0:0:
410,256,23259,5,4,0:0:0:0:
385,217,23342,1,0,0:0:0:0:
349,189,23423,1,4,0:0:0:0:
306,176,23505,1,0,0:0:0:0:
260,181,23586,1,4,0:0:0:0:
220,202,23668,1,0,0:0:0:0:
189,235,23749,1,4,0:0:0:0:
173,278,23831,1,0,0:0:0:0:
173,323,23912,6,0,P|227:335|276:325,1,100.000000298023,4|0,0:0|0:0,0:0:0:0:
312,236,24564,1,0,0:0:0:0:
277,143,24890,1,0,0:0:0:0:
187,102,25216,1,0,0:0:0:0:
95,137,25542,1,0,0:0:0:0:
88,186,25705,2,0,P|95:215|97:339,1,150.000000447035,4|0,0:0|0:0,0:0:0:0:
190,314,26520,6,0,B|172:271|199:211|199:211|285:295|404:281|404:281|424:220|382:149,1,450.000001341106
304,141,28151,2,0,L|300:209,1,50.0000001490117,4|0,0:0|0:0,0:0:0:0:
267,154,28477,2,0,L|263:222,2,50.0000001490117,4|0|0,0:0|0:0|0:0,0:0:0:0:
182,118,29129,6,0,B|122:102|114:50|114:50|77:85|20:86|20:86|63:122|76:165|76:165|110:136|162:164|162:164|170:229|126:281|126:281|181:255|240:292|240:292|208:330|251:355|251:355|280:351|300:340,1,750.000002235176,4|0,0:0|2:2,0:0:0:0:
370,325,31738,6,0,B|421:312|454:340|454:340|384:267|423:213|423:213|397:148|320:176|320:176|372:69|372:69|302:98|250:47,1,600.000001788141,4|0,0:0|0:0,0:0:0:0:
132,12,33857,5,0,0:0:0:0:
92,136,34020,1,0,0:0:0:0:
216,176,34183,1,0,0:0:0:0:
212,253,34347,6,0,L|204:342,1,75.0000030845407
305,223,34673,2,0,L|297:312,1,75.0000030845407
398,193,34999,2,0,L|390:282,1,75.0000030845407
309,146,35325,2,0,L|316:72,1,75.0000030845407
216,176,35651,2,0,L|223:102,1,75.0000030845407
123,206,35977,2,0,L|130:132,1,75.0000030845407
212,253,36303,1,0,0:0:0:0:
305,223,36466,1,0,0:0:0:0:
398,193,36629,1,0,0:0:0:0:
305,223,36792,1,0,0:0:0:0:
212,253,36955,6,0,L|204:342,1,75.0000030845407
216,176,37281,2,0,L|223:102,1,75.0000030845407
305,223,37607,2,0,L|297:312,1,75.0000030845407
309,146,37933,2,0,L|316:72,1,75.0000030845407
216,176,38260,2,0,L|223:102,1,75.0000030845407
130,132,38586,2,0,L|123:206,1,75.0000030845407
223,102,38912,2,0,L|216:176,2,75.0000030845407
311,297,39564,6,0,L|304:217,1,75.0000030845407
218,327,39890,2,0,L|211:247,1,75.0000030845407
125,357,40216,2,0,L|110:190,1,150.000006169081
287,57,40868,6,0,L|293:131,1,75.0000030845407
194,87,41194,1,0,0:0:0:0:
200,161,41357,1,0,0:0:0:0:
206,235,41520,2,0,L|372:220,1,150.000006169081
464,161,42173,6,0,B|401:111|455:46|455:46|364:60,1,200.000000596047
200,161,42662,2,0,B|263:111|209:46|209:46|300:60,1,200.000000596047
331,215,43151,2,0,L|331:53,1,150.000000447035
331,55,43477,2,0,P|267:39|203:71,1,100.000000298023
331,215,43803,2,0,P|377:231|426:222,1,100.000000298023
331,135,44129,1,0,0:0:0:0:
316,135,44210,1,0,0:0:0:0:
301,135,44292,1,0,0:0:0:0:
286,135,44373,1,0,0:0:0:0:
271,135,44455,1,0,0:0:0:0:
256,135,44536,1,0,0:0:0:0:
241,135,44618,1,0,0:0:0:0:
226,135,44699,1,0,0:0:0:0:
209,135,44781,1,4,0:0:0:0:
80,160,45107,6,0,P|64:224|80:272,1,100.000000298023
158,304,45433,2,0,P|174:240|158:192,1,100.000000298023
165,110,45760,1,0,0:0:0:0:
80,160,45923,1,0,0:0:0:0:
166,208,46086,6,0,P|229:189|262:152,1,100.000000298023,4|0,0:0|0:0,0:0:0:0:
259,63,46412,1,0,0:0:0:0:
165,110,46575,1,0,0:0:0:0:
166,208,46738,2,0,P|173:257|158:304,1,100.000000298023
71,255,47064,1,0,0:0:0:0:
80,160,47227,1,0,0:0:0:0:
165,110,47390,6,0,P|213:119|252:150,1,100.000000298023,4|0,0:0|0:0,0:0:0:0:
245,344,47716,2,0,P|181:325|148:288,1,100.000000298023
204,226,48042,1,0,0:0:0:0:
217,233,48124,1,0,0:0:0:0:
229,240,48205,1,0,0:0:0:0:
242,247,48287,1,0,0:0:0:0:
254,254,48368,2,0,P|302:261|349:245,1,100.000000298023
390,152,48694,2,0,P|341:144|294:160,1,100.000000298023,4|0,0:0|0:0,0:0:0:0:
349,245,49020,1,0,0:0:0:0:
404,330,49183,6,0,B|338:357|338:357|272:321|190:335,1,200.000000596047
83,317,49673,1,0,0:0:0:0:
97,187,49836,1,0,0:0:0:0:
227,201,49999,1,4,0:0:0:0:
227,201,50325,6,0,P|211:137|227:89,1,100.000000298023
317,46,50651,2,0,P|380:64|413:102,1,100.000000298023
406,201,50977,2,0,P|358:246|309:257,1,100.000000298023
227,201,51303,1,4,0:0:0:0:
317,46,51629,1,0,0:0:0:0:
406,201,51955,1,0,0:0:0:0:
317,356,52281,1,0,0:0:0:0:
227,201,52607,5,4,0:0:0:0:
215,181,52689,1,0,0:0:0:0:
204,162,52771,1,0,0:0:0:0:
193,143,52852,1,0,0:0:0:0:
182,123,52933,1,0,0:0:0:0:
170,103,53016,1,0,0:0:0:0:
159,84,53098,1,0,0:0:0:0:
148,65,53179,1,0,0:0:0:0:
137,46,53260,6,0,P|99:33|28:52,1,100.000000298023
35,143,53586,1,0,0:0:0:0:
101,218,53749,1,0,0:0:0:0:
176,152,53912,1,4,0:0:0:0:
167,293,54238,5,0,0:0:0:0:
242,227,54401,1,0,0:0:0:0:
176,152,54564,1,0,0:0:0:0:
167,293,54727,1,0,0:0:0:0:
308,302,54890,1,0,0:0:0:0:
308,302,55216,5,4,0:0:0:0:
368,222,55379,1,0,0:0:0:0:
353,123,55542,2,0,P|307:102|258:105,1,100.000000298023
174,193,55868,2,0,P|219:213|268:210,1,100.000000298023
163,88,56194,2,0,P|114:79|67:95,1,100.000000298023
78,200,56520,6,0,L|87:311,1,100.000000298023,4|0,0:0|0:0,0:0:0:0:
184,324,56847,1,0,0:0:0:0:
278,285,57010,1,0,0:0:0:0:
330,198,57173,2,0,L|320:86,1,100.000000298023
230,55,57499,2,0,L|239:166,1,100.000000298023
184,324,57825,6,0,P|139:254|151:138,1,200.000000596047,4|0,0:0|0:0,0:0:0:0:
230,55,58314,1,0,0:0:0:0:
238,154,58477,2,0,L|349:145,1,100.000000298023
396,76,58803,1,0,0:0:0:0:
307,60,58966,1,0,0:0:0:0:
149,141,59129,6,0,P|135:238|181:321,1,150.000000447035,4|0,0:0|0:0,0:0:0:0:
166,312,59455,2,0,L|229:320,1,50.0000001490117
351,346,59618,2,0,P|362:286|346:241,1,100.000000298023
326,150,59944,1,0,0:0:0:0:
290,298,60107,1,0,0:0:0:0:
453,225,60270,1,0,0:0:0:0:
457,218,60352,1,0,0:0:0:0:
461,211,60433,2,0,B|477:161|477:161|452:84,2,100.000000298023,4|0|0,0:0|0:0|0:0,0:0:0:0:
256,192,60841,12,4,61738,0:0:0:0:
136,243,61901,5,0,0:0:0:0:
120,144,62064,2,0,L|219:134,1,100.000000298023
136,243,62390,2,0,L|235:233,1,100.000000298023
152,342,62716,2,0,P|197:329|251:332,1,100.000000298023
350,320,63042,2,0,B|399:326|447:311|447:311|457:254|447:204,1,200.000000596047,4|0,0:0|0:0,0:0:0:0:
414,132,63531,1,0,0:0:0:0:
328,119,63694,2,0,B|226:97|226:97|195:137|131:126,2,200.000000596047
427,108,64510,1,0,0:0:0:0:
328,119,64673,1,0,0:0:0:0:
438,209,64836,5,0,0:0:0:0:
449,309,64999,2,0,P|404:322|350:319,1,100.000000298023
240,217,65325,2,0,B|287:209|287:209|338:219,1,100.000000298023
247,317,65651,5,4,0:0:0:0:
240,217,65814,1,0,0:0:0:0:
233,117,65977,1,0,0:0:0:0:
316,60,66140,5,4,0:0:0:0:
323,160,66303,1,0,0:0:0:0:
330,260,66466,1,0,0:0:0:0:
157,274,66629,5,4,0:0:0:0:
150,174,66792,1,0,0:0:0:0:
143,74,66955,1,0,0:0:0:0:
233,117,67118,5,4,0:0:0:0:
323,160,67281,1,0,0:0:0:0:
413,203,67444,1,0,0:0:0:0:
247,317,67607,5,4,0:0:0:0:
316,60,67933,5,4,0:0:0:0:
157,274,68260,6,0,P|119:215|146:85,1,200.000000596047,4|0,0:0|0:0,0:0:0:0:
323,160,68912,5,4,0:0:0:0:
247,317,69075,1,4,0:0:0:0:
90,241,69238,1,4,0:0:0:0:
166,84,69401,2,0,B|198:67|225:67|262:83|262:83|294:99|326:99|358:84,1,200.000000596047,4|0,0:0|0:0,0:0:0:0:
377,152,69890,5,0,0:0:0:0:
382,187,70053,1,0,0:0:0:0:
385,225,70216,1,0,0:0:0:0:
382,261,70379,1,0,0:0:0:0:
375,298,70542,1,0,0:0:0:0:
357,335,70705,6,0,L|274:323,1,50.0000001490117,4|0,0:0|0:0,0:0:0:0:
153,264,70868,2,0,P|200:215|190:152,1,125.000000372529
119,96,71194,1,0,0:0:0:0:
64,188,71357,1,0,0:0:0:0:
81,292,71520,2,0,P|144:340|209:318,1,125.000000372529
256,253,71847,1,0,0:0:0:0:
225,149,72010,1,0,0:0:0:0:
256,253,72173,1,4,0:0:0:0:
361,278,72336,1,0,0:0:0:0:
466,253,72499,1,0,0:0:0:0:
361,177,72662,5,0,0:0:0:0:
361,151,72743,1,0,0:0:0:0:
361,126,72825,1,0,0:0:0:0:
361,101,72906,1,0,0:0:0:0:
361,76,72988,1,0,0:0:0:0:
270,27,73151,1,0,0:0:0:0:
452,27,73314,1,0,0:0:0:0:
270,102,73477,6,0,B|154:72|92:83|92:83|143:92|173:153,1,250.000000745059,4|0,0:0|0:0,0:0:0:0:
227,207,73966,2,0,P|225:278|209:333,1,125.000000372529
87,357,74292,2,0,P|88:285|104:230,1,125.000000372529
187,139,74618,2,0,B|256:135|256:135|313:156,1,125.000000372529,0|4,0:0|0:0,0:0:0:0:
405,239,74944,2,0,P|403:310|387:365,2,125.000000372529
424,125,75433,5,0,0:0:0:0:
342,42,75597,1,0,0:0:0:0:
311,46,75678,1,0,0:0:0:0:
280,50,75760,1,0,0:0:0:0:
309,155,75923,1,0,0:0:0:0:
278,159,76004,1,0,0:0:0:0:
247,163,76086,1,4,0:0:0:0:
185,171,76412,6,0,P|168:111|184:51,1,125.000000372529
331,62,76738,2,0,L|339:125,1,62.5000001862647
363,150,76901,2,0,P|379:209|363:269,1,125.000000372529
185,171,77227,5,4,0:0:0:0:
148,270,77390,1,0,0:0:0:0:
327,171,77553,5,4,0:0:0:0:
364,270,77716,1,0,0:0:0:0:
256,324,77879,1,0,0:0:0:0:
256,296,77961,1,0,0:0:0:0:
256,268,78042,1,0,0:0:0:0:
327,171,78205,2,0,P|256:87|185:171,1,250.000000745059
169,272,78694,6,0,L|158:343,1,62.5000001862647
160,357,78857,2,0,P|101:373|41:357,1,125.000000372529
34,239,79183,5,0,0:0:0:0:
36,224,79265,1,0,0:0:0:0:
38,208,79347,1,0,0:0:0:0:
40,193,79428,1,0,0:0:0:0:
42,177,79510,1,0,0:0:0:0:
114,96,79673,1,0,0:0:0:0:
222,89,79836,1,0,0:0:0:0:
303,161,79999,6,0,L|313:232,1,62.5000001862647
312,246,80162,2,0,P|371:262|431:246,1,125.000000372529
446,138,80488,2,0,B|425:101|372:89|372:89|327:130|266:114,1,187.500000558794
248,124,80814,5,0,0:0:0:0:
212,128,80896,1,2,0:0:0:0:
176,133,80977,1,0,0:0:0:0:
263,240,81140,5,0,0:0:0:0:
227,244,81222,1,2,0:0:0:0:
191,249,81303,1,0,0:0:0:0:
191,249,81629,5,0,0:0:0:0:
176,133,81792,1,0,0:0:0:0:
60,148,81955,1,0,0:0:0:0:
75,264,82118,1,0,0:0:0:0:
168,336,82281,1,0,0:0:0:0:
286,323,82444,1,0,0:0:0:0:
359,231,82607,2,0,L|346:143,1,62.5000001862647
346,115,82770,2,0,P|282:100|221:124,1,125.000000372529
121,196,83097,1,0,0:0:0:0:
152,198,83178,1,0,0:0:0:0:
183,201,83260,1,0,0:0:0:0:
295,211,83423,5,0,0:0:0:0:
286,323,83586,1,0,0:0:0:0:
174,314,83749,1,0,0:0:0:0:
183,201,83912,1,0,0:0:0:0:
185,169,83993,1,0,0:0:0:0:
188,138,84075,1,0,0:0:0:0:
190,106,84156,1,0,0:0:0:0:
193,75,84238,2,0,L|320:86,2,125.000000372529
68,64,84727,6,0,L|55:207,1,125.000000372529
183,201,85053,1,0,0:0:0:0:
308,213,85216,1,0,0:0:0:0:
298,338,85379,1,0,0:0:0:0:
308,340,85461,1,0,0:0:0:0:
318,342,85542,1,0,0:0:0:0:
328,344,85624,1,0,0:0:0:0:
338,346,85705,1,0,0:0:0:0:
308,213,85868,5,0,0:0:0:0:
183,201,86031,1,0,0:0:0:0:
168,199,86113,1,0,0:0:0:0:
153,197,86194,1,0,0:0:0:0:
163,71,86357,1,0,0:0:0:0:
178,73,86439,1,0,0:0:0:0:
193,75,86520,2,0,L|336:87,1,125.000000372529
451,125,86847,5,0,0:0:0:0:
349,222,87010,1,0,0:0:0:0:
484,262,87173,1,0,0:0:0:0:
349,222,87336,2,0,P|290:200|228:200,1,125.000000372529
188,337,87662,5,4,0:0:0:0:
228,200,87825,1,0,0:0:0:0:
70,337,87988,5,4,0:0:0:0:
30,200,88151,1,0,0:0:0:0:
129,150,88314,1,0,0:0:0:0:
129,181,88395,1,0,0:0:0:0:
129,210,88477,1,0,0:0:0:0:
129,239,88558,1,0,0:0:0:0:
129,268,88640,1,0,0:0:0:0:
188,337,88803,5,0,0:0:0:0:
256,371,88966,1,0,0:0:0:0:
324,337,89129,2,0,B|302:296|302:263|322:216|322:216|342:176|342:136|324:96,1,250.000000745059,4|0,0:0|0:0,0:0:0:0:
188,47,89618,2,0,B|209:87|209:120|189:167|189:167|169:207|169:247|188:287,1,250.000000745059,4|0,0:0|0:0,0:0:0:0:
324,337,90107,2,0,L|332:273,1,62.5000001862647
309,168,90270,1,0,0:0:0:0:
270,153,90352,1,0,0:0:0:0:
228,153,90433,1,0,0:0:0:0:
189,166,90515,1,0,0:0:0:0:
149,179,90597,1,0,0:0:0:0:
108,180,90678,1,0,0:0:0:0:
68,167,90760,1,0,0:0:0:0:
119,95,90923,2,0,L|127:33,2,62.5000001862647,0|0|0,1:0|1:0|1:0,1:0:0:0:
108,180,91249,5,0,0:0:0:0:
151,253,91412,1,0,0:0:0:0:
224,294,91575,2,0,L|271:300,1,37.5000015422703
306,293,91738,2,0,P|332:223|309:154,1,150.000006169081
265,62,92227,6,0,L|186:51,1,75.0000030845407
210,145,92553,1,0,0:0:0:0:
254,234,92716,1,0,0:0:0:0:
199,317,92879,2,0,L|127:327,1,37.5000015422703
123,327,93042,1,0,0:0:0:0:
57,235,93205,2,0,L|162:220,1,75.0000030845407
210,145,93531,2,0,P|310:151|348:265,1,225.000009253622
254,234,94183,1,0,0:0:0:0:
152,240,94347,6,0,L|129:81,1,150.000006169081
208,36,94836,1,0,0:0:0:0:
304,36,94999,1,0,0:0:0:0:
381,91,95162,1,0,0:0:0:0:
279,114,95325,2,0,L|260:200,1,75.0000030845407
238,265,95651,2,0,L|226:319,4,37.5000015422703
154,51,96303,6,0,P|140:115|154:154,1,75.0000030845407
238,265,96629,2,0,P|252:201|238:162,1,75.0000030845407
231,170,96874,1,0,0:0:0:0:
209,157,96955,2,0,P|156:160|119:184,1,75.0000030845407
238,265,97281,2,0,P|291:262|338:161,1,150.000006169081
296,113,97770,1,0,0:0:0:0:
221,72,97933,2,0,L|125:63,1,75.0000030845407
78,96,98260,5,0,0:0:0:0:
341,187,98586,1,0,0:0:0:0:
78,96,98912,6,0,P|70:54|78:34,1,37.5000015422703
89,96,99075,2,0,P|103:55|120:41,1,37.5000015422703
98,100,99238,2,0,P|130:71|152:68,1,37.5000015422703
104,109,99401,2,0,P|146:100|166:108,1,37.5000015422703
105,118,99564,6,0,P|145:132|166:190,1,100.000000298023
166,310,99890,2,0,P|126:296|105:238,1,100.000000298023
166,182,100216,1,0,0:0:0:0:
227,242,100379,1,0,0:0:0:0:
288,182,100542,1,0,0:0:0:0:
227,122,100705,2,0,L|227:50,2,50.0000001490117
309,264,101031,2,0,L|371:299,2,50.0000001490117
145,264,101357,2,0,L|82:300,2,50.0000001490117
226,216,101684,1,8,0:0:0:0:
250,202,101766,1,0,0:0:0:0:
274,188,101847,1,0,0:0:0:0:
298,174,101928,1,0,0:0:0:0:
323,160,102010,1,4,0:0:0:0:
348,145,102091,1,0,0:0:0:0:
372,130,102173,6,0,P|420:121|469:132,1,100.000000298023,4|0,0:0|0:0,0:0:0:0:
469,251,102499,2,0,P|420:262|372:253,1,100.000000298023
298,174,102825,1,0,0:0:0:0:
256,296,102988,1,0,0:0:0:0:
214,174,103151,1,0,0:0:0:0:
140,253,103314,2,0,P|109:205|112:151,1,100.000000298023
256,101,103640,2,0,L|256:208,1,100.000000298023
372,253,103966,2,0,P|402:205|399:151,1,100.000000298023
256,101,104292,1,8,0:0:0:0:
249,102,104374,1,0,0:0:0:0:
243,103,104455,1,0,0:0:0:0:
210,119,104536,1,0,0:0:0:0:
186,148,104618,1,4,0:0:0:0:
175,183,104699,1,0,0:0:0:0:
179,220,104781,6,0,P|190:272|230:313,1,100.000000298023,4|0,0:0|0:0,0:0:0:0:
320,352,105107,2,0,P|381:357|431:333,1,100.000000298023
360,248,105433,1,0,0:0:0:0:
360,136,105597,1,0,0:0:0:0:
320,32,105760,1,0,0:0:0:0:
400,32,105923,2,0,L|456:32,2,50.0000001490117
360,136,106249,2,0,L|360:192,2,50.0000001490117
320,32,106575,2,0,L|264:32,2,50.0000001490117
360,136,106901,1,0,0:0:0:0:
360,161,106982,1,0,0:0:0:0:
360,186,107064,1,0,0:0:0:0:
341,233,107145,1,0,0:0:0:0:
294,252,107227,1,0,0:0:0:0:
248,233,107308,1,0,0:0:0:0:
229,186,107390,6,0,P|218:138|228:90,1,100.000000298023,4|0,0:0|0:0,0:0:0:0:
360,136,107716,2,0,L|344:246,1,100.000000298023
267,313,108042,1,0,0:0:0:0:
159,312,108205,1,0,0:0:0:0:
83,234,108368,1,0,0:0:0:0:
111,125,108531,2,0,P|96:79|110:32,1,100.000000298023
215,169,108857,2,0,B|223:185|223:200|215:217|215:217|207:233|207:249|215:265,1,100.000000298023
319,126,109183,2,0,P|334:79|320:32,1,100.000000298023
215,79,109510,1,0,0:0:0:0:
215,169,109673,2,0,B|207:185|206:200|215:217|215:217|223:233|223:249|215:265,1,100.000000298023
97,334,109999,5,0,0:0:0:0:
93,309,110080,1,0,0:0:0:0:
90,284,110162,1,0,0:0:0:0:
86,259,110243,1,0,0:0:0:0:
82,233,110325,1,0,0:0:0:0:
104,222,110406,1,0,0:0:0:0:
129,218,110488,1,0,0:0:0:0:
154,221,110569,1,0,0:0:0:0:
176,232,110651,5,0,0:0:0:0:
187,210,110732,1,0,0:0:0:0:
191,185,110814,1,0,0:0:0:0:
188,160,110895,1,0,0:0:0:0:
177,138,110977,1,0,0:0:0:0:
190,117,111058,1,0,0:0:0:0:
210,101,111140,1,0,0:0:0:0:
233,91,111221,1,0,0:0:0:0:
256,90,111303,5,0,0:0:0:0:
279,91,111385,1,0,0:0:0:0:
302,101,111466,1,0,0:0:0:0:
322,117,111548,1,0,0:0:0:0:
335,138,111629,1,0,0:0:0:0:
324,160,111711,1,0,0:0:0:0:
321,185,111792,1,0,0:0:0:0:
325,210,111874,1,0,0:0:0:0:
336,232,111955,5,0,0:0:0:0:
358,221,112037,1,0,0:0:0:0:
383,218,112118,1,0,0:0:0:0:
408,222,112200,1,0,0:0:0:0:
430,233,112281,1,0,0:0:0:0:
426,259,112363,1,0,0:0:0:0:
422,284,112444,1,0,0:0:0:0:
419,309,112526,1,0,0:0:0:0:
415,334,112607,1,0,0:0:0:0:
