osu file format v14

[General]
AudioFilename: audio.mp3
AudioLeadIn: 0
PreviewTime: -1
Countdown: 0
SampleSet: None
StackLeniency: 0.2
Mode: 0
LetterboxInBreaks: 0
WidescreenStoryboard: 1

[Editor]
Bookmarks: 143900,231780
DistanceSpacing: 1
BeatDivisor: 4
GridSize: 16
TimelineZoom: 2.32

[Metadata]
Title:Tears Infection
TitleUnicode:Tears Infection
Artist:KAORI
ArtistUnicode:KAORI
Creator:abcd452
Version:Insane
Source:Myself;Yourself
Tags:
BeatmapID:2012375
BeatmapSetID:468156

[Difficulty]
HPDrainRate:6
CircleSize:4
OverallDifficulty:8
ApproachRate:9
SliderMultiplier:2.00000000596047
SliderTickRate:1

[Events]
//Background and Video events
0,0,"myself yourself.jpg",0,0
//Break Periods
//Storyboard Layer 0 (Background)
//Storyboard Layer 1 (Fail)
//Storyboard Layer 2 (Pass)
//Storyboard Layer 3 (Foreground)
//Storyboard Sound Samples

[TimingPoints]
434,326.086956521739,4,2,0,40,1,0
10868,-100,4,1,0,45,0,0
21303,-100,4,1,0,40,0,0
23912,-100,4,1,0,40,0,0
34020,-100,4,1,0,45,0,0
44787,-100,4,1,0,50,0,0
69890,-100,4,1,0,30,0,0
70705,-66.6666666666667,4,1,0,60,0,1
91086,-133.333333333333,4,2,0,40,0,0
100868,-100,4,1,0,45,0,0
109841,-100,4,1,0,50,0,0
112608,-111.111111111111,4,1,0,30,0,0
123042,-100,4,1,0,40,0,0
133640,-100,4,1,0,45,0,0
154346,-100,4,1,0,50,0,0
158423,-133.333333333333,4,2,0,30,0,0
159564,-66.6666666666667,4,1,0,60,0,1
179455,-100,4,1,0,40,0,0
188912,-100,4,1,0,45,0,0
193477,-58.8235294117647,4,1,0,45,0,0
193803,-100,4,1,0,45,0,0
214346,-133.333333333333,4,2,0,30,0,0
223477,-100,4,1,0,50,0,0
224781,-66.6666666666667,4,1,0,60,0,1
234238,-100,4,2,0,45,0,0
243042,-100,4,1,0,50,0,0
263912,-200,4,2,0,20,0,0

[HitObjects]
64,331,434,5,0,0:0:0:0:
128,203,760,1,0,0:0:0:0:
192,75,1086,1,0,0:0:0:0:
128,203,1249,5,0,0:0:0:0:
256,267,1575,1,0,0:0:0:0:
384,331,1901,1,0,0:0:0:0:
376,189,2227,1,0,0:0:0:0:
368,47,2553,1,0,0:0:0:0:
250,125,2879,1,0,0:0:0:0:
368,47,3042,5,0,0:0:0:0:
376,189,3368,1,0,0:0:0:0:
384,331,3694,1,0,0:0:0:0:
376,189,3857,5,0,0:0:0:0:
234,197,4183,1,0,0:0:0:0:
92,205,4510,1,0,0:0:0:0:
84,63,4836,1,0,0:0:0:0:
226,55,5162,1,0,0:0:0:0:
234,197,5488,1,0,0:0:0:0:
226,55,5651,5,0,0:0:0:0:
352,119,5977,1,0,0:0:0:0:
234,197,6303,1,0,0:0:0:0:
352,119,6466,5,0,0:0:0:0:
430,237,6792,1,0,0:0:0:0:
298,188,7118,1,0,0:0:0:0:
434,151,7444,1,0,0:0:0:0:
346,261,7770,1,0,0:0:0:0:
352,119,8097,1,0,0:0:0:0:
346,261,8260,5,0,0:0:0:0:
204,255,8586,1,0,0:0:0:0:
62,249,8912,1,0,0:0:0:0:
204,255,9075,5,0,0:0:0:0:
210,113,9401,1,0,0:0:0:0:
352,119,9727,1,0,0:0:0:0:
346,261,10053,1,0,0:0:0:0:
204,255,10379,1,8,0:0:0:0:
352,119,10542,5,8,0:0:0:0:
352,119,10868,6,0,P|212:118|146:94,1,200.000000596047
262,44,11357,1,0,0:0:0:0:
156,98,11520,1,0,0:0:0:0:
346,261,11683,1,0,0:0:0:0:
251,179,11847,5,0,0:0:0:0:
115,305,12010,1,0,0:0:0:0:
156,98,12173,5,0,0:0:0:0:
336,139,12336,1,0,0:0:0:0:
134,221,12499,5,0,0:0:0:0:
92,40,12662,1,0,0:0:0:0:
251,179,12825,2,0,P|280:224|278:282,1,100.000000298023
134,221,13151,2,0,P|105:176|107:118,1,100.000000298023
117,106,13395,1,0,0:0:0:0:
156,98,13477,5,0,0:0:0:0:
251,179,13640,1,0,0:0:0:0:
332,84,13803,1,0,0:0:0:0:
427,165,13966,1,0,0:0:0:0:
508,70,14129,1,0,0:0:0:0:
251,179,14292,2,0,B|268:214|268:235|268:235|296:262|327:255,1,100.000000298023
435,65,14618,6,0,L|425:176,1,100.000000298023
242,278,14944,2,0,L|251:166,1,100.000000298023
435,65,15270,2,0,L|425:176,1,100.000000298023
151,169,15596,2,0,L|262:178,1,100.000000298023
435,65,15923,6,0,L|339:56,1,50.0000001490117
285,51,16086,2,0,L|396:60,1,100.000000298023
185,59,16412,1,0,0:0:0:0:
250,178,16575,1,0,0:0:0:0:
285,51,16738,1,0,0:0:0:0:
120,177,16901,1,0,0:0:0:0:
246,342,17064,1,0,0:0:0:0:
80,288,17227,6,0,L|191:297,1,100.000000298023
219,185,17553,2,0,L|120:177,1,100.000000298023
160,66,17879,2,0,L|271:75,1,100.000000298023
417,264,18205,2,0,L|426:152,1,100.000000298023
