osu file format v14

[General]
AudioFilename: audio.mp3
AudioLeadIn: 0
PreviewTime: -1
Countdown: 0
SampleSet: Soft
StackLeniency: 0.7
Mode: 0
LetterboxInBreaks: 0
WidescreenStoryboard: 0

[Editor]
Bookmarks: 74249
DistanceSpacing: 0.9
BeatDivisor: 4
GridSize: 4
TimelineZoom: 1.8

[Metadata]
Title:LeMU
TitleUnicode:LeMU
Artist:KAORI
ArtistUnicode:KAORI
Creator:Artikash
Version:Insane
Source:Ever17
Tags:
BeatmapID:1230794
BeatmapSetID:581495

[Difficulty]
HPDrainRate:4
CircleSize:3
OverallDifficulty:7
ApproachRate:10
SliderMultiplier:3.59999990463257
SliderTickRate:4

[Events]
//Background and Video events
//Break Periods
//Storyboard Layer 0 (Background)
//Storyboard Layer 1 (Fail)
//Storyboard Layer 2 (Pass)
//Storyboard Layer 3 (Foreground)
//Storyboard Sound Samples

[TimingPoints]
4680,258.620689655172,4,2,0,60,1,0
4745,-200,4,2,0,60,0,0
54335,-133.333333333333,4,2,0,60,0,0
68688,-117.647058823529,4,2,0,60,0,0
70628,258.620689655172,4,2,0,60,1,0
70886,-100,4,2,0,60,0,1
95390,-76.9230769230769,4,2,0,60,0,1
101145,-200,4,2,0,60,0,0

[Colours]
Combo1 : 0,128,192
Combo2 : 0,255,255
Combo3 : 18,124,255

[HitObjects]
72,72,4679,5,0,0:0:0:0:
231,41,4938,1,0,0:0:0:0:
197,199,5197,1,0,0:0:0:0:
345,135,5455,2,0,P|413:167|459:278,3,179.999995231629,0|0|0|0,0:0|0:0|0:0|0:0,0:0:0:0:
440,312,6748,5,0,0:0:0:0:
445,149,7007,1,0,0:0:0:0:
302,226,7266,1,0,0:0:0:0:
309,64,7524,2,0,B|124:153,3,179.999995231629
72,312,8817,5,0,0:0:0:0:
215,237,9076,1,0,0:0:0:0:
75,156,9335,1,0,0:0:0:0:
202,55,9593,2,0,P|286:85|336:164,3,179.999995231629
430,33,10886,5,0,0:0:0:0:
512,172,11145,1,0,0:0:0:0:
349,172,11404,1,0,0:0:0:0:
440,304,11662,2,0,L|255:306,3,179.999995231629
271,85,12955,5,0,0:0:0:0:
112,119,13214,1,0,0:0:0:0:
262,182,13473,1,0,0:0:0:0:
172,47,13731,1,0,0:0:0:0:
333,27,13990,1,0,0:0:0:0:
202,122,14248,1,0,0:0:0:0:
293,256,14507,2,0,L|103:257,1,179.999995231629
59,29,15024,5,0,0:0:0:0:
221,34,15283,1,0,0:0:0:0:
135,171,15542,1,0,0:0:0:0:
282,105,15800,1,0,0:0:0:0:
138,29,16059,1,0,0:0:0:0:
225,165,16317,1,0,0:0:0:0:
329,289,16576,2,0,L|443:141,1,179.999995231629
487,12,17093,5,0,0:0:0:0:
326,36,17352,1,0,0:0:0:0:
370,180,17611,1,0,0:0:0:0:
406,22,17869,1,0,0:0:0:0:
245,45,18128,1,0,0:0:0:0:
395,103,18386,1,0,0:0:0:0:
502,224,18645,2,0,L|382:362,1,179.999995231629,0|0,0:0|0:0,0:0:0:0:
256,77,19162,5,0,0:0:0:0:
141,192,19421,1,0,0:0:0:0:
256,306,19679,1,0,0:0:0:0:
370,191,19938,1,0,0:0:0:0:
358,86,20197,5,0,0:0:0:0:
362,121,20326,1,0,0:0:0:0:
365,156,20455,1,0,0:0:0:0:
370,191,20585,1,0,0:0:0:0:
373,226,20714,1,0,0:0:0:0:
376,261,20843,1,0,0:0:0:0:
380,296,20973,1,0,0:0:0:0:
383,331,21102,1,0,0:0:0:0:
455,336,21231,5,0,0:0:0:0:
489,177,21490,1,0,0:0:0:0:
362,76,21748,1,0,0:0:0:0:
199,71,22007,1,0,0:0:0:0:
147,132,22136,1,0,0:0:0:0:
129,211,22266,1,0,0:0:0:0:
143,290,22395,1,0,0:0:0:0:
197,349,22524,1,0,0:0:0:0:
277,363,22654,1,0,0:0:0:0:
357,361,22783,1,0,0:0:0:0:
355,198,23042,5,0,0:0:0:0:
398,130,23171,1,0,0:0:0:0:
391,49,23300,1,0,0:0:0:0:
229,33,23559,1,0,0:0:0:0:
99,129,23817,1,0,0:0:0:0:
3,264,24076,1,0,0:0:0:0:
35,338,24205,1,0,0:0:0:0:
105,379,24335,1,0,0:0:0:0:
186,384,24464,1,0,0:0:0:0:
264,359,24593,1,0,0:0:0:0:
319,298,24723,1,0,0:0:0:0:
336,219,24852,1,0,0:0:0:0:
181,170,25111,5,0,0:0:0:0:
211,95,25240,1,0,0:0:0:0:
278,50,25369,1,0,0:0:0:0:
420,128,25628,1,0,0:0:0:0:
262,162,25886,1,0,0:0:0:0:
150,43,26145,1,0,0:0:0:0:
90,97,26274,1,0,0:0:0:0:
65,174,26404,1,0,0:0:0:0:
84,252,26533,1,0,0:0:0:0:
144,305,26662,1,0,0:0:0:0:
223,323,26792,5,0,0:0:0:0:
197,246,26921,1,0,0:0:0:0:
207,164,27050,1,0,0:0:0:0:
256,100,27179,1,0,0:0:0:0:
335,80,27309,1,0,0:0:0:0:
415,80,27438,5,0,0:0:0:0:
472,231,27697,1,0,0:0:0:0:
368,339,27955,1,0,0:0:0:0:
205,341,28214,1,0,0:0:0:0:
124,338,28343,1,0,0:0:0:0:
166,268,28473,1,0,0:0:0:0:
166,106,28731,1,0,0:0:0:0:
115,41,28861,1,0,0:0:0:0:
195,31,28990,1,0,0:0:0:0:
326,125,29248,5,0,0:0:0:0:
388,177,29378,1,0,0:0:0:0:
311,202,29507,5,0,0:0:0:0:
155,150,29766,1,0,0:0:0:0:
189,306,30024,1,0,0:0:0:0:
228,145,30283,1,0,0:0:0:0:
279,82,30412,1,0,0:0:0:0:
333,21,30542,1,0,0:0:0:0:
302,179,30800,1,0,0:0:0:0:
383,178,30929,1,0,0:0:0:0:
465,174,31059,1,0,0:0:0:0:
324,254,31317,1,0,0:0:0:0:
387,305,31447,1,0,0:0:0:0:
448,359,31576,5,0,0:0:0:0:
286,350,31835,1,0,0:0:0:0:
392,228,32093,1,0,0:0:0:0:
283,107,32352,1,0,0:0:0:0:
213,66,32481,1,0,0:0:0:0:
131,63,32611,1,0,0:0:0:0:
242,177,32869,1,0,0:0:0:0:
283,107,32998,1,0,0:0:0:0:
286,25,33128,1,0,0:0:0:0:
172,136,33386,1,0,0:0:0:0:
242,177,33516,1,0,0:0:0:0:
324,180,33645,5,0,0:0:0:0:
491,177,33904,1,0,0:0:0:0:
324,180,34162,1,0,0:0:0:0:
207,67,34421,1,0,0:0:0:0:
170,139,34550,1,0,0:0:0:0:
207,210,34679,1,0,0:0:0:0:
127,68,34938,1,0,0:0:0:0:
90,140,35067,1,0,0:0:0:0:
127,211,35197,1,0,0:0:0:0:
44,71,35455,1,0,0:0:0:0:
16,143,35585,1,0,0:0:0:0:
44,214,35714,5,0,0:0:0:0:
104,356,35973,1,0,0:0:0:0:
282,355,36231,1,0,0:0:0:0:
461,355,36490,1,0,0:0:0:0:
488,270,36619,1,0,0:0:0:0:
485,183,36748,1,0,0:0:0:0:
449,102,36878,1,0,0:0:0:0:
386,39,37007,1,0,0:0:0:0:
305,4,37136,1,0,0:0:0:0:
217,0,37266,1,0,0:0:0:0:
134,28,37395,1,0,0:0:0:0:
66,84,37524,1,0,0:0:0:0:
23,162,37654,1,0,0:0:0:0:
11,250,37783,5,0,0:0:0:0:
178,112,38042,1,0,0:0:0:0:
309,282,38300,1,0,0:0:0:0:
506,192,38559,1,0,0:0:0:0:
489,7,38817,5,0,0:0:0:0:
442,74,38947,1,0,0:0:0:0:
378,125,39076,1,0,0:0:0:0:
304,157,39205,1,0,0:0:0:0:
223,170,39335,1,0,0:0:0:0:
145,192,39464,1,0,0:0:0:0:
77,236,39593,1,0,0:0:0:0:
47,311,39723,1,0,0:0:0:0:
85,382,39852,5,0,0:0:0:0:
242,232,40111,1,0,0:0:0:0:
42,151,40369,1,0,0:0:0:0:
167,329,40628,1,0,0:0:0:0:
378,322,40886,5,0,0:0:0:0:
454,292,41016,1,0,0:0:0:0:
504,229,41145,1,0,0:0:0:0:
512,148,41274,1,0,0:0:0:0:
470,77,41404,1,0,0:0:0:0:
393,49,41533,1,0,0:0:0:0:
314,67,41662,1,0,0:0:0:0:
262,129,41792,1,0,0:0:0:0:
266,209,41921,1,0,0:0:0:0:
403,339,42179,5,0,0:0:0:0:
473,297,42309,1,0,0:0:0:0:
402,257,42438,1,0,0:0:0:0:
472,217,42567,1,0,0:0:0:0:
487,77,42826,2,0,P|381:79|286:203,1,269.999992847443
403,339,43473,1,0,0:0:0:0:
489,143,43731,1,0,0:0:0:0:
122,116,43990,5,0,0:0:0:0:
420,270,44248,1,0,0:0:0:0:
154,59,44507,1,0,0:0:0:0:
388,319,44766,1,0,0:0:0:0:
382,62,45024,5,0,0:0:0:0:
150,325,45283,1,0,0:0:0:0:
420,107,45542,1,0,0:0:0:0:
118,276,45800,1,0,0:0:0:0:
368,192,46059,5,0,0:0:0:0:
187,141,46317,1,0,0:0:0:0:
161,218,46447,1,0,0:0:0:0:
110,155,46576,1,0,0:0:0:0:
86,232,46705,1,0,0:0:0:0:
33,351,46964,2,0,B|478:370|320:174|320:174,1,359.999990463257
412,86,47740,5,0,0:0:0:0:
385,10,47869,1,0,0:0:0:0:
334,75,47998,1,0,0:0:0:0:
306,0,48128,1,0,0:0:0:0:
156,16,48386,1,0,0:0:0:0:
156,97,48516,1,0,0:0:0:0:
156,312,48774,1,0,0:0:0:0:
156,231,48904,1,0,0:0:0:0:
327,167,49162,5,0,0:0:0:0:
89,167,49421,1,0,0:0:0:0:
156,122,49550,1,0,0:0:0:0:
105,185,49679,1,0,0:0:0:0:
138,110,49809,1,0,0:0:0:0:
127,190,49938,1,0,0:0:0:0:
115,110,50067,1,0,0:0:0:0:
150,183,50197,1,0,0:0:0:0:
336,292,50455,5,0,0:0:0:0:
404,247,50585,1,0,0:0:0:0:
332,209,50714,1,0,0:0:0:0:
401,167,50843,1,0,0:0:0:0:
511,2,51102,2,0,B|251:19|112:212|112:212,1,449.999988079071
106,362,52007,5,0,0:0:0:0:
25,359,52136,1,0,0:0:0:0:
68,290,52266,1,0,0:0:0:0:
251,293,52524,1,0,0:0:0:0:
212,363,52654,1,0,0:0:0:0:
293,363,52783,1,0,0:0:0:0:
429,359,53042,5,0,0:0:0:0:
441,279,53171,1,0,0:0:0:0:
432,198,53300,1,0,0:0:0:0:
390,128,53429,1,0,0:0:0:0:
318,88,53559,1,0,0:0:0:0:
238,75,53688,1,0,0:0:0:0:
158,89,53817,5,0,0:0:0:0:
150,188,53947,1,0,0:0:0:0:
193,276,54076,1,0,0:0:0:0:
280,322,54205,1,0,0:0:0:0:
388,321,54335,6,0,B|630:31|-135:407|453:12|64:70,1,540.000006294251
44,167,54981,1,0,0:0:0:0:
69,272,55111,1,0,0:0:0:0:
152,339,55240,1,0,0:0:0:0:
258,357,55369,6,0,L|399:354,1,135.000001573563
393,92,55757,1,0,0:0:0:0:
133,43,56016,2,0,P|155:151|194:46,1,270.000003147125
201,0,56404,6,0,B|564:-54|-66:370|640:-16|378:346,1,540.000006294251
273,356,57050,1,0,0:0:0:0:
166,341,57179,1,0,0:0:0:0:
73,284,57309,1,0,0:0:0:0:
27,186,57438,6,0,L|138:108,1,135.000001573563
436,48,57826,1,0,0:0:0:0:
268,320,58085,1,0,0:0:0:0:
106,29,58343,1,0,0:0:0:0:
106,29,58473,2,0,P|259:-1|348:76,1,270.000003147125
474,66,58990,2,0,P|404:278|42:22,1,810.000009441377
124,3,59895,1,0,0:0:0:0:
231,7,60024,1,0,0:0:0:0:
333,45,60154,1,0,0:0:0:0:
411,120,60283,1,0,0:0:0:0:
447,222,60412,1,0,0:0:0:0:
460,330,60542,6,0,P|310:325|219:227,2,270.000003147125
484,63,61317,2,0,P|336:42|51:276,1,540.000006294251
92,374,61964,1,0,0:0:0:0:
201,377,62093,1,0,0:0:0:0:
302,339,62223,1,0,0:0:0:0:
378,259,62352,1,0,0:0:0:0:
415,152,62481,1,0,0:0:0:0:
426,44,62611,6,0,B|56:-11|644:383|-34:45|18:314,1,540.000006294251
42,370,63257,1,0,0:0:0:0:
150,369,63386,1,0,0:0:0:0:
254,337,63516,1,0,0:0:0:0:
336,267,63645,6,0,L|251:147,1,135.000001573563
107,147,64033,2,0,P|228:48|366:29,2,270.000003147125
55,254,64679,2,0,B|75:631|378:-165|218:524|442:133,1,540.000006294251
399,49,65326,1,0,0:0:0:0:
302,0,65455,1,0,0:0:0:0:
198,32,65585,1,0,0:0:0:0:
131,116,65714,6,0,L|131:262,1,135.000001573563
341,301,66102,2,0,B|381:156|188:170|269:68,1,270.000003147125
413,9,66748,2,0,B|695:416|-216:-143|-184:383|482:350,1,1080.0000125885
495,208,68042,2,0,P|328:82|260:82,2,270.000003147125
223,318,68817,6,0,B|3:195|461:70|27:27,2,458.999996595383
324,318,69852,2,0,B|544:195|86:70|520:27,2,458.999996595383
124,172,71404,6,0,B|263:266|297:217|297:217|318:83|392:148,1,269.999992847443
282,54,71662,2,0,B|331:-12|-28:56|85:118,1,269.999992847443
29,168,71921,2,0,B|19:238|88:268|88:268|105:323|128:344|128:344|157:368|187:348,1,269.999992847443
238,304,72179,2,0,B|293:180|512:307|468:147,1,269.999992847443
413,130,72438,2,0,P|327:47|189:108,1,269.999992847443
73,74,72697,6,0,B|59:236|178:196|178:196|414:195|250:320|250:320|105:343|199:38|386:35|386:35|455:60|449:98,1,989.999973773957
372,144,73473,2,0,B|233:109|334:226|334:226|576:345|405:43|405:43|387:6|196:28|-20:224|110:308|110:308|187:341,1,1079.99997138977
436,310,74507,1,0,0:0:0:0:
456,56,74766,6,0,B|351:183|226:77|112:144|112:144|56:237|260:263|300:44|300:44|398:1|368:276,1,989.999973773957
445,290,75542,2,0,B|491:81|293:210|238:118|238:118|238:-27|81:73|81:73|-12:138|-20:276|285:156|400:361,1,1079.99997138977
150,128,76576,1,0,0:0:0:0:
464,24,76835,6,0,B|584:148|236:40|236:40|5:-30|-6:183|198:166|198:166|476:200|268:316,1,989.999973773957
356,356,77611,2,0,B|72:348|-88:204|592:216|4:104,1,629.9999833107
79,46,78128,2,0,B|257:14|335:85|489:93,2,359.999990463257
452,84,78904,6,0,B|327:-59|39:221|39:221|-37:385|312:328|312:328|524:232|224:152|224:152|136:136|112:48,1,1349.99996423721
240,132,79938,2,0,P|336:68|264:304,1,629.9999833107
272,252,80455,2,0,P|176:316|248:80,1,629.9999833107
320,56,80973,6,0,P|384:160|392:336,1,269.999992847443
308,348,81231,2,0,B|104:296|264:196|464:76|92:40|92:40|0:88|80:204|80:204,1,629.9999833107
0,188,81748,2,0,B|216:436|392:-44|484:396,1,629.9999833107
376,360,82266,2,0,P|244:336|228:96,2,359.999990463257
480,56,83042,6,0,B|400:268|344:208|292:140|292:140|160:24|8:32|232:344|96:352|96:352|32:352|12:144,1,989.999973773957
68,64,83817,2,0,B|252:152|204:304|88:208|88:208|72:112|408:68,1,629.9999833107
452,60,84335,2,0,L|292:392,2,359.999990463257
44,48,85111,6,0,B|68:216|204:88|204:88|316:-16|456:232|456:232|520:352|56:368,1,989.999973773957
24,308,85886,2,0,B|-8:92|532:340|476:24,1,629.9999833107
372,32,86404,2,0,B|228:40|132:232|28:120,2,359.999990463257
72,348,87179,6,0,B|272:304|276:176|104:204|104:204|-96:160|0:-56|328:16|440:40|440:40|644:140|120:108,1,1349.99996423721
8,344,88214,2,0,B|240:416|252:284|-196:116|412:132,1,629.9999833107
448,240,88731,2,0,B|216:312|204:180|652:12|44:28,1,629.9999833107
40,148,89248,5,0,0:0:0:0:
40,148,89378,1,0,0:0:0:0:
40,148,89507,1,0,0:0:0:0:
256,192,89571,12,0,91317,0:0:0:0:
182,295,92093,5,0,0:0:0:0:
256,192,92158,12,0,93580,0:0:0:0:
256,192,93645,12,0,94679,0:0:0:0:
399,102,94938,6,0,P|292:59|141:107,1,269.999992847443
69,178,95196,2,0,P|176:221|327:173,1,269.999992847443
432,188,95455,6,0,B|352:337|280:265|280:265|201:141|134:300|134:300|17:380|25:114|25:114|36:43|117:44,1,818.999940813068
189,74,95972,2,0,B|301:95|406:192|406:192|485:419|77:475|8:154|8:154|48:57|347:247|347:247|641:281|492:-101|300:24|300:24|-69:-111|149:352|179:258,1,2222.99983934976
26,27,97265,5,0,0:0:0:0:
461,340,97524,1,0,0:0:0:0:
461,340,97653,2,0,B|118:351|46:235|46:235|36:75|309:55,1,701.999949268344
28,320,98300,5,0,0:0:0:0:
483,304,98559,1,0,0:0:0:0:
483,304,98688,2,0,B|386:22|118:402|27:52,1,584.99995772362
113,23,99076,2,0,P|287:41|437:129,1,350.999974634172
476,227,99334,2,0,B|328:171|241:297|241:297|170:358|101:237|101:237|115:160|255:33,1,701.999949268344
37,74,99852,6,0,L|450:332,4,467.999966178896
436,85,101403,5,0,0:0:0:0:
279,43,101662,1,0,0:0:0:0:
198,44,101791,2,0,B|148:80|167:133|167:133|201:187|280:159,1,224.999994039536
346,178,102179,2,0,B|406:164|390:219|390:219|346:270|292:214|292:214|259:127|332:109|332:109|418:90|455:157|455:157|481:234|423:286|423:286|346:337|278:292|278:292|205:254|215:176|215:176,1,899.999976158143
