osu file format v14

[General]
AudioFilename: audio.mp3
AudioLeadIn: 0
PreviewTime: -1
Countdown: 1
SampleSet: Normal
StackLeniency: 0.5
Mode: 0
LetterboxInBreaks: 0
WidescreenStoryboard: 0

[Editor]
DistanceSpacing: 1
BeatDivisor: 4
GridSize: 4
TimelineZoom: 1

[Metadata]
Title:Summer Boy
TitleUnicode:Summer Boy
Artist:KANON NAKAGAWA starring Nao Tayoma
ArtistUnicode:KANON NAKAGAWA starring Nao Tayoma
Creator:Bacwux
Version:Boi
Source:
Tags:
BeatmapID:1468839
BeatmapSetID:694262

[Difficulty]
HPDrainRate:6
CircleSize:4.5
OverallDifficulty:8
ApproachRate:8.8
SliderMultiplier:1.7
SliderTickRate:1

[Events]
//Background and Video events
0,0,"SpectatorIsKindBAT.png",0,0
//Break Periods
//Storyboard Layer 0 (Background)
//Storyboard Layer 1 (Fail)
//Storyboard Layer 2 (Pass)
//Storyboard Layer 3 (Foreground)
//Storyboard Sound Samples

[TimingPoints]
704,400,4,1,0,100,1,0
704,-133.333333333333,4,1,0,100,0,0
5504,-100,4,1,0,100,0,0
34304,-133.333333333333,4,1,0,100,0,0
40704,-100,4,1,0,100,0,0
48704,-80,4,1,0,100,0,0
61504,-100,4,1,0,100,0,0
76504,-133.333333333333,4,1,0,100,0,0
77504,-100,4,1,0,100,0,0

[HitObjects]
103,119,704,6,0,P|161:114|212:231,1,191.250007295609
327,58,1904,6,0,P|269:53|218:170,1,191.250007295609
231,306,3104,5,0,0:0:0:0:
359,206,4170,5,0,0:0:0:0:
447,164,4437,5,0,0:0:0:0:
456,67,4704,5,0,0:0:0:0:
376,11,4970,5,0,0:0:0:0:
287,52,5237,5,0,0:0:0:0:
278,149,5504,6,0,P|214:157|143:76,1,170
234,68,6104,1,0,0:0:0:0:
359,206,6304,2,0,L|345:314,1,85
176,344,6704,1,0,0:0:0:0:
138,165,6904,2,0,L|142:60,2,85
167,267,7504,1,0,0:0:0:0:
350,195,7704,5,0,0:0:0:0:
141,174,7904,1,0,0:0:0:0:
253,335,8104,1,0,0:0:0:0:
253,335,8204,1,0,0:0:0:0:
253,335,8304,2,0,L|354:326,1,85
473,200,8704,6,0,P|419:171|351:200,1,127.5
348,206,9104,1,0,0:0:0:0:
178,327,9304,1,0,0:0:0:0:
178,327,9404,1,0,0:0:0:0:
178,327,9504,1,0,0:0:0:0:
242,104,9704,1,0,0:0:0:0:
340,216,9904,1,0,0:0:0:0:
184,222,10104,2,0,B|163:209|153:180|153:180|120:244|43:239,1,170
56,138,10704,1,0,0:0:0:0:
233,151,10904,5,0,0:0:0:0:
56,329,11104,2,0,L|47:227,1,85
236,240,11504,2,0,L|245:138,1,85
33,74,11904,6,0,L|49:260,1,170
154,301,12504,1,0,0:0:0:0:
154,301,12604,1,0,0:0:0:0:
154,301,12704,1,0,0:0:0:0:
320,132,12904,1,0,0:0:0:0:
156,220,13104,1,0,0:0:0:0:
297,303,13304,6,0,P|357:330|446:304,1,127.5
430,311,13704,1,0,0:0:0:0:
314,141,13904,2,0,P|291:188|285:232,1,85
285,219,14204,1,0,0:0:0:0:
285,219,14304,2,0,L|198:210,1,85
129,163,14704,1,0,0:0:0:0:
467,232,15104,5,0,0:0:0:0:
121,173,15304,1,0,0:0:0:0:
460,242,15704,5,0,0:0:0:0:
114,183,15904,1,0,0:0:0:0:
453,252,16304,5,0,0:0:0:0:
107,193,16504,1,0,0:0:0:0:
263,226,16904,5,0,0:0:0:0:
263,226,17004,1,0,0:0:0:0:
263,226,17104,1,0,0:0:0:0:
280,142,17304,1,0,0:0:0:0:
230,76,17504,5,0,0:0:0:0:
174,190,17704,1,0,0:0:0:0:
118,49,17904,1,0,0:0:0:0:
188,222,18104,1,0,0:0:0:0:
275,29,18304,5,0,0:0:0:0:
316,300,18504,1,0,0:0:0:0:
255,32,18904,5,0,0:0:0:0:
296,303,19104,1,0,0:0:0:0:
235,35,19504,5,0,0:0:0:0:
276,306,19704,1,0,0:0:0:0:
375,178,20104,5,0,0:0:0:0:
357,174,20304,1,0,0:0:0:0:
339,183,20504,5,0,0:0:0:0:
321,179,20704,1,0,0:0:0:0:
302,161,20904,5,0,0:0:0:0:
302,161,21504,6,0,L|310:256,1,85
254,335,21904,1,0,0:0:0:0:
147,179,22104,1,0,0:0:0:0:
147,179,22204,1,0,0:0:0:0:
147,179,22304,1,0,0:0:0:0:
306,255,22504,1,0,0:0:0:0:
153,290,22704,1,0,0:0:0:0:
296,152,22904,1,0,0:0:0:0:
163,303,23104,6,0,L|68:298,1,85
30,216,23504,1,0,0:0:0:0:
137,49,23704,2,0,P|166:107|140:184,1,127.5
144,180,24104,2,0,P|99:159|80:121,1,85
253,99,24504,1,0,0:0:0:0:
383,179,24704,6,0,L|391:274,1,85
254,351,25104,1,0,0:0:0:0:
394,269,25304,1,0,0:0:0:0:
254,191,25504,6,0,L|246:106,1,85
393,165,25904,1,0,0:0:0:0:
246,98,26104,1,0,0:0:0:0:
161,288,26304,5,0,0:0:0:0:
275,205,26504,1,0,0:0:0:0:
148,160,26704,1,0,0:0:0:0:
156,296,26904,1,0,0:0:0:0:
156,296,27004,1,0,0:0:0:0:
156,296,27104,2,0,P|220:307|270:289,1,85
352,183,27504,2,0,P|343:238|360:285,1,85
368,284,27804,1,0,0:0:0:0:
396,295,27904,6,0,P|403:253|393:212,1,85
210,236,28304,1,0,0:0:0:0:
322,256,28504,1,0,0:0:0:0:
322,256,28604,1,0,0:0:0:0:
322,256,28704,1,0,0:0:0:0:
195,158,28904,1,0,0:0:0:0:
243,318,29104,1,0,0:0:0:0:
385,197,29304,1,0,0:0:0:0:
187,152,29504,6,0,L|80:158,1,85
32,224,29904,1,0,0:0:0:0:
233,224,30104,2,0,L|224:77,1,127.5
219,79,30504,1,0,0:0:0:0:
159,229,30704,1,0,0:0:0:0:
318,205,30904,1,0,0:0:0:0:
152,240,31104,6,0,P|133:289|145:353,1,85
133,320,31404,1,0,0:0:0:0:
132,320,31504,1,0,0:0:0:0:
294,281,31704,1,0,0:0:0:0:
219,79,31904,2,0,L|125:82,1,85
134,81,32204,1,0,0:0:0:0:
134,81,32304,1,0,0:0:0:0:
229,239,32504,1,0,0:0:0:0:
375,113,32704,5,0,0:0:0:0:
385,91,32904,1,0,0:0:0:0:
361,85,33104,1,0,0:0:0:0:
351,107,33304,1,0,0:0:0:0:
92,189,34304,6,0,L|96:274,1,63.7500024318696
251,210,34704,2,0,L|247:146,1,63.7500024318696
241,133,35004,1,0,0:0:0:0:
233,121,35104,1,0,0:0:0:0:
175,233,35304,1,0,0:0:0:0:
263,322,35504,1,0,0:0:0:0:
374,265,35704,1,0,0:0:0:0:
354,141,35904,6,0,L|441:154,2,63.7500024318696
287,90,36504,1,0,0:0:0:0:
287,90,36604,1,0,0:0:0:0:
287,90,36704,1,0,0:0:0:0:
310,212,36904,1,0,0:0:0:0:
402,69,37104,2,0,L|404:-2,1,63.7500024318696
236,167,37504,6,0,P|225:220|232:249,1,63.7500024318696
288,301,37904,1,0,0:0:0:0:
310,212,38104,1,0,0:0:0:0:
198,311,38304,1,0,0:0:0:0:
366,274,38504,1,0,0:0:0:0:
226,228,38704,1,0,0:0:0:0:
274,352,38904,1,0,0:0:0:0:
274,352,39104,6,0,P|284:306|271:266,2,63.7500024318696
226,228,39704,1,0,0:0:0:0:
226,228,39804,1,0,0:0:0:0:
226,228,39904,1,0,0:0:0:0:
355,210,40104,1,0,0:0:0:0:
198,311,40304,1,0,0:0:0:0:
111,160,40504,1,0,0:0:0:0:
115,128,40604,1,0,0:0:0:0:
120,96,40704,6,0,L|204:84,1,85
355,210,41104,2,0,L|271:198,1,85
298,31,41504,2,0,P|313:82|302:130,1,85
183,254,41904,2,0,P|179:211|193:172,1,85
300,280,42304,5,0,0:0:0:0:
294,299,42504,1,0,0:0:0:0:
289,317,42704,1,0,0:0:0:0:
284,335,42904,1,0,0:0:0:0:
284,335,43304,5,0,0:0:0:0:
451,240,43504,1,0,0:0:0:0:
406,336,43704,1,0,0:0:0:0:
344,180,43904,6,0,L|351:129,3,42.5
323,211,44304,1,0,0:0:0:0:
284,227,44404,1,0,0:0:0:0:
242,225,44504,1,0,0:0:0:0:
206,203,44604,1,0,0:0:0:0:
184,167,44704,5,0,0:0:0:0:
188,268,44904,1,0,0:0:0:0:
273,135,45104,1,0,0:0:0:0:
56,167,45504,6,0,P|91:111|132:155,1,127.5
130,157,45904,1,0,0:0:0:0:
456,167,46704,6,0,P|421:111|380:155,1,127.5
382,157,47104,1,0,0:0:0:0:
255,295,48304,5,0,0:0:0:0:
192,60,48704,6,0,P|222:128|139:240,1,212.5
109,135,49304,1,0,0:0:0:0:
109,135,49404,1,0,0:0:0:0:
109,135,49504,1,0,0:0:0:0:
316,114,49704,1,0,0:0:0:0:
240,311,49904,1,0,0:0:0:0:
153,235,50104,1,0,0:0:0:0:
376,224,50304,5,0,0:0:0:0:
148,330,50504,1,0,0:0:0:0:
376,224,50704,1,0,0:0:0:0:
240,154,50904,2,0,L|243:267,1,106.25
375,313,51304,1,0,0:0:0:0:
314,113,51504,1,0,0:0:0:0:
139,244,51704,1,0,0:0:0:0:
484,256,51904,5,0,0:0:0:0:
82,165,52104,1,0,0:0:0:0:
500,80,52304,5,0,0:0:0:0:
68,185,52504,1,0,0:0:0:0:
180,368,52704,5,0,0:0:0:0:
288,35,52904,1,0,0:0:0:0:
392,360,53104,5,0,0:0:0:0:
276,44,53304,1,0,0:0:0:0:
68,185,53504,5,0,0:0:0:0:
327,269,53704,1,0,0:0:0:0:
229,106,53904,1,0,0:0:0:0:
196,339,54104,1,0,0:0:0:0:
196,339,54204,1,0,0:0:0:0:
196,339,54304,1,0,0:0:0:0:
351,149,54504,1,0,0:0:0:0:
78,304,54704,1,0,0:0:0:0:
360,262,54904,1,0,0:0:0:0:
360,262,55004,1,0,0:0:0:0:
360,262,55104,6,0,L|354:137,1,106.25
263,74,55504,1,0,0:0:0:0:
351,267,55704,1,0,0:0:0:0:
426,69,55904,1,0,0:0:0:0:
349,274,56104,2,0,L|225:272,1,106.25
72,151,56504,5,0,0:0:0:0:
235,273,56704,1,0,0:0:0:0:
260,82,56904,1,0,0:0:0:0:
86,306,57104,1,0,0:0:0:0:
320,186,57304,1,0,0:0:0:0:
320,186,57404,1,0,0:0:0:0:
320,186,57504,1,0,0:0:0:0:
73,158,57704,5,0,0:0:0:0:
198,347,57904,1,0,0:0:0:0:
403,241,58104,1,0,0:0:0:0:
160,12,58304,5,0,0:0:0:0:
257,346,58504,1,0,0:0:0:0:
400,0,58704,5,0,0:0:0:0:
251,356,58904,1,0,0:0:0:0:
24,140,59104,5,0,0:0:0:0:
447,219,59304,1,0,0:0:0:0:
4,352,59504,5,0,0:0:0:0:
454,211,59704,1,0,0:0:0:0:
168,78,59904,5,0,0:0:0:0:
382,315,60104,1,0,0:0:0:0:
326,154,60304,1,0,0:0:0:0:
174,320,60504,1,0,0:0:0:0:
174,320,60604,1,0,0:0:0:0:
174,320,60704,1,0,0:0:0:0:
454,211,60904,1,0,0:0:0:0:
454,211,61004,1,0,0:0:0:0:
454,211,61104,1,0,0:0:0:0:
317,152,61304,2,0,L|239:158,1,53.125
169,221,61504,5,0,0:0:0:0:
250,161,61704,2,0,P|260:101|239:54,1,85
112,117,62104,1,0,0:0:0:0:
165,226,62304,1,0,0:0:0:0:
249,65,62504,1,0,0:0:0:0:
172,231,62704,1,0,0:0:0:0:
108,112,62904,2,0,L|112:12,1,85
250,161,63304,5,0,0:0:0:0:
250,161,63404,1,0,0:0:0:0:
250,161,63504,2,0,L|243:260,1,85
162,239,63904,2,0,L|169:338,1,85
254,331,64304,1,0,0:0:0:0:
175,166,64504,1,0,0:0:0:0:
65,307,64704,5,0,0:0:0:0:
246,253,64904,1,0,0:0:0:0:
91,156,65104,1,0,0:0:0:0:
145,337,65304,1,0,0:0:0:0:
334,247,65504,2,0,P|275:235|242:249,1,85
291,326,65904,1,0,0:0:0:0:
349,245,66104,2,0,B|370:209|353:163|353:163|337:123|351:80,1,170
444,119,66704,5,0,0:0:0:0:
189,201,66904,1,0,0:0:0:0:
349,245,67104,1,0,0:0:0:0:
349,245,67204,1,0,0:0:0:0:
349,245,67304,1,0,0:0:0:0:
266,69,67504,1,0,0:0:0:0:
230,268,67704,1,0,0:0:0:0:
223,294,67804,1,0,0:0:0:0:
226,318,67904,6,0,P|172:317|123:333,1,85
272,207,68304,2,0,P|218:208|169:192,1,85
327,282,68704,2,0,L|333:377,1,85
283,122,69104,2,0,L|277:217,1,85
403,159,69504,5,0,0:0:0:0:
148,328,69704,1,0,0:0:0:0:
432,244,69904,1,0,0:0:0:0:
138,245,70104,2,0,P|77:285|57:352,1,127.5
57,346,70504,5,0,0:0:0:0:
239,267,70704,1,0,0:0:0:0:
132,64,70904,5,0,0:0:0:0:
228,271,71104,2,0,L|223:391,1,85
99,181,71504,1,0,0:0:0:0:
404,232,71704,1,0,0:0:0:0:
106,188,71904,2,0,L|11:197,1,85
217,365,72304,1,0,0:0:0:0:
326,220,72504,6,0,P|335:120|318:93,1,127.5
317,95,72904,1,0,0:0:0:0:
57,346,73104,1,0,0:0:0:0:
166,128,74304,6,0,L|165:96,1,21.25
239,212,74904,2,0,L|240:180,1,21.25
166,296,75504,2,0,L|165:264,1,21.25
256,62,75904,5,0,0:0:0:0:
432,354,76104,1,0,0:0:0:0:
151,192,76504,6,0,P|200:199|228:221,1,63.7500024318696
165,274,76904,2,0,P|209:258|286:277,1,127.500004863739
348,325,77404,1,0,0:0:0:0:
414,285,77504,6,0,P|420:227|413:199,1,85
340,121,77904,1,0,0:0:0:0:
225,347,78104,1,0,0:0:0:0:
406,196,78304,1,0,0:0:0:0:
207,124,78504,1,0,0:0:0:0:
232,338,78704,1,0,0:0:0:0:
415,184,78904,6,0,L|420:87,2,85
348,262,79504,2,0,P|290:247|258:255,1,85
179,309,79904,1,0,0:0:0:0:
294,159,80104,5,0,0:0:0:0:
294,159,80204,1,0,0:0:0:0:
294,159,80304,2,0,P|302:95|293:63,1,85
160,134,80704,6,0,L|171:310,1,170
255,256,81304,1,0,0:0:0:0:
255,256,81404,1,0,0:0:0:0:
255,256,81504,1,0,0:0:0:0:
85,169,81704,1,0,0:0:0:0:
175,317,81904,1,0,0:0:0:0:
245,165,82104,2,0,L|237:58,1,85
75,164,82504,5,0,0:0:0:0:
253,176,82704,1,0,0:0:0:0:
109,55,82904,1,0,0:0:0:0:
253,176,83104,2,0,P|262:217|252:257,1,85
173,301,83504,2,0,P|163:259|173:219,1,85
343,94,83904,6,0,L|339:282,1,170
234,110,84504,1,0,0:0:0:0:
453,214,84704,1,0,0:0:0:0:
234,110,84904,1,0,0:0:0:0:
420,45,85104,1,0,0:0:0:0:
334,273,85304,2,0,P|275:273|235:243,1,85
304,197,85704,1,0,0:0:0:0:
148,343,85904,6,0,L|142:234,1,85
189,194,86204,1,0,0:0:0:0:
189,194,86304,2,0,L|195:85,1,85
289,61,86704,6,0,P|342:65|399:122,1,127.5
395,124,87104,5,0,0:0:0:0:
28,220,87304,1,0,0:0:0:0:
388,319,87704,5,0,0:0:0:0:
16,192,87904,1,0,0:0:0:0:
381,115,88304,5,0,0:0:0:0:
0,232,88504,1,0,0:0:0:0:
296,234,88904,5,0,0:0:0:0:
296,234,89004,1,0,0:0:0:0:
296,234,89104,1,0,0:0:0:0:
217,150,89304,1,0,0:0:0:0:
238,326,89504,5,0,0:0:0:0:
306,154,89704,1,0,0:0:0:0:
231,333,89904,1,0,0:0:0:0:
163,161,90104,1,0,0:0:0:0:
314,347,90304,5,0,0:0:0:0:
168,12,90504,1,0,0:0:0:0:
132,384,90904,5,0,0:0:0:0:
277,50,91104,1,0,0:0:0:0:
440,237,91504,6,0,P|372:212|310:228,1,127.5
203,238,91904,2,0,L|23:231,1,170
245,130,93504,5,0,0:0:0:0:
256,192,93604,12,0,99904,0:0:0:0:
