osu file format v14

[General]
AudioFilename: audio.ogg
AudioLeadIn: 0
PreviewTime: 47899
Countdown: 0
SampleSet: Normal
StackLeniency: 0.7
Mode: 1
LetterboxInBreaks: 0
WidescreenStoryboard: 1

[Editor]
Bookmarks: 101115
DistanceSpacing: 1.4
BeatDivisor: 4
GridSize: 32
TimelineZoom: 2

[Metadata]
Title:All Fool
TitleUnicode:オールフール
Artist:KANKAN x Hiiragi Kirai
ArtistUnicode:缶缶 × 柊キライ
Creator:Vivien
Version:Collab Kantan
Source:
Tags:capu japanese rock j-rock jrock ROAR 柊キライ様
BeatmapID:4168497
BeatmapSetID:2004442

[Difficulty]
HPDrainRate:8
CircleSize:6
OverallDifficulty:3
ApproachRate:10
SliderMultiplier:1.4
SliderTickRate:1

[Events]
//Background and Video events
0,0,"ggg.jpg",0,0
//Break Periods
//Storyboard Layer 0 (Background)
//Storyboard Layer 1 (Fail)
//Storyboard Layer 2 (Pass)
//Storyboard Layer 3 (Foreground)
//Storyboard Layer 4 (Overlay)
//Storyboard Sound Samples

[TimingPoints]
1284,307.692307692308,4,1,0,80,1,0
47899,-100,4,1,0,80,0,1
52514,-100,4,1,0,80,0,0
52822,-100,4,1,0,80,0,1
57437,-100,4,1,0,80,0,0
57745,-100,4,1,0,80,0,1
62360,-100,4,1,0,80,0,0
62668,-100,4,1,0,80,0,1
66514,-100,4,1,0,80,0,0
101284,-100,4,1,0,80,0,1
105437,-100,4,1,0,80,0,0
105745,-100,4,1,0,80,0,1
110360,-100,4,1,0,80,0,0
110668,-100,4,1,0,80,0,1
115284,-100,4,1,0,80,0,0
115591,-100,4,1,0,80,0,1
122360,-100,4,1,0,80,0,0
146360,-100,4,1,0,80,0,1
150976,-100,4,1,0,80,0,0
151284,-100,4,1,0,80,0,1
155899,-100,4,1,0,80,0,0
156207,-100,4,1,0,80,0,1
160822,-100,4,1,0,80,0,0
161130,-100,4,1,0,80,0,1
165745,-100,4,1,0,80,0,0
166053,-100,4,1,0,80,0,1
170668,-100,4,1,0,80,0,0
170976,-100,4,1,0,80,0,1
175591,-100,4,1,0,80,0,0
175899,-100,4,1,0,80,0,1
180514,-100,4,1,0,80,0,0
180822,-100,4,1,0,80,0,1
181745,-100,4,1,0,80,0,0
182053,-100,4,1,0,80,0,1
182976,-100,4,1,0,80,0,0
183284,-100,4,1,0,80,0,1
184668,-100,4,1,0,80,0,0

[HitObjects]
256,192,3745,5,4,0:0:0:0:
256,192,4360,1,0,0:0:0:0:
256,192,4976,1,8,0:0:0:0:
256,192,5284,1,8,0:0:0:0:
256,192,5591,1,0,0:0:0:0:
256,192,5899,1,0,0:0:0:0:
256,192,6207,1,8,0:0:0:0:
256,192,6822,1,8,0:0:0:0:
256,192,7437,1,0,0:0:0:0:
256,192,7745,1,0,0:0:0:0:
256,192,8668,1,12,0:0:0:0:
256,192,9284,1,0,0:0:0:0:
256,192,9899,1,8,0:0:0:0:
256,192,10207,1,8,0:0:0:0:
256,192,10514,1,0,0:0:0:0:
256,192,10822,1,0,0:0:0:0:
256,192,11130,1,8,0:0:0:0:
256,192,11745,1,0,0:0:0:0:
256,192,12360,1,8,0:0:0:0:
256,192,12668,1,8,0:0:0:0:
256,192,13591,1,4,0:0:0:0:
256,192,14053,1,0,0:0:0:0:
256,192,14514,1,8,0:0:0:0:
256,192,14822,1,0,0:0:0:0:
256,192,15284,1,8,0:0:0:0:
256,192,15745,1,0,0:0:0:0:
256,192,16053,1,8,0:0:0:0:
256,192,17284,1,8,0:0:0:0:
256,192,18514,1,0,0:0:0:0:
256,192,18976,1,8,0:0:0:0:
256,192,19437,1,0,0:0:0:0:
256,192,19745,1,8,0:0:0:0:
256,192,20207,1,8,0:0:0:0:
256,192,20668,1,8,0:0:0:0:
256,192,20976,1,0,0:0:0:0:
256,192,22207,1,12,0:0:0:0:
256,192,22514,1,4,0:0:0:0:
256,192,22822,1,4,0:0:0:0:
256,192,23130,1,12,0:0:0:0:
256,192,23437,1,4,0:0:0:0:
256,192,24360,1,0,0:0:0:0:
256,192,24668,1,8,0:0:0:0:
256,192,25130,1,0,0:0:0:0:
256,192,25591,1,8,0:0:0:0:
256,192,25899,1,0,0:0:0:0:
256,192,27130,1,8,0:0:0:0:
256,192,28360,5,0,0:0:0:0:
256,192,28822,1,8,0:0:0:0:
256,192,29284,1,0,0:0:0:0:
256,192,29591,1,8,0:0:0:0:
256,192,30053,1,8,0:0:0:0:
256,192,30514,1,0,0:0:0:0:
256,192,30822,1,8,0:0:0:0:
256,192,31437,1,8,0:0:0:0:
256,192,32053,1,0,0:0:0:0:
256,192,32668,1,8,0:0:0:0:
256,192,32976,1,8,0:0:0:0:
256,192,33284,1,0,0:0:0:0:
256,192,33899,1,8,0:0:0:0:
256,192,34514,1,8,0:0:0:0:
256,192,35130,1,0,0:0:0:0:
256,192,35745,1,8,0:0:0:0:
256,192,36360,1,0,0:0:0:0:
256,192,36976,1,8,0:0:0:0:
256,192,37284,1,8,0:0:0:0:
256,192,37591,1,0,0:0:0:0:
256,192,38207,1,12,0:0:0:0:
256,192,38822,1,0,0:0:0:0:
256,192,39745,1,8,0:0:0:0:
256,192,40053,1,0,0:0:0:0:
256,192,40668,1,0,0:0:0:0:
256,192,41284,1,8,0:0:0:0:
256,192,42207,1,8,0:0:0:0:
256,192,42514,1,0,0:0:0:0:
256,192,43130,1,4,0:0:0:0:
256,192,44360,1,0,0:0:0:0:
256,192,45591,1,8,0:0:0:0:
256,192,45899,1,0,0:0:0:0:
256,192,46207,1,8,0:0:0:0:
256,192,46668,1,4,0:0:0:0:
256,192,47130,1,8,0:0:0:0:
256,192,47437,1,0,0:0:0:0:
256,192,47899,5,12,0:0:0:0:
256,192,48360,1,0,0:0:0:0:
256,192,48668,1,8,0:0:0:0:
256,192,49130,1,8,0:0:0:0:
256,192,49591,1,8,0:0:0:0:
256,192,49899,1,0,0:0:0:0:
256,192,50360,1,8,0:0:0:0:
256,192,51745,1,0,0:0:0:0:
256,192,52053,1,0,0:0:0:0:
256,192,52360,1,8,0:0:0:0:
256,192,52822,1,12,0:0:0:0:
256,192,53284,1,0,0:0:0:0:
256,192,53591,1,8,0:0:0:0:
256,192,54053,1,8,0:0:0:0:
256,192,54514,1,0,0:0:0:0:
256,192,54822,1,8,0:0:0:0:
256,192,55284,1,0,0:0:0:0:
256,192,55745,1,8,0:0:0:0:
256,192,56053,1,8,0:0:0:0:
256,192,56360,1,0,0:0:0:0:
256,192,56668,1,8,0:0:0:0:
256,192,57745,1,12,0:0:0:0:
256,192,58207,1,8,0:0:0:0:
256,192,58514,1,0,0:0:0:0:
256,192,58976,1,8,0:0:0:0:
256,192,59437,1,0,0:0:0:0:
256,192,59745,1,8,0:0:0:0:
256,192,60207,1,0,0:0:0:0:
256,192,60668,1,0,0:0:0:0:
256,192,60976,1,8,0:0:0:0:
256,192,61591,1,8,0:0:0:0:
256,192,62668,1,12,0:0:0:0:
256,192,63130,1,8,0:0:0:0:
256,192,63437,1,0,0:0:0:0:
256,192,63899,1,8,0:0:0:0:
256,192,64360,1,8,0:0:0:0:
256,192,64668,1,8,0:0:0:0:
256,192,64976,1,0,0:0:0:0:
256,192,65284,1,12,0:0:0:0:
256,192,65899,1,12,0:0:0:0:
256,192,66514,1,4,0:0:0:0:
256,192,67745,1,8,0:0:0:0:
256,192,68053,1,8,0:0:0:0:
256,192,68360,1,0,0:0:0:0:
256,192,68668,1,0,0:0:0:0:
256,192,68976,1,8,0:0:0:0:
256,192,69591,1,0,0:0:0:0:
256,192,70207,1,8,0:0:0:0:
256,192,71437,1,4,0:0:0:0:
256,192,71899,1,8,0:0:0:0:
256,192,72360,1,8,0:0:0:0:
256,192,72668,1,0,0:0:0:0:
256,192,73130,1,8,0:0:0:0:
256,192,73591,1,0,0:0:0:0:
256,192,73899,1,8,0:0:0:0:
256,192,75130,1,8,0:0:0:0:
256,192,76360,1,8,0:0:0:0:
256,192,76822,1,8,0:0:0:0:
256,192,77284,1,0,0:0:0:0:
256,192,77591,1,8,0:0:0:0:
256,192,78053,1,8,0:0:0:0:
256,192,78514,1,0,0:0:0:0:
256,192,78822,1,8,0:0:0:0:
256,192,80053,1,4,0:0:0:0:
256,192,81284,1,4,0:0:0:0:
256,192,81745,1,8,0:0:0:0:
256,192,82207,1,0,0:0:0:0:
256,192,82514,1,8,0:0:0:0:
256,192,82976,1,0,0:0:0:0:
256,192,83437,1,0,0:0:0:0:
256,192,83745,1,8,0:0:0:0:
256,192,84976,1,8,0:0:0:0:
256,192,86207,1,8,0:0:0:0:
256,192,86668,1,8,0:0:0:0:
256,192,87130,1,0,0:0:0:0:
256,192,87437,1,8,0:0:0:0:
256,192,87899,1,0,0:0:0:0:
256,192,88360,1,0,0:0:0:0:
256,192,88668,1,8,0:0:0:0:
256,192,89899,1,0,0:0:0:0:
256,192,90207,1,8,0:0:0:0:
256,192,90514,1,8,0:0:0:0:
256,192,90822,1,8,0:0:0:0:
256,192,91130,1,4,0:0:0:0:
256,192,91745,1,0,0:0:0:0:
256,192,92360,1,8,0:0:0:0:
256,192,92976,1,8,0:0:0:0:
256,192,93591,1,0,0:0:0:0:
256,192,94207,1,8,0:0:0:0:
256,192,94822,1,8,0:0:0:0:
256,192,95130,1,8,0:0:0:0:
256,192,95437,1,0,0:0:0:0:
256,192,96053,1,12,0:0:0:0:
256,192,97284,1,8,0:0:0:0:
256,192,98514,1,0,0:0:0:0:
256,192,98822,1,0,0:0:0:0:
256,192,99130,1,8,0:0:0:0:
256,192,99591,1,12,0:0:0:0:
256,192,100053,1,0,0:0:0:0:
256,192,100360,1,8,0:0:0:0:
256,192,101284,1,12,0:0:0:0:
256,192,101591,1,0,0:0:0:0:
256,192,102207,1,0,0:0:0:0:
256,192,102514,1,8,0:0:0:0:
256,192,102822,1,0,0:0:0:0:
256,192,103284,1,8,0:0:0:0:
256,192,104668,1,8,0:0:0:0:
256,192,104976,1,0,0:0:0:0:
256,192,105284,1,8,0:0:0:0:
256,192,105745,1,12,0:0:0:0:
256,192,106207,1,8,0:0:0:0:
256,192,106514,1,0,0:0:0:0:
256,192,106976,1,8,0:0:0:0:
256,192,107437,1,8,0:0:0:0:
256,192,107745,1,0,0:0:0:0:
256,192,108207,1,8,0:0:0:0:
256,192,108668,1,0,0:0:0:0:
256,192,108976,1,8,0:0:0:0:
256,192,109591,1,0,0:0:0:0:
256,192,110668,1,12,0:0:0:0:
256,192,111130,1,0,0:0:0:0:
256,192,111437,1,8,0:0:0:0:
256,192,111899,1,0,0:0:0:0:
256,192,112360,1,0,0:0:0:0:
256,192,112668,1,8,0:0:0:0:
256,192,113130,1,8,0:0:0:0:
256,192,113591,1,0,0:0:0:0:
256,192,113899,1,8,0:0:0:0:
256,192,114514,1,0,0:0:0:0:
256,192,115591,1,12,0:0:0:0:
256,192,116053,1,8,0:0:0:0:
256,192,116360,1,0,0:0:0:0:
256,192,116822,1,8,0:0:0:0:
256,192,117284,1,8,0:0:0:0:
256,192,117591,1,0,0:0:0:0:
256,192,117899,1,8,0:0:0:0:
256,192,118207,1,4,0:0:0:0:
256,192,118822,1,12,0:0:0:0:
256,192,119437,1,4,0:0:0:0:
256,192,120053,1,8,0:0:0:0:
256,192,120360,1,12,0:0:0:0:
256,192,120668,1,4,0:0:0:0:
256,192,121899,1,8,0:0:0:0:
256,192,122207,1,0,0:0:0:0:
256,192,123130,1,4,0:0:0:0:
256,192,123591,1,0,0:0:0:0:
256,192,124053,1,0,0:0:0:0:
256,192,124360,1,8,0:0:0:0:
256,192,124976,1,0,0:0:0:0:
256,192,125591,1,12,0:0:0:0:
256,192,126514,1,8,0:0:0:0:
256,192,126822,1,8,0:0:0:0:
256,192,127130,1,0,0:0:0:0:
256,192,127437,1,8,0:0:0:0:
256,192,128053,1,12,0:0:0:0:
256,192,129284,1,0,0:0:0:0:
256,192,129591,1,0,0:0:0:0:
256,192,129899,1,8,0:0:0:0:
256,192,130207,1,8,0:0:0:0:
256,192,130514,1,0,0:0:0:0:
256,192,131130,1,0,0:0:0:0:
256,192,131899,1,12,0:0:0:0:
256,192,132591,1,12,0:0:0:0:
256,192,132976,1,4,0:0:0:0:
256,192,134207,1,12,0:0:0:0:
256,192,134822,1,0,0:0:0:0:
256,192,135437,1,8,0:0:0:0:
256,192,136053,1,8,0:0:0:0:
256,192,136668,1,0,0:0:0:0:
256,192,137284,1,8,0:0:0:0:
256,192,137899,1,8,0:0:0:0:
256,192,138207,1,8,0:0:0:0:
256,192,138514,1,0,0:0:0:0:
256,192,139130,1,12,0:0:0:0:
256,192,140360,1,8,0:0:0:0:
256,192,141591,1,8,0:0:0:0:
256,192,141899,1,0,0:0:0:0:
256,192,142207,1,8,0:0:0:0:
256,192,142668,1,12,0:0:0:0:
256,192,143130,1,0,0:0:0:0:
256,192,143437,1,8,0:0:0:0:
256,192,143745,1,0,0:0:0:0:
256,192,144053,1,8,0:0:0:0:
256,192,145284,1,8,0:0:0:0:
256,192,145591,1,0,0:0:0:0:
256,192,145899,1,8,0:0:0:0:
256,192,146360,1,12,0:0:0:0:
256,192,146822,1,0,0:0:0:0:
256,192,147130,1,8,0:0:0:0:
256,192,147591,1,0,0:0:0:0:
256,192,148053,1,8,0:0:0:0:
256,192,148360,1,0,0:0:0:0:
256,192,148822,1,0,0:0:0:0:
256,192,150207,1,8,0:0:0:0:
256,192,150514,1,0,0:0:0:0:
256,192,150822,1,8,0:0:0:0:
256,192,151284,1,4,0:0:0:0:
256,192,151745,1,0,0:0:0:0:
256,192,152053,1,8,0:0:0:0:
256,192,152514,1,8,0:0:0:0:
256,192,152976,1,0,0:0:0:0:
256,192,153284,1,8,0:0:0:0:
256,192,153745,1,0,0:0:0:0:
256,192,154207,1,8,0:0:0:0:
256,192,154514,1,0,0:0:0:0:
256,192,154822,1,0,0:0:0:0:
256,192,155130,1,8,0:0:0:0:
256,192,156207,1,12,0:0:0:0:
256,192,156668,1,8,0:0:0:0:
256,192,156976,1,0,0:0:0:0:
256,192,157437,1,8,0:0:0:0:
256,192,157899,1,0,0:0:0:0:
256,192,158207,1,8,0:0:0:0:
256,192,158668,1,8,0:0:0:0:
256,192,159130,1,8,0:0:0:0:
256,192,159437,1,0,0:0:0:0:
256,192,160053,1,0,0:0:0:0:
256,192,161130,1,12,0:0:0:0:
256,192,161591,1,0,0:0:0:0:
256,192,161899,1,8,0:0:0:0:
256,192,162360,1,8,0:0:0:0:
256,192,162822,1,0,0:0:0:0:
256,192,163130,1,8,0:0:0:0:
256,192,163437,1,8,0:0:0:0:
256,192,163745,1,0,0:0:0:0:
256,192,164360,1,8,0:0:0:0:
256,192,164976,1,0,0:0:0:0:
256,192,166053,1,12,0:0:0:0:
256,192,166514,1,0,0:0:0:0:
256,192,166822,1,8,0:0:0:0:
256,192,167284,1,0,0:0:0:0:
256,192,167745,1,0,0:0:0:0:
256,192,168053,1,8,0:0:0:0:
256,192,168360,1,8,0:0:0:0:
256,192,168668,1,0,0:0:0:0:
256,192,169284,1,8,0:0:0:0:
256,192,169899,1,0,0:0:0:0:
256,192,170976,1,12,0:0:0:0:
256,192,171437,1,8,0:0:0:0:
256,192,171745,1,0,0:0:0:0:
256,192,172207,1,8,0:0:0:0:
256,192,172668,1,0,0:0:0:0:
256,192,172976,1,8,0:0:0:0:
256,192,173284,1,8,0:0:0:0:
256,192,173591,1,0,0:0:0:0:
256,192,174822,1,0,0:0:0:0:
256,192,175130,1,8,0:0:0:0:
256,192,175437,1,0,0:0:0:0:
256,192,175899,1,12,0:0:0:0:
256,192,176360,1,8,0:0:0:0:
256,192,176668,1,0,0:0:0:0:
256,192,177130,1,8,0:0:0:0:
256,192,177591,1,0,0:0:0:0:
256,192,177899,1,8,0:0:0:0:
256,192,178360,1,8,0:0:0:0:
256,192,179130,1,0,0:0:0:0:
256,192,179745,1,8,0:0:0:0:
256,192,180822,1,12,0:0:0:0:
256,192,181284,1,0,0:0:0:0:
256,192,181591,1,8,0:0:0:0:
256,192,182053,1,12,0:0:0:0:
256,192,182514,1,0,0:0:0:0:
256,192,182822,1,8,0:0:0:0:
256,192,183284,1,12,0:0:0:0:
256,192,183745,1,8,0:0:0:0:
256,192,184053,1,0,0:0:0:0:
256,192,184360,1,0,0:0:0:0:
256,192,184668,1,8,0:0:0:0:
256,192,185899,1,4,0:0:0:0:
256,192,186514,1,0,0:0:0:0:
256,192,187130,1,8,0:0:0:0:
256,192,187437,1,8,0:0:0:0:
256,192,187745,1,0,0:0:0:0:
256,192,188053,1,0,0:0:0:0:
256,192,188360,1,8,0:0:0:0:
256,192,188976,1,8,0:0:0:0:
256,192,189591,1,8,0:0:0:0:
256,192,189899,1,0,0:0:0:0:
256,192,190822,1,12,0:0:0:0:
256,192,192053,1,8,0:0:0:0:
256,192,192360,1,8,0:0:0:0:
256,192,192668,1,0,0:0:0:0:
256,192,192976,1,0,0:0:0:0:
256,192,193284,1,8,0:0:0:0:
256,192,193899,1,0,0:0:0:0:
256,192,194514,1,8,0:0:0:0:
256,192,194822,1,8,0:0:0:0:
256,192,195130,1,0,0:0:0:0:
256,192,195437,1,8,0:0:0:0:
