osu file format v14

[General]
AudioFilename: audio.ogg
AudioLeadIn: 0
PreviewTime: 122433
Countdown: 0
SampleSet: Soft
StackLeniency: 0.7
Mode: 0
LetterboxInBreaks: 0
WidescreenStoryboard: 0

[Editor]
DistanceSpacing: 1
BeatDivisor: 4
GridSize: 32
TimelineZoom: 1.8

[Metadata]
Title:All Fool
TitleUnicode:オールフール
Artist:KANKAN x Hiiragi Kirai
ArtistUnicode:缶缶×柊キライ
Creator:SMOKELIND
Version:X
Source:
Tags:ROAR frozz -Keqing gazimal pnky - ex - -_ex_- Japanese Rock J-Rock JRock
BeatmapID:4065511
BeatmapSetID:1961624

[Difficulty]
HPDrainRate:5
CircleSize:4.2
OverallDifficulty:9
ApproachRate:9.5
SliderMultiplier:2.27
SliderTickRate:1

[Events]
//Background and Video events
0,0,"BG.jpg",0,0
//Break Periods
//Storyboard Layer 0 (Background)
//Storyboard Layer 1 (Fail)
//Storyboard Layer 2 (Pass)
//Storyboard Layer 3 (Foreground)
//Storyboard Layer 4 (Overlay)
//Storyboard Sound Samples

[TimingPoints]
1280,307.692307692308,4,2,77,77,1,0
1280,-212.765957446809,4,2,77,77,0,0
3741,-103.092783505155,4,2,77,67,0,0
13587,-129.87012987013,4,2,77,57,0,0
22203,-103.092783505155,4,2,77,67,0,0
22818,-85.4700854700857,4,2,77,67,0,0
23433,-103.092783505155,4,2,77,67,0,0
33280,-93.4579439252339,4,2,77,67,0,0
36972,-85.4700854700857,4,2,77,67,0,0
37587,-72.992700729927,4,2,77,67,0,0
38203,-114.942528735633,4,2,77,67,0,0
39126,-270.270270270275,4,2,77,67,0,0
39433,-114.942528735633,4,2,77,67,0,0
40356,-270.270270270275,4,2,77,67,0,0
40663,-114.942528735633,4,2,77,67,0,0
42818,-270.270270270275,4,2,77,67,0,0
43126,-103.092783505155,4,2,77,67,0,0
45587,-93.4579439252339,4,2,77,77,0,0
47895,-85.4700854700857,4,2,77,87,0,0
65280,-68.0272108843537,4,2,77,87,0,0
66509,-103.092783505155,4,2,77,67,0,0
71433,-129.87012987013,4,2,77,57,0,0
81279,-103.092783505155,4,2,77,67,0,0
91126,-114.942528735633,4,2,77,67,0,0
92049,-270.270270270275,4,2,77,67,0,0
92356,-114.942528735633,4,2,77,67,0,0
93279,-270.270270270275,4,2,77,67,0,0
93586,-114.942528735633,4,2,77,67,0,0
95741,-270.270270270275,4,2,77,67,0,0
96049,-103.092783505155,4,2,77,67,0,0
98510,-93.4579439252339,4,2,77,77,0,0
100818,-175.438596491228,4,2,77,87,0,0
101280,-85.4700854700855,4,2,77,87,0,0
110356,-270.270270270271,4,2,77,87,0,0
110664,-59.8802395209581,4,2,77,87,0,0
111126,-85.4700854700855,4,2,77,87,0,0
118203,-212.765957446809,4,2,77,87,0,0
118510,-59.8802395209581,4,2,77,87,0,0
118818,-85.4700854700855,4,2,77,87,0,0
119126,-204.081632653061,4,2,77,87,0,0
119433,-78.7401574803149,4,2,77,87,0,0
120049,-212.765957446809,4,2,77,87,0,0
120356,-68.0272108843537,4,2,77,87,0,0
120664,-103.092783505155,4,2,77,87,0,0
122049,-78.7401574803151,4,2,77,87,0,0
122203,-63.6942675159236,4,2,77,87,0,0
122356,-53.475935828877,4,2,77,87,0,0
122510,-270.27027027027,4,2,77,87,0,0
123126,-78.7401574803149,4,2,77,87,0,0
123433,-114.942528735632,4,2,77,87,0,0
125203,-93.4579439252336,4,2,77,87,0,0
127280,-114.942528735632,4,2,77,87,0,0
128049,-114.942528735632,4,2,77,67,0,0
129587,-129.87012987013,4,2,77,67,0,0
129895,-149.253731343283,4,2,77,67,0,0
130203,-175.438596491228,4,2,77,67,0,0
131972,-72.992700729927,4,2,77,67,0,0
132203,-63.6942675159236,4,2,77,67,0,0
132318,-63.6942675159236,4,2,77,5,0,0
132356,-175.438596491228,4,2,77,67,0,0
132587,-72.992700729927,4,2,77,67,0,0
132818,-59.8802395209581,4,2,77,67,0,0
132933,-59.8802395209581,4,2,77,5,0,0
132972,-72.992700729927,4,2,77,67,0,0
133280,-175.438596491228,4,2,77,67,0,0
133587,-103.092783505155,4,2,77,67,0,0
134203,-114.942528735633,4,2,77,67,0,0
135126,-270.27027027027,4,2,77,67,0,0
135433,-114.942528735633,4,2,77,67,0,0
136356,-270.27027027027,4,2,77,67,0,0
136664,-114.942528735633,4,2,77,67,0,0
138818,-212.765957446811,4,2,77,67,0,0
139126,-114.942528735633,4,2,77,67,0,0
141587,-114.942528735633,4,2,77,77,0,0
141895,-93.4579439252339,4,2,77,77,0,0
144972,-238.095238095238,4,2,77,77,0,0
145280,-78.7401574803149,4,2,77,77,0,0
145895,-312.5,4,2,77,77,0,0
146356,-85.4700854700855,4,2,77,87,0,0
164356,-72.992700729927,4,2,77,87,0,0
165280,-93.4579439252336,4,2,77,87,0,0
165741,-270.27027027027,4,2,77,87,0,0
166049,-59.8802395209581,4,2,77,87,0,0
166356,-78.7401574803149,4,2,77,87,0,0
175587,-270.27027027027,4,2,77,87,0,0
175895,-68.0272108843537,4,2,77,87,0,0
176203,-78.7401574803149,4,2,77,87,0,0
182049,-72.992700729927,4,2,77,87,0,0
183280,-68.0272108843537,4,2,77,87,0,0
185895,-103.092783505155,4,2,77,67,0,0
190356,-370.370370370374,4,2,77,67,0,0
190818,-44.0528634361233,4,2,77,67,0,0
190972,-103.092783505155,4,2,77,67,0,0
195126,-28.8184438040346,4,2,77,67,0,0
195280,-36.101083032491,4,2,77,67,0,0
195433,-48.3091787439614,4,2,77,67,0,0
195587,-72.992700729927,4,2,77,67,0,0

[Colours]
Combo1 : 185,0,0
Combo2 : 107,107,107

[HitObjects]
84,82,1280,5,0,0:0:0:0:
106,8,1433,1,0,0:0:0:0:
115,162,1587,5,0,0:0:0:0:
93,88,1740,1,0,0:0:0:0:
51,215,1895,5,0,0:0:0:0:
113,267,2049,1,0,0:0:0:0:
150,275,2126,1,0,0:0:0:0:
187,283,2203,1,0,0:0:0:0:
251,241,2356,1,0,0:0:0:0:
334,325,2510,5,0,0:0:0:0:
366,255,2664,1,0,0:0:0:0:
463,273,2818,5,0,0:0:0:0:
443,239,2972,1,0,0:0:0:0:
505,164,3126,5,0,0:0:0:0:
485,166,3280,1,0,0:0:0:0:
285,71,3433,5,0,0:0:0:0:
294,46,3509,1,0,0:0:0:0:
313,28,3586,1,0,0:0:0:0:
338,21,3663,1,0,0:0:0:0:
363,26,3740,1,2,1:0:0:0:
357,111,3895,1,0,1:0:0:0:
131,32,4049,5,0,1:0:0:0:
49,237,4203,1,0,1:0:0:0:
253,185,4356,1,0,1:0:0:0:
141,148,4510,5,0,1:0:0:0:
146,186,4587,1,0,1:0:0:0:
151,224,4664,1,0,1:0:0:0:
228,300,4818,1,0,1:0:0:0:
329,151,4972,5,0,1:0:0:0:
384,206,5126,1,0,1:0:0:0:
474,30,5280,1,0,1:0:0:0:
474,30,5587,5,0,1:0:0:0:
384,206,5741,1,0,1:0:0:0:
329,151,5895,1,0,1:0:0:0:
156,290,6203,5,2,1:0:0:0:
211,235,6357,1,0,1:0:0:0:
52,82,6510,5,0,1:0:0:0:
189,116,6663,1,0,1:0:0:0:
329,151,6818,1,0,1:0:0:0:
292,16,6972,5,0,1:0:0:0:
281,53,7049,1,0,1:0:0:0:
273,90,7126,1,0,1:0:0:0:
386,213,7280,1,0,1:0:0:0:
205,345,7433,5,0,1:0:0:0:
192,270,7587,1,0,1:0:0:0:
158,51,7741,5,0,1:0:0:0:
171,126,7895,1,0,1:0:0:0:
292,174,8049,5,0,1:0:0:0:
67,218,8203,1,2,1:3:0:0:
67,218,8664,5,2,1:0:0:0:
84,295,8819,1,0,1:0:0:0:
261,384,8973,5,0,1:0:0:0:
292,258,9127,1,0,1:0:0:0:
323,134,9280,1,0,1:0:0:0:
445,231,9434,5,0,1:0:0:0:
407,221,9511,1,0,1:0:0:0:
370,211,9588,1,0,1:0:0:0:
281,65,9742,1,0,1:0:0:0:
105,205,9896,5,0,1:0:0:0:
178,181,10050,1,0,1:0:0:0:
21,52,10204,1,0,1:0:0:0:
21,52,10510,5,0,1:0:0:0:
178,181,10664,1,0,1:0:0:0:
105,205,10818,1,0,1:0:0:0:
356,94,11127,5,2,1:0:0:0:
287,62,11281,1,0,1:0:0:0:
476,155,11434,5,0,1:0:0:0:
317,215,11587,1,0,1:0:0:0:
444,326,11742,1,0,1:0:0:0:
418,253,11896,5,0,1:0:0:0:
404,216,11973,1,0,1:0:0:0:
393,180,12050,1,0,1:0:0:0:
354,299,12204,1,0,1:0:0:0:
231,196,12356,5,0,1:0:0:0:
208,190,12510,1,0,1:0:0:0:
113,316,12664,5,0,1:0:0:0:
128,299,12818,1,0,1:0:0:0:
58,137,12972,5,0,1:0:0:0:
65,158,13126,1,2,1:0:0:0:
128,215,13280,5,2,1:0:0:0:
15,45,13433,1,8,0:0:0:0:
17,34,13510,1,0,0:0:0:0:
20,24,13587,1,4,1:2:0:0:
299,160,13895,6,0,P|368:146|384:84,1,131.092497399593,2|0,0:0|0:0,0:0:0:0:
375,86,14203,1,2,0:0:0:0:
418,209,14356,1,2,0:0:0:0:
431,211,14433,1,0,0:0:0:0:
444,213,14510,1,0,0:0:0:0:
260,301,14664,2,0,L|210:312,1,43.6974991331978,2|0,0:0|0:0,0:0:0:0:
324,343,14818,5,2,0:0:0:0:
219,230,14972,1,2,0:0:0:0:
287,203,15126,5,2,0:0:0:0:
142,327,15280,1,2,0:0:0:0:
7,172,15433,1,2,0:0:0:0:
72,115,15587,2,0,P|76:158|83:213,2,87.3949982663956,2|2|2,0:0|0:0|0:0,0:0:0:0:
166,28,16049,5,2,0:0:0:0:
266,53,16203,1,2,0:0:0:0:
367,78,16356,1,2,0:0:0:0:
468,103,16510,2,0,L|480:56,4,43.6974991331978,2|0|0|0|0,0:0|0:0|0:0|0:0|0:0,0:0:0:0:
403,152,16972,1,0,0:0:0:0:
481,247,17126,5,2,0:0:0:0:
477,259,17203,1,0,0:0:0:0:
475,272,17280,1,2,0:0:0:0:
375,297,17434,1,2,0:0:0:0:
274,322,17587,1,2,0:0:0:0:
173,347,17741,2,0,L|161:300,4,43.6974991331978,2|0|0|0|0,0:0|0:0|0:0|0:0|0:0,0:0:0:0:
225,247,18203,1,0,0:0:0:0:
62,216,18356,5,0,0:0:0:0:
50,221,18433,1,0,0:0:0:0:
38,226,18510,1,0,0:0:0:0:
142,101,18664,2,0,P|146:78|150:47,1,43.6974991331978,2|0,0:0|0:0,0:0:0:0:
157,55,18818,2,0,P|148:112|131:199,1,131.092497399593,2|0,0:0|0:0,0:0:0:0:
142,191,19126,1,2,0:0:0:0:
299,124,19280,2,0,P|349:134|401:141,2,87.3949982663956,2|0|0,0:0|0:0|0:0,0:0:0:0:
292,129,19664,1,0,0:0:0:0:
285,134,19741,1,2,0:0:0:0:
323,214,19895,5,0,0:0:0:0:
454,100,20049,1,2,0:0:0:0:
307,32,20203,1,2,0:0:0:0:
438,199,20356,1,2,0:0:0:0:
300,292,20510,5,2,0:0:0:0:
290,289,20587,1,0,0:0:0:0:
281,288,20664,1,2,0:0:0:0:
421,312,20818,1,2,0:0:0:0:
430,314,20895,1,0,0:0:0:0:
439,316,20972,1,2,0:0:0:0:
372,249,21126,5,2,0:0:0:0:
207,346,21280,2,0,P|198:304|191:238,2,87.3949982663956,2|0|0,0:0|0:0|0:0,0:0:0:0:
11,153,21741,5,0,0:0:0:0:
18,148,21818,1,0,0:0:0:0:
26,146,21895,1,0,0:0:0:0:
203,171,22049,5,2,0:0:0:0:
175,186,22126,1,0,0:0:0:0:
142,189,22203,2,0,P|128:100|112:10,1,165.142503905806,4|0,1:2|0:0,0:0:0:0:
107,15,22510,2,0,P|117:75|127:136,1,110.09500260387,4|0,1:2|0:0,0:0:0:0:
400,230,22818,2,0,P|415:129|433:28,1,199.192500759859,4|0,1:2|0:0,0:0:0:0:
439,34,23125,2,0,P|427:101|416:170,1,132.795000506573,4|0,1:2|0:0,0:0:0:0:
241,301,23433,6,0,B|221:275|175:270|147:312|147:312|119:354|74:349|54:324,1,220.190005207741,4|0,1:2|1:0,0:0:0:0:
7,127,23895,1,0,0:0:0:0:
22,111,23972,1,0,0:0:0:0:
44,111,24049,1,0,1:0:0:0:
171,208,24203,1,2,0:0:0:0:
215,208,24280,1,0,0:0:0:0:
245,176,24357,1,0,1:0:0:0:
195,18,24510,2,0,P|189:48|180:80,1,55.0475013019352,2|0,0:0|0:0,0:0:0:0:
56,193,24664,5,0,1:0:0:0:
266,64,24818,1,2,0:0:0:0:
287,68,24895,1,0,0:0:0:0:
308,74,24972,2,0,P|334:69|368:58,1,55.0475013019352,0|0,1:0|0:0,0:0:0:0:
357,176,25126,2,0,P|383:181|417:192,1,55.0475013019352,2|0,0:0|0:0,0:0:0:0:
193,38,25280,2,0,P|219:33|253:22,1,55.0475013019352,0|0,1:0|0:0,0:0:0:0:
241,230,25433,2,0,P|267:235|301:246,1,55.0475013019352,2|0,0:0|0:0,0:0:0:0:
63,167,25587,1,0,1:0:0:0:
128,119,25741,5,2,0:0:0:0:
128,119,25818,1,0,0:0:0:0:
128,119,25895,2,0,P|147:144|142:176,1,55.0475013019352,2|0,1:0|0:0,0:0:0:0:
25,293,26049,2,0,P|36:263|65:250,1,55.0475013019352,2|0,0:0|0:0,0:0:0:0:
236,312,26203,2,0,P|205:318|178:299,1,55.0475013019352,0|0,1:0|0:0,0:0:0:0:
136,245,26356,6,0,P|161:138|181:11,1,220.190005207741,2|0,0:0|0:0,0:0:0:0:
171,21,26741,1,0,0:0:0:0:
160,16,26818,1,0,1:0:0:0:
430,181,26972,5,2,0:0:0:0:
430,181,27049,1,0,0:0:0:0:
430,181,27126,2,0,P|436:153|445:119,1,55.0475013019352,2|0,1:0|0:0,0:0:0:0:
236,175,27280,2,0,P|256:195|279:220,1,55.0475013019352,2|0,0:0|0:0,0:0:0:0:
339,22,27433,2,0,P|311:28|276:34,1,55.0475013019352,0|0,1:0|0:0,0:0:0:0:
327,124,27587,6,0,B|354:140|365:184|326:217|326:217|288:250|299:294|326:311,1,220.190005207741,2|0,0:0|0:0,0:0:0:0:
337,314,27972,1,0,0:0:0:0:
347,316,28049,1,0,1:0:0:0:
248,171,28203,5,0,0:0:0:0:
216,162,28280,1,0,0:0:0:0:
188,179,28356,1,0,1:0:0:0:
113,349,28510,1,2,0:0:0:0:
50,309,28664,2,0,P|37:222|21:130,1,165.142503905806,0|0,1:0|0:0,0:0:0:0:
28,136,28972,1,0,1:0:0:0:
212,40,29126,1,2,0:0:0:0:
239,46,29203,1,0,0:0:0:0:
266,52,29280,1,0,1:0:0:0:
130,140,29433,2,0,P|124:111|117:81,1,55.0475013019352,2|0,0:0|0:0,0:0:0:0:
209,165,29587,5,2,1:0:0:0:
100,334,29741,2,0,P|68:341|43:353,1,55.0475013019352,2|0,0:0|0:0,0:0:0:0:
166,229,29895,5,0,1:0:0:0:
243,360,30049,2,0,P|274:367|300:379,1,55.0475013019352,2|0,0:0|0:0,0:0:0:0:
202,292,30203,5,0,1:0:0:0:
377,178,30356,1,2,0:0:0:0:
393,155,30433,1,0,0:0:0:0:
394,127,30510,1,0,1:0:0:0:
267,31,30664,5,2,0:0:0:0:
268,58,30741,1,0,0:0:0:0:
284,80,30818,2,0,P|353:88|507:132,1,220.190005207741,2|0,1:0|1:0,0:0:0:0:
290,187,31280,1,0,0:0:0:0:
295,214,31356,1,0,0:0:0:0:
300,242,31433,2,0,B|320:301|420:319|458:239|398:180|359:221,1,220.190005207741,2|0,1:0|1:0,0:0:0:0:
204,268,31895,1,0,0:0:0:0:
199,295,31971,1,0,0:0:0:0:
194,323,32048,2,0,B|173:382|73:400|35:320|95:261|134:302,1,220.190005207741,2|0,1:0|1:0,0:0:0:0:
208,185,32510,5,0,0:0:0:0:
195,166,32587,1,0,0:0:0:0:
174,159,32664,1,2,1:0:0:0:
7,233,32818,5,0,0:0:0:0:
36,231,32895,1,0,0:0:0:0:
57,212,32972,1,2,1:0:0:0:
81,18,33126,5,0,0:0:0:0:
65,45,33203,1,0,0:0:0:0:
71,76,33280,2,0,P|135:80|211:92,1,121.444996293793,2|0,1:0|0:0,0:0:0:0:
320,40,33510,1,0,0:0:0:0:
313,28,33587,2,0,P|263:71|284:118,1,121.444996293793,0|0,1:0|0:0,0:0:0:0:
398,151,33818,1,0,0:0:0:0:
405,139,33895,2,0,P|454:182|433:229,1,121.444996293793,2|0,1:0|0:0,0:0:0:0:
294,305,34126,1,0,0:0:0:0:
301,295,34203,2,0,P|315:234|328:169,1,121.444996293793,2|0,1:0|0:0,0:0:0:0:
123,307,34510,1,2,1:0:0:0:
64,256,34664,5,0,0:0:0:0:
86,235,34741,1,0,0:0:0:0:
116,230,34818,1,2,1:0:0:0:
120,96,34972,5,0,0:0:0:0:
148,107,35049,1,0,0:0:0:0:
164,132,35126,1,2,1:0:0:0:
277,70,35280,5,0,0:0:0:0:
278,100,35357,1,0,0:0:0:0:
262,124,35434,1,2,1:0:0:0:
286,266,35587,5,0,0:0:0:0:
286,266,35664,1,0,0:0:0:0:
286,266,35741,2,0,P|354:290|415:317,1,121.444996293793,2|0,1:0|0:0,0:0:0:0:
470,345,35972,1,0,0:0:0:0:
474,333,36049,1,0,1:0:0:0:
375,200,36203,1,2,0:0:0:0:
369,170,36280,1,0,0:0:0:0:
364,140,36356,1,0,1:0:0:0:
509,146,36510,2,0,P|477:150|445:159,1,60.7224981468964
292,179,36664,1,0,1:0:0:0:
447,1,36818,5,0,0:0:0:0:
468,51,36895,1,0,0:0:0:0:
424,83,36972,2,0,P|329:56|203:37,1,199.192500759859,10|0,1:2|0:0,0:0:0:0:
116,106,37280,2,0,P|183:108|249:119,1,132.795000506573,8|0,1:2|0:0,0:0:0:0:
296,313,37587,6,0,B|308:360|222:381|172:302|244:223|305:237,1,233.242506584147,10|0,1:2|0:0,0:0:0:0:
372,271,37895,2,0,B|426:283|498:204|448:125|362:146|375:194,1,233.242506584147,14|0,1:2|0:0,0:0:0:0:
370,278,38203,1,4,1:0:0:0:
289,148,38356,5,0,0:0:0:0:
220,119,38510,1,0,0:0:0:0:
102,254,38664,1,0,1:0:0:0:
75,177,38818,2,0,P|123:187|170:200,1,98.745000828701,8|0,0:0|0:0,0:0:0:0:
459,91,39126,6,0,L|472:4,1,83.9900020505372,2|0,0:0|1:0,0:0:0:0:
319,144,39587,5,0,0:0:0:0:
325,177,39664,1,0,0:0:0:0:
333,210,39741,1,0,0:0:0:0:
452,292,39895,1,0,1:0:0:0:
246,192,40049,2,0,P|197:181|150:168,1,98.745000828701,8|0,0:0|0:0,0:0:0:0:
459,91,40356,6,0,L|472:4,1,83.9900020505372,2|0,0:0|1:0,0:0:0:0:
389,119,40818,5,0,0:0:0:0:
302,65,40972,1,0,0:0:0:0:
195,168,41126,1,0,1:0:0:0:
52,13,41280,1,8,0:0:0:0:
122,33,41433,1,0,0:0:0:0:
19,193,41587,1,0,0:0:0:0:
64,132,41741,1,2,0:0:0:0:
96,121,41818,1,0,0:0:0:0:
128,112,41895,1,0,1:0:0:0:
193,166,42049,1,0,0:0:0:0:
433,18,42203,5,0,0:0:0:0:
279,81,42356,1,0,1:0:0:0:
229,27,42510,5,8,0:0:0:0:
426,113,42664,1,0,0:0:0:0:
347,148,42818,6,0,L|362:54,1,83.9900020505372,8|4,0:0|1:0,0:0:0:0:
243,263,43356,1,0,3:0:0:0:
236,271,43433,2,0,B|165:247|142:294|71:271,1,165.142503905806,8|0,0:0|3:0,0:0:0:0:
19,194,43741,1,8,0:0:0:0:
28,186,43818,2,0,P|56:180|97:168,1,55.0475013019352,0|0,3:0|3:0,0:0:0:0:
216,86,43972,2,0,P|209:146|245:197,1,110.09500260387,8|0,0:0|3:0,0:0:0:0:
304,224,44203,1,8,0:0:0:0:
466,90,44356,2,0,P|470:61|479:29,1,55.0475013019352,0|0,1:0|0:0,0:0:0:0:
389,15,44510,5,8,0:0:0:0:
392,53,44587,1,8,0:0:0:0:
379,89,44664,1,8,0:0:0:0:
362,92,44741,1,8,0:0:0:0:
253,319,44895,1,8,0:0:0:0:
269,315,44972,2,0,P|322:301|384:288,1,110.09500260387,0|0,1:0|0:0,0:0:0:0:
476,276,45203,2,0,P|436:238|392:192,1,110.09500260387,8|8,0:0|0:0,0:0:0:0:
319,195,45433,5,8,0:0:0:0:
271,209,45510,1,8,0:0:0:0:
222,221,45587,1,8,0:0:0:0:
197,296,45741,1,0,1:0:0:0:
0,79,45895,6,0,P|30:87|67:102,1,60.7224981468964,8|0,0:0|0:0,0:0:0:0:
132,190,46049,1,0,1:0:0:0:
296,136,46203,6,0,P|272:157|240:180,1,60.7224981468964,8|0,0:0|0:0,0:0:0:0:
132,190,46357,1,0,1:0:0:0:
109,362,46510,6,0,P|100:331|93:292,1,60.7224981468964,8|0,0:0|0:0,0:0:0:0:
132,190,46664,6,0,P|156:96|171:-4,1,182.167494440689,4|0,1:2|0:0,0:0:0:0:
247,67,46972,1,8,0:0:0:0:
258,64,47049,1,8,0:0:0:0:
270,62,47126,5,8,0:3:0:0:
305,69,47202,1,8,0:0:0:0:
341,76,47279,1,8,0:0:0:0:
376,84,47356,1,8,0:0:0:0:
385,100,47433,6,0,P|389:134|396:171,1,60.7224981468964,8|0,0:3|3:0,0:0:0:0:
14,322,47587,2,0,P|9:287|3:251,1,60.7224981468964,10|0,1:3|0:0,0:0:0:0:
5,262,47895,6,0,P|95:236|201:217,1,199.192500759859,6|0,1:0|0:0,0:0:0:0:
254,267,48203,1,2,0:0:0:0:
426,121,48356,2,0,P|431:89|441:51,1,66.3975002532864,10|0,0:0|0:0,0:0:0:0:
355,215,48510,1,2,3:0:0:0:
402,230,48587,1,0,3:0:0:0:
449,237,48663,1,0,1:0:0:0:
300,121,48818,5,2,0:0:0:0:
122,358,48972,1,10,0:0:0:0:
56,323,49126,5,2,3:0:0:0:
49,276,49203,1,0,3:0:0:0:
43,229,49280,1,0,1:0:0:0:
96,158,49433,1,2,0:0:0:0:
8,42,49587,2,0,P|8:74|38:95,1,66.3975002532864,10|0,0:0|0:0,0:0:0:0:
215,38,49741,1,2,3:0:0:0:
168,30,49818,1,0,3:0:0:0:
131,59,49895,1,0,1:0:0:0:
195,118,50049,5,2,0:0:0:0:
414,11,50203,1,10,0:0:0:0:
349,54,50356,5,2,3:0:0:0:
344,100,50433,1,0,3:0:0:0:
340,146,50510,1,0,1:0:0:0:
403,194,50664,5,2,0:0:0:0:
162,291,50818,2,0,P|124:298|79:309,1,66.3975002532864,10|0,0:0|0:0,0:0:0:0:
265,314,50972,5,2,3:0:0:0:
244,272,51049,1,0,3:0:0:0:
248,225,51126,1,2,1:0:0:0:
321,256,51280,5,2,0:0:0:0:
68,111,51433,1,10,0:0:0:0:
111,48,51587,5,2,3:0:0:0:
155,56,51664,1,0,3:0:0:0:
200,65,51741,2,0,P|211:36|221:3,1,66.3975002532864,2|0,1:0|0:0,0:0:0:0:
370,158,51895,2,0,P|358:129|349:96,1,66.3975002532864,2|0,0:0|0:0,0:0:0:0:
121,197,52049,2,0,P|132:168|142:135,1,66.3975002532864,10|0,0:0|0:0,0:0:0:0:
457,268,52203,2,0,P|445:239|436:206,1,66.3975002532864,2|0,3:0|3:0,0:0:0:0:
237,298,52356,5,2,1:0:0:0:
311,317,52510,1,2,0:0:0:0:
55,134,52664,1,8,0:0:0:0:
181,366,52818,6,0,P|200:266|218:148,1,199.192500759859,6|0,1:0|0:0,0:0:0:0:
176,100,53126,1,2,0:0:0:0:
435,33,53280,2,0,P|422:67|377:79,1,66.3975002532864,10|0,0:0|0:0,0:0:0:0:
202,29,53433,1,2,3:0:0:0:
247,24,53510,1,0,3:0:0:0:
281,54,53586,1,2,1:0:0:0:
324,138,53741,5,2,0:0:0:0:
74,10,53895,1,8,0:0:0:0:
21,68,54049,5,2,3:0:0:0:
15,115,54126,1,0,3:0:0:0:
8,162,54203,1,0,1:0:0:0:
61,223,54356,1,2,0:0:0:0:
224,114,54510,2,0,P|188:109|153:101,1,66.3975002532864,10|0,0:0|0:0,0:0:0:0:
327,284,54664,5,2,3:0:0:0:
334,237,54741,1,0,3:0:0:0:
340,190,54818,1,2,1:0:0:0:
201,213,54972,5,2,0:0:0:0:
470,255,55126,1,8,0:0:0:0:
353,107,55280,5,2,3:0:0:0:
360,60,55357,1,0,3:0:0:0:
366,13,55434,1,0,1:0:0:0:
422,151,55587,5,2,0:0:0:0:
177,55,55741,2,0,P|201:32|233:27,1,66.3975002532864,10|0,0:0|0:0,0:0:0:0:
154,202,55895,5,2,3:0:0:0:
107,206,55972,1,0,3:0:0:0:
81,167,56049,1,2,1:0:0:0:
137,122,56203,5,2,0:0:0:0:
267,297,56356,1,10,0:0:0:0:
194,265,56510,1,2,3:0:0:0:
400,19,56664,5,2,1:0:0:0:
441,59,56740,1,8,0:0:0:0:
449,118,56817,1,8,0:0:0:0:
418,167,56894,1,8,0:0:0:0:
406,171,56972,5,10,0:0:0:0:
355,200,57048,1,8,3:0:0:0:
334,255,57125,1,0,3:0:0:0:
352,311,57202,1,0,3:0:0:0:
366,315,57280,5,2,1:0:0:0:
303,68,57433,1,2,1:0:0:0:
303,68,57741,6,0,B|285:44|243:39|218:78|218:78|192:116|151:111|133:88,1,199.192500759859,6|0,1:0|0:0,0:0:0:0:
138,77,58049,1,2,0:0:0:0:
426,121,58202,2,0,P|431:89|441:51,1,66.3975002532864,10|0,0:0|0:0,0:0:0:0:
237,184,58356,1,2,3:0:0:0:
246,229,58432,1,0,3:0:0:0:
214,263,58509,1,2,1:0:0:0:
154,207,58664,5,2,0:0:0:0:
432,312,58818,1,10,0:0:0:0:
381,371,58972,5,2,3:0:0:0:
349,337,59049,1,0,3:0:0:0:
358,292,59125,1,0,1:0:0:0:
468,234,59279,1,2,0:0:0:0:
382,82,59433,2,0,P|378:117|372:160,1,66.3975002532864,10|0,0:0|0:0,0:0:0:0:
195,192,59587,1,2,3:0:0:0:
149,182,59664,1,0,3:0:0:0:
103,174,59741,1,2,1:0:0:0:
170,104,59895,5,2,0:0:0:0:
249,340,60049,1,10,0:0:0:0:
187,293,60203,5,2,3:0:0:0:
141,301,60280,1,0,3:0:0:0:
95,311,60357,1,2,1:0:0:0:
254,249,60510,5,0,0:0:0:0:
62,81,60664,2,0,P|77:111|116:118,1,66.3975002532864,10|0,0:0|0:0,0:0:0:0:
300,69,60818,5,2,3:0:0:0:
270,32,60895,1,0,3:0:0:0:
225,45,60972,1,2,1:0:0:0:
246,122,61126,5,2,0:0:0:0:
470,36,61279,1,10,0:0:0:0:
418,82,61433,5,2,3:0:0:0:
413,128,61510,1,0,3:0:0:0:
409,174,61587,2,0,P|414:209|424:245,1,66.3975002532864,2|0,1:0|0:0,0:0:0:0:
194,162,61741,2,0,P|220:138|246:111,1,66.3975002532864,2|0,0:0|0:0,0:0:0:0:
298,351,61895,2,0,P|263:340|227:333,1,66.3975002532864,10|0,0:0|0:0,0:0:0:0:
288,236,62049,5,2,3:0:0:0:
288,236,62126,1,0,3:0:0:0:
288,236,62202,1,2,1:0:0:0:
357,287,62356,1,2,0:0:0:0:
185,154,62510,1,8,0:0:0:0:
24,383,62664,6,0,P|46:283|60:175,1,199.192500759859,6|0,1:0|0:0,0:0:0:0:
0,136,62972,1,2,0:0:0:0:
198,46,63126,2,0,P|194:85|147:101,1,66.3975002532864,10|0,0:0|0:0,0:0:0:0:
0,49,63279,1,2,3:0:0:0:
44,57,63355,1,0,3:0:0:0:
70,96,63432,1,2,1:0:0:0:
141,183,63587,5,2,0:0:0:0:
355,122,63741,1,8,0:0:0:0:
300,68,63895,5,2,3:0:0:0:
274,106,63972,1,0,3:0:0:0:
283,151,64049,1,0,1:0:0:0:
370,207,64202,1,2,0:0:0:0:
162,295,64356,2,0,P|166:256|213:240,1,66.3975002532864,10|0,0:0|0:0,0:0:0:0:
360,292,64509,1,2,3:0:0:0:
316,284,64587,1,0,3:0:0:0:
290,245,64664,1,2,1:0:0:0:
370,207,64818,5,2,0:0:0:0:
122,39,64972,1,10,0:0:0:0:
122,39,65280,6,0,B|80:64|63:131|122:181|122:181|180:231|163:298|122:323,1,333.689984470299,6|2,1:0|0:0,0:0:0:0:
123,322,65895,6,0,P|88:283|98:232,1,83.4224961175749,10|0,1:2|0:0,0:0:0:0:
288,94,66049,2,0,P|273:144|224:162,1,83.4224961175749,8|0,1:2|0:0,0:0:0:0:
19,63,66203,2,0,P|69:48|110:79,1,83.4224961175749,10|0,1:2|0:0,0:0:0:0:
391,105,66510,5,2,1:0:0:0:
463,79,66665,1,0,1:0:0:0:
311,0,66819,5,0,1:0:0:0:
261,134,66973,1,0,1:0:0:0:
354,241,67126,1,0,1:0:0:0:
207,286,67280,5,0,1:0:0:0:
245,290,67357,1,0,1:0:0:0:
284,294,67434,1,0,1:0:0:0:
140,330,67588,1,0,1:0:0:0:
354,241,67742,5,0,1:0:0:0:
378,170,67896,1,0,1:0:0:0:
216,43,68050,1,0,1:0:0:0:
216,43,68356,5,0,1:0:0:0:
378,170,68510,1,0,1:0:0:0:
354,241,68664,1,0,1:0:0:0:
133,235,68973,5,2,1:0:0:0:
199,202,69127,1,0,1:0:0:0:
27,274,69280,5,0,1:0:0:0:
165,382,69433,1,0,1:0:0:0:
199,202,69588,1,0,1:0:0:0:
131,284,69742,5,0,1:0:0:0:
131,284,69819,1,0,1:0:0:0:
131,284,69896,1,0,1:0:0:0:
72,158,70050,1,0,1:0:0:0:
181,42,70202,5,0,1:0:0:0:
157,36,70356,1,0,1:0:0:0:
230,178,70510,5,0,1:0:0:0:
206,184,70664,1,0,1:0:0:0:
300,65,70818,5,0,1:0:0:0:
276,59,70972,1,0,1:0:0:0:
360,146,71126,5,0,1:0:0:0:
465,58,71279,1,0,3:0:0:0:
466,47,71356,1,0,3:0:0:0:
468,36,71433,1,6,1:0:0:0:
263,218,71741,6,0,P|272:285|291:367,1,131.092497399593,0|0,1:0|0:0,0:0:0:0:
295,352,72049,1,0,1:0:0:0:
159,250,72202,1,2,0:0:0:0:
146,247,72279,1,0,0:0:0:0:
133,245,72356,1,0,1:0:0:0:
69,345,72510,2,0,P|81:322|80:290,1,43.6974991331978,2|0,0:0|0:0,0:0:0:0:
49,233,72664,5,2,1:0:0:0:
192,142,72818,1,2,0:0:0:0:
264,175,72972,5,0,1:0:0:0:
125,113,73126,1,2,0:0:0:0:
255,5,73279,1,0,1:0:0:0:
308,56,73433,6,0,P|262:59|213:72,2,87.3949982663956,2|0|2,0:0|1:0|0:0,0:0:0:0:
376,71,73818,5,0,0:0:0:0:
381,85,73895,1,2,1:0:0:0:
337,208,74049,1,2,0:0:0:0:
440,287,74202,1,0,1:0:0:0:
483,225,74356,2,0,P|459:217|436:208,4,43.6974991331978,2|0|0|0|0,0:0|0:0|1:0|0:0|0:0,0:0:0:0:
491,146,74818,1,0,1:0:0:0:
408,278,74972,5,2,0:0:0:0:
395,281,75049,1,0,0:0:0:0:
380,284,75126,1,2,1:0:0:0:
262,216,75280,1,2,0:0:0:0:
171,309,75433,1,0,1:0:0:0:
236,350,75587,2,0,P|240:325|247:301,4,43.6974991331978,2|0|0|0|0,0:0|0:0|1:0|0:0|0:0,0:0:0:0:
313,347,76049,1,0,1:0:0:0:
187,233,76203,1,0,0:0:0:0:
43,354,76356,5,2,1:0:0:0:
182,222,76510,2,0,P|152:217|122:207,1,43.6974991331978,2|0,0:0|0:0,0:0:0:0:
275,174,76664,2,0,P|293:104|294:24,1,131.092497399593,0|0,1:0|0:0,0:0:0:0:
286,40,76972,1,0,1:0:0:0:
186,101,77126,2,0,P|157:70|167:29,2,87.3949982663956,2|0|2,0:0|1:0|0:0,0:0:0:0:
194,97,77510,1,0,0:0:0:0:
202,94,77587,1,2,1:0:0:0:
286,40,77741,5,2,0:0:0:0:
399,154,77895,1,0,1:0:0:0:
442,23,78049,1,2,0:0:0:0:
389,152,78202,1,0,1:0:0:0:
492,252,78356,5,2,0:0:0:0:
501,253,78433,1,0,0:0:0:0:
511,256,78510,1,0,1:0:0:0:
372,343,78664,1,2,0:0:0:0:
381,341,78741,1,0,0:0:0:0:
390,339,78818,1,2,1:0:0:0:
488,368,78972,5,2,0:0:0:0:
367,249,79126,2,0,P|318:258|266:269,2,87.3949982663956,0|0|0,1:0|0:0|1:0,0:0:0:0:
184,255,79587,5,0,0:0:0:0:
185,238,79664,1,0,0:0:0:0:
194,226,79741,1,0,1:0:0:0:
305,122,79895,5,2,0:0:0:0:
293,157,79972,1,0,0:0:0:0:
266,177,80049,1,0,1:3:0:0:
45,54,80818,6,0,L|41:21,3,29.1316660887985,0|0|0|8,3:0|3:0|3:0|3:2,0:0:0:0:
45,54,81279,6,0,B|65:80|111:85|139:43|139:43|167:1|212:6|232:31,1,220.190005207741,4|0,1:0|1:0,0:0:0:0:
353,145,81741,1,0,0:0:0:0:
374,142,81818,1,0,0:0:0:0:
386,123,81895,1,0,1:0:0:0:
226,118,82049,1,2,0:0:0:0:
182,118,82126,1,0,0:0:0:0:
152,150,82203,1,0,1:0:0:0:
272,258,82356,2,0,P|279:230|283:198,1,55.0475013019352,2|2,0:0|0:0,0:0:0:0:
209,211,82510,5,0,1:0:0:0:
349,335,82664,1,2,0:0:0:0:
370,330,82741,1,0,0:0:0:0:
391,326,82818,2,0,P|410:302|398:257,1,55.0475013019352,0|0,1:0|0:0,0:0:0:0:
383,106,82972,2,0,P|364:130|376:175,1,55.0475013019352,2|0,0:0|0:0,0:0:0:0:
252,305,83126,2,0,P|271:281|259:236,1,55.0475013019352,0|0,1:0|0:0,0:0:0:0:
244,85,83280,2,0,P|225:109|237:154,1,55.0475013019352,2|0,0:0|0:0,0:0:0:0:
342,229,83433,1,0,1:0:0:0:
116,209,83587,5,2,0:0:0:0:
116,209,83664,1,0,0:0:0:0:
116,209,83741,2,0,P|145:217|182:230,1,55.0475013019352,0|0,1:0|0:0,0:0:0:0:
41,94,83895,2,0,P|18:114|-12:139,1,55.0475013019352,2|0,0:0|0:0,0:0:0:0:
165,81,84049,2,0,P|159:51|154:11,1,55.0475013019352,0|0,1:0|0:0,0:0:0:0:
299,156,84203,6,0,B|319:130|365:125|393:167|393:167|421:209|466:204|486:179,1,220.190005207741,2|0,0:0|0:0,0:0:0:0:
488,169,84587,1,0,0:0:0:0:
490,157,84664,1,0,1:0:0:0:
344,48,84818,5,2,0:0:0:0:
344,48,84895,1,0,0:0:0:0:
344,48,84972,2,0,P|311:45|279:74,1,55.0475013019352,0|0,1:0|0:0,0:0:0:0:
208,235,85126,2,0,P|227:209|219:166,1,55.0475013019352,2|0,0:0|0:0,0:0:0:0:
136,30,85280,2,0,P|147:59|188:76,1,55.0475013019352,0|0,1:0|0:0,0:0:0:0:
233,110,85433,6,0,P|154:131|33:215,1,220.190005207741,2|0,0:0|0:0,0:0:0:0:
40,218,85818,1,0,0:0:0:0:
38,228,85895,1,0,1:0:0:0:
168,306,86049,5,0,0:0:0:0:
195,283,86125,1,0,0:0:0:0:
228,273,86202,1,0,1:0:0:0:
410,326,86356,2,0,P|415:298|425:260,1,55.0475013019352,2|0,0:0|0:0,0:0:0:0:
438,188,86510,2,0,P|422:239|406:310,1,110.09500260387,0|0,1:0|0:0,0:0:0:0:
328,327,86741,1,0,0:0:0:0:
326,316,86818,1,0,1:0:0:0:
230,146,86972,1,2,0:0:0:0:
205,133,87049,1,0,0:0:0:0:
177,137,87126,1,0,1:0:0:0:
173,273,87279,2,0,P|178:246|184:219,1,55.0475013019352,2|0,0:0|0:0,0:0:0:0:
219,51,87433,5,0,1:0:0:0:
26,100,87587,2,0,P|53:110|92:129,1,55.0475013019352,2|0,0:0|0:0,0:0:0:0:
219,51,87741,5,0,1:0:0:0:
412,100,87895,2,0,P|385:110|346:129,1,55.0475013019352,2|0,0:0|0:0,0:0:0:0:
173,273,88049,5,0,1:0:0:0:
267,284,88202,1,2,0:0:0:0:
263,257,88279,1,0,0:0:0:0:
258,231,88356,1,0,1:0:0:0:
442,45,88510,5,2,0:0:0:0:
442,45,88587,1,0,0:0:0:0:
442,45,88664,1,0,1:0:0:0:
438,72,88740,1,0,0:0:0:0:
435,99,88817,1,0,0:0:0:0:
432,127,88894,1,0,0:0:0:0:
429,154,88971,1,0,1:0:0:0:
262,51,89126,1,0,0:0:0:0:
262,51,89203,1,0,0:0:0:0:
262,51,89280,2,0,P|150:39|69:127,1,220.190005207741,0|0,1:0|1:0,0:0:0:0:
227,255,89741,5,0,0:0:0:0:
213,207,89817,1,0,0:0:0:0:
198,158,89895,1,10,1:2:0:0:
33,356,90203,5,8,1:2:0:0:
386,225,90510,5,10,1:2:0:0:
103,12,90818,5,14,1:2:0:0:
245,239,91126,5,4,1:0:0:0:
189,178,91279,5,0,0:0:0:0:
212,106,91433,1,0,0:0:0:0:
137,122,91587,5,0,1:0:0:0:
265,162,91741,2,0,P|312:148|361:139,1,98.745000828701,8|0,0:0|0:0,0:0:0:0:
138,241,92049,6,0,P|101:230|110:193,1,83.9900020505372,2|0,0:0|1:0,0:0:0:0:
334,235,92510,5,0,0:0:0:0:
330,263,92664,1,0,0:0:0:0:
402,197,92818,1,0,1:0:0:0:
269,375,92972,2,0,P|262:325|251:260,1,98.745000828701,8|0,0:0|0:0,0:0:0:0:
110,193,93280,6,0,P|101:230|138:241,1,83.9900020505372,2|0,0:0|1:0,0:0:0:0:
226,96,93741,5,0,0:0:0:0:
265,32,93895,1,0,0:0:0:0:
279,149,94049,5,0,1:0:0:0:
189,30,94203,2,0,P|144:21|84:10,1,98.745000828701,8|0,0:0|0:0,0:0:0:0:
286,155,94510,2,0,P|330:163|391:175,1,98.745000828701
202,292,94818,5,2,1:0:0:0:
212,218,94972,1,0,0:0:0:0:
115,100,95126,5,0,0:0:0:0:
172,147,95280,1,0,1:0:0:0:
329,124,95433,5,8,0:0:0:0:
258,147,95587,1,0,0:0:0:0:
110,193,95741,6,0,P|101:230|138:241,1,83.9900020505372,8|6,0:0|1:0,0:0:0:0:
435,351,96203,5,0,3:0:0:0:
440,329,96280,1,0,3:0:0:0:
444,307,96356,1,8,0:0:0:0:
359,223,96510,1,0,3:0:0:0:
354,201,96587,1,0,3:0:0:0:
350,179,96663,1,8,0:0:0:0:
346,156,96741,2,0,P|354:124|353:73,1,55.0475013019352,0|0,3:0|3:0,0:0:0:0:
228,39,96895,2,0,P|233:99|291:112,1,110.09500260387,8|0,0:0|3:0,0:0:0:0:
304,45,97126,1,8,0:0:0:0:
268,198,97280,2,0,P|236:207|197:222,1,55.0475013019352,0|0,1:0|3:0,0:0:0:0:
16,183,97433,5,8,0:0:0:0:
24,139,97510,1,8,0:0:0:0:
57,110,97587,1,8,0:0:0:0:
73,115,97664,1,8,0:0:0:0:
125,307,97818,1,8,0:0:0:0:
110,298,97895,2,0,P|103:234|91:165,1,110.09500260387,0|0,1:0|3:0,0:0:0:0:
186,174,98126,2,0,P|193:238|205:307,1,110.09500260387,8|8,0:0|0:0,0:0:0:0:
309,325,98356,5,8,0:0:0:0:
358,333,98433,1,8,0:0:0:0:
408,338,98510,1,8,0:0:0:0:
229,364,98664,1,0,1:0:0:0:
441,209,98818,6,0,P|449:178|459:136,1,60.7224981468964,8|0,0:0|0:0,0:0:0:0:
496,262,98972,1,0,1:0:0:0:
281,206,99126,6,0,P|272:175|263:133,1,60.7224981468964,8|0,0:0|0:0,0:0:0:0:
226,259,99280,1,0,1:0:0:0:
376,48,99433,5,8,0:0:0:0:
226,259,99587,2,0,B|150:233|125:309|50:284,1,182.167494440689,4|0,1:0|0:0,0:0:0:0:
33,204,99895,5,8,0:0:0:0:
31,191,99972,1,8,0:0:0:0:
28,179,100049,5,8,1:2:0:0:
56,126,100125,1,8,0:0:0:0:
112,108,100202,1,8,0:0:0:0:
165,134,100279,1,8,0:0:0:0:
171,145,100356,6,0,P|202:148|239:158,1,60.7224981468964,8|8,1:2|0:0,0:0:0:0:
462,31,100510,2,0,P|431:28|394:18,1,60.7224981468964,10|0,0:0|0:0,0:0:0:0:
317,83,100818,6,0,P|324:111|328:134,1,32.3474996051331,2|0,0:0|0:0,0:0:0:0:
443,300,100972,5,8,0:3:0:0:
454,284,101049,1,0,0:0:0:0:
461,249,101126,1,12,0:3:0:0:
436,202,101203,1,0,0:0:0:0:
376,190,101280,2,0,P|329:202|270:203,1,66.3975002532864,14|0,0:0|0:0,0:0:0:0:
220,335,101433,1,2,3:0:0:0:
273,339,101510,1,0,3:0:0:0:
319,360,101587,1,2,1:0:0:0:
199,228,101741,5,2,0:0:0:0:
0,377,101895,1,10,0:0:0:0:
46,277,102049,5,2,3:0:0:0:
36,230,102126,1,0,3:0:0:0:
26,183,102203,1,0,1:0:0:0:
105,103,102356,1,2,0:0:0:0:
0,0,102510,2,0,P|51:25|106:25,1,66.3975002532864,10|0,0:0|0:0,0:0:0:0:
246,13,102664,1,2,3:0:0:0:
197,3,102741,1,0,3:0:0:0:
151,20,102818,1,2,1:0:0:0:
105,103,102972,5,2,0:0:0:0:
383,16,103126,1,10,0:0:0:0:
312,91,103280,5,2,3:0:0:0:
304,137,103356,1,0,3:0:0:0:
296,183,103433,1,0,1:0:0:0:
214,216,103587,1,2,0:0:0:0:
449,292,103741,2,0,P|506:276|533:251,1,66.3975002532864,10|0,0:0|0:0,0:0:0:0:
379,360,103895,1,2,3:0:0:0:
352,322,103972,1,0,3:0:0:0:
351,277,104049,1,2,1:0:0:0:
423,210,104203,5,2,0:0:0:0:
166,314,104356,1,10,0:0:0:0:
214,216,104510,5,2,3:0:0:0:
249,245,104587,1,0,3:0:0:0:
262,288,104664,2,0,P|244:347|232:398,1,66.3975002532864,2|0,1:0|0:0,0:0:0:0:
47,235,104818,2,0,P|65:294|77:345,1,66.3975002532864,2|0,0:0|0:0,0:0:0:0:
355,69,104972,2,0,P|333:137|319:197,1,132.795000506573,10|2,0:0|3:0,0:0:0:0:
336,238,105203,1,0,3:0:0:0:
351,277,105280,1,2,1:0:0:0:
83,152,105433,5,2,0:0:0:0:
243,151,105587,2,0,P|184:170|133:179,1,66.3975002532864,8|0,0:0|0:0,0:0:0:0:
0,0,105741,6,0,B|38:-25|89:-6|105:41|75:36|89:85|138:99|168:86,1,199.192500759859,6|0,1:0|0:0,0:0:0:0:
219,67,106049,1,2,0:0:0:0:
405,180,106203,2,0,P|414:148|425:117,1,66.3975002532864,10|0,0:0|0:0,0:0:0:0:
297,0,106356,1,2,3:0:0:0:
320,45,106433,1,0,3:0:0:0:
322,92,106510,1,2,1:0:0:0:
464,41,106664,5,2,0:0:0:0:
271,234,106818,1,10,0:0:0:0:
361,277,106972,5,2,3:0:0:0:
403,288,107049,1,0,3:0:0:0:
445,299,107126,1,0,1:0:0:0:
327,176,107280,1,2,0:0:0:0:
97,288,107433,1,10,0:0:0:0:
169,358,107587,1,2,3:0:0:0:
194,322,107664,1,0,3:0:0:0:
198,277,107741,1,2,1:0:0:0:
134,194,107895,5,2,0:0:0:0:
132,184,107972,1,0,0:0:0:0:
130,174,108049,2,0,L|116:84,1,66.3975002532864,10|0,0:0|0:0,0:0:0:0:
0,0,108203,5,2,3:0:0:0:
41,33,108280,1,0,3:0:0:0:
93,38,108356,1,0,1:0:0:0:
217,31,108510,1,2,0:0:0:0:
29,223,108664,1,10,0:0:0:0:
104,374,108818,6,0,P|162:358|206:344,1,66.3975002532864,2|0,3:0|3:0,0:0:0:0:
247,298,108972,1,2,1:0:0:0:
385,384,109126,6,0,P|342:340|307:310,1,66.3975002532864,2|0,0:0|0:0,0:0:0:0:
247,298,109280,1,10,0:0:0:0:
253,136,109433,6,0,P|236:194|227:239,1,66.3975002532864,2|0,3:0|3:0,0:0:0:0:
247,298,109587,5,0,1:0:0:0:
299,310,109664,1,8,0:0:0:0:
346,284,109741,1,8,0:0:0:0:
365,233,109818,1,8,0:0:0:0:
360,220,109895,5,8,0:0:0:0:
379,169,109972,1,8,3:0:0:0:
426,143,110049,1,0,3:0:0:0:
478,155,110126,1,0,3:0:0:0:
483,168,110203,5,0,1:0:0:0:
168,257,110356,2,0,L|92:279,1,62.9925015379029,2|0,1:0|0:0,0:0:0:0:
29,216,110664,6,0,B|-18:135|-18:135|165:184,1,284.317491106402,6|0,1:0|0:0,0:0:0:0:
234,199,110972,1,2,0:0:0:0:
447,64,111126,2,0,P|430:-7|427:-41,1,66.3975002532864,10|0,0:0|0:0,0:0:0:0:
345,62,111280,1,2,3:0:0:0:
337,106,111356,1,0,3:0:0:0:
329,150,111433,1,2,1:0:0:0:
241,102,111587,5,2,0:0:0:0:
484,212,111741,1,10,0:0:0:0:
449,311,111895,5,2,3:0:0:0:
418,348,111972,1,0,3:0:0:0:
369,352,112049,1,0,1:0:0:0:
299,288,112203,1,2,0:0:0:0:
170,384,112356,2,0,P|226:366|261:362,1,66.3975002532864,10|0,0:0|0:0,0:0:0:0:
337,194,112510,1,2,3:0:0:0:
329,150,112586,1,0,3:0:0:0:
321,106,112663,1,2,1:0:0:0:
430,0,112818,5,2,0:0:0:0:
205,115,112972,1,10,0:0:0:0:
126,46,113126,5,2,3:0:0:0:
159,14,113203,1,0,3:0:0:0:
204,4,113280,1,0,1:0:0:0:
116,138,113433,1,2,0:0:0:0:
0,1,113587,2,0,P|25:78|36:122,1,66.3975002532864,10|0,0:0|0:0,0:0:0:0:
169,237,113741,1,2,3:0:0:0:
147,288,113818,1,0,3:0:0:0:
103,309,113895,2,0,P|43:319|-1:327,1,66.3975002532864,2|0,1:0|0:0,0:0:0:0:
210,138,114049,5,2,0:0:0:0:
0,231,114203,2,0,P|21:174|36:131,1,66.3975002532864,10|0,0:0|0:0,0:0:0:0:
215,337,114357,5,2,3:0:0:0:
266,325,114433,1,0,3:0:0:0:
317,313,114510,2,0,P|408:285|440:276,1,66.3975002532864,2|0,1:0|0:0,0:0:0:0:
261,79,114664,2,0,P|352:106|384:115,1,66.3975002532864,2|0,0:0|0:0,0:0:0:0:
91,229,114818,2,0,P|120:329|131:363,1,132.795000506573,10|2,0:0|3:0,0:0:0:0:
177,377,115049,1,0,3:0:0:0:
215,337,115126,1,2,1:0:0:0:
190,188,115280,5,2,0:0:0:0:
0,72,115433,2,0,P|58:88|120:88,1,66.3975002532864,8|0,0:0|0:0,0:0:0:0:
319,0,115587,6,0,P|223:34|141:138,1,199.192500759859,6|0,1:0|0:0,0:0:0:0:
190,188,115895,1,2,0:0:0:0:
24,0,116049,1,10,0:0:0:0:
67,100,116203,1,2,3:0:0:0:
53,146,116280,1,0,3:0:0:0:
40,192,116356,1,2,1:0:0:0:
133,320,116510,5,2,0:0:0:0:
131,310,116587,1,0,0:0:0:0:
129,300,116664,2,0,L|118:234,1,66.3975002532864,10|0,0:0|0:0,0:0:0:0:
262,114,116818,5,2,3:0:0:0:
308,128,116895,1,0,3:0:0:0:
354,141,116971,1,2,1:0:0:0:
434,99,117126,1,2,0:0:0:0:
222,218,117280,1,10,0:0:0:0:
159,132,117433,1,2,3:0:0:0:
159,82,117510,1,0,3:0:0:0:
180,41,117587,1,2,1:0:0:0:
283,23,117741,5,2,0:0:0:0:
118,234,117895,1,10,0:0:0:0:
8,134,118049,1,2,3:0:0:0:
226,184,118203,6,0,P|210:254|208:283,1,80.0174987790299,6|0,1:0|0:0,0:0:0:0:
247,344,118510,6,0,B|291:303|282:236|228:204|225:236|173:210|144:158|178:112,1,284.317491106402,2|0,0:0|3:0,0:0:0:0:
214,39,118818,6,0,P|237:62|267:75,1,66.3975002532864,10|0,1:2|0:0,0:0:0:0:
362,218,118972,2,0,P|370:186|366:153,1,66.3975002532864,8|0,1:2|0:0,0:0:0:0:
459,0,119126,6,0,P|417:5|383:28,1,83.4224992362442,10|0,1:2|0:0,0:0:0:0:
339,85,119433,5,2,1:0:0:0:
126,205,119587,1,0,1:0:0:0:
12,100,119741,6,0,P|31:33|41:-9,1,72.0724994501305,10|0,0:0|0:0,0:0:0:0:
226,184,119895,1,0,1:0:0:0:
62,256,120049,6,0,P|36:287|-9:310,1,80.0174987790299,10|0,0:0|0:0,0:0:0:0:
3,307,120356,6,0,P|107:292|216:421,1,250.267488352725,6|0,1:0|0:0,0:0:0:0:
305,384,120664,5,6,1:0:0:0:
315,378,120741,1,0,0:0:0:0:
323,367,120818,2,0,P|339:339|347:307,1,55.0475013019352,0|0,3:0|3:0,0:0:0:0:
115,255,120972,5,8,1:2:0:0:
132,268,121049,1,0,0:0:0:0:
151,278,121126,2,0,P|184:278|215:268,1,55.0475013019352,0|0,3:0|3:0,0:0:0:0:
29,0,121280,5,8,1:2:0:0:
24,46,121356,1,0,0:0:0:0:
50,86,121433,1,0,3:0:0:0:
95,100,121510,1,0,3:0:0:0:
105,96,121587,5,8,1:2:0:0:
151,110,121664,1,0,0:0:0:0:
177,150,121741,1,0,3:0:0:0:
172,196,121817,1,0,3:0:0:0:
162,200,121895,6,0,P|126:206|89:219,1,55.0475013019352,2|0,1:2|0:0,0:0:0:0:
295,73,122049,2,0,P|258:67|222:57,1,72.0724994501305,2|0,1:2|0:0,0:0:0:0:
402,247,122203,2,0,P|355:253|309:266,1,89.09750033988,2|0,1:2|0:0,0:0:0:0:
512,20,122356,2,0,P|452:11|394:-5,1,106.122497894909,2|0,1:2|0:0,0:0:0:0:
224,277,122510,6,0,P|234:318|240:360,1,83.9900020505372
12,165,123126,6,0,B|-6:240|-6:240|71:151|181:149,1,288.289997800522,6|0,1:0|0:0,0:0:0:0:
314,263,123587,5,0,1:0:0:0:
260,204,123741,1,0,0:0:0:0:
284,127,123895,1,0,0:0:0:0:
296,124,123971,1,0,0:0:0:0:
308,122,124048,1,0,1:0:0:0:
236,281,124203,1,0,0:0:0:0:
224,284,124279,1,0,0:0:0:0:
212,286,124356,1,2,1:0:0:0:
290,340,124510,5,0,0:0:0:0:
318,345,124586,1,0,0:0:0:0:
346,339,124663,1,0,1:0:0:0:
370,323,124740,1,0,0:0:0:0:
386,300,124817,1,0,0:0:0:0:
392,272,124894,1,0,0:0:0:0:
388,244,124972,6,0,P|330:237|316:278,1,98.745000828701,0|0,1:0|0:0,0:0:0:0:
370,323,125203,2,0,P|434:282|432:167,1,182.167494440689,0|0,1:0|1:0,0:0:0:0:
267,49,125587,5,6,1:0:0:0:
268,56,125638,5,0,0:0:0:0:
269,64,125689,5,0,0:0:0:0:
271,72,125741,6,0,P|265:97|228:128,2,40.4816654312643
257,186,125895,2,0,P|232:193|187:176,2,40.4816654312643
150,229,126049,6,0,P|140:246|136:266,5,40.4816654312643,0|0|0|0|0|0,1:0|0:0|0:0|0:0|0:0|0:0,0:0:0:0:
183,332,126356,5,0,0:0:0:0:
214,337,126433,1,0,0:0:0:0:
246,343,126510,1,0,1:0:0:0:
109,384,126664,1,0,0:0:0:0:
57,310,126818,5,2,1:0:0:0:
54,289,126894,1,0,0:0:0:0:
51,269,126971,1,2,0:0:0:0:
47,250,127048,1,0,0:0:0:0:
42,230,127125,1,2,1:0:0:0:
206,99,127280,6,0,P|166:122|138:131,1,49.3725004143505,2|0,0:0|0:0,0:0:0:0:
86,117,127434,1,2,1:0:0:0:
11,23,127587,6,0,P|51:45|72:65,1,49.3725004143505,2|0,0:0|0:0,0:0:0:0:
86,117,127741,1,2,1:0:0:0:
42,230,127895,6,0,P|41:184|48:155,1,49.3725004143505,2|0,0:0|0:0,0:0:0:0:
86,117,128049,1,6,1:0:0:0:
332,145,128203,1,4,1:0:0:0:
238,209,128356,5,0,1:0:0:0:
230,174,128510,1,0,3:0:0:0:
334,265,128664,5,2,1:0:0:0:
337,247,128741,1,0,0:0:0:0:
342,230,128818,1,2,3:0:0:0:
253,354,128972,5,0,1:0:0:0:
245,319,129126,2,0,L|234:274,2,32.9150002762337,2|0|0,3:0|0:0|0:0,0:0:0:0:
338,351,129280,6,0,P|396:362|445:381,1,98.745000828701,2|0,1:0|3:0,0:0:0:0:
512,209,129587,2,0,P|493:278|489:322,1,87.3949982663956,2|0,1:0|3:0,0:0:0:0:
332,145,129895,2,0,P|382:175|411:203,1,76.0449964029009,2|0,1:0|3:0,0:0:0:0:
505,52,130203,2,0,P|471:92|454:125,1,64.6949992102661,2|0,1:0|3:0,0:0:0:0:
382,9,130510,5,2,1:0:0:0:
379,23,130587,1,0,0:0:0:0:
371,32,130664,1,0,3:0:0:0:
361,35,130741,1,0,0:0:0:0:
350,33,130818,5,0,1:0:0:0:
352,59,130895,1,0,0:0:0:0:
337,94,130972,1,0,3:0:0:0:
310,109,131049,1,0,0:0:0:0:
269,98,131126,5,0,1:0:0:0:
297,144,131203,1,0,0:0:0:0:
299,198,131280,1,0,3:0:0:0:
256,237,131356,1,0,0:0:0:0:
203,244,131433,1,0,1:0:0:0:
164,280,131510,1,0,0:0:0:0:
158,333,131587,5,0,3:0:0:0:
205,384,131664,1,0,3:0:0:0:
273,366,131741,2,0,P|318:349|361:344,1,64.6949992102661,0|0,1:0|0:0,0:0:0:0:
369,231,131972,6,0,P|427:310|492:288,1,155.495004389431,12|0,1:2|0:0,0:0:0:0:
379,225,132203,2,0,P|430:262|486:233,1,133.64625050982,12|0,1:2|2:0,0:0:0:0:
497,160,132356,6,0,P|506:104|509:77,1,64.6949992102661,0|0,1:0|0:0,0:0:0:0:
382,9,132587,6,0,P|295:25|195:53,1,155.495004389431,12|0,1:2|0:0,0:0:0:0:
376,20,132818,2,0,P|306:33|238:51,1,142.158745553201,12|0,1:2|2:0,0:0:0:0:
257,124,132972,6,0,B|221:149|155:122|147:79|171:80|162:35|124:13|78:22,1,233.242506584147,4|0,1:0|0:0,0:0:0:0:
24,79,133280,6,0,P|41:131|48:169,1,64.6949992102661,4|0,0:3|0:0,0:0:0:0:
109,382,133587,6,0,P|123:322|128:302,1,55.0475013019352,8|0,1:2|0:0,0:0:0:0:
6,243,133741,5,8,0:1:0:0:
13,249,133818,1,0,3:0:0:0:
21,255,133895,5,0,3:0:0:0:
68,240,133972,1,0,3:0:0:0:
116,233,134049,1,0,3:0:0:0:
164,235,134126,1,0,3:0:0:0:
212,244,134203,1,4,1:0:0:0:
376,160,134356,5,2,0:0:0:0:
389,87,134510,1,8,0:0:0:0:
316,112,134664,1,2,0:0:0:0:
417,237,134818,2,0,P|478:221|522:212,1,98.745000828701,0|0,1:0|0:0,0:0:0:0:
277,295,135126,6,0,L|261:381,1,83.9900020505372,8|0,0:0|1:0,0:0:0:0:
203,182,135587,5,2,0:0:0:0:
166,188,135664,1,0,0:0:0:0:
130,195,135741,1,8,0:0:0:0:
58,132,135895,1,2,0:0:0:0:
200,275,136049,2,0,P|184:338|178:380,1,98.745000828701,0|0,1:0|0:0,0:0:0:0:
307,119,136356,6,0,L|322:37,1,83.9900020505372,8|0,0:0|1:0,0:0:0:0:
388,168,136818,5,2,0:0:0:0:
469,142,136972,1,8,0:0:0:0:
367,270,137126,1,2,0:0:0:0:
203,182,137280,1,0,1:0:0:0:
226,101,137433,1,2,0:0:0:0:
275,261,137587,1,8,0:0:0:0:
103,212,137741,1,2,0:0:0:0:
66,219,137818,1,0,0:0:0:0:
29,227,137895,1,0,1:0:0:0:
5,306,138049,1,2,0:0:0:0:
132,119,138203,5,8,0:0:0:0:
0,19,138356,1,2,0:0:0:0:
0,124,138510,5,0,1:0:0:0:
205,25,138664,1,2,0:0:0:0:
290,216,138818,6,0,L|275:298,1,80.0174987790299,8|0,0:0|0:0,0:0:0:0:
204,341,139126,6,0,P|147:309|135:258,1,98.745000828701,6|0,1:0|3:0,0:0:0:0:
49,384,139356,1,0,3:0:0:0:
53,373,139433,2,0,P|144:342|210:337,1,148.117501243052,8|0,0:0|3:0,0:0:0:0:
344,355,139741,1,8,0:0:0:0:
354,357,139818,2,0,P|408:341|423:330,1,49.3725004143505,0|0,3:0|3:0,0:0:0:0:
512,308,139972,2,0,P|441:258|445:214,1,98.745000828701,8|0,0:0|3:0,0:0:0:0:
468,182,140203,1,8,0:0:0:0:
328,47,140356,2,0,P|274:63|259:74,1,49.3725004143505,0|0,1:0|3:0,0:0:0:0:
159,24,140510,5,8,0:0:0:0:
194,57,140587,1,8,0:0:0:0:
201,103,140664,1,8,0:0:0:0:
184,119,140741,1,8,0:0:0:0:
6,225,140895,1,8,0:0:0:0:
26,212,140972,2,0,P|92:185|141:180,1,98.745000828701,0|0,1:0|3:0,0:0:0:0:
198,298,141203,2,0,P|149:287|105:266,1,98.745000828701,8|8,0:0|0:0,0:0:0:0:
208,202,141433,5,8,0:0:0:0:
254,192,141510,1,8,0:0:0:0:
300,182,141587,1,8,0:0:0:0:
379,221,141741,1,0,1:0:0:0:
304,68,141895,6,0,P|226:81|201:89,1,60.7224981468964,8|0,0:0|0:0,0:0:0:0:
160,124,142049,1,0,1:0:0:0:
137,277,142203,6,0,P|164:202|170:177,1,60.7224981468964,8|0,0:0|0:0,0:0:0:0:
160,124,142357,1,0,1:0:0:0:
39,28,142510,6,0,P|89:89|108:106,1,60.7224981468964,8|0,0:0|0:0,0:0:0:0:
160,124,142664,2,0,P|263:125|350:214,1,182.167494440689,4|0,1:0|0:0,0:0:0:0:
430,239,142972,5,8,0:0:0:0:
426,230,143049,1,8,0:0:0:0:
422,221,143126,5,0,1:0:0:0:
385,214,143202,1,8,0:0:0:0:
351,230,143279,1,8,0:0:0:0:
331,262,143356,1,8,0:0:0:0:
334,299,143433,5,0,1:0:0:0:
357,251,143509,1,8,0:0:0:0:
346,200,143586,1,8,0:0:0:0:
306,167,143663,1,8,0:0:0:0:
254,165,143741,5,0,1:0:0:0:
183,188,143817,1,8,0:0:0:0:
118,153,143894,1,8,0:0:0:0:
99,82,143971,1,8,0:0:0:0:
137,19,144048,1,4,1:0:0:0:
418,314,144510,5,0,0:0:0:0:
399,383,144664,1,0,0:0:0:0:
186,93,144972,6,0,P|220:91|255:99,1,71.5049978178406,8|0,0:0|0:0,0:0:0:0:
477,237,145280,6,0,P|409:232|379:215,1,72.0724994501305,12|0,0:3|0:0,0:0:0:0:
321,2,145433,2,0,P|350:60|351:96,1,72.0724994501305,12|0,0:3|0:0,0:0:0:0:
339,330,145587,2,0,P|308:269|308:234,1,72.0724994501305,12|0,0:3|0:0,0:0:0:0:
467,76,145741,2,0,P|429:130|399:149,1,72.0724994501305,12|0,0:3|0:0,0:0:0:0:
194,256,145895,6,0,P|209:224|234:198,1,72.64,0|0,1:0|0:0,0:0:0:0:
333,167,146356,6,0,P|254:156|118:121,1,199.192500759859,4|0,1:0|0:0,0:0:0:0:
76,87,146664,1,2,0:0:0:0:
0,313,146818,2,0,P|25:385|33:415,1,66.3975002532864,10|0,0:0|0:0,0:0:0:0:
189,273,146972,1,2,3:0:0:0:
141,264,147049,1,0,3:0:0:0:
93,255,147126,1,0,1:0:0:0:
30,186,147280,5,2,0:0:0:0:
246,343,147433,1,10,0:0:0:0:
280,231,147587,5,2,3:0:0:0:
266,188,147664,1,0,3:0:0:0:
252,145,147741,1,0,1:0:0:0:
286,49,147895,1,2,0:0:0:0:
158,0,148049,2,0,P|200:55|222:91,1,66.3975002532864,10|0,0:0|0:0,0:0:0:0:
352,126,148203,1,2,3:0:0:0:
381,97,148280,1,0,3:0:0:0:
390,51,148356,1,0,1:0:0:0:
254,134,148510,5,2,0:0:0:0:
512,218,148664,1,10,0:0:0:0:
410,276,148818,5,2,3:0:0:0:
367,292,148895,1,0,3:0:0:0:
324,308,148972,1,0,1:0:0:0:
257,373,149126,1,2,0:0:0:0:
64,226,149280,2,0,P|16:215|-24:192,1,66.3975002532864,10|0,0:0|0:0,0:0:0:0:
144,161,149433,1,2,3:0:0:0:
167,198,149510,1,0,3:0:0:0:
169,242,149587,1,2,1:0:0:0:
96,320,149741,5,2,0:0:0:0:
205,86,149895,1,10,0:0:0:0:
26,70,150049,5,2,3:0:0:0:
74,78,150126,1,0,3:0:0:0:
117,71,150203,2,0,P|130:19|132:-14,1,66.3975002532864,2|0,1:0|0:0,0:0:0:0:
316,165,150356,2,0,P|303:113|301:80,1,66.3975002532864,2|0,0:0|0:0,0:0:0:0:
78,266,150510,2,0,P|91:214|93:181,1,66.3975002532864,10|0,0:0|0:0,0:0:0:0:
376,336,150663,2,0,P|363:284|361:251,1,66.3975002532864,2|0,3:0|3:0,0:0:0:0:
178,348,150818,5,2,1:0:0:0:
256,326,150972,1,2,0:0:0:0:
2,206,151126,1,8,0:0:0:0:
6,379,151280,6,0,P|64:303|190:265,1,199.192500759859,6|0,1:0|0:0,0:0:0:0:
235,269,151587,1,2,0:0:0:0:
438,78,151741,2,0,P|379:111|347:112,1,66.3975002532864,10|0,0:0|0:0,0:0:0:0:
237,26,151895,1,2,3:0:0:0:
281,2,151972,1,0,3:0:0:0:
328,9,152049,1,2,1:0:0:0:
368,104,152203,5,2,0:0:0:0:
97,43,152356,1,8,0:0:0:0:
181,91,152510,5,2,3:0:0:0:
188,139,152587,1,0,3:0:0:0:
195,187,152664,1,0,1:0:0:0:
143,277,152818,1,2,0:0:0:0:
386,211,152972,2,0,P|353:203|321:195,1,66.3975002532864,10|0,0:0|0:0,0:0:0:0:
270,383,153126,5,2,3:0:0:0:
281,336,153203,1,0,3:0:0:0:
293,289,153280,1,2,1:0:0:0:
217,205,153433,5,2,0:0:0:0:
449,86,153587,1,8,0:0:0:0:
371,20,153741,5,2,3:0:0:0:
360,67,153818,1,0,3:0:0:0:
348,114,153895,1,0,1:0:0:0:
386,211,154049,1,2,0:0:0:0:
256,59,154203,2,0,P|190:76|146:82,1,66.3975002532864,10|0,0:0|0:0,0:0:0:0:
24,105,154356,1,2,3:0:0:0:
75,105,154433,1,0,3:0:0:0:
109,143,154510,1,2,1:0:0:0:
38,194,154664,5,2,0:0:0:0:
269,139,154818,1,10,0:0:0:0:
191,85,154972,1,2,3:0:0:0:
44,304,155126,5,2,1:0:0:0:
90,334,155203,1,8,0:0:0:0:
145,328,155280,1,8,0:0:0:0:
183,288,155356,1,8,0:0:0:0:
183,274,155433,5,8,0:0:0:0:
220,234,155509,1,8,3:0:0:0:
276,228,155586,1,0,3:0:0:0:
322,259,155663,1,0,3:0:0:0:
322,272,155741,5,0,1:0:0:0:
86,102,155895,1,2,1:0:0:0:
86,102,156203,6,0,B|143:61|188:107|174:121|210:163|264:135,1,199.192500759859,6|0,1:0|0:0,0:0:0:0:
267,123,156510,1,2,0:0:0:0:
491,26,156664,2,0,P|429:5|401:10,1,66.3975002532864,10|0,0:0|0:0,0:0:0:0:
364,89,156818,5,2,3:0:0:0:
355,141,156895,1,0,3:0:0:0:
379,186,156972,1,2,1:0:0:0:
461,170,157126,5,2,0:0:0:0:
238,371,157280,1,10,0:0:0:0:
323,357,157433,5,2,3:0:0:0:
332,305,157510,1,0,3:0:0:0:
308,260,157587,1,0,1:0:0:0:
194,224,157741,1,2,0:0:0:0:
279,57,157895,2,0,P|264:138|261:166,1,66.3975002532864,10|0,0:0|0:0,0:0:0:0:
98,198,158049,1,2,3:0:0:0:
49,191,158126,1,0,3:0:0:0:
0,184,158203,1,2,1:0:0:0:
0,89,158356,5,2,0:0:0:0:
132,282,158510,1,10,0:0:0:0:
0,384,158664,5,2,3:0:0:0:
25,346,158741,1,0,3:0:0:0:
70,331,158818,1,0,1:0:0:0:
185,360,158972,1,2,0:0:0:0:
341,176,159126,1,10,0:0:0:0:
266,122,159280,1,2,3:0:0:0:
243,161,159357,1,0,3:0:0:0:
249,208,159434,1,2,1:0:0:0:
328,265,159587,5,2,0:0:0:0:
505,68,159741,1,10,0:0:0:0:
433,115,159895,5,2,3:0:0:0:
385,106,159972,1,0,3:0:0:0:
337,97,160049,2,0,P|263:110|230:128,1,66.3975002532864,2|0,1:0|0:0,0:0:0:0:
187,154,160203,1,2,0:0:0:0:
62,53,160356,6,0,P|110:110|142:130,1,66.3975002532864,10|0,0:0|0:0,0:0:0:0:
187,154,160510,1,2,3:0:0:0:
187,154,160587,1,0,3:0:0:0:
187,154,160664,5,2,1:0:0:0:
199,67,160818,1,2,0:0:0:0:
163,313,160972,6,0,P|188:242|189:205,1,66.3975002532864,8|0,0:0|0:0,0:0:0:0:
187,154,161126,6,0,P|265:184|338:292,1,199.192500759859,6|0,1:0|0:0,0:0:0:0:
337,349,161433,1,2,0:0:0:0:
507,219,161587,2,0,P|485:150|484:122,1,66.3975002532864,10|0,0:0|0:0,0:0:0:0:
512,18,161741,1,2,3:0:0:0:
479,60,161818,1,0,3:0:0:0:
425,67,161895,1,2,1:0:0:0:
355,11,162049,5,2,0:0:0:0:
411,248,162203,1,8,0:0:0:0:
335,182,162356,5,2,3:0:0:0:
281,189,162433,1,0,3:0:0:0:
248,231,162510,1,0,1:0:0:0:
260,330,162664,1,2,0:0:0:0:
40,228,162818,2,0,P|29:173|22:137,1,66.3975002532864,10|0,0:0|0:0,0:0:0:0:
151,233,162972,1,2,3:0:0:0:
139,282,163049,1,0,3:0:0:0:
127,331,163126,1,2,1:0:0:0:
109,151,163280,5,2,0:0:0:0:
304,82,163433,1,10,0:0:0:0:
228,26,163587,1,2,3:0:0:0:
152,242,163741,6,0,P|197:301|333:312,1,199.192500759859,6|0,1:0|0:0,0:0:0:0:
387,360,164049,2,0,P|412:286|427:263,1,66.3975002532864,10|0,0:0|0:0,0:0:0:0:
307,92,164203,1,0,3:0:0:0:
319,137,164280,1,0,3:0:0:0:
331,182,164356,2,0,B|357:243|466:253|499:164|429:106|392:154,1,233.242506584147,2|0,1:0|0:0,0:0:0:0:
397,149,164664,5,10,0:0:0:0:
127,331,164818,1,2,0:0:0:0:
65,264,164972,6,0,P|90:144|110:29,1,233.242506584147,0|0,1:0|0:0,0:0:0:0:
38,5,165280,2,0,P|18:97|9:152,1,121.444996293793,8|0,0:0|3:0,0:0:0:0:
15,134,165510,1,0,3:0:0:0:
16,144,165587,1,2,1:0:0:0:
253,332,165741,6,0,P|307:320|333:318,1,62.9925015379029,0|0,1:0|0:0,0:0:0:0:
401,288,166049,6,0,B|447:372|447:372|213:327,1,284.317491106402,6|0,1:0|0:0,0:0:0:0:
193,317,166356,1,2,0:0:0:0:
96,109,166510,1,10,0:0:0:0:
175,163,166664,1,2,3:0:0:0:
148,210,166741,1,0,3:0:0:0:
121,257,166818,1,2,1:0:0:0:
14,242,166972,5,2,0:0:0:0:
261,336,167126,1,10,0:0:0:0:
332,275,167280,5,2,3:0:0:0:
321,225,167356,1,0,3:0:0:0:
312,180,167433,1,2,1:0:0:0:
233,118,167587,1,2,0:0:0:0:
338,1,167741,2,0,P|316:69|303:94,1,72.0724994501305,10|0,0:0|0:0,0:0:0:0:
134,97,167895,1,2,3:0:0:0:
161,48,167972,1,0,3:0:0:0:
201,19,168049,1,2,1:0:0:0:
308,67,168203,5,2,0:0:0:0:
204,310,168356,1,10,0:0:0:0:
341,356,168510,5,2,3:0:0:0:
388,335,168587,1,0,3:0:0:0:
436,341,168664,2,0,B|496:352|560:276|511:205|431:227|447:280,1,216.217498350391,0|0,1:0|0:0,0:0:0:0:
436,348,168972,1,8,0:0:0:0:
278,206,169126,5,0,3:0:0:0:
231,185,169203,1,0,3:0:0:0:
183,191,169280,2,0,B|122:202|58:126|107:55|187:77|171:130,1,216.217498350391,0|0,1:0|0:0,0:0:0:0:
183,198,169588,1,8,0:0:0:0:
0,370,169741,5,0,3:0:0:0:
49,351,169818,1,0,3:0:0:0:
98,339,169895,2,0,P|221:306|324:286,1,216.217498350391,2|0,1:0|0:0,0:0:0:0:
317,287,170203,1,8,0:0:0:0:
512,107,170356,5,0,3:0:0:0:
463,88,170433,1,0,3:0:0:0:
414,76,170510,2,0,P|291:43|188:23,1,216.217498350391,0|0,1:0|0:0,0:0:0:0:
195,24,170818,1,8,0:0:0:0:
0,260,170972,6,0,B|32:281|32:281|97:202|203:196,1,216.217498350391,6|0,1:0|0:0,0:0:0:0:
253,224,171280,1,2,0:0:0:0:
44,57,171433,1,10,0:0:0:0:
135,65,171587,1,2,3:0:0:0:
119,111,171664,1,0,3:0:0:0:
84,146,171741,1,0,1:0:0:0:
0,131,171895,5,2,0:0:0:0:
228,306,172049,1,10,0:0:0:0:
329,202,172203,5,2,3:0:0:0:
320,147,172280,1,0,3:0:0:0:
311,92,172356,1,0,1:0:0:0:
383,25,172510,1,2,0:0:0:0:
212,203,172664,1,10,0:0:0:0:
337,309,172818,1,2,3:0:0:0:
395,300,172895,1,0,3:0:0:0:
439,260,172972,1,0,1:0:0:0:
319,212,173126,5,2,0:0:0:0:
94,374,173280,1,10,0:0:0:0:
13,307,173433,5,2,3:0:0:0:
19,260,173510,1,0,3:0:0:0:
26,213,173587,2,0,P|42:106|59:-7,1,216.217498350391,0|0,1:0|0:0,0:0:0:0:
47,3,173895,1,8,0:0:0:0:
106,176,174049,5,0,3:0:0:0:
153,172,174126,1,0,3:0:0:0:
196,191,174203,2,0,B|256:202|320:126|271:55|191:77|207:130,1,216.217498350391,0|0,1:0|0:0,0:0:0:0:
26,115,174510,6,0,B|97:87|132:149|113:159|139:214|204:200,1,216.217498350391,10|0,0:0|3:0,0:0:0:0:
270,312,174818,5,2,1:0:0:0:
252,258,174895,1,8,0:0:0:0:
277,207,174972,1,8,0:0:0:0:
330,188,175049,1,8,0:0:0:0:
342,194,175126,5,8,0:0:0:0:
395,175,175203,1,8,3:0:0:0:
420,124,175280,1,0,3:0:0:0:
402,70,175357,1,0,3:0:0:0:
390,64,175433,5,0,1:0:0:0:
350,308,175587,2,0,P|361:362|365:387,1,62.9925015379029,0|0,1:0|0:0,0:0:0:0:
510,370,175895,6,0,P|400:349|251:324,1,250.267488352725,6|0,1:0|0:0,0:0:0:0:
189,321,176203,1,2,0:0:0:0:
0,144,176356,2,0,P|75:121|100:110,1,72.0724994501305,10|0,0:0|0:0,0:0:0:0:
213,78,176510,1,2,3:0:0:0:
173,117,176587,1,0,3:0:0:0:
169,169,176664,1,2,1:0:0:0:
243,234,176818,5,2,0:0:0:0:
121,17,176972,1,10,0:0:0:0:
227,82,177126,5,2,3:0:0:0:
278,91,177203,1,0,3:0:0:0:
329,100,177280,1,0,1:0:0:0:
400,165,177433,1,2,0:0:0:0:
512,69,177587,2,0,P|444:92|423:121,1,72.0724994501305,10|0,0:0|0:0,0:0:0:0:
317,183,177741,1,2,3:0:0:0:
333,235,177818,1,0,3:0:0:0:
349,287,177895,1,2,1:0:0:0:
432,344,178049,5,2,0:0:0:0:
162,246,178203,1,10,0:0:0:0:
122,341,178356,5,2,3:0:0:0:
174,353,178433,1,0,3:0:0:0:
214,340,178510,1,0,1:0:0:0:
247,255,178664,1,2,0:0:0:0:
86,83,178818,1,10,0:0:0:0:
158,13,178972,1,2,3:0:0:0:
188,55,179049,1,0,3:0:0:0:
186,103,179126,1,2,1:0:0:0:
117,169,179280,5,2,0:0:0:0:
345,43,179433,1,10,0:0:0:0:
422,106,179587,5,2,3:0:0:0:
413,157,179664,1,0,3:0:0:0:
404,208,179741,2,0,P|382:315|376:343,1,72.0724994501305,2|0,1:0|0:0,0:0:0:0:
189,124,179895,2,0,P|211:231|217:259,1,72.0724994501305,2|0,0:0|0:0,0:0:0:0:
451,348,180049,2,0,P|347:382|320:391,1,72.0724994501305,10|0,0:0|0:0,0:0:0:0:
152,265,180203,2,0,P|174:372|180:400,1,72.0724994501305,2|0,3:0|3:0,0:0:0:0:
303,169,180356,6,0,P|281:62|275:34,1,72.0724994501305,2|0,1:0|0:0,0:0:0:0:
108,4,180510,5,2,3:0:0:0:
97,54,180586,1,0,3:0:0:0:
86,104,180664,1,8,0:0:0:0:
75,155,180740,1,0,0:0:0:0:
64,205,180818,2,0,B|135:177|170:239|151:249|177:304|242:290,1,216.217498350391,6|0,1:0|0:0,0:0:0:0:
311,344,181126,6,0,P|380:321|414:315,1,72.0724994501305,2|0,3:0|3:0,0:0:0:0:
393,326,181280,1,2,1:2:0:0:
234,146,181433,6,0,P|303:169|337:175,1,72.0724994501305,2|0,3:0|3:0,0:0:0:0:
316,164,181587,1,2,1:2:0:0:
98,358,181741,6,0,P|167:335|201:329,1,72.0724994501305,2|0,3:0|3:0,0:0:0:0:
180,340,181895,1,2,1:2:0:0:
403,216,182049,6,0,B|466:235|544:158|497:75|407:92|420:151,1,233.242506584147,6|0,1:0|0:0,0:0:0:0:
319,253,182356,6,0,P|246:279|218:303,1,77.7475021947156,2|0,3:0|3:0,0:0:0:0:
155,225,182510,1,0,1:0:0:0:
49,354,182664,6,0,P|62:277|56:241,1,77.7475021947156,0|0,3:0|3:0,0:0:0:0:
155,225,182818,1,0,1:0:0:0:
98,69,182972,6,0,P|157:119|191:131,1,77.7475021947156,0|0,3:0|3:0,0:0:0:0:
155,225,183126,1,0,1:0:0:0:
357,82,183280,6,0,B|289:64|266:5|266:5|284:69|247:125,1,250.267488352725,4|0,1:2|0:0,0:0:0:0:
325,159,183587,6,0,P|304:248|299:279,1,83.4224961175749,0|0,3:0|3:0,0:0:0:0:
266,384,183741,1,0,1:0:0:0:
499,217,183895,6,0,P|410:196|379:191,1,83.4224961175749,0|0,3:0|3:0,0:0:0:0:
223,146,184049,1,0,1:0:0:0:
375,379,184203,6,0,P|396:290|401:259,1,83.4224961175749,0|0,3:0|3:0,0:0:0:0:
457,23,184356,2,0,P|436:112|431:143,1,83.4224961175749,0|0,1:0|0:0,0:0:0:0:
213,298,184510,5,0,3:0:0:0:
131,278,184586,1,0,3:0:0:0:
49,258,184664,1,0,1:0:0:0:
287,94,185895,5,2,1:0:0:0:
373,73,186049,1,0,1:0:0:0:
199,1,186203,5,0,1:0:0:0:
163,122,186356,1,0,1:0:0:0:
250,214,186510,1,0,1:0:0:0:
152,318,186664,5,0,1:0:0:0:
108,309,186741,1,0,1:0:0:0:
64,300,186818,1,0,1:0:0:0:
201,384,186972,1,0,1:0:0:0:
337,220,187126,5,0,1:0:0:0:
286,291,187280,1,0,1:0:0:0:
114,211,187433,1,0,1:0:0:0:
114,211,187741,5,0,1:0:0:0:
286,291,187894,1,0,1:0:0:0:
337,220,188048,1,0,1:0:0:0:
165,140,188356,5,2,1:0:0:0:
148,55,188510,1,0,1:0:0:0:
114,211,188664,5,0,1:0:0:0:
249,171,188818,1,0,1:0:0:0:
384,131,188972,1,0,1:0:0:0:
444,204,189126,5,0,1:0:0:0:
437,241,189203,1,0,1:0:0:0:
430,278,189280,1,0,1:0:0:0:
490,351,189433,5,0,1:0:0:0:
291,256,189587,5,0,1:0:0:0:
362,240,189741,1,0,1:0:0:0:
217,358,189895,5,0,1:0:0:0:
259,367,190049,1,0,1:0:0:0:
146,230,190203,5,0,1:0:0:0:
102,361,190356,2,0,L|87:292,1,61.2900014963379,2|0,1:3|0:0,0:0:0:0:
20,206,190818,6,0,P|122:226|270:250,1,128.822498132608,2|0,1:0|0:0,0:0:0:0:
209,280,190972,5,0,0:0:0:0:
221,201,191126,1,0,0:0:0:0:
158,151,191280,1,0,0:0:0:0:
83,180,191433,1,0,0:0:0:0:
20,130,191587,1,0,0:0:0:0:
21,121,191663,1,0,0:0:0:0:
22,113,191740,1,0,0:0:0:0:
34,34,191895,1,0,0:0:0:0:
146,230,192049,5,0,1:0:0:0:
284,251,192203,1,0,1:0:0:0:
58,339,192356,1,0,1:0:0:0:
58,339,192664,5,0,1:0:0:0:
284,251,192817,1,0,1:0:0:0:
146,230,192971,1,0,1:0:0:0:
438,282,193280,5,2,1:0:0:0:
422,359,193433,1,0,1:0:0:0:
512,257,193587,5,0,1:0:0:0:
364,307,193741,1,0,1:0:0:0:
246,203,193895,1,0,1:0:0:0:
394,153,194049,1,0,1:0:0:0:
386,191,194126,1,0,1:0:0:0:
379,230,194203,1,0,1:0:0:0:
349,384,194356,1,0,1:0:0:0:
127,310,194510,6,0,P|154:308|182:309,1,55.0475013019352,0|0,3:0|0:0,0:0:0:0:
70,146,194664,2,0,P|58:170|44:194,1,55.0475013019352,0|0,3:0|0:0,0:0:0:0:
238,177,194818,2,0,P|224:153|212:129,1,55.0475013019352,0|0,3:0|0:0,0:0:0:0:
147,212,194972,5,0,3:0:0:0:
147,212,195049,5,0,0:0:0:0:
147,212,195126,6,0,B|147:188|147:188|169:188|169:212|169:212|169:234|147:234|147:234|123:234|123:212|123:212|123:188|147:188|147:188|147:212,1,196.922503455519,0|0,3:0|0:0,0:0:0:0:
306,251,195280,6,0,B|306:232|306:232|324:232|324:251|324:251|324:269|306:269|306:269|287:269|287:251|287:251|287:232|306:232|306:232|306:251,1,157.197505157084,0|0,3:0|0:0,0:0:0:0:
409,306,195433,6,0,B|409:292|409:292|422:292|422:306|422:306|422:319|409:319|409:319|395:319|395:306|395:306|395:292|409:292|409:292|409:306,1,117.472503271291,0|0,3:0|0:0,0:0:0:0:
477,369,195587,6,0,B|477:359|477:359|485:359|485:369|485:369|485:377|477:377|477:377|467:377|467:369|467:369|467:359|477:359|477:359|477:369,1,77.7475021947156,0|0,3:0|0:0,0:0:0:0:
